  0
SECTION
  2
HEADER
  9
$ACADVER
  1
AC1018
  9
$ACADMAINTVER
 70
   104
  9
$DWGCODEPAGE
  3
ANSI_932
  9
$LASTSAVEDBY
  1
poracon
  9
$INSBASE
 10
0.0
 20
0.0
 30
0.0
  9
$EXTMIN
 10
224.9162364249532
 20
-1158.755489623588
 30
-0.0015258207003583
  9
$EXTMAX
 10
2745.083777405185
 20
2405.438237666896
 30
0.0000000349246037
  9
$LIMMIN
 10
0.0
 20
0.0
  9
$LIMMAX
 10
2970.0
 20
2100.0
  9
$ORTHOMODE
 70
     1
  9
$REGENMODE
 70
     1
  9
$FILLMODE
 70
     1
  9
$QTEXTMODE
 70
     0
  9
$MIRRTEXT
 70
     1
  9
$LTSCALE
 40
60.0
  9
$ATTMODE
 70
     1
  9
$TEXTSIZE
 40
50.0
  9
$TRACEWID
 40
0.05
  9
$TEXTSTYLE
  7
BIGFONT
  9
$CLAYER
  8
NAZORI
  9
$CELTYPE
  6
BYLAYER
  9
$CECOLOR
 62
   256
  9
$CELTSCALE
 40
1.0
  9
$DISPSILH
 70
     0
  9
$DIMSCALE
 40
10.0
  9
$DIMASZ
 40
2.0
  9
$DIMEXO
 40
1.0
  9
$DIMDLI
 40
10.0
  9
$DIMRND
 40
0.0
  9
$DIMDLE
 40
0.0
  9
$DIMEXE
 40
1.0
  9
$DIMTP
 40
0.0
  9
$DIMTM
 40
0.0
  9
$DIMTXT
 40
3.0
  9
$DIMCEN
 40
0.0
  9
$DIMTSZ
 40
0.0
  9
$DIMTOL
 70
     0
  9
$DIMLIM
 70
     0
  9
$DIMTIH
 70
     0
  9
$DIMTOH
 70
     0
  9
$DIMSE1
 70
     0
  9
$DIMSE2
 70
     0
  9
$DIMTAD
 70
     1
  9
$DIMZIN
 70
     0
  9
$DIMBLK
  1
ARROW
  9
$DIMASO
 70
     1
  9
$DIMSHO
 70
     1
  9
$DIMPOST
  1

  9
$DIMAPOST
  1

  9
$DIMALT
 70
     0
  9
$DIMALTD
 70
     2
  9
$DIMALTF
 40
25.4
  9
$DIMLFAC
 40
1.0
  9
$DIMTOFL
 70
     0
  9
$DIMTVP
 40
0.0
  9
$DIMTIX
 70
     0
  9
$DIMSOXD
 70
     0
  9
$DIMSAH
 70
     1
  9
$DIMBLK1
  1
ARROW
  9
$DIMBLK2
  1
ARROW
  9
$DIMSTYLE
  2
DIA1
  9
$DIMCLRD
 70
     0
  9
$DIMCLRE
 70
     0
  9
$DIMCLRT
 70
     0
  9
$DIMTFAC
 40
1.0
  9
$DIMGAP
 40
1.0
  9
$DIMJUST
 70
     0
  9
$DIMSD1
 70
     0
  9
$DIMSD2
 70
     0
  9
$DIMTOLJ
 70
     1
  9
$DIMTZIN
 70
     0
  9
$DIMALTZ
 70
     0
  9
$DIMALTTZ
 70
     0
  9
$DIMUPT
 70
     0
  9
$DIMDEC
 70
     0
  9
$DIMTDEC
 70
     4
  9
$DIMALTU
 70
     2
  9
$DIMALTTD
 70
     2
  9
$DIMTXSTY
  7
BIGFONT
  9
$DIMAUNIT
 70
     0
  9
$DIMADEC
 70
     0
  9
$DIMALTRND
 40
0.0
  9
$DIMAZIN
 70
     0
  9
$DIMDSEP
 70
    46
  9
$DIMATFIT
 70
     3
  9
$DIMFRAC
 70
     0
  9
$DIMLDRBLK
  1
ARROW
  9
$DIMLUNIT
 70
     2
  9
$DIMLWD
 70
    -2
  9
$DIMLWE
 70
    -2
  9
$DIMTMOVE
 70
     0
  9
$LUNITS
 70
     2
  9
$LUPREC
 70
     1
  9
$SKETCHINC
 40
0.1
  9
$FILLETRAD
 40
0.0
  9
$AUNITS
 70
     1
  9
$AUPREC
 70
     2
  9
$MENU
  1
MASTERS
  9
$ELEVATION
 40
0.0
  9
$PELEVATION
 40
0.0
  9
$THICKNESS
 40
0.0
  9
$LIMCHECK
 70
     0
  9
$CHAMFERA
 40
0.0
  9
$CHAMFERB
 40
0.0
  9
$CHAMFERC
 40
0.0
  9
$CHAMFERD
 40
0.0
  9
$SKPOLY
 70
     0
  9
$TDCREATE
 40
2449337.661539352
  9
$TDUCREATE
 40
2449337.286539352
  9
$TDUPDATE
 40
2456936.911735891
  9
$TDUUPDATE
 40
2456936.536735891
  9
$TDINDWG
 40
0.0443930903
  9
$TDUSRTIMER
 40
0.0443930903
  9
$USRTIMER
 70
     1
  9
$ANGBASE
 50
0.0
  9
$ANGDIR
 70
     0
  9
$PDMODE
 70
     0
  9
$PDSIZE
 40
0.0
  9
$PLINEWID
 40
0.0
  9
$SPLFRAME
 70
     0
  9
$SPLINETYPE
 70
     6
  9
$SPLINESEGS
 70
     8
  9
$HANDSEED
  5
446
  9
$SURFTAB1
 70
     6
  9
$SURFTAB2
 70
     6
  9
$SURFTYPE
 70
     6
  9
$SURFU
 70
     6
  9
$SURFV
 70
     6
  9
$UCSBASE
  2

  9
$UCSNAME
  2

  9
$UCSORG
 10
0.0
 20
0.0
 30
0.0
  9
$UCSXDIR
 10
1.0
 20
0.0
 30
0.0
  9
$UCSYDIR
 10
0.0
 20
1.0
 30
0.0
  9
$UCSORTHOREF
  2

  9
$UCSORTHOVIEW
 70
     0
  9
$UCSORGTOP
 10
0.0
 20
0.0
 30
0.0
  9
$UCSORGBOTTOM
 10
0.0
 20
0.0
 30
0.0
  9
$UCSORGLEFT
 10
0.0
 20
0.0
 30
0.0
  9
$UCSORGRIGHT
 10
0.0
 20
0.0
 30
0.0
  9
$UCSORGFRONT
 10
0.0
 20
0.0
 30
0.0
  9
$UCSORGBACK
 10
0.0
 20
0.0
 30
0.0
  9
$PUCSBASE
  2

  9
$PUCSNAME
  2

  9
$PUCSORG
 10
0.0
 20
0.0
 30
0.0
  9
$PUCSXDIR
 10
1.0
 20
0.0
 30
0.0
  9
$PUCSYDIR
 10
0.0
 20
1.0
 30
0.0
  9
$PUCSORTHOREF
  2

  9
$PUCSORTHOVIEW
 70
     0
  9
$PUCSORGTOP
 10
0.0
 20
0.0
 30
0.0
  9
$PUCSORGBOTTOM
 10
0.0
 20
0.0
 30
0.0
  9
$PUCSORGLEFT
 10
0.0
 20
0.0
 30
0.0
  9
$PUCSORGRIGHT
 10
0.0
 20
0.0
 30
0.0
  9
$PUCSORGFRONT
 10
0.0
 20
0.0
 30
0.0
  9
$PUCSORGBACK
 10
0.0
 20
0.0
 30
0.0
  9
$USERI1
 70
     0
  9
$USERI2
 70
     0
  9
$USERI3
 70
     0
  9
$USERI4
 70
     0
  9
$USERI5
 70
     0
  9
$USERR1
 40
0.0
  9
$USERR2
 40
0.0
  9
$USERR3
 40
0.0
  9
$USERR4
 40
0.0
  9
$USERR5
 40
0.0
  9
$WORLDVIEW
 70
     1
  9
$SHADEDGE
 70
     3
  9
$SHADEDIF
 70
    70
  9
$TILEMODE
 70
     1
  9
$MAXACTVP
 70
    16
  9
$PINSBASE
 10
0.0
 20
0.0
 30
0.0
  9
$PLIMCHECK
 70
     0
  9
$PEXTMIN
 10
1.000000000000000E+20
 20
1.000000000000000E+20
 30
1.000000000000000E+20
  9
$PEXTMAX
 10
-1.000000000000000E+20
 20
-1.000000000000000E+20
 30
-1.000000000000000E+20
  9
$PLIMMIN
 10
0.0
 20
0.0
  9
$PLIMMAX
 10
12.0
 20
9.0
  9
$UNITMODE
 70
     0
  9
$VISRETAIN
 70
     0
  9
$PLINEGEN
 70
     0
  9
$PSLTSCALE
 70
     1
  9
$TREEDEPTH
 70
  3020
  9
$CMLSTYLE
  2
STANDARD
  9
$CMLJUST
 70
     0
  9
$CMLSCALE
 40
1.0
  9
$PROXYGRAPHICS
 70
     1
  9
$MEASUREMENT
 70
     0
  9
$CELWEIGHT
370
    -1
  9
$ENDCAPS
280
     0
  9
$JOINSTYLE
280
     0
  9
$LWDISPLAY
290
     0
  9
$INSUNITS
 70
     0
  9
$HYPERLINKBASE
  1

  9
$STYLESHEET
  1

  9
$XEDIT
290
     1
  9
$CEPSNTYPE
380
     0
  9
$PSTYLEMODE
290
     1
  9
$FINGERPRINTGUID
  2
{241947D8-10E5-11D6-BA8D-8D48D945A249}
  9
$VERSIONGUID
  2
{40756F93-6143-4C51-B19E-D67B69BDBE2F}
  9
$EXTNAMES
290
     1
  9
$PSVPSCALE
 40
0.0
  9
$OLESTARTUP
290
     0
  9
$SORTENTS
280
    96
  9
$INDEXCTL
280
     0
  9
$HIDETEXT
280
     0
  9
$XCLIPFRAME
290
     0
  9
$HALOGAP
280
     0
  9
$OBSCOLOR
 70
   257
  9
$OBSLTYPE
280
     0
  9
$INTERSECTIONDISPLAY
280
     0
  9
$INTERSECTIONCOLOR
 70
   257
  9
$DIMASSOC
280
     1
  9
$PROJECTNAME
  1

  0
ENDSEC
  0
SECTION
  2
CLASSES
  0
CLASS
  1
ACDBDICTIONARYWDFLT
  2
AcDbDictionaryWithDefault
  3
ObjectDBX Classes
 90
        0
 91
        1
280
     0
281
     0
  0
CLASS
  1
DICTIONARYVAR
  2
AcDbDictionaryVar
  3
ObjectDBX Classes
 90
        0
 91
        6
280
     0
281
     0
  0
CLASS
  1
MATERIAL
  2
AcDbMaterial
  3
ObjectDBX Classes
 90
     1153
 91
        3
280
     0
281
     0
  0
CLASS
  1
VISUALSTYLE
  2
AcDbVisualStyle
  3
ObjectDBX Classes
 90
     4095
 91
       16
280
     0
281
     0
  0
CLASS
  1
TABLESTYLE
  2
AcDbTableStyle
  3
ObjectDBX Classes
 90
     4095
 91
        1
280
     0
281
     0
  0
CLASS
  1
SCALE
  2
AcDbScale
  3
ObjectDBX Classes
 90
     1153
 91
       33
280
     0
281
     0
  0
CLASS
  1
MLEADERSTYLE
  2
AcDbMLeaderStyle
  3
ACDB_MLEADERSTYLE_CLASS
 90
     4095
 91
        1
280
     0
281
     0
  0
CLASS
  1
SORTENTSTABLE
  2
AcDbSortentsTable
  3
ObjectDBX Classes
 90
        0
 91
        2
280
     0
281
     0
  0
CLASS
  1
CELLSTYLEMAP
  2
AcDbCellStyleMap
  3
ObjectDBX Classes
 90
     1152
 91
        3
280
     0
281
     0
  0
ENDSEC
  0
SECTION
  2
TABLES
  0
TABLE
  2
VPORT
  5
8
330
0
100
AcDbSymbolTable
 70
     1
  0
VPORT
  5
331
330
8
100
AcDbSymbolTableRecord
100
AcDbViewportTableRecord
  2
*Active
 70
     0
 10
0.0
 20
0.0
 11
1.0
 21
1.0
 12
1485.0
 22
623.3413740216538
 13
0.0
 23
0.0
 14
1.0
 24
1.0
 15
0.0
 25
0.0
 16
0.0
 26
0.0
 36
1.0
 17
0.0
 27
0.0
 37
0.0
 40
3592.518445653058
 41
1.669761273209549
 42
50.0
 43
0.0
 44
0.0
 50
0.0
 51
0.0
 71
     0
 72
   100
 73
     1
 74
     1
 75
     0
 76
     0
 77
     0
 78
     0
281
     0
 65
     1
110
0.0
120
0.0
130
0.0
111
1.0
121
0.0
131
0.0
112
0.0
122
1.0
132
0.0
 79
     0
146
0.0
  0
ENDTAB
  0
TABLE
  2
LTYPE
  5
5
330
0
100
AcDbSymbolTable
 70
    26
  0
LTYPE
  5
12
330
5
100
AcDbSymbolTableRecord
100
AcDbLinetypeTableRecord
  2
BYBLOCK
 70
     0
  3

 72
    65
 73
     0
 40
0.0
  0
LTYPE
  5
13
330
5
100
AcDbSymbolTableRecord
100
AcDbLinetypeTableRecord
  2
BYLAYER
 70
     0
  3

 72
    65
 73
     0
 40
0.0
  0
LTYPE
  5
14
330
5
100
AcDbSymbolTableRecord
100
AcDbLinetypeTableRecord
  2
CONTINUOUS
 70
     0
  3
Solid line
 72
    65
 73
     0
 40
0.0
  0
LTYPE
  5
2E
330
5
100
AcDbSymbolTableRecord
100
AcDbLinetypeTableRecord
  2
BORDER
 70
     0
  3
__ __ . __ __ . __ __ . __ __ . __ __ . __ __ .
 72
    65
 73
     6
 40
1.75
 49
0.5
 74
     0
 49
-0.25
 74
     0
 49
0.5
 74
     0
 49
-0.25
 74
     0
 49
0.0
 74
     0
 49
-0.25
 74
     0
  0
LTYPE
  5
2F
330
5
100
AcDbSymbolTableRecord
100
AcDbLinetypeTableRecord
  2
BORDER2
 70
     0
  3
__.__.__.__.__.__.__.__.__.__.__.__.__.__.__.__
 72
    65
 73
     6
 40
0.875
 49
0.25
 74
     0
 49
-0.125
 74
     0
 49
0.25
 74
     0
 49
-0.125
 74
     0
 49
0.0
 74
     0
 49
-0.125
 74
     0
  0
LTYPE
  5
30
330
5
100
AcDbSymbolTableRecord
100
AcDbLinetypeTableRecord
  2
BORDERX2
 70
     0
  3
____  ____  .  ____  ____  .  ____  ____  .  __
 72
    65
 73
     6
 40
3.5
 49
1.0
 74
     0
 49
-0.5
 74
     0
 49
1.0
 74
     0
 49
-0.5
 74
     0
 49
0.0
 74
     0
 49
-0.5
 74
     0
  0
LTYPE
  5
31
330
5
100
AcDbSymbolTableRecord
100
AcDbLinetypeTableRecord
  2
CENTER
 70
     0
  3
____ _ ____ _ ____ _ ____ _ ____ _ ____ _ ____ 
 72
    65
 73
     4
 40
2.0
 49
1.25
 74
     0
 49
-0.25
 74
     0
 49
0.25
 74
     0
 49
-0.25
 74
     0
  0
LTYPE
  5
32
330
5
100
AcDbSymbolTableRecord
100
AcDbLinetypeTableRecord
  2
CENTER2
 70
     0
  3
___ _ ___ _ ___ _ ___ _ ___ _ ___ _ ___ _ ___ _
 72
    65
 73
     4
 40
1.125
 49
0.75
 74
     0
 49
-0.125
 74
     0
 49
0.125
 74
     0
 49
-0.125
 74
     0
  0
LTYPE
  5
33
330
5
100
AcDbSymbolTableRecord
100
AcDbLinetypeTableRecord
  2
CENTERX2
 70
     0
  3
________  __  ________  __  ________  __  _____
 72
    65
 73
     4
 40
4.0
 49
2.5
 74
     0
 49
-0.5
 74
     0
 49
0.5
 74
     0
 49
-0.5
 74
     0
  0
LTYPE
  5
34
330
5
100
AcDbSymbolTableRecord
100
AcDbLinetypeTableRecord
  2
DASHDOT
 70
     0
  3
__ . __ . __ . __ . __ . __ . __ . __ . __ . __
 72
    65
 73
     4
 40
1.0
 49
0.5
 74
     0
 49
-0.25
 74
     0
 49
0.0
 74
     0
 49
-0.25
 74
     0
  0
LTYPE
  5
35
330
5
100
AcDbSymbolTableRecord
100
AcDbLinetypeTableRecord
  2
DASHDOT2
 70
     0
  3
_._._._._._._._._._._._._._._._._._._._._._._._
 72
    65
 73
     4
 40
0.5
 49
0.25
 74
     0
 49
-0.125
 74
     0
 49
0.0
 74
     0
 49
-0.125
 74
     0
  0
LTYPE
  5
36
330
5
100
AcDbSymbolTableRecord
100
AcDbLinetypeTableRecord
  2
DASHDOTX2
 70
     0
  3
____  .  ____  .  ____  .  ____  .  ____  .  __
 72
    65
 73
     4
 40
2.0
 49
1.0
 74
     0
 49
-0.5
 74
     0
 49
0.0
 74
     0
 49
-0.5
 74
     0
  0
LTYPE
  5
37
330
5
100
AcDbSymbolTableRecord
100
AcDbLinetypeTableRecord
  2
DASHED
 70
     0
  3
__ __ __ __ __ __ __ __ __ __ __ __ __ __ __ __
 72
    65
 73
     2
 40
0.75
 49
0.5
 74
     0
 49
-0.25
 74
     0
  0
LTYPE
  5
38
330
5
100
AcDbSymbolTableRecord
100
AcDbLinetypeTableRecord
  2
DASHED2
 70
     0
  3
_ _ _ _ _ _ _ _ _ _ _ _ _ _ _ _ _ _ _ _ _ _ _ _
 72
    65
 73
     2
 40
0.375
 49
0.25
 74
     0
 49
-0.125
 74
     0
  0
LTYPE
  5
39
330
5
100
AcDbSymbolTableRecord
100
AcDbLinetypeTableRecord
  2
DASHEDX2
 70
     0
  3
____  ____  ____  ____  ____  ____  ____  ____ 
 72
    65
 73
     2
 40
1.5
 49
1.0
 74
     0
 49
-0.5
 74
     0
  0
LTYPE
  5
3A
330
5
100
AcDbSymbolTableRecord
100
AcDbLinetypeTableRecord
  2
DIVIDE
 70
     0
  3
____ . . ____ . . ____ . . ____ . . ____ . . __
 72
    65
 73
     6
 40
1.25
 49
0.5
 74
     0
 49
-0.25
 74
     0
 49
0.0
 74
     0
 49
-0.25
 74
     0
 49
0.0
 74
     0
 49
-0.25
 74
     0
  0
LTYPE
  5
3B
330
5
100
AcDbSymbolTableRecord
100
AcDbLinetypeTableRecord
  2
DIVIDE2
 70
     0
  3
__..__..__..__..__..__..__..__..__..__..__..__.
 72
    65
 73
     6
 40
0.625
 49
0.25
 74
     0
 49
-0.125
 74
     0
 49
0.0
 74
     0
 49
-0.125
 74
     0
 49
0.0
 74
     0
 49
-0.125
 74
     0
  0
LTYPE
  5
3C
330
5
100
AcDbSymbolTableRecord
100
AcDbLinetypeTableRecord
  2
DIVIDEX2
 70
     0
  3
________  .  .  ________  .  .  ________  .  . 
 72
    65
 73
     6
 40
2.5
 49
1.0
 74
     0
 49
-0.5
 74
     0
 49
0.0
 74
     0
 49
-0.5
 74
     0
 49
0.0
 74
     0
 49
-0.5
 74
     0
  0
LTYPE
  5
3D
330
5
100
AcDbSymbolTableRecord
100
AcDbLinetypeTableRecord
  2
DOT
 70
     0
  3
. . . . . . . . . . . . . . . . . . . . . . . .
 72
    65
 73
     2
 40
0.25
 49
0.0
 74
     0
 49
-0.25
 74
     0
  0
LTYPE
  5
3E
330
5
100
AcDbSymbolTableRecord
100
AcDbLinetypeTableRecord
  2
DOT2
 70
     0
  3
...............................................
 72
    65
 73
     2
 40
0.125
 49
0.0
 74
     0
 49
-0.125
 74
     0
  0
LTYPE
  5
3F
330
5
100
AcDbSymbolTableRecord
100
AcDbLinetypeTableRecord
  2
DOTX2
 70
     0
  3
.  .  .  .  .  .  .  .  .  .  .  .  .  .  .  . 
 72
    65
 73
     2
 40
0.5
 49
0.0
 74
     0
 49
-0.5
 74
     0
  0
LTYPE
  5
40
330
5
100
AcDbSymbolTableRecord
100
AcDbLinetypeTableRecord
  2
HIDDEN
 70
     0
  3
__ __ __ __ __ __ __ __ __ __ __ __ __ __ __ __
 72
    65
 73
     2
 40
0.375
 49
0.25
 74
     0
 49
-0.125
 74
     0
  0
LTYPE
  5
41
330
5
100
AcDbSymbolTableRecord
100
AcDbLinetypeTableRecord
  2
HIDDEN2
 70
     0
  3
_ _ _ _ _ _ _ _ _ _ _ _ _ _ _ _ _ _ _ _ _ _ _ _
 72
    65
 73
     2
 40
0.1875
 49
0.125
 74
     0
 49
-0.0625
 74
     0
  0
LTYPE
  5
42
330
5
100
AcDbSymbolTableRecord
100
AcDbLinetypeTableRecord
  2
HIDDENX2
 70
     0
  3
____ ____ ____ ____ ____ ____ ____ ____ ____ __
 72
    65
 73
     2
 40
0.75
 49
0.5
 74
     0
 49
-0.25
 74
     0
  0
LTYPE
  5
43
330
5
100
AcDbSymbolTableRecord
100
AcDbLinetypeTableRecord
  2
PHANTOM
 70
     0
  3
______  __  __  ______  __  __  ______  __  __ 
 72
    65
 73
     6
 40
2.5
 49
1.25
 74
     0
 49
-0.25
 74
     0
 49
0.25
 74
     0
 49
-0.25
 74
     0
 49
0.25
 74
     0
 49
-0.25
 74
     0
  0
LTYPE
  5
44
330
5
100
AcDbSymbolTableRecord
100
AcDbLinetypeTableRecord
  2
PHANTOM2
 70
     0
  3
___ _ _ ___ _ _ ___ _ _ ___ _ _ ___ _ _ ___ _ _
 72
    65
 73
     6
 40
1.25
 49
0.625
 74
     0
 49
-0.125
 74
     0
 49
0.125
 74
     0
 49
-0.125
 74
     0
 49
0.125
 74
     0
 49
-0.125
 74
     0
  0
LTYPE
  5
45
330
5
100
AcDbSymbolTableRecord
100
AcDbLinetypeTableRecord
  2
PHANTOMX2
 70
     0
  3
____________    ____    ____    ____________   
 72
    65
 73
     6
 40
5.0
 49
2.5
 74
     0
 49
-0.5
 74
     0
 49
0.5
 74
     0
 49
-0.5
 74
     0
 49
0.5
 74
     0
 49
-0.5
 74
     0
  0
ENDTAB
  0
TABLE
  2
LAYER
  5
2
330
0
100
AcDbSymbolTable
 70
     6
  0
LAYER
  5
F
102
{ACAD_XDICTIONARY
360
40E
102
}
330
2
100
AcDbSymbolTableRecord
100
AcDbLayerTableRecord
  2
0
 70
     0
 62
     7
  6
CONTINUOUS
370
    -3
390
2CF
  0
LAYER
  5
49
102
{ACAD_XDICTIONARY
360
410
102
}
330
2
100
AcDbSymbolTableRecord
100
AcDbLayerTableRecord
  2
SUNPOU
 70
     0
 62
     3
  6
CONTINUOUS
370
    -3
390
2CF
  0
LAYER
  5
4D
102
{ACAD_XDICTIONARY
360
412
102
}
330
2
100
AcDbSymbolTableRecord
100
AcDbLayerTableRecord
  2
CT2
 70
     0
 62
     1
  6
CENTER2
370
    -3
390
2CF
  0
LAYER
  5
4E
102
{ACAD_XDICTIONARY
360
414
102
}
330
2
100
AcDbSymbolTableRecord
100
AcDbLayerTableRecord
  2
KL
 70
     0
 62
     5
  6
HIDDEN
370
    -3
390
2CF
  0
LAYER
  5
4F
102
{ACAD_XDICTIONARY
360
416
102
}
330
2
100
AcDbSymbolTableRecord
100
AcDbLayerTableRecord
  2
NAZORI
 70
     0
 62
     4
  6
CONTINUOUS
370
    -3
390
2CF
  0
LAYER
  5
50
330
2
100
AcDbSymbolTableRecord
100
AcDbLayerTableRecord
  2
DEFPOINTS
 70
     0
 62
     7
  6
CONTINUOUS
290
     0
370
    -3
390
2CF
  0
ENDTAB
  0
TABLE
  2
STYLE
  5
3
330
0
100
AcDbSymbolTable
 70
     2
  0
STYLE
  5
10
330
3
100
AcDbSymbolTableRecord
100
AcDbTextStyleTableRecord
  2
STANDARD
 70
     0
 40
0.0
 41
1.0
 50
0.0
 71
     0
 42
0.2
  3
txt
  4

  0
STYLE
  5
2D
330
3
100
AcDbSymbolTableRecord
100
AcDbTextStyleTableRecord
  2
BIGFONT
 70
     0
 40
0.0
 41
1.0
 50
0.0
 71
     0
 42
50.0
  3
simplex
  4
extfont
  0
ENDTAB
  0
TABLE
  2
VIEW
  5
6
330
0
100
AcDbSymbolTable
 70
     0
  0
ENDTAB
  0
TABLE
  2
UCS
  5
7
330
0
100
AcDbSymbolTable
 70
     0
  0
ENDTAB
  0
TABLE
  2
APPID
  5
9
330
0
100
AcDbSymbolTable
 70
     3
  0
APPID
  5
11
330
9
100
AcDbSymbolTableRecord
100
AcDbRegAppTableRecord
  2
ACAD
 70
     0
  0
APPID
  5
384
330
9
100
AcDbSymbolTableRecord
100
AcDbRegAppTableRecord
  2
ACAD_MLEADERVER
 70
     0
  0
APPID
  5
437
330
9
100
AcDbSymbolTableRecord
100
AcDbRegAppTableRecord
  2
ACAD_EXEMPT_FROM_CAD_STANDARDS
 70
     0
  0
ENDTAB
  0
TABLE
  2
DIMSTYLE
  5
A
330
0
100
AcDbSymbolTable
 70
     5
100
AcDbDimStyleTable
 71
     1
340
2CA
  0
DIMSTYLE
105
2C5
330
A
100
AcDbSymbolTableRecord
100
AcDbDimStyleTableRecord
  2
STANDARD
 70
     0
340
10
  0
DIMSTYLE
105
2CA
102
{ACAD_REACTORS
330
2AC
330
2AD
330
2AE
330
2AF
102
}
330
A
100
AcDbSymbolTableRecord
100
AcDbDimStyleTableRecord
  2
DIA1
 70
     0
 40
10.0
 41
2.0
 42
1.0
 43
10.0
 44
1.0
 73
     0
 74
     0
 77
     1
140
3.0
141
0.0
147
1.0
271
     0
340
2D
341
20
342
20
  0
DIMSTYLE
105
2FA
330
A
100
AcDbSymbolTableRecord
100
AcDbDimStyleTableRecord
  2
DIM1
 70
     0
 40
10.0
 41
2.0
 42
1.0
 43
2.0
 44
0.0
 73
     0
 74
     0
 77
     1
140
2.5
141
0.0
147
1.0
172
     1
271
     0
279
     2
288
     1
340
2D
  0
DIMSTYLE
105
42D
330
A
100
AcDbSymbolTableRecord
100
AcDbDimStyleTableRecord
  2
P1
 70
     0
 40
10.0
 41
2.0
 42
1.0
 43
10.0
 44
1.0
 73
     0
 74
     0
 77
     1
140
3.0
141
0.0
147
1.0
172
     1
173
     1
176
   256
177
   256
178
   256
271
     0
272
     0
279
     2
340
2D
341
20
343
20
344
20
371
    -1
372
    -1
  0
ENDTAB
  0
TABLE
  2
BLOCK_RECORD
  5
1
330
0
100
AcDbSymbolTable
 70
    16
  0
BLOCK_RECORD
  5
18
102
{ACAD_XDICTIONARY
360
389
102
}
330
1
100
AcDbSymbolTableRecord
100
AcDbBlockTableRecord
  2
*MODEL_SPACE
340
2D2
  0
BLOCK_RECORD
  5
15
330
1
100
AcDbSymbolTableRecord
100
AcDbBlockTableRecord
  2
*PAPER_SPACE
340
2D3
  0
BLOCK_RECORD
  5
1C
330
1
100
AcDbSymbolTableRecord
100
AcDbBlockTableRecord
  2
SYASEN
340
0
  0
BLOCK_RECORD
  5
1D
330
1
100
AcDbSymbolTableRecord
100
AcDbBlockTableRecord
  2
YA2
340
0
  0
BLOCK_RECORD
  5
1E
330
1
100
AcDbSymbolTableRecord
100
AcDbBlockTableRecord
  2
YA_N
340
0
102
{BLKREFS
331
281
102
}
  0
BLOCK_RECORD
  5
1F
330
1
100
AcDbSymbolTableRecord
100
AcDbBlockTableRecord
  2
DOT
340
0
  0
BLOCK_RECORD
  5
20
330
1
100
AcDbSymbolTableRecord
100
AcDbBlockTableRecord
  2
ARROW
340
0
102
{BLKREFS
331
28F
331
296
331
29D
331
2A4
331
75
331
76
331
305
331
306
331
329
331
32A
331
398
331
399
331
3A2
331
3A3
102
}
  0
BLOCK_RECORD
  5
21
330
1
100
AcDbSymbolTableRecord
100
AcDbBlockTableRecord
  2
YA3
340
0
  0
BLOCK_RECORD
  5
22
330
1
100
AcDbSymbolTableRecord
100
AcDbBlockTableRecord
  2
BORDER
340
0
  0
BLOCK_RECORD
  5
23
330
1
100
AcDbSymbolTableRecord
100
AcDbBlockTableRecord
  2
*D7
340
0
  0
BLOCK_RECORD
  5
2C
330
1
100
AcDbSymbolTableRecord
100
AcDbBlockTableRecord
  2
*X9
340
0
102
{BLKREFS
331
2C4
102
}
  0
BLOCK_RECORD
  5
301
330
1
100
AcDbSymbolTableRecord
100
AcDbBlockTableRecord
  2
*D10
340
0
  0
BLOCK_RECORD
  5
30D
330
1
100
AcDbSymbolTableRecord
100
AcDbBlockTableRecord
  2
*D11
340
0
  0
BLOCK_RECORD
  5
319
330
1
100
AcDbSymbolTableRecord
100
AcDbBlockTableRecord
  2
*D12
340
0
  0
BLOCK_RECORD
  5
325
330
1
100
AcDbSymbolTableRecord
100
AcDbBlockTableRecord
  2
*D13
340
0
  0
ENDTAB
  0
ENDSEC
  0
SECTION
  2
BLOCKS
  0
BLOCK
  5
53
330
18
100
AcDbEntity
  8
0
100
AcDbBlockBegin
  2
*MODEL_SPACE
 70
     0
 10
0.0
 20
0.0
 30
0.0
  3
*MODEL_SPACE
  1

  0
ENDBLK
  5
54
330
18
100
AcDbEntity
  8
0
100
AcDbBlockEnd
  0
BLOCK
  5
51
330
15
100
AcDbEntity
 67
     1
  8
0
100
AcDbBlockBegin
  2
*PAPER_SPACE
 70
     0
 10
0.0
 20
0.0
 30
0.0
  3
*PAPER_SPACE
  1

  0
ENDBLK
  5
52
330
15
100
AcDbEntity
 67
     1
  8
0
100
AcDbBlockEnd
  0
BLOCK
  5
55
330
1C
100
AcDbEntity
  8
0
100
AcDbBlockBegin
  2
SYASEN
 70
     0
 10
0.0
 20
0.0
 30
0.0
  3
SYASEN
  1

  0
LINE
  5
56
330
1C
100
AcDbEntity
  8
0
100
AcDbLine
 10
0.0
 20
0.0
 30
0.0
 11
-1.0
 21
0.0
 31
0.0
  0
LINE
  5
57
330
1C
100
AcDbEntity
  8
0
100
AcDbLine
 10
0.5
 20
0.5
 30
0.0
 11
-0.5
 21
-0.5
 31
0.0
  0
ENDBLK
  5
58
330
1C
100
AcDbEntity
  8
0
100
AcDbBlockEnd
  0
BLOCK
  5
59
330
1D
100
AcDbEntity
  8
0
100
AcDbBlockBegin
  2
YA2
 70
     0
 10
0.0
 20
0.0
 30
0.0
  3
YA2
  1

  0
LINE
  5
5A
330
1D
100
AcDbEntity
  8
0
100
AcDbLine
 10
-1.0
 20
0.0
 30
0.0
 11
0.0
 21
0.0
 31
0.0
  0
ENDBLK
  5
5B
330
1D
100
AcDbEntity
  8
0
100
AcDbBlockEnd
  0
BLOCK
  5
5C
330
1E
100
AcDbEntity
  8
0
100
AcDbBlockBegin
  2
YA_N
 70
     0
 10
0.0
 20
0.0
 30
0.0
  3
YA_N
  1

  0
ENDBLK
  5
5D
330
1E
100
AcDbEntity
  8
0
100
AcDbBlockEnd
  0
BLOCK
  5
5E
330
1F
100
AcDbEntity
  8
0
100
AcDbBlockBegin
  2
DOT
 70
     0
 10
0.0
 20
0.0
 30
0.0
  3
DOT
  1

  0
LWPOLYLINE
  5
5F
330
1F
100
AcDbEntity
  8
0
100
AcDbPolyline
 90
        2
 70
     1
 43
0.25
 10
-0.125
 20
0.0
 42
1.0
 10
0.125
 20
0.0
 42
1.0
  0
LINE
  5
63
330
1F
100
AcDbEntity
  8
0
100
AcDbLine
 10
-1.0
 20
0.0
 30
0.0
 11
-0.25
 21
0.0
 31
0.0
  0
ENDBLK
  5
64
330
1F
100
AcDbEntity
  8
0
100
AcDbBlockEnd
  0
BLOCK
  5
65
330
20
100
AcDbEntity
  8
0
100
AcDbBlockBegin
  2
ARROW
 70
     0
 10
0.0
 20
0.0
 30
0.0
  3
ARROW
  1

  0
LINE
  5
66
330
20
100
AcDbEntity
  8
0
100
AcDbLine
 10
-0.9999999999999991
 20
0.1666666667000003
 30
0.0
 11
0.0
 21
0.0
 31
0.0
  0
LINE
  5
67
330
20
100
AcDbEntity
  8
0
100
AcDbLine
 10
-0.9999999999999991
 20
0.0
 30
0.0
 11
0.0
 21
0.0
 31
0.0
  0
LINE
  5
68
330
20
100
AcDbEntity
  8
0
100
AcDbLine
 10
-0.9999999999999991
 20
-0.1666666667000003
 30
0.0
 11
0.0
 21
0.0
 31
0.0
  0
ENDBLK
  5
69
330
20
100
AcDbEntity
  8
0
100
AcDbBlockEnd
  0
BLOCK
  5
6A
330
21
100
AcDbEntity
  8
0
100
AcDbBlockBegin
  2
YA3
 70
     0
 10
0.0
 20
0.0
 30
0.0
  3
YA3
  1

  0
SOLID
  5
6B
330
21
100
AcDbEntity
  8
0
100
AcDbTrace
 10
1.0
 20
-0.1666666666666665
 30
0.0
 11
1.0
 21
0.166666666666667
 31
0.0
 12
0.0
 22
0.0
 32
0.0
 13
0.0
 23
0.0
 33
0.0
  0
ENDBLK
  5
6C
330
21
100
AcDbEntity
  8
0
100
AcDbBlockEnd
  0
BLOCK
  5
6D
330
22
100
AcDbEntity
  8
0
100
AcDbBlockBegin
  2
BORDER
 70
     0
 10
0.0
 20
0.0
 30
0.0
  3
BORDER
  1

  0
LINE
  5
6E
330
22
100
AcDbEntity
  8
0
100
AcDbLine
 10
0.0
 20
0.0
 30
0.0
 11
1.00000000000004
 21
0.0
 31
0.0
  0
LINE
  5
6F
330
22
100
AcDbEntity
  8
0
100
AcDbLine
 10
1.00000000000004
 20
0.0
 30
0.0
 11
1.00000000000004
 21
1.00000000000004
 31
0.0
  0
LINE
  5
70
330
22
100
AcDbEntity
  8
0
100
AcDbLine
 10
1.00000000000004
 20
1.00000000000004
 30
0.0
 11
0.0
 21
1.00000000000004
 31
0.0
  0
LINE
  5
71
330
22
100
AcDbEntity
  8
0
100
AcDbLine
 10
0.0
 20
1.00000000000004
 30
0.0
 11
0.0
 21
0.0
 31
0.0
  0
ENDBLK
  5
72
330
22
100
AcDbEntity
  8
0
100
AcDbBlockEnd
  0
BLOCK
  5
73
330
23
100
AcDbEntity
  8
0
100
AcDbBlockBegin
  2
*D7
 70
     1
 10
0.0
 20
0.0
 30
0.0
  3
*D7
  1

  0
LINE
  5
74
330
23
100
AcDbEntity
  8
0
  6
ByBlock
 62
     0
100
AcDbLine
 10
1441.287415066784
 20
806.6202169202924
 30
0.0
 11
1528.712584933335
 21
873.3797830797918
 31
0.0
  0
INSERT
  5
75
330
23
100
AcDbEntity
  8
0
  6
ByBlock
 62
     0
100
AcDbBlockReference
  2
ARROW
 10
1425.391929636501
 20
794.4821139822018
 30
0.0
 41
20.0
 42
20.0
 43
20.0
 50
217.3660597789129
  0
INSERT
  5
76
330
23
100
AcDbEntity
  8
0
  6
ByBlock
 62
     0
100
AcDbBlockReference
  2
ARROW
 10
1544.608070363617
 20
885.5178860178826
 30
0.0
 41
20.0
 42
20.0
 43
20.0
 50
37.36605977891283
  0
TEXT
  5
77
330
23
100
AcDbEntity
  8
0
  6
ByBlock
 62
     0
100
AcDbText
 10
1436.72540512901
 20
822.0098604038872
 30
0.0
 40
30.0
  1
%%c150
 50
37.36605977891283
  7
BIGFONT
 72
     1
 11
1466.792845592923
 21
863.8432281454655
 31
0.0
100
AcDbText
 73
     2
  0
POINT
  5
78
330
23
100
AcDbEntity
  8
DEFPOINTS
  6
ByBlock
 62
     0
100
AcDbPoint
 10
1425.391929636501
 20
794.4821139822018
 30
0.0
  0
POINT
  5
79
330
23
100
AcDbEntity
  8
DEFPOINTS
  6
ByBlock
 62
     0
100
AcDbPoint
 10
1544.608070363617
 20
885.5178860178826
 30
0.0
  0
ENDBLK
  5
7A
330
23
100
AcDbEntity
  8
0
100
AcDbBlockEnd
  0
BLOCK
  5
216
330
2C
100
AcDbEntity
  8
0
100
AcDbBlockBegin
  2
*X9
 70
     1
 10
0.0
 20
0.0
 30
0.0
  3
*X9
  1

  0
LINE
  5
217
330
2C
100
AcDbEntity
  8
0
 62
     0
100
AcDbLine
 10
1397.195766384843
 20
846.0605766670305
 30
0.0
 11
1398.099609992551
 21
846.964420274738
 31
0.0
  0
LINE
  5
218
330
2C
100
AcDbEntity
  8
0
 62
     0
100
AcDbLine
 10
1468.810288111205
 20
917.6750983933926
 30
0.0
 11
1474.478611632856
 21
923.3434219150431
 31
0.0
  0
LINE
  5
219
330
2C
100
AcDbEntity
  8
0
 62
     0
100
AcDbLine
 10
1394.864371962219
 20
859.0384930699013
 30
0.0
 11
1403.703206727051
 21
867.8773278347332
 31
0.0
  0
LINE
  5
21A
330
2C
100
AcDbEntity
  8
0
 62
     0
100
AcDbLine
 10
1421.380876256715
 20
885.5549973643968
 30
0.0
 11
1430.219711021546
 21
894.3938321292288
 31
0.0
  0
LINE
  5
21B
330
2C
100
AcDbEntity
  8
0
 62
     0
100
AcDbLine
 10
1447.89738055121
 20
912.0715016588924
 30
0.0
 11
1456.736215316042
 21
920.9103364237243
 31
0.0
  0
LINE
  5
21C
330
2C
100
AcDbEntity
  8
0
 62
     0
100
AcDbLine
 10
1474.413884845706
 20
938.588005953388
 30
0.0
 11
1474.922325019208
 21
939.0964461268904
 31
0.0
  0
LINE
  5
21D
330
2C
100
AcDbEntity
  8
0
 62
     0
100
AcDbLine
 10
1376.111003367454
 20
855.5944353006308
 30
0.0
 11
1382.790299167056
 21
862.2737311002328
 31
0.0
  0
LINE
  5
21E
330
2C
100
AcDbEntity
  8
0
 62
     0
100
AcDbLine
 10
1400.46796869672
 20
879.9514006298965
 30
0.0
 11
1409.306803461551
 21
888.7902353947284
 31
0.0
  0
LINE
  5
21F
330
2C
100
AcDbEntity
  8
0
 62
     0
100
AcDbLine
 10
1426.984472991215
 20
906.467904924392
 30
0.0
 11
1435.823307756047
 21
915.306739689224
 31
0.0
  0
LINE
  5
220
330
2C
100
AcDbEntity
  8
0
 62
     0
100
AcDbLine
 10
1453.500977285711
 20
932.9844092188876
 30
0.0
 11
1462.339812050542
 21
941.8232439837195
 31
0.0
  0
LINE
  5
221
330
2C
100
AcDbEntity
  8
0
 62
     0
100
AcDbLine
 10
1380.978897588798
 20
875.7716403474701
 30
0.0
 11
1388.393895901556
 21
883.1866386602282
 31
0.0
  0
LINE
  5
222
330
2C
100
AcDbEntity
  8
0
 62
     0
100
AcDbLine
 10
1406.07156543122
 20
900.8643081898918
 30
0.0
 11
1414.910400196052
 21
909.7031429547238
 31
0.0
  0
LINE
  5
223
330
2C
100
AcDbEntity
  8
0
 62
     0
100
AcDbLine
 10
1432.588069725716
 20
927.3808124843874
 30
0.0
 11
1441.426904490547
 21
936.2196472492193
 31
0.0
  0
LINE
  5
224
330
2C
100
AcDbEntity
  8
0
 62
     0
100
AcDbLine
 10
1411.67516216572
 20
921.7772157498867
 30
0.0
 11
1413.435478322987
 21
923.5375319071533
 31
0.0
  0
LINE
  5
225
330
2C
100
AcDbEntity
  8
0
 62
     0
100
AcDbLine
 10
1566.269749798675
 20
846.7321410004192
 30
0.0
 11
1569.427697678706
 21
849.8900888804502
 31
0.0
  0
LINE
  5
226
330
2C
100
AcDbEntity
  8
0
 62
     0
100
AcDbLine
 10
1481.116640180688
 20
746.2697205569371
 30
0.0
 11
1485.00000000006
 21
750.1530803763091
 31
0.0
  0
LINE
  5
227
330
2C
100
AcDbEntity
  8
0
 62
     0
100
AcDbLine
 10
1485.00000000006
 20
750.153080376309
 30
0.0
 11
1489.955474945519
 21
755.1085553217689
 31
0.0
  0
LINE
  5
228
330
2C
100
AcDbEntity
  8
0
 62
     0
100
AcDbLine
 10
1560.666153064174
 20
825.8192334404238
 30
0.0
 11
1569.504987829006
 21
834.6580682052556
 31
0.0
  0
LINE
  5
229
330
2C
100
AcDbEntity
  8
0
 62
     0
100
AcDbLine
 10
1480.258469382892
 20
730.1022389336471
 30
0.0
 11
1484.351878211019
 21
734.195647761774
 31
0.0
  0
LINE
  5
22A
330
2C
100
AcDbEntity
  8
0
 62
     0
100
AcDbLine
 10
1590.156230449287
 20
840.0000000000423
 30
0.0
 11
1590.417895389001
 21
840.2616649397561
 31
0.0
  0
LINE
  5
22B
330
2C
100
AcDbEntity
  8
0
 62
     0
100
AcDbLine
 10
1502.029547740683
 20
751.8733172914375
 30
0.0
 11
1510.868382505515
 21
760.7121520562693
 31
0.0
  0
LINE
  5
22C
330
2C
100
AcDbEntity
  8
0
 62
     0
100
AcDbLine
 10
1528.546052035178
 20
778.3898215859331
 30
0.0
 11
1530.646896037034
 21
780.4906655877889
 31
0.0
  0
LINE
  5
22D
330
2C
100
AcDbEntity
  8
0
 62
     0
100
AcDbLine
 10
1555.062556329674
 20
804.9063258804288
 30
0.0
 11
1563.901391094506
 21
813.7451606452605
 31
0.0
  0
LINE
  5
22E
330
2C
100
AcDbEntity
  8
0
 62
     0
100
AcDbLine
 10
1581.57906062417
 20
831.4228301749244
 30
0.0
 11
1590.156230449287
 21
840.0000000000423
 31
0.0
  0
LINE
  5
22F
330
2C
100
AcDbEntity
  8
0
 62
     0
100
AcDbLine
 10
1496.425951006183
 20
730.9604097314426
 30
0.0
 11
1505.264785771014
 21
739.7992444962745
 31
0.0
  0
LINE
  5
230
330
2C
100
AcDbEntity
  8
0
 62
     0
100
AcDbLine
 10
1522.942455300678
 20
757.4769140259381
 30
0.0
 11
1531.78129006551
 21
766.31574879077
 31
0.0
  0
LINE
  5
231
330
2C
100
AcDbEntity
  8
0
 62
     0
100
AcDbLine
 10
1549.458959595173
 20
783.9934183204337
 30
0.0
 11
1558.297794360005
 21
792.8322530852656
 31
0.0
  0
LINE
  5
232
330
2C
100
AcDbEntity
  8
0
 62
     0
100
AcDbLine
 10
1575.975463889669
 20
810.5099226149294
 30
0.0
 11
1584.814298654501
 21
819.3487573797611
 31
0.0
  0
LINE
  5
233
330
2C
100
AcDbEntity
  8
0
 62
     0
100
AcDbLine
 10
1517.338858566177
 20
736.5640064659428
 30
0.0
 11
1526.177693331009
 21
745.4028412307747
 31
0.0
  0
LINE
  5
234
330
2C
100
AcDbEntity
  8
0
 62
     0
100
AcDbLine
 10
1543.855362860673
 20
763.0805107604384
 30
0.0
 11
1552.694197625505
 21
771.9193455252702
 31
0.0
  0
LINE
  5
235
330
2C
100
AcDbEntity
  8
0
 62
     0
100
AcDbLine
 10
1570.371867155168
 20
789.597015054934
 30
0.0
 11
1579.21070192
 21
798.4358498197658
 31
0.0
  0
LINE
  5
236
330
2C
100
AcDbEntity
  8
0
 62
     0
100
AcDbLine
 10
1542.011190273901
 20
745.9270273481719
 30
0.0
 11
1547.090600891005
 21
751.0064379652752
 31
0.0
  0
LINE
  5
237
330
2C
100
AcDbEntity
  8
0
 62
     0
100
AcDbLine
 10
1564.768270420669
 20
768.684107494939
 30
0.0
 11
1573.6071051855
 21
777.5229422597708
 31
0.0
  0
LINE
  5
238
330
2C
100
AcDbEntity
  8
0
 62
     0
100
AcDbLine
 10
1394.864371786179
 20
859.038486872855
 30
0.0
 11
1382.790298957566
 21
862.2737249366364
 31
0.0
  0
LINE
  5
239
330
2C
100
AcDbEntity
  8
0
 62
     0
100
AcDbLine
 10
1575.97546421538
 20
810.5099159161323
 30
0.0
 11
1563.901391386766
 21
813.7451539799137
 31
0.0
  0
LINE
  5
23A
330
2C
100
AcDbEntity
  8
0
 62
     0
100
AcDbLine
 10
1400.40155119046
 20
846.3476107700055
 30
0.0
 11
1398.099609862204
 21
846.9644140899351
 31
0.0
  0
LINE
  5
23B
330
2C
100
AcDbEntity
  8
0
 62
     0
100
AcDbLine
 10
1586.074936916399
 20
796.5965770087875
 30
0.0
 11
1579.210702291405
 21
798.4358431332125
 31
0.0
  0
LINE
  5
23C
330
2C
100
AcDbEntity
  8
0
 62
     0
100
AcDbLine
 10
1555.062556634178
 20
804.9063192607755
 30
0.0
 11
1551.745925132692
 21
805.7950079931904
 31
0.0
  0
LINE
  5
23D
330
2C
100
AcDbEntity
  8
0
 62
     0
100
AcDbLine
 10
1570.371867538816
 20
789.5970084140743
 30
0.0
 11
1558.297794710203
 21
792.8322464778558
 31
0.0
  0
LINE
  5
23E
330
2C
100
AcDbEntity
  8
0
 62
     0
100
AcDbLine
 10
1575.232977542169
 20
777.0872845612307
 30
0.0
 11
1573.607105614841
 21
777.5229356311547
 31
0.0
  0
LINE
  5
23F
330
2C
100
AcDbEntity
  8
0
 62
     0
100
AcDbLine
 10
1549.458959957615
 20
783.9934117587177
 30
0.0
 11
1538.102336321055
 21
787.036409890878
 31
0.0
  0
LINE
  5
240
330
2C
100
AcDbEntity
  8
0
 62
     0
100
AcDbLine
 10
1564.768270862253
 20
768.6841009120163
 30
0.0
 11
1552.69419803364
 21
771.9193389757978
 31
0.0
  0
LINE
  5
241
330
2C
100
AcDbEntity
  8
0
 62
     0
100
AcDbLine
 10
1528.546052376413
 20
778.3898151033609
 30
0.0
 11
1527.98480190351
 21
778.5402017143267
 31
0.0
  0
LINE
  5
242
330
2C
100
AcDbEntity
  8
0
 62
     0
100
AcDbLine
 10
1543.855363281052
 20
763.0805042566596
 30
0.0
 11
1531.781290452438
 21
766.3157423204411
 31
0.0
  0
LINE
  5
243
330
2C
100
AcDbEntity
  8
0
 62
     0
100
AcDbLine
 10
1548.959191563273
 20
750.5057442370049
 30
0.0
 11
1547.090601357077
 21
751.0064314737398
 31
0.0
  0
LINE
  5
244
330
2C
100
AcDbEntity
  8
0
 62
     0
100
AcDbLine
 10
1522.94245569985
 20
757.4769076013029
 30
0.0
 11
1510.868382871237
 21
760.7121456650844
 31
0.0
  0
LINE
  5
245
330
2C
100
AcDbEntity
  8
0
 62
     0
100
AcDbLine
 10
1536.294733409059
 20
742.6919822188775
 30
0.0
 11
1526.177693775875
 21
745.402834818383
 31
0.0
  0
LINE
  5
246
330
2C
100
AcDbEntity
  8
0
 62
     0
100
AcDbLine
 10
1502.029548118648
 20
751.8733109459461
 30
0.0
 11
1489.955475290035
 21
755.1085490097275
 31
0.0
  0
LINE
  5
247
330
2C
100
AcDbEntity
  8
0
 62
     0
100
AcDbLine
 10
1481.116640537446
 20
746.2697142905892
 30
0.0
 11
1469.950729435156
 21
749.2616111532055
 31
0.0
  0
LINE
  5
248
330
2C
100
AcDbEntity
  8
0
 62
     0
100
AcDbLine
 10
1517.338859023286
 20
736.5640000992448
 30
0.0
 11
1505.264786194673
 21
739.7992381630262
 31
0.0
  0
LINE
  5
249
330
2C
100
AcDbEntity
  8
0
 62
     0
100
AcDbLine
 10
1485.00000000006
 20
734.0219779055359
 30
0.0
 11
1484.351878613471
 21
734.1956415076694
 31
0.0
  0
LINE
  5
24A
330
2C
100
AcDbEntity
  8
0
 62
     0
100
AcDbLine
 10
1496.425951442085
 20
730.960403443888
 30
0.0
 11
1485.00000000006
 21
734.021977905536
 31
0.0
  0
LINE
  5
24B
330
2C
100
AcDbEntity
  8
0
 62
     0
100
AcDbLine
 10
1414.302502372001
 20
865.0372488331397
 30
0.0
 11
1403.703206538768
 21
867.877321591993
 31
0.0
  0
LINE
  5
24C
330
2C
100
AcDbEntity
  8
0
 62
     0
100
AcDbLine
 10
1592.623084574268
 20
817.2563928381945
 30
0.0
 11
1584.814298967968
 21
819.3487506352704
 31
0.0
  0
LINE
  5
24D
330
2C
100
AcDbEntity
  8
0
 62
     0
100
AcDbLine
 10
1560.666153310742
 20
825.8192267628334
 30
0.0
 11
1558.744453346497
 21
826.3341447163478
 31
0.0
  0
LINE
  5
24E
330
2C
100
AcDbEntity
  8
0
 62
     0
100
AcDbLine
 10
1400.467968462742
 20
879.9513943749129
 30
0.0
 11
1388.393895634129
 21
883.1866324386945
 31
0.0
  0
LINE
  5
24F
330
2C
100
AcDbEntity
  8
0
 62
     0
100
AcDbLine
 10
1581.579060891943
 20
831.4228234181904
 30
0.0
 11
1569.504988063329
 21
834.6580614819718
 31
0.0
  0
LINE
  5
250
330
2C
100
AcDbEntity
  8
0
 62
     0
100
AcDbLine
 10
1421.380876043944
 20
885.5549910302697
 30
0.0
 11
1409.306803215331
 21
888.7902290940511
 31
0.0
  0
LINE
  5
251
330
2C
100
AcDbEntity
  8
0
 62
     0
100
AcDbLine
 10
1594.995767263114
 20
839.0350211340759
 30
0.0
 11
1591.394417107097
 21
840.0000000000423
 31
0.0
  0
LINE
  5
252
330
2C
100
AcDbEntity
  8
0
 62
     0
100
AcDbLine
 10
1591.394417107097
 20
840.0000000000423
 30
0.0
 11
1590.417895644531
 21
840.2616581373285
 31
0.0
  0
LINE
  5
253
330
2C
100
AcDbEntity
  8
0
 62
     0
100
AcDbLine
 10
1566.269749987304
 20
846.7321342648915
 30
0.0
 11
1559.511870288801
 21
848.5429026726521
 31
0.0
  0
LINE
  5
254
330
2C
100
AcDbEntity
  8
0
 62
     0
100
AcDbLine
 10
1432.678418074946
 20
893.7350171197325
 30
0.0
 11
1430.219710796533
 21
894.393825749408
 31
0.0
  0
LINE
  5
255
330
2C
100
AcDbEntity
  8
0
 62
     0
100
AcDbLine
 10
1406.071565139306
 20
900.864301876971
 30
0.0
 11
1395.347868824863
 21
903.7377076443025
 31
0.0
  0
LINE
  5
256
330
2C
100
AcDbEntity
  8
0
 62
     0
100
AcDbLine
 10
1426.984472720507
 20
906.4678985323277
 30
0.0
 11
1414.910399891894
 21
909.7031365961091
 31
0.0
  0
LINE
  5
257
330
2C
100
AcDbEntity
  8
0
 62
     0
100
AcDbLine
 10
1447.897380301709
 20
912.0714951876847
 30
0.0
 11
1435.823307473095
 21
915.3067332514661
 31
0.0
  0
LINE
  5
258
330
2C
100
AcDbEntity
  8
0
 62
     0
100
AcDbLine
 10
1411.675161815869
 20
921.7772093790291
 30
0.0
 11
1411.48658999845
 21
921.8277370452218
 31
0.0
  0
LINE
  5
259
330
2C
100
AcDbEntity
  8
0
 62
     0
100
AcDbLine
 10
1468.81028788291
 20
917.6750918430412
 30
0.0
 11
1456.736215054297
 21
920.9103299068228
 31
0.0
  0
LINE
  5
25A
330
2C
100
AcDbEntity
  8
0
 62
     0
100
AcDbLine
 10
1432.58806939707
 20
927.3808060343858
 30
0.0
 11
1422.047414468655
 21
930.2051660101497
 31
0.0
  0
LINE
  5
25B
330
2C
100
AcDbEntity
  8
0
 62
     0
100
AcDbLine
 10
1453.500976978273
 20
932.9844026897424
 30
0.0
 11
1441.426904149659
 21
936.2196407535238
 31
0.0
  0
LINE
  5
25C
330
2C
100
AcDbEntity
  8
0
 62
     0
100
AcDbLine
 10
1474.413884559474
 20
938.5879993450991
 30
0.0
 11
1462.339811730861
 21
941.8232374088805
 31
0.0
  0
LINE
  5
25D
330
2C
100
AcDbEntity
  8
0
 62
     0
100
AcDbLine
 10
1505.26478049809
 20
739.7992409627512
 30
0.0
 11
1502.029542434309
 21
751.8733137913645
 31
0.0
  0
LINE
  5
25E
330
2C
100
AcDbEntity
  8
0
 62
     0
100
AcDbLine
 10
1456.736209541368
 20
920.9103333919516
 30
0.0
 11
1453.500971477586
 21
932.9844062205649
 31
0.0
  0
LINE
  5
25F
330
2C
100
AcDbEntity
  8
0
 62
     0
100
AcDbLine
 10
1496.52117237558
 20
730.6050157133149
 30
0.0
 11
1496.425945778952
 21
730.9604062101628
 31
0.0
  0
LINE
  5
260
330
2C
100
AcDbEntity
  8
0
 62
     0
100
AcDbLine
 10
1489.955469651389
 20
755.1085518673894
 30
0.0
 11
1487.29564795879
 21
765.0351415632429
 31
0.0
  0
LINE
  5
261
330
2C
100
AcDbEntity
  8
0
 62
     0
100
AcDbLine
 10
1449.505660232066
 20
906.06929577678
 30
0.0
 11
1447.897374822229
 21
912.0714986393631
 31
0.0
  0
LINE
  5
262
330
2C
100
AcDbEntity
  8
0
 62
     0
100
AcDbLine
 10
1441.426898694667
 20
936.2196442965897
 30
0.0
 11
1440.280135815276
 21
940.4994216267079
 31
0.0
  0
LINE
  5
263
330
2C
100
AcDbEntity
  8
0
 62
     0
100
AcDbLine
 10
1435.82330203931
 20
915.3067367153882
 30
0.0
 11
1432.588063975528
 21
927.3808095440015
 31
0.0
  0
LINE
  5
264
330
2C
100
AcDbEntity
  8
0
 62
     0
100
AcDbLine
 10
1484.351872996032
 20
734.1956442861876
 30
0.0
 11
1481.116634932251
 21
746.2697171148009
 31
0.0
  0
LINE
  5
265
330
2C
100
AcDbEntity
  8
0
 62
     0
100
AcDbLine
 10
1430.219705383953
 20
894.393829134187
 30
0.0
 11
1426.984467320171
 21
906.4679019628004
 31
0.0
  0
LINE
  5
266
330
2C
100
AcDbEntity
  8
0
 62
     0
100
AcDbLine
 10
1422.484835895587
 20
881.4349400505676
 30
0.0
 11
1421.380870664815
 21
885.5549943815979
 31
0.0
  0
LINE
  5
267
330
2C
100
AcDbEntity
  8
0
 62
     0
100
AcDbLine
 10
1414.910394537252
 20
909.7031400388246
 30
0.0
 11
1411.67515647347
 21
921.7772128674381
 31
0.0
  0
LINE
  5
268
330
2C
100
AcDbEntity
  8
0
 62
     0
100
AcDbLine
 10
1409.306797881895
 20
888.7902324576231
 30
0.0
 11
1406.071559818113
 21
900.8643052862364
 31
0.0
  0
LINE
  5
269
330
2C
100
AcDbEntity
  8
0
 62
     0
100
AcDbLine
 10
1403.703201226538
 20
867.8773248764215
 30
0.0
 11
1400.467963162757
 21
879.951397705035
 31
0.0
  0
LINE
  5
26A
330
2C
100
AcDbEntity
  8
0
 62
     0
100
AcDbLine
 10
1398.099604571181
 20
846.9644172952202
 30
0.0
 11
1394.8643665074
 21
859.0384901238335
 31
0.0
  0
LINE
  5
26B
330
2C
100
AcDbEntity
  8
0
 62
     0
100
AcDbLine
 10
1388.393890379837
 20
883.1866357810602
 30
0.0
 11
1386.724681238482
 21
889.4162091050535
 31
0.0
  0
LINE
  5
26C
330
2C
100
AcDbEntity
  8
0
 62
     0
100
AcDbLine
 10
1382.79029372448
 20
862.2737281998583
 30
0.0
 11
1379.985592257197
 21
872.7410165758232
 31
0.0
  0
LINE
  5
26D
330
2C
100
AcDbEntity
  8
0
 62
     0
100
AcDbLine
 10
1376.425699614494
 20
844.200901783766
 30
0.0
 11
1375.316620602686
 21
848.3400410054393
 31
0.0
  0
LINE
  5
26E
330
2C
100
AcDbEntity
  8
0
 62
     0
100
AcDbLine
 10
1517.760185263378
 20
734.9915705216767
 30
0.0
 11
1517.33885328101
 21
736.5640028867262
 31
0.0
  0
LINE
  5
26F
330
2C
100
AcDbEntity
  8
0
 62
     0
100
AcDbLine
 10
1510.868377153447
 20
760.7121485439529
 30
0.0
 11
1508.690549050157
 21
768.8399136755816
 31
0.0
  0
LINE
  5
270
330
2C
100
AcDbEntity
  8
0
 62
     0
100
AcDbLine
 10
1469.936574144815
 20
913.4717170175676
 30
0.0
 11
1468.810282324287
 21
917.6750953159265
 31
0.0
  0
LINE
  5
271
330
2C
100
AcDbEntity
  8
0
 62
     0
100
AcDbLine
 10
1462.339806196724
 20
941.8232409731531
 30
0.0
 11
1460.866937931595
 21
947.3200601714726
 31
0.0
  0
LINE
  5
272
330
2C
100
AcDbEntity
  8
0
 62
     0
100
AcDbLine
 10
1526.177688000149
 20
745.4028376393141
 30
0.0
 11
1522.942449936367
 21
757.4769104679274
 31
0.0
  0
LINE
  5
273
330
2C
100
AcDbEntity
  8
0
 62
     0
100
AcDbLine
 10
1474.861002097596
 20
936.9193167036923
 30
0.0
 11
1474.413878979644
 21
938.5880028971277
 31
0.0
  0
LINE
  5
274
330
2C
100
AcDbEntity
  8
0
 62
     0
100
AcDbLine
 10
1531.781284655505
 20
766.3157452205155
 30
0.0
 11
1528.546046591724
 21
778.389818049129
 31
0.0
  0
LINE
  5
275
330
2C
100
AcDbEntity
  8
0
 62
     0
100
AcDbLine
 10
1547.090595502206
 20
751.0064343158777
 30
0.0
 11
1543.855357438425
 21
763.080507144491
 31
0.0
  0
LINE
  5
276
330
2C
100
AcDbEntity
  8
0
 62
     0
100
AcDbLine
 10
1552.694192157563
 20
771.9193418970791
 30
0.0
 11
1549.458954093782
 21
783.9934147256924
 31
0.0
  0
LINE
  5
277
330
2C
100
AcDbEntity
  8
0
 62
     0
100
AcDbLine
 10
1565.690952983699
 20
765.2405851642376
 30
0.0
 11
1564.768264940483
 21
768.6841038210541
 31
0.0
  0
LINE
  5
278
330
2C
100
AcDbEntity
  8
0
 62
     0
100
AcDbLine
 10
1558.29778881292
 20
792.8322494782808
 30
0.0
 11
1555.062550749139
 21
804.9063223068941
 31
0.0
  0
LINE
  5
279
330
2C
100
AcDbEntity
  8
0
 62
     0
100
AcDbLine
 10
1573.607099659621
 20
777.5229385736422
 30
0.0
 11
1570.37186159584
 21
789.5970114022555
 31
0.0
  0
LINE
  5
27A
330
2C
100
AcDbEntity
  8
0
 62
     0
100
AcDbLine
 10
1563.901385468277
 20
813.7451570594823
 30
0.0
 11
1560.666147404495
 21
825.8192298880956
 31
0.0
  0
LINE
  5
27B
330
2C
100
AcDbEntity
  8
0
 62
     0
100
AcDbLine
 10
1579.210696314978
 20
798.4358461548444
 30
0.0
 11
1575.975458251196
 21
810.5099189834577
 31
0.0
  0
LINE
  5
27C
330
2C
100
AcDbEntity
  8
0
 62
     0
100
AcDbLine
 10
1569.504982123634
 20
834.6580646406843
 30
0.0
 11
1568.073614858074
 21
840.0000000000421
 31
0.0
  0
LINE
  5
27D
330
2C
100
AcDbEntity
  8
0
 62
     0
100
AcDbLine
 10
1568.073614858074
 20
840.0000000000423
 30
0.0
 11
1566.269744059852
 21
846.7321374692978
 31
0.0
  0
LINE
  5
27E
330
2C
100
AcDbEntity
  8
0
 62
     0
100
AcDbLine
 10
1584.814292970335
 20
819.3487537360454
 30
0.0
 11
1581.579054906553
 21
831.4228265646587
 31
0.0
  0
LINE
  5
27F
330
2C
100
AcDbEntity
  8
0
 62
     0
100
AcDbLine
 10
1590.417889625691
 20
840.2616613172472
 30
0.0
 11
1587.594273210559
 21
850.7995412396066
 31
0.0
  0
ENDBLK
  5
280
330
2C
100
AcDbEntity
  8
0
100
AcDbBlockEnd
  0
BLOCK
  5
30B
330
301
100
AcDbEntity
  8
0
100
AcDbBlockBegin
  2
*D10
 70
     1
 10
0.0
 20
0.0
 30
0.0
  3
*D10
  1

  0
LINE
  5
302
330
301
100
AcDbEntity
  8
SUNPOU
 62
     0
370
    -2
100
AcDbLine
 10
1260.000000000059
 20
340.0000000000423
 30
0.0
 11
1260.000000000059
 21
259.5844135959473
 31
0.0
  0
LINE
  5
303
330
301
100
AcDbEntity
  8
SUNPOU
 62
     0
370
    -2
100
AcDbLine
 10
1710.000000000059
 20
340.0000000000423
 30
0.0
 11
1710.000000000059
 21
259.5844135959473
 31
0.0
  0
LINE
  5
304
330
301
100
AcDbEntity
  8
SUNPOU
 62
     0
370
    -2
100
AcDbLine
 10
1280.000000000059
 20
269.5844135959474
 30
0.0
 11
1690.000000000059
 21
269.5844135959474
 31
0.0
  0
INSERT
  5
305
330
301
100
AcDbEntity
  8
SUNPOU
 62
     0
370
    -2
100
AcDbBlockReference
  2
ARROW
 10
1260.000000000059
 20
269.5844135959474
 30
0.0
 41
20.0
 42
20.0
 43
20.0
 50
180.0
  0
INSERT
  5
306
330
301
100
AcDbEntity
  8
SUNPOU
 62
     0
370
    -2
100
AcDbBlockReference
  2
ARROW
 10
1710.000000000059
 20
269.5844135959474
 30
0.0
 41
20.0
 42
20.0
 43
20.0
  0
MTEXT
  5
307
330
301
100
AcDbEntity
  8
SUNPOU
 62
     0
100
AcDbMText
 10
1485.00000000006
 20
294.5844135959474
 30
0.0
 40
30.0
 41
0.0
 71
     5
 72
     1
  1
\A1;450
  7
BIGFONT
 73
     1
 44
1.0
  0
POINT
  5
308
330
301
100
AcDbEntity
  8
DEFPOINTS
 62
     0
100
AcDbPoint
 10
1260.000000000059
 20
350.0000000000423
 30
0.0
  0
POINT
  5
309
330
301
100
AcDbEntity
  8
DEFPOINTS
 62
     0
100
AcDbPoint
 10
1710.000000000059
 20
350.0000000000423
 30
0.0
  0
POINT
  5
30A
330
301
100
AcDbEntity
  8
DEFPOINTS
 62
     0
100
AcDbPoint
 10
1710.000000000059
 20
269.5844135959474
 30
0.0
  0
ENDBLK
  5
30C
330
301
100
AcDbEntity
  8
0
100
AcDbBlockEnd
  0
BLOCK
  5
317
330
30D
100
AcDbEntity
  8
0
100
AcDbBlockBegin
  2
*D11
 70
     1
 10
0.0
 20
0.0
 30
0.0
  3
*D11
  1

  0
LINE
  5
395
330
30D
100
AcDbEntity
  8
SUNPOU
 62
     0
370
    -2
100
AcDbLine
 10
1770.000000000059
 20
1050.000000000042
 30
0.0
 11
1891.269234469647
 21
1050.000000000042
 31
0.0
  0
LINE
  5
396
330
30D
100
AcDbEntity
  8
SUNPOU
 62
     0
370
    -2
100
AcDbLine
 10
1720.000000000059
 20
450.0000000000422
 30
0.0
 11
1891.269234469647
 21
450.0000000000422
 31
0.0
  0
LINE
  5
397
330
30D
100
AcDbEntity
  8
SUNPOU
 62
     0
370
    -2
100
AcDbLine
 10
1881.269234469647
 20
1030.000000000042
 30
0.0
 11
1881.269234469647
 21
470.0000000000422
 31
0.0
  0
INSERT
  5
398
330
30D
100
AcDbEntity
  8
SUNPOU
 62
     0
370
    -2
100
AcDbBlockReference
  2
ARROW
 10
1881.269234469647
 20
1050.000000000042
 30
0.0
 41
20.0
 42
20.0
 43
20.0
 50
90.0
  0
INSERT
  5
399
330
30D
100
AcDbEntity
  8
SUNPOU
 62
     0
370
    -2
100
AcDbBlockReference
  2
ARROW
 10
1881.269234469647
 20
450.0000000000422
 30
0.0
 41
20.0
 42
20.0
 43
20.0
 50
270.0
  0
MTEXT
  5
39A
330
30D
100
AcDbEntity
  8
SUNPOU
 62
     0
100
AcDbMText
 10
1856.269234469647
 20
750.0000000000426
 30
0.0
 40
30.0
 41
0.0
 71
     5
 72
     1
  1
\A1;600
  7
BIGFONT
 11
0.0000000000000001
 21
1.0
 31
0.0
 73
     1
 44
1.0
  0
POINT
  5
39B
330
30D
100
AcDbEntity
  8
DEFPOINTS
 62
     0
100
AcDbPoint
 10
1760.000000000059
 20
1050.000000000042
 30
0.0
  0
POINT
  5
39C
330
30D
100
AcDbEntity
  8
DEFPOINTS
 62
     0
100
AcDbPoint
 10
1710.000000000059
 20
450.0000000000422
 30
0.0
  0
POINT
  5
39D
330
30D
100
AcDbEntity
  8
DEFPOINTS
 62
     0
100
AcDbPoint
 10
1881.269234469647
 20
450.0000000000422
 30
0.0
  0
ENDBLK
  5
318
330
30D
100
AcDbEntity
  8
0
100
AcDbBlockEnd
  0
BLOCK
  5
323
330
319
100
AcDbEntity
  8
0
100
AcDbBlockBegin
  2
*D12
 70
     1
 10
0.0
 20
0.0
 30
0.0
  3
*D12
  1

  0
LINE
  5
39E
330
319
100
AcDbEntity
  8
SUNPOU
 62
     0
370
    -2
100
AcDbLine
 10
1720.000000000059
 20
450.0000000000422
 30
0.0
 11
1891.269234469647
 21
450.0000000000422
 31
0.0
  0
LINE
  5
39F
330
319
100
AcDbEntity
  8
SUNPOU
 62
     0
370
    -2
100
AcDbLine
 10
1770.000000000059
 20
400.0000000000422
 30
0.0
 11
1891.269234469647
 21
400.0000000000422
 31
0.0
  0
LINE
  5
3A0
330
319
100
AcDbEntity
  8
SUNPOU
 62
     0
370
    -2
100
AcDbLine
 10
1881.269234469647
 20
470.0000000000422
 30
0.0
 11
1881.269234469647
 21
490.0000000000423
 31
0.0
  0
LINE
  5
3A1
330
319
100
AcDbEntity
  8
SUNPOU
 62
     0
370
    -2
100
AcDbLine
 10
1881.269234469647
 20
380.0000000000423
 30
0.0
 11
1881.269234469647
 21
291.4285714286137
 31
0.0
  0
INSERT
  5
3A2
330
319
100
AcDbEntity
  8
SUNPOU
 62
     0
370
    -2
100
AcDbBlockReference
  2
ARROW
 10
1881.269234469647
 20
450.0000000000422
 30
0.0
 41
20.0
 42
20.0
 43
20.0
 50
270.0
  0
INSERT
  5
3A3
330
319
100
AcDbEntity
  8
SUNPOU
 62
     0
370
    -2
100
AcDbBlockReference
  2
ARROW
 10
1881.269234469647
 20
400.0000000000422
 30
0.0
 41
20.0
 42
20.0
 43
20.0
 50
90.0
  0
MTEXT
  5
3A4
330
319
100
AcDbEntity
  8
SUNPOU
 62
     0
100
AcDbMText
 10
1856.269234469647
 20
325.7142857143283
 30
0.0
 40
30.0
 41
0.0
 71
     5
 72
     1
  1
\A1;50
  7
BIGFONT
 11
0.0000000000000001
 21
1.0
 31
0.0
 73
     1
 44
1.0
  0
POINT
  5
3A5
330
319
100
AcDbEntity
  8
DEFPOINTS
 62
     0
100
AcDbPoint
 10
1710.000000000059
 20
450.0000000000422
 30
0.0
  0
POINT
  5
3A6
330
319
100
AcDbEntity
  8
DEFPOINTS
 62
     0
100
AcDbPoint
 10
1760.000000000059
 20
400.0000000000422
 30
0.0
  0
POINT
  5
3A7
330
319
100
AcDbEntity
  8
DEFPOINTS
 62
     0
100
AcDbPoint
 10
1881.269234469647
 20
400.0000000000422
 30
0.0
  0
ENDBLK
  5
324
330
319
100
AcDbEntity
  8
0
100
AcDbBlockEnd
  0
BLOCK
  5
32F
330
325
100
AcDbEntity
  8
0
100
AcDbBlockBegin
  2
*D13
 70
     1
 10
0.0
 20
0.0
 30
0.0
  3
*D13
  1

  0
LINE
  5
326
330
325
100
AcDbEntity
  8
SUNPOU
 62
     0
370
    -2
100
AcDbLine
 10
1891.269234469647
 20
1050.000000000042
 30
0.0
 11
1991.269234469647
 21
1050.000000000042
 31
0.0
  0
LINE
  5
327
330
325
100
AcDbEntity
  8
SUNPOU
 62
     0
370
    -2
100
AcDbLine
 10
1891.269234469647
 20
400.0000000000396
 30
0.0
 11
1991.269234469647
 21
400.0000000000396
 31
0.0
  0
LINE
  5
328
330
325
100
AcDbEntity
  8
SUNPOU
 62
     0
370
    -2
100
AcDbLine
 10
1981.269234469647
 20
1030.000000000042
 30
0.0
 11
1981.269234469647
 21
420.0000000000395
 31
0.0
  0
INSERT
  5
329
330
325
100
AcDbEntity
  8
SUNPOU
 62
     0
370
    -2
100
AcDbBlockReference
  2
ARROW
 10
1981.269234469647
 20
1050.000000000042
 30
0.0
 41
20.0
 42
20.0
 43
20.0
 50
90.0
  0
INSERT
  5
32A
330
325
100
AcDbEntity
  8
SUNPOU
 62
     0
370
    -2
100
AcDbBlockReference
  2
ARROW
 10
1981.269234469647
 20
400.0000000000396
 30
0.0
 41
20.0
 42
20.0
 43
20.0
 50
270.0
  0
MTEXT
  5
32B
330
325
100
AcDbEntity
  8
SUNPOU
 62
     0
100
AcDbMText
 10
1956.269234469647
 20
725.0000000000413
 30
0.0
 40
30.0
 41
0.0
 71
     5
 72
     1
  1
\A1;650
  7
BIGFONT
 11
0.0000000000000001
 21
1.0
 31
0.0
 73
     1
 44
1.0
  0
POINT
  5
32C
330
325
100
AcDbEntity
  8
DEFPOINTS
 62
     0
100
AcDbPoint
 10
1881.269234469647
 20
1050.000000000042
 30
0.0
  0
POINT
  5
32D
330
325
100
AcDbEntity
  8
DEFPOINTS
 62
     0
100
AcDbPoint
 10
1881.269234469647
 20
400.0000000000396
 30
0.0
  0
POINT
  5
32E
330
325
100
AcDbEntity
  8
DEFPOINTS
 62
     0
100
AcDbPoint
 10
1981.269234469647
 20
400.0000000000396
 30
0.0
  0
ENDBLK
  5
330
330
325
100
AcDbEntity
  8
0
100
AcDbBlockEnd
  0
ENDSEC
  0
SECTION
  2
ENTITIES
  0
INSERT
  5
281
330
18
100
AcDbEntity
  8
0
100
AcDbBlockReference
  2
YA_N
 10
6.0
 20
5.0
 30
0.0
  0
LINE
  5
282
330
18
100
AcDbEntity
  8
0
100
AcDbLine
 10
1260.000000000059
 20
1050.000000000042
 30
0.0
 11
1260.000000000059
 21
400.0000000000422
 31
0.0
  0
LINE
  5
283
330
18
100
AcDbEntity
  8
0
100
AcDbLine
 10
1260.000000000059
 20
400.0000000000422
 30
0.0
 11
1710.000000000059
 21
400.0000000000422
 31
0.0
  0
LINE
  5
284
330
18
100
AcDbEntity
  8
0
100
AcDbLine
 10
1710.000000000059
 20
400.0000000000422
 30
0.0
 11
1710.000000000059
 21
1050.000000000042
 31
0.0
  0
LINE
  5
285
330
18
100
AcDbEntity
  8
0
100
AcDbLine
 10
1710.000000000059
 20
1050.000000000042
 30
0.0
 11
1260.000000000059
 21
1050.000000000042
 31
0.0
  0
CIRCLE
  5
287
330
18
100
AcDbEntity
  8
0
100
AcDbCircle
 10
1485.00000000006
 20
840.0000000000423
 30
0.0
 40
75.0
  0
CIRCLE
  5
288
330
18
100
AcDbEntity
  8
0
100
AcDbCircle
 10
1485.00000000006
 20
840.0000000000423
 30
0.0
 40
110.0
  0
LINE
  5
289
330
18
100
AcDbEntity
  8
CT2
100
AcDbLine
 10
1485.00000000006
 20
680.0000000000423
 30
0.0
 11
1485.00000000006
 21
1000.000000000042
 31
0.0
  0
LINE
  5
28A
330
18
100
AcDbEntity
  8
CT2
100
AcDbLine
 10
1325.000000000059
 20
840.0000000000423
 30
0.0
 11
1645.000000000059
 21
840.0000000000423
 31
0.0
  0
LINE
  5
28B
330
18
100
AcDbEntity
  8
KL
100
AcDbLine
 10
1250.000000000059
 20
390.0000000000423
 30
0.0
 11
1250.000000000059
 21
1060.000000000042
 31
0.0
  0
LINE
  5
28C
330
18
100
AcDbEntity
  8
KL
100
AcDbLine
 10
1250.000000000059
 20
1060.000000000042
 30
0.0
 11
1720.000000000059
 21
1060.000000000042
 31
0.0
  0
LINE
  5
28D
330
18
100
AcDbEntity
  8
KL
100
AcDbLine
 10
1720.000000000059
 20
1060.000000000042
 30
0.0
 11
1720.00000000006
 21
390.0000000000423
 31
0.0
  0
DIMENSION
  5
28E
330
18
100
AcDbEntity
  8
SUNPOU
100
AcDbDimension
  2
*D7
 10
1544.608070363617
 20
885.5178860178826
 30
0.0
 11
1466.792845592923
 21
863.8432281454655
 31
0.0
 70
     3
 71
     5
 42
-1.0
100
AcDbDiametricDimension
 15
1425.391929636501
 25
794.4821139822018
 35
0.0
 40
0.0
  0
INSERT
  5
28F
330
18
100
AcDbEntity
  8
SUNPOU
100
AcDbBlockReference
  2
ARROW
 10
1250.000000000059
 20
1004.88914063194
 30
0.0
 41
20.0
 42
20.0
 43
20.0
  0
LWPOLYLINE
  5
290
330
18
100
AcDbEntity
  8
SUNPOU
100
AcDbPolyline
 90
        3
 70
     0
 43
0.0
 10
1250.000000000059
 20
1004.88914063194
 10
1160.000000000059
 20
1004.88914063194
 10
964.0000000000595
 20
1004.88914063194
  0
TEXT
  5
295
330
18
100
AcDbEntity
  8
SUNPOU
100
AcDbText
 10
964.0000000000595
 20
1019.88914063194
 30
0.0
 40
30.0
  1
透水シート
  7
BIGFONT
 72
     2
 11
1130.000000000059
 21
1034.88914063194
 31
0.0
100
AcDbText
 73
     2
  0
INSERT
  5
296
330
18
100
AcDbEntity
  8
SUNPOU
100
AcDbBlockReference
  2
ARROW
 10
1291.510543937083
 20
911.7666419472596
 30
0.0
 41
20.0
 42
20.0
 43
20.0
  0
LWPOLYLINE
  5
297
330
18
100
AcDbEntity
  8
SUNPOU
100
AcDbPolyline
 90
        3
 70
     0
 43
0.0
 10
1291.510543937083
 20
911.7666419472596
 10
1160.000000000059
 20
911.7666419472596
 10
886.0000000000596
 20
911.7666419472596
  0
TEXT
  5
29C
330
18
100
AcDbEntity
  8
SUNPOU
100
AcDbText
 10
886.0000000000596
 20
926.7666419472597
 30
0.0
 40
30.0
  1
単粒度４号砕石
  7
BIGFONT
 72
     2
 11
1130.000000000059
 21
941.7666419472597
 31
0.0
100
AcDbText
 73
     2
  0
INSERT
  5
29D
330
18
100
AcDbEntity
  8
SUNPOU
100
AcDbBlockReference
  2
ARROW
 10
1375.42820583439
 20
849.696490257661
 30
0.0
 41
20.0
 42
20.0
 43
20.0
  0
LWPOLYLINE
  5
29E
330
18
100
AcDbEntity
  8
SUNPOU
100
AcDbPolyline
 90
        3
 70
     0
 43
0.0
 10
1375.42820583439
 20
849.696490257661
 10
1160.000000000059
 20
849.696490257661
 10
968.0000000000596
 20
849.696490257661
  0
TEXT
  5
2A3
330
18
100
AcDbEntity
  8
SUNPOU
100
AcDbText
 10
994.2857142857739
 20
864.6964902576611
 30
0.0
 40
30.0
  1
E-150
  7
BIGFONT
 72
     2
 11
1130.000000000059
 21
879.6964902576609
 31
0.0
100
AcDbText
 73
     2
  0
INSERT
  5
2A4
330
18
100
AcDbEntity
  8
SUNPOU
100
AcDbBlockReference
  2
ARROW
 10
1293.746817675204
 20
426.9838412621957
 30
0.0
 41
20.0
 42
20.0
 43
20.0
  0
LWPOLYLINE
  5
2A5
330
18
100
AcDbEntity
  8
SUNPOU
100
AcDbPolyline
 90
        3
 70
     0
 43
0.0
 10
1293.746817675204
 20
426.9838412621957
 10
1172.784862207017
 20
426.9838412621957
 10
1042.784862207017
 20
426.9838412621957
  0
TEXT
  5
2AA
330
18
100
AcDbEntity
  8
SUNPOU
100
AcDbText
 10
1042.784862207017
 20
441.9838412621958
 30
0.0
 40
30.0
  1
敷　砂
  7
BIGFONT
 72
     2
 11
1142.784862207017
 21
456.9838412621958
 31
0.0
100
AcDbText
 73
     2
  0
DIMENSION
  5
2AC
330
18
100
AcDbEntity
  8
SUNPOU
100
AcDbDimension
  2
*D10
 10
1710.000000000059
 20
269.5844135959474
 30
0.0
 11
1485.00000000006
 21
294.5844135959474
 31
0.0
 70
    32
 71
     5
 42
450.0
  3
DIA1
100
AcDbAlignedDimension
 13
1260.000000000059
 23
350.0000000000423
 33
0.0
 14
1710.000000000059
 24
350.0000000000423
 34
0.0
100
AcDbRotatedDimension
1001
ACAD
1000
DSTYLE
1002
{
1070
   173
1070
     1
1070
   343
1005
20
1070
   344
1005
20
1002
}
  0
DIMENSION
  5
2AD
330
18
100
AcDbEntity
  8
SUNPOU
100
AcDbDimension
  2
*D11
 10
1881.269234469647
 20
450.0000000000422
 30
0.0
 11
1856.269234469647
 21
750.0000000000426
 31
0.0
 70
    32
 71
     5
 42
600.0
  3
DIA1
100
AcDbAlignedDimension
 13
1760.000000000059
 23
1050.000000000042
 33
0.0
 14
1710.000000000059
 24
450.0000000000422
 34
0.0
 50
90.0
100
AcDbRotatedDimension
1001
ACAD
1000
DSTYLE
1002
{
1070
   173
1070
     1
1070
   343
1005
20
1070
   344
1005
20
1002
}
  0
DIMENSION
  5
2AE
330
18
100
AcDbEntity
  8
SUNPOU
100
AcDbDimension
  2
*D12
 10
1881.269234469647
 20
400.0000000000422
 30
0.0
 11
1856.269234469647
 21
325.7142857143283
 31
0.0
 70
    32
 71
     5
 42
50.0
  3
DIA1
100
AcDbAlignedDimension
 13
1710.000000000059
 23
450.0000000000422
 33
0.0
 14
1760.000000000059
 24
400.0000000000422
 34
0.0
 50
90.0
100
AcDbRotatedDimension
1001
ACAD
1000
DSTYLE
1002
{
1070
   173
1070
     1
1070
   343
1005
20
1070
   344
1005
20
1002
}
  0
DIMENSION
  5
2AF
330
18
100
AcDbEntity
  8
SUNPOU
100
AcDbDimension
  2
*D13
 10
1981.269234469647
 20
400.0000000000396
 30
0.0
 11
1956.269234469647
 21
725.0000000000413
 31
0.0
 70
    32
 71
     5
 42
650.0000000000027
  3
DIA1
100
AcDbAlignedDimension
 13
1881.269234469647
 23
1050.000000000042
 33
0.0
 14
1881.269234469647
 24
400.0000000000396
 34
0.0
 50
90.0
100
AcDbRotatedDimension
1001
ACAD
1000
DSTYLE
1002
{
1070
   173
1070
     1
1070
   343
1005
20
1070
   344
1005
20
1002
}
  0
TEXT
  5
2B0
330
18
100
AcDbEntity
  8
0
100
AcDbText
 10
1070.644109562169
 20
1739.702918998467
 30
0.0
 40
70.0
  1
浸透管E-150構造図
  7
BIGFONT
 72
     1
 11
1479.310776228836
 21
1774.702918998467
 31
0.0
100
AcDbText
 73
     2
  0
TEXT
  5
2B1
330
18
100
AcDbEntity
  8
0
100
AcDbText
 10
1973.763931857231
 20
1741.911130718118
 30
0.0
 40
50.0
  1
S=1/10
  7
BIGFONT
 11
1973.763931857231
 21
1766.911130718118
 31
0.0
100
AcDbText
 73
     2
  0
LINE
  5
2B2
330
18
100
AcDbEntity
  8
0
100
AcDbLine
 10
1160.000000000059
 20
1326.824068553675
 30
0.0
 11
1760.000000000059
 21
1326.824068553675
 31
0.0
  0
LINE
  5
2B3
330
18
100
AcDbEntity
  8
0
100
AcDbLine
 10
1160.000000000059
 20
1326.824068553675
 30
0.0
 11
1110.000000000059
 21
1276.824068553675
 31
0.0
  0
LINE
  5
2B4
330
18
100
AcDbEntity
  8
0
100
AcDbLine
 10
1138.284271247521
 20
1276.824068553675
 30
0.0
 11
1188.284271247521
 21
1326.824068553675
 31
0.0
  0
LINE
  5
2B5
330
18
100
AcDbEntity
  8
0
100
AcDbLine
 10
1166.568542494983
 20
1276.824068553675
 30
0.0
 11
1216.568542494983
 21
1326.824068553675
 31
0.0
  0
LINE
  5
2B6
330
18
100
AcDbEntity
  8
0
100
AcDbLine
 10
1244.852813742445
 20
1326.824068553675
 30
0.0
 11
1194.852813742445
 21
1276.824068553675
 31
0.0
  0
LINE
  5
2B7
330
18
100
AcDbEntity
  8
0
100
AcDbLine
 10
1194.852813742445
 20
1276.824068553675
 30
0.0
 11
1180.710678118714
 21
1290.966204177406
 31
0.0
  0
LINE
  5
2B8
330
18
100
AcDbEntity
  8
0
100
AcDbLine
 10
1208.994949366176
 20
1290.966204177406
 30
0.0
 11
1194.852813742445
 21
1305.108339801137
 31
0.0
  0
LINE
  5
2B9
330
18
100
AcDbEntity
  8
0
100
AcDbLine
 10
1223.137084989907
 20
1305.108339801137
 30
0.0
 11
1208.994949366176
 21
1319.250475424868
 31
0.0
  0
LINE
  5
2BA
330
18
100
AcDbEntity
  8
0
100
AcDbLine
 10
1237.279220613638
 20
1319.250475424868
 30
0.0
 11
1229.705627484831
 21
1326.824068553675
 31
0.0
  0
LWPOLYLINE
  5
2BB
330
18
100
AcDbEntity
  8
0
100
AcDbPolyline
 90
        2
 70
     0
 43
0.0
 10
1223.137084989907
 20
1276.824068553675
 10
1273.137084989907
 20
1326.824068553675
  0
LINE
  5
2BF
330
18
100
AcDbEntity
  8
0
100
AcDbLine
 10
1251.421356237369
 20
1276.824068553675
 30
0.0
 11
1301.421356237369
 21
1326.824068553675
 31
0.0
  0
LINE
  5
2C0
330
18
100
AcDbEntity
  8
0
100
AcDbLine
 10
1293.847763108562
 20
1319.250475424868
 30
0.0
 11
1336.274169979755
 21
1276.824068553675
 31
0.0
  0
LINE
  5
2C1
330
18
100
AcDbEntity
  8
0
100
AcDbLine
 10
1279.705627484831
 20
1305.108339801137
 30
0.0
 11
1307.989898732293
 21
1276.824068553675
 31
0.0
  0
LINE
  5
2C2
330
18
100
AcDbEntity
  8
0
100
AcDbLine
 10
1265.5634918611
 20
1290.966204177406
 30
0.0
 11
1279.70562748483
 21
1276.824068553675
 31
0.0
  0
INSERT
  5
2C4
330
18
100
AcDbEntity
  8
NAZORI
100
AcDbBlockReference
  2
*X9
 10
0.0
 20
0.0
 30
0.0
1001
ACAD
1000
HATCH
1002
{
1070
    16
1000
HONEY
1040
100.0
1040
0.7853981633974483
1002
}
  0
MTEXT
  5
300
330
18
100
AcDbEntity
  8
0
100
AcDbMText
 10
842.0187656169229
 20
333.5346459976395
 30
0.0
 40
30.0
 41
371.0
 71
     1
 72
     5
  1
{\C1;製品長 Ｌ＝0.600ｍ}
  7
BIGFONT
 73
     1
 44
1.0
  0
LINE
  5
388
330
18
100
AcDbEntity
  8
0
100
AcDbLine
 10
1260.000000000059
 20
450.0000000000422
 30
0.0
 11
1710.000000000059
 21
450.0000000000422
 31
0.0
  0
LINE
  5
38D
330
18
100
AcDbEntity
  8
KL
100
AcDbLine
 10
1250.000000000059
 20
390.0000000000423
 30
0.0
 11
1310.00000000006
 21
390.0000000000424
 31
0.0
  0
LINE
  5
394
330
18
100
AcDbEntity
  8
KL
100
AcDbLine
 10
1660.000000000059
 20
390.0000000000423
 30
0.0
 11
1720.00000000006
 21
390.0000000000423
 31
0.0
  0
HATCH
  5
3C6
330
18
100
AcDbEntity
  8
NAZORI
100
AcDbHatch
 10
0.0
 20
0.0
 30
0.0
210
0.0
220
0.0
230
1.0
  2
AR-SAND
 70
     0
 71
     0
 91
        2
 92
        7
 72
     0
 73
     1
 93
        4
 10
1492.230332849164
 20
450.0000000000423
 10
1260.000000000059
 20
450.0000000000422
 10
1260.00000000006
 20
400.0000000000422
 10
1515.547046601108
 20
400.0000000000423
 97
        0
 92
        7
 72
     0
 73
     1
 93
        4
 10
1710.000000000059
 20
450.0000000000422
 10
1492.230332849164
 20
450.0000000000422
 10
1515.547046601108
 20
400.0000000000422
 10
1710.000000000059
 20
400.0000000000422
 97
        0
 75
     0
 76
     1
 52
0.0
 41
15.0
 77
     0
 78
     4
 53
37.5
 43
1260.000000000059
 44
400.0000000000422
 45
-0.9449003716441223
 46
28.90235653519738
 79
     6
 49
0.0
 49
-22.8
 49
0.0
 49
-25.5
 49
0.0
 49
-24.375
 53
7.499999999999999
 43
1260.000000000059
 44
400.0000000000422
 45
26.54665057901591
 46
42.3321909784461
 79
     6
 49
0.0
 49
-12.3
 49
0.0
 49
-20.55
 49
0.0
 49
-7.875
 53
327.5
 43
1241.550000000059
 44
400.0000000000422
 45
46.71212792627243
 46
0.0848858030544675
 79
     6
 49
0.0
 49
-7.5
 49
0.0
 49
-27.0
 49
0.0
 49
-35.25
 53
317.5
 43
1241.550000000059
 44
400.0000000000422
 45
45.0918990685844
 46
13.16513347401374
 79
     6
 49
0.0
 49
-3.75
 49
0.0
 49
-17.7
 49
0.0
 49
-20.25
 47
2.555696217037905
 98
        2
 10
1354.675720154266
 20
421.3258842043601
 10
1538.777676924218
 20
423.8815818304624
1001
ACAD
1010
1260.000000000059
1020
400.0000000000422
1030
0.0
  0
HATCH
  5
3F6
330
18
100
AcDbEntity
  8
NAZORI
100
AcDbHatch
 10
0.0
 20
0.0
 30
0.0
210
0.0
220
0.0
230
1.0
  2
HONEY
 70
     0
 71
     0
 91
        1
 92
        7
 72
     1
 73
     1
 93
        5
 10
1710.000000000059
 20
1050.000000000042
 42
0.0
 10
1531.818634304195
 20
1050.000000000042
 42
0.0
 10
1552.834421853607
 20
926.5938289475775
 42
-0.1372949046496967
 10
1587.928683368402
 20
878.8031717783827
 42
0.0
 10
1710.000000000059
 20
835.3474023851259
 42
0.0
 97
        0
 75
     0
 76
     1
 52
15.0
 41
150.0
 77
     0
 78
     3
 53
15.0
 43
1531.818634304195
 44
835.3474023851259
 45
22.96396635695764
 46
22.96396627005191
 79
     2
 49
18.75
 49
-37.5
 53
135.0
 43
1531.818634304195
 44
835.3474023851259
 45
-31.36936133999276
 46
8.405395101750547
 79
     2
 49
18.75
 49
-37.5
 53
74.99999999999999
 43
1531.818634304195
 44
835.3474023851259
 45
-8.405394983035114
 46
31.36936137180246
 79
     2
 49
-37.5
 49
18.75
 47
2.555696217037905
 98
        1
 10
1638.499572633369
 20
986.1347496264075
1001
ACAD
1010
1531.818634304195
1020
835.3474023851259
1030
0.0
  0
HATCH
  5
40D
330
18
100
AcDbEntity
  8
NAZORI
100
AcDbHatch
 10
0.0
 20
0.0
 30
0.0
210
0.0
220
0.0
230
1.0
  2
HONEY
 70
     0
 71
     0
 91
        1
 92
        7
 72
     0
 73
     1
 93
        4
 10
1418.600016436494
 20
607.8917106330003
 10
1260.000000000059
 20
657.9509447981717
 10
1260.000000000059
 20
450.0000000000422
 10
1492.230332849164
 20
450.0000000000422
 97
        0
 75
     0
 76
     1
 52
15.0
 41
150.0
 77
     0
 78
     3
 53
15.0
 43
1260.000000000059
 44
450.0000000000422
 45
22.96396635695764
 46
22.96396627005191
 79
     2
 49
18.75
 49
-37.5
 53
135.0
 43
1260.000000000059
 44
450.0000000000422
 45
-31.36936133999276
 46
8.405395101750547
 79
     2
 49
18.75
 49
-37.5
 53
74.99999999999999
 43
1260.000000000059
 44
450.0000000000422
 45
-8.405394983035114
 46
31.36936137180246
 79
     2
 49
-37.5
 49
18.75
 47
2.555696217037905
 98
        1
 10
1272.852631534855
 20
533.7765204983729
1001
ACAD
1010
1260.000000000059
1020
450.0000000000422
1030
0.0
  0
LWPOLYLINE
  5
435
330
18
100
AcDbEntity
  8
KL
  6
ByBlock
 62
     0
 48
2.0
100
AcDbPolyline
 90
        4
 70
     1
 43
0.0
 10
2745.00000000006
 20
2405.391627050197
 10
2745.00000000006
 20
-1158.608372949802
 10
225.0000000000589
 20
-1158.608372949802
 10
225.0000000000596
 20
2405.391627050197
  0
ENDSEC
  0
SECTION
  2
OBJECTS
  0
DICTIONARY
  5
C
330
0
100
AcDbDictionary
281
     1
  3
ACAD_COLOR
350
35D
  3
ACAD_GROUP
350
D
  3
ACAD_LAYOUT
350
2D0
  3
ACAD_MATERIAL
350
333
  3
ACAD_MLEADERSTYLE
350
382
  3
ACAD_MLINESTYLE
350
E
  3
ACAD_PLOTSETTINGS
350
2D1
  3
ACAD_PLOTSTYLENAME
350
2CE
  3
ACAD_SCALELIST
350
360
  3
ACAD_TABLESTYLE
350
35E
  3
ACAD_VISUALSTYLE
350
34C
  3
ACDB_RECOMPOSE_DATA
350
422
  3
AcDbVariableDictionary
350
2D8
  0
DICTIONARY
  5
40E
330
F
100
AcDbDictionary
280
     1
281
     1
  3
ADSK_XREC_LAYER_RECONCILED
360
40F
  0
DICTIONARY
  5
410
330
49
100
AcDbDictionary
280
     1
281
     1
  3
ADSK_XREC_LAYER_RECONCILED
360
411
  0
DICTIONARY
  5
412
330
4D
100
AcDbDictionary
280
     1
281
     1
  3
ADSK_XREC_LAYER_RECONCILED
360
413
  0
DICTIONARY
  5
414
330
4E
100
AcDbDictionary
280
     1
281
     1
  3
ADSK_XREC_LAYER_RECONCILED
360
415
  0
DICTIONARY
  5
416
330
4F
100
AcDbDictionary
280
     1
281
     1
  3
ADSK_XREC_LAYER_RECONCILED
360
417
  0
DICTIONARY
  5
389
330
18
100
AcDbDictionary
280
     1
281
     1
  3
ACAD_SORTENTS
360
38A
  0
DICTIONARY
  5
35D
102
{ACAD_REACTORS
330
C
102
}
330
C
100
AcDbDictionary
281
     1
  0
DICTIONARY
  5
D
102
{ACAD_REACTORS
330
C
102
}
330
C
100
AcDbDictionary
281
     1
  0
DICTIONARY
  5
2D0
102
{ACAD_REACTORS
330
C
102
}
330
C
100
AcDbDictionary
281
     1
  3
Model
350
2D2
  3
ﾚｲｱｳﾄ1
350
2D3
  0
DICTIONARY
  5
333
102
{ACAD_REACTORS
330
C
102
}
330
C
100
AcDbDictionary
281
     1
  3
ByBlock
350
33C
  3
ByLayer
350
334
  3
Global
350
344
  0
DICTIONARY
  5
382
102
{ACAD_REACTORS
330
C
102
}
330
C
100
AcDbDictionary
281
     1
  3
Standard
350
383
  0
DICTIONARY
  5
E
102
{ACAD_REACTORS
330
C
102
}
330
C
100
AcDbDictionary
281
     1
  3
STANDARD
350
1B
  0
DICTIONARY
  5
2D1
102
{ACAD_REACTORS
330
C
102
}
330
C
100
AcDbDictionary
281
     1
  0
ACDBDICTIONARYWDFLT
  5
2CE
102
{ACAD_REACTORS
330
C
102
}
330
C
100
AcDbDictionary
281
     1
  3
Normal
350
2CF
100
AcDbDictionaryWithDefault
340
2CF
  0
DICTIONARY
  5
360
102
{ACAD_REACTORS
330
C
102
}
330
C
100
AcDbDictionary
281
     1
  3
A0
350
361
  3
A1
350
362
  3
A2
350
363
  3
A3
350
364
  3
A4
350
365
  3
A5
350
366
  3
A6
350
367
  3
A7
350
368
  3
A8
350
369
  3
A9
350
36A
  3
B0
350
36B
  3
B1
350
36C
  3
B2
350
36D
  3
B3
350
36E
  3
B4
350
36F
  3
B5
350
370
  3
B6
350
371
  3
B7
350
372
  3
B8
350
373
  3
B9
350
374
  3
C0
350
375
  3
C1
350
376
  3
C2
350
377
  3
C3
350
378
  3
C4
350
379
  3
C5
350
37A
  3
C6
350
37B
  3
C7
350
37C
  3
C8
350
37D
  3
C9
350
37E
  3
D0
350
37F
  3
D1
350
380
  3
D2
350
381
  0
DICTIONARY
  5
35E
102
{ACAD_REACTORS
330
C
102
}
330
C
100
AcDbDictionary
281
     1
  3
Standard
350
35F
  0
DICTIONARY
  5
34C
102
{ACAD_REACTORS
330
C
102
}
330
C
100
AcDbDictionary
281
     1
  3
2dWireframe
350
352
  3
3D Hidden
350
354
  3
3dWireframe
350
353
  3
Basic
350
351
  3
Brighten
350
358
  3
ColorChange
350
35C
  3
Conceptual
350
355
  3
Dim
350
357
  3
Facepattern
350
35B
  3
Flat
350
34D
  3
FlatWithEdges
350
34E
  3
Gouraud
350
34F
  3
GouraudWithEdges
350
350
  3
Linepattern
350
35A
  3
Realistic
350
356
  3
Thicken
350
359
  0
XRECORD
  5
422
102
{ACAD_REACTORS
330
C
102
}
330
C
100
AcDbXrecord
280
     1
 90
        1
330
35F
  0
DICTIONARY
  5
2D8
102
{ACAD_REACTORS
330
C
102
}
330
C
100
AcDbDictionary
281
     1
  3
CANNOSCALE
350
426
  3
CMLEADERSTYLE
350
424
  3
CTABLESTYLE
350
423
  3
LIGHTINGUNITS
350
427
  3
MSLTSCALE
350
425
  3
SORTENTS
350
2D9
  0
XRECORD
  5
40F
102
{ACAD_REACTORS
330
40E
102
}
330
40E
100
AcDbXrecord
280
     1
290
     1
  0
XRECORD
  5
411
102
{ACAD_REACTORS
330
410
102
}
330
410
100
AcDbXrecord
280
     1
290
     1
  0
XRECORD
  5
413
102
{ACAD_REACTORS
330
412
102
}
330
412
100
AcDbXrecord
280
     1
290
     1
  0
XRECORD
  5
415
102
{ACAD_REACTORS
330
414
102
}
330
414
100
AcDbXrecord
280
     1
290
     1
  0
XRECORD
  5
417
102
{ACAD_REACTORS
330
416
102
}
330
416
100
AcDbXrecord
280
     1
290
     1
  0
SORTENTSTABLE
  5
38A
102
{ACAD_REACTORS
330
389
102
}
330
389
100
AcDbSortentsTable
330
18
331
2B1
  5
2C1
331
2BB
  5
3A9
331
29D
  5
2B3
331
40D
  5
286
331
28A
  5
2A3
331
2B2
  5
2C2
331
29E
  5
2B4
331
28B
  5
2A4
331
2B3
  5
2C4
331
295
  5
2AF
331
281
  5
281
331
2C0
  5
3AB
331
28C
  5
2A5
331
38D
  5
28E
331
2AA
  5
2B8
331
300
  5
3C8
331
296
  5
2B0
331
2B4
  5
300
331
282
  5
287
331
3F6
  5
290
331
28D
  5
2AA
331
2C1
  5
3AC
331
2B5
  5
388
331
297
  5
2B1
331
283
  5
289
331
2BF
  5
3AA
331
2C2
  5
3AD
331
28E
  5
2AC
331
2AC
  5
2B9
331
2B6
  5
38B
331
284
  5
295
331
28F
  5
2AD
331
2AD
  5
2BA
331
3C6
  5
282
331
2B7
  5
38C
331
285
  5
296
331
2A3
  5
2B5
331
2C4
  5
3C7
331
2AE
  5
2BB
331
290
  5
2AE
331
2B8
  5
38D
331
2A4
  5
2B6
331
388
  5
297
331
2AF
  5
2BF
331
2B9
  5
394
331
287
  5
29C
331
2A5
  5
2B7
331
288
  5
29D
331
2B0
  5
2C0
331
2BA
  5
3A8
331
29C
  5
2B2
331
394
  5
28F
331
289
  5
29E
  0
LAYOUT
  5
2D2
102
{ACAD_REACTORS
330
2D0
102
}
330
2D0
100
AcDbPlotSettings
  1

  2
EPSON LP-8000SX
  4

  6

 40
0.0
 41
0.0
 42
0.0
 43
0.0
 44
0.0
 45
0.0
 46
0.0
 47
0.0
 48
0.0
 49
0.0
140
0.0
141
0.0
142
1.0
143
1.0
 70
  1712
 72
     0
 73
     0
 74
     0
  7

 75
     0
147
1.0
 76
     0
 77
     2
 78
   300
148
0.0
149
0.0
100
AcDbLayout
  1
Model
 70
     1
 71
     0
 10
0.0
 20
0.0
 11
12.0
 21
9.0
 12
0.0
 22
0.0
 32
0.0
 14
0.0
 24
0.0
 34
0.0
 15
0.0
 25
0.0
 35
0.0
146
0.0
 13
0.0
 23
0.0
 33
0.0
 16
1.0
 26
0.0
 36
0.0
 17
0.0
 27
1.0
 37
0.0
 76
     0
330
18
331
331
  0
LAYOUT
  5
2D3
102
{ACAD_REACTORS
330
2D0
102
}
330
2D0
100
AcDbPlotSettings
  1

  2
EPSON LP-8000SX
  4

  6

 40
0.0
 41
0.0
 42
0.0
 43
0.0
 44
0.0
 45
0.0
 46
0.0
 47
0.0
 48
0.0
 49
0.0
140
0.0
141
0.0
142
1.0
143
1.0
 70
   688
 72
     0
 73
     0
 74
     5
  7

 75
    16
147
1.0
 76
     0
 77
     2
 78
   300
148
0.0
149
0.0
100
AcDbLayout
  1
ﾚｲｱｳﾄ1
 70
     1
 71
     1
 10
0.0
 20
0.0
 11
12.0
 21
9.0
 12
0.0
 22
0.0
 32
0.0
 14
1.000000000000000E+20
 24
1.000000000000000E+20
 34
1.000000000000000E+20
 15
-1.000000000000000E+20
 25
-1.000000000000000E+20
 35
-1.000000000000000E+20
146
0.0
 13
0.0
 23
0.0
 33
0.0
 16
1.0
 26
0.0
 36
0.0
 17
0.0
 27
1.0
 37
0.0
 76
     0
330
15
  0
MATERIAL
  5
33C
102
{ACAD_XDICTIONARY
360
33D
102
}
102
{ACAD_REACTORS
330
333
102
}
330
333
100
AcDbMaterial
  1
ByBlock
 72
     0
 43
0.0208333333333333
 43
0.0
 43
0.0
 43
0.0
 43
0.0
 43
0.0208333333333333
 43
0.0
 43
0.0
 43
0.0
 43
0.0
 43
1.0
 43
0.0
 43
0.0
 43
0.0
 43
0.0
 43
1.0
 77
     0
 47
0.0208333333333333
 47
0.0
 47
0.0
 47
0.0
 47
0.0
 47
0.0208333333333333
 47
0.0
 47
0.0
 47
0.0
 47
0.0
 47
1.0
 47
0.0
 47
0.0
 47
0.0
 47
0.0
 47
1.0
171
     0
 49
0.0208333333333333
 49
0.0
 49
0.0
 49
0.0
 49
0.0
 49
0.0208333333333333
 49
0.0
 49
0.0
 49
0.0
 49
0.0
 49
1.0
 49
0.0
 49
0.0
 49
0.0
 49
0.0
 49
1.0
175
     0
142
0.0208333333333333
142
0.0
142
0.0
142
0.0
142
0.0
142
0.0208333333333333
142
0.0
142
0.0
142
0.0
142
0.0
142
1.0
142
0.0
142
0.0
142
0.0
142
0.0
142
1.0
179
     0
144
0.0208333333333333
144
0.0
144
0.0
144
0.0
144
0.0
144
0.0208333333333333
144
0.0
144
0.0
144
0.0
144
0.0
144
1.0
144
0.0
144
0.0
144
0.0
144
0.0
144
1.0
147
0.0208333333333333
147
0.0
147
0.0
147
0.0
147
0.0
147
0.0208333333333333
147
0.0
147
0.0
147
0.0
147
0.0
147
1.0
147
0.0
147
0.0
147
0.0
147
0.0
147
1.0
  0
MATERIAL
  5
334
102
{ACAD_XDICTIONARY
360
335
102
}
102
{ACAD_REACTORS
330
333
102
}
330
333
100
AcDbMaterial
  1
ByLayer
 72
     0
 43
0.0208333333333333
 43
0.0
 43
0.0
 43
0.0
 43
0.0
 43
0.0208333333333333
 43
0.0
 43
0.0
 43
0.0
 43
0.0
 43
1.0
 43
0.0
 43
0.0
 43
0.0
 43
0.0
 43
1.0
 77
     0
 47
0.0208333333333333
 47
0.0
 47
0.0
 47
0.0
 47
0.0
 47
0.0208333333333333
 47
0.0
 47
0.0
 47
0.0
 47
0.0
 47
1.0
 47
0.0
 47
0.0
 47
0.0
 47
0.0
 47
1.0
171
     0
 49
0.0208333333333333
 49
0.0
 49
0.0
 49
0.0
 49
0.0
 49
0.0208333333333333
 49
0.0
 49
0.0
 49
0.0
 49
0.0
 49
1.0
 49
0.0
 49
0.0
 49
0.0
 49
0.0
 49
1.0
175
     0
142
0.0208333333333333
142
0.0
142
0.0
142
0.0
142
0.0
142
0.0208333333333333
142
0.0
142
0.0
142
0.0
142
0.0
142
1.0
142
0.0
142
0.0
142
0.0
142
0.0
142
1.0
179
     0
144
0.0208333333333333
144
0.0
144
0.0
144
0.0
144
0.0
144
0.0208333333333333
144
0.0
144
0.0
144
0.0
144
0.0
144
1.0
144
0.0
144
0.0
144
0.0
144
0.0
144
1.0
147
0.0208333333333333
147
0.0
147
0.0
147
0.0
147
0.0
147
0.0208333333333333
147
0.0
147
0.0
147
0.0
147
0.0
147
1.0
147
0.0
147
0.0
147
0.0
147
0.0
147
1.0
  0
MATERIAL
  5
344
102
{ACAD_XDICTIONARY
360
345
102
}
102
{ACAD_REACTORS
330
333
102
}
330
333
100
AcDbMaterial
  1
Global
 72
     0
 43
0.0208333333333333
 43
0.0
 43
0.0
 43
0.0
 43
0.0
 43
0.0208333333333333
 43
0.0
 43
0.0
 43
0.0
 43
0.0
 43
1.0
 43
0.0
 43
0.0
 43
0.0
 43
0.0
 43
1.0
 77
     0
 47
0.0208333333333333
 47
0.0
 47
0.0
 47
0.0
 47
0.0
 47
0.0208333333333333
 47
0.0
 47
0.0
 47
0.0
 47
0.0
 47
1.0
 47
0.0
 47
0.0
 47
0.0
 47
0.0
 47
1.0
171
     0
 49
0.0208333333333333
 49
0.0
 49
0.0
 49
0.0
 49
0.0
 49
0.0208333333333333
 49
0.0
 49
0.0
 49
0.0
 49
0.0
 49
1.0
 49
0.0
 49
0.0
 49
0.0
 49
0.0
 49
1.0
175
     0
142
0.0208333333333333
142
0.0
142
0.0
142
0.0
142
0.0
142
0.0208333333333333
142
0.0
142
0.0
142
0.0
142
0.0
142
1.0
142
0.0
142
0.0
142
0.0
142
0.0
142
1.0
179
     0
144
0.0208333333333333
144
0.0
144
0.0
144
0.0
144
0.0
144
0.0208333333333333
144
0.0
144
0.0
144
0.0
144
0.0
144
1.0
144
0.0
144
0.0
144
0.0
144
0.0
144
1.0
147
0.0208333333333333
147
0.0
147
0.0
147
0.0
147
0.0
147
0.0208333333333333
147
0.0
147
0.0
147
0.0
147
0.0
147
1.0
147
0.0
147
0.0
147
0.0
147
0.0
147
1.0
  0
MLEADERSTYLE
  5
383
102
{ACAD_REACTORS
330
382
102
}
330
382
100
AcDbMLeaderStyle
170
     2
171
     1
172
     0
 90
        2
 40
0.0
 41
0.0
173
     1
 91
-1056964608
340
12
 92
       -2
290
     1
 42
0.09
291
     1
 43
0.36
  3
Standard
 44
0.18
300

342
10
174
     1
178
     6
175
     1
176
     0
 93
-1056964608
 45
0.18
292
     0
297
     0
 46
0.18
 94
-1056964608
 47
1.0
 49
1.0
140
1.0
293
     1
141
0.0
294
     1
177
     0
142
1.0
295
     0
296
     0
143
0.125
1001
ACAD_MLEADERVER
1070
     2
  0
MLINESTYLE
  5
1B
102
{ACAD_REACTORS
330
E
102
}
330
E
100
AcDbMlineStyle
  2
STANDARD
 70
     0
  3

 62
     0
 51
90.0
 52
90.0
 71
     2
 49
0.5
 62
   256
  6
BYLAYER
 49
-0.5
 62
   256
  6
BYLAYER
  0
ACDBPLACEHOLDER
  5
2CF
102
{ACAD_REACTORS
330
2CE
102
}
330
2CE
  0
SCALE
  5
361
102
{ACAD_REACTORS
330
360
102
}
330
360
100
AcDbScale
 70
     0
300
1:1
140
1.0
141
1.0
290
     1
  0
SCALE
  5
362
102
{ACAD_REACTORS
330
360
102
}
330
360
100
AcDbScale
 70
     0
300
1:2
140
1.0
141
2.0
290
     0
  0
SCALE
  5
363
102
{ACAD_REACTORS
330
360
102
}
330
360
100
AcDbScale
 70
     0
300
1:4
140
1.0
141
4.0
290
     0
  0
SCALE
  5
364
102
{ACAD_REACTORS
330
360
102
}
330
360
100
AcDbScale
 70
     0
300
1:5
140
1.0
141
5.0
290
     0
  0
SCALE
  5
365
102
{ACAD_REACTORS
330
360
102
}
330
360
100
AcDbScale
 70
     0
300
1:8
140
1.0
141
8.0
290
     0
  0
SCALE
  5
366
102
{ACAD_REACTORS
330
360
102
}
330
360
100
AcDbScale
 70
     0
300
1:10
140
1.0
141
10.0
290
     0
  0
SCALE
  5
367
102
{ACAD_REACTORS
330
360
102
}
330
360
100
AcDbScale
 70
     0
300
1:16
140
1.0
141
16.0
290
     0
  0
SCALE
  5
368
102
{ACAD_REACTORS
330
360
102
}
330
360
100
AcDbScale
 70
     0
300
1:20
140
1.0
141
20.0
290
     0
  0
SCALE
  5
369
102
{ACAD_REACTORS
330
360
102
}
330
360
100
AcDbScale
 70
     0
300
1:30
140
1.0
141
30.0
290
     0
  0
SCALE
  5
36A
102
{ACAD_REACTORS
330
360
102
}
330
360
100
AcDbScale
 70
     0
300
1:40
140
1.0
141
40.0
290
     0
  0
SCALE
  5
36B
102
{ACAD_REACTORS
330
360
102
}
330
360
100
AcDbScale
 70
     0
300
1:50
140
1.0
141
50.0
290
     0
  0
SCALE
  5
36C
102
{ACAD_REACTORS
330
360
102
}
330
360
100
AcDbScale
 70
     0
300
1:100
140
1.0
141
100.0
290
     0
  0
SCALE
  5
36D
102
{ACAD_REACTORS
330
360
102
}
330
360
100
AcDbScale
 70
     0
300
2:1
140
2.0
141
1.0
290
     0
  0
SCALE
  5
36E
102
{ACAD_REACTORS
330
360
102
}
330
360
100
AcDbScale
 70
     0
300
4:1
140
4.0
141
1.0
290
     0
  0
SCALE
  5
36F
102
{ACAD_REACTORS
330
360
102
}
330
360
100
AcDbScale
 70
     0
300
8:1
140
8.0
141
1.0
290
     0
  0
SCALE
  5
370
102
{ACAD_REACTORS
330
360
102
}
330
360
100
AcDbScale
 70
     0
300
10:1
140
10.0
141
1.0
290
     0
  0
SCALE
  5
371
102
{ACAD_REACTORS
330
360
102
}
330
360
100
AcDbScale
 70
     0
300
100:1
140
100.0
141
1.0
290
     0
  0
SCALE
  5
372
102
{ACAD_REACTORS
330
360
102
}
330
360
100
AcDbScale
 70
     0
300
1/128" = 1'-0"
140
0.0078125
141
12.0
290
     0
  0
SCALE
  5
373
102
{ACAD_REACTORS
330
360
102
}
330
360
100
AcDbScale
 70
     0
300
1/64" = 1'-0"
140
0.015625
141
12.0
290
     0
  0
SCALE
  5
374
102
{ACAD_REACTORS
330
360
102
}
330
360
100
AcDbScale
 70
     0
300
1/32" = 1'-0"
140
0.03125
141
12.0
290
     0
  0
SCALE
  5
375
102
{ACAD_REACTORS
330
360
102
}
330
360
100
AcDbScale
 70
     0
300
1/16" = 1'-0"
140
0.0625
141
12.0
290
     0
  0
SCALE
  5
376
102
{ACAD_REACTORS
330
360
102
}
330
360
100
AcDbScale
 70
     0
300
3/32" = 1'-0"
140
0.09375
141
12.0
290
     0
  0
SCALE
  5
377
102
{ACAD_REACTORS
330
360
102
}
330
360
100
AcDbScale
 70
     0
300
1/8" = 1'-0"
140
0.125
141
12.0
290
     0
  0
SCALE
  5
378
102
{ACAD_REACTORS
330
360
102
}
330
360
100
AcDbScale
 70
     0
300
3/16" = 1'-0"
140
0.1875
141
12.0
290
     0
  0
SCALE
  5
379
102
{ACAD_REACTORS
330
360
102
}
330
360
100
AcDbScale
 70
     0
300
1/4" = 1'-0"
140
0.25
141
12.0
290
     0
  0
SCALE
  5
37A
102
{ACAD_REACTORS
330
360
102
}
330
360
100
AcDbScale
 70
     0
300
3/8" = 1'-0"
140
0.375
141
12.0
290
     0
  0
SCALE
  5
37B
102
{ACAD_REACTORS
330
360
102
}
330
360
100
AcDbScale
 70
     0
300
1/2" = 1'-0"
140
0.5
141
12.0
290
     0
  0
SCALE
  5
37C
102
{ACAD_REACTORS
330
360
102
}
330
360
100
AcDbScale
 70
     0
300
3/4" = 1'-0"
140
0.75
141
12.0
290
     0
  0
SCALE
  5
37D
102
{ACAD_REACTORS
330
360
102
}
330
360
100
AcDbScale
 70
     0
300
1" = 1'-0"
140
1.0
141
12.0
290
     0
  0
SCALE
  5
37E
102
{ACAD_REACTORS
330
360
102
}
330
360
100
AcDbScale
 70
     0
300
1-1/2" = 1'-0"
140
1.5
141
12.0
290
     0
  0
SCALE
  5
37F
102
{ACAD_REACTORS
330
360
102
}
330
360
100
AcDbScale
 70
     0
300
3" = 1'-0"
140
3.0
141
12.0
290
     0
  0
SCALE
  5
380
102
{ACAD_REACTORS
330
360
102
}
330
360
100
AcDbScale
 70
     0
300
6" = 1'-0"
140
6.0
141
12.0
290
     0
  0
SCALE
  5
381
102
{ACAD_REACTORS
330
360
102
}
330
360
100
AcDbScale
 70
     0
300
1'-0" = 1'-0"
140
12.0
141
12.0
290
     0
  0
TABLESTYLE
  5
35F
102
{ACAD_XDICTIONARY
360
420
102
}
102
{ACAD_REACTORS
330
35E
102
}
330
35E
100
AcDbTableStyle
  3
Standard
 70
     0
 71
     0
 40
0.06
 41
0.06
280
     0
281
     0
  7
STANDARD
140
0.18
170
     2
 62
     0
 63
     7
283
     0
274
    -2
284
     1
 64
     0
275
    -2
285
     1
 65
     0
276
    -2
286
     1
 66
     0
277
    -2
287
     1
 67
     0
278
    -2
288
     1
 68
     0
279
    -2
289
     1
 69
     0
  7
STANDARD
140
0.25
170
     5
 62
     0
 63
     7
283
     0
274
    -2
284
     1
 64
     0
275
    -2
285
     1
 65
     0
276
    -2
286
     1
 66
     0
277
    -2
287
     1
 67
     0
278
    -2
288
     1
 68
     0
279
    -2
289
     1
 69
     0
  7
STANDARD
140
0.18
170
     5
 62
     0
 63
     7
283
     0
274
    -2
284
     1
 64
     0
275
    -2
285
     1
 65
     0
276
    -2
286
     1
 66
     0
277
    -2
287
     1
 67
     0
278
    -2
288
     1
 68
     0
279
    -2
289
     1
 69
     0
  0
VISUALSTYLE
  5
352
102
{ACAD_REACTORS
330
34C
102
}
330
34C
100
AcDbVisualStyle
  2
2dWireframe
 70
     4
 71
     0
 72
     2
 73
     0
 90
        0
 40
-0.6
 41
-30.0
 62
     5
 63
     7
421
 16777215
 74
     1
 91
        4
 64
     7
 65
   257
 75
     1
175
     1
 42
1.0
 92
        0
 66
   257
 43
1.0
 76
     1
 77
     6
 78
     2
 67
     7
 79
     5
170
     0
171
     0
290
     0
174
     0
 93
        1
 44
0.0
173
     0
291
     0
 45
0.0
1001
ACAD
1000
AcDbSavedByObjectVersion
1070
     0
  0
VISUALSTYLE
  5
354
102
{ACAD_REACTORS
330
34C
102
}
330
34C
100
AcDbVisualStyle
  2
3D Hidden
 70
     6
 71
     1
 72
     2
 73
     2
 90
        0
 40
-0.6
 41
-30.0
 62
     5
 63
     7
421
 16777215
 74
     2
 91
        2
 64
     7
 65
   257
 75
     2
175
     1
 42
40.0
 92
        0
 66
   257
 43
1.0
 76
     1
 77
     6
 78
     2
 67
     7
 79
     3
170
     0
171
     0
290
     0
174
     0
 93
        1
 44
0.0
173
     0
291
     0
 45
0.0
1001
ACAD
1000
AcDbSavedByObjectVersion
1070
     0
  0
VISUALSTYLE
  5
353
102
{ACAD_REACTORS
330
34C
102
}
330
34C
100
AcDbVisualStyle
  2
3dWireframe
 70
     5
 71
     0
 72
     2
 73
     0
 90
        0
 40
-0.6
 41
-30.0
 62
     5
 63
     7
421
 16777215
 74
     1
 91
        4
 64
     7
 65
   257
 75
     1
175
     1
 42
1.0
 92
        0
 66
   257
 43
1.0
 76
     1
 77
     6
 78
     2
 67
     7
 79
     5
170
     0
171
     0
290
     0
174
     0
 93
        1
 44
0.0
173
     0
291
     0
 45
0.0
1001
ACAD
1000
AcDbSavedByObjectVersion
1070
     0
  0
VISUALSTYLE
  5
351
102
{ACAD_REACTORS
330
34C
102
}
330
34C
100
AcDbVisualStyle
  2
Basic
 70
     7
 71
     1
 72
     0
 73
     1
 90
        0
 40
-0.6
 41
-30.0
 62
     5
 63
     7
421
 16777215
 74
     0
 91
        4
 64
     7
 65
   257
 75
     1
175
     1
 42
1.0
 92
        8
 66
     7
 43
1.0
 76
     1
 77
     6
 78
     2
 67
     7
 79
     5
170
     0
171
     0
290
     0
174
     0
 93
        1
 44
0.0
173
     0
291
     1
 45
0.0
1001
ACAD
1000
AcDbSavedByObjectVersion
1070
     0
  0
VISUALSTYLE
  5
358
102
{ACAD_REACTORS
330
34C
102
}
330
34C
100
AcDbVisualStyle
  2
Brighten
 70
    12
 71
     2
 72
     2
 73
     0
 90
        0
 40
-0.6
 41
-30.0
 62
     5
 63
     7
421
 16777215
 74
     1
 91
        4
 64
     7
 65
   257
 75
     1
175
     1
 42
1.0
 92
        8
 66
     7
 43
1.0
 76
     1
 77
     6
 78
     2
 67
     7
 79
     5
170
     0
171
     0
290
     0
174
     0
 93
        1
 44
50.0
173
     0
291
     1
 45
0.0
1001
ACAD
1000
AcDbSavedByObjectVersion
1070
     0
  0
VISUALSTYLE
  5
35C
102
{ACAD_REACTORS
330
34C
102
}
330
34C
100
AcDbVisualStyle
  2
ColorChange
 70
    16
 71
     2
 72
     2
 73
     3
 90
        0
 40
-0.6
 41
-30.0
 62
     5
 63
     8
421
  8421504
 74
     1
 91
        4
 64
     7
 65
   257
 75
     1
175
     1
 42
1.0
 92
        8
 66
     8
424
  8421504
 43
1.0
 76
     1
 77
     6
 78
     2
 67
     7
 79
     5
170
     0
171
     0
290
     0
174
     0
 93
        1
 44
0.0
173
     0
291
     1
 45
0.0
1001
ACAD
1000
AcDbSavedByObjectVersion
1070
     0
  0
VISUALSTYLE
  5
355
102
{ACAD_REACTORS
330
34C
102
}
330
34C
100
AcDbVisualStyle
  2
Conceptual
 70
     9
 71
     3
 72
     2
 73
     0
 90
        0
 40
-0.6
 41
-30.0
 62
     5
 63
     7
421
 16777215
 74
     2
 91
        2
 64
     7
 65
   257
 75
     1
175
     1
 42
40.0
 92
        8
 66
     7
 43
1.0
 76
     1
 77
     6
 78
     2
 67
     7
 79
     3
170
     0
171
     0
290
     0
174
     0
 93
        1
 44
0.0
173
     0
291
     0
 45
0.0
1001
ACAD
1000
AcDbSavedByObjectVersion
1070
     0
  0
VISUALSTYLE
  5
357
102
{ACAD_REACTORS
330
34C
102
}
330
34C
100
AcDbVisualStyle
  2
Dim
 70
    11
 71
     2
 72
     2
 73
     0
 90
        0
 40
-0.6
 41
-30.0
 62
     5
 63
     7
421
 16777215
 74
     1
 91
        4
 64
     7
 65
   257
 75
     1
175
     1
 42
1.0
 92
        8
 66
     7
 43
1.0
 76
     1
 77
     6
 78
     2
 67
     7
 79
     5
170
     0
171
     0
290
     0
174
     0
 93
        1
 44
-50.0
173
     0
291
     1
 45
0.0
1001
ACAD
1000
AcDbSavedByObjectVersion
1070
     0
  0
VISUALSTYLE
  5
35B
102
{ACAD_REACTORS
330
34C
102
}
330
34C
100
AcDbVisualStyle
  2
Facepattern
 70
    15
 71
     2
 72
     2
 73
     0
 90
        0
 40
-0.6
 41
-30.0
 62
     5
 63
     7
421
 16777215
 74
     1
 91
        4
 64
     7
 65
   257
 75
     1
175
     1
 42
1.0
 92
        8
 66
     7
 43
1.0
 76
     1
 77
     6
 78
     2
 67
     7
 79
     5
170
     0
171
     0
290
     0
174
     0
 93
        1
 44
0.0
173
     0
291
     1
 45
0.0
1001
ACAD
1000
AcDbSavedByObjectVersion
1070
     0
  0
VISUALSTYLE
  5
34D
102
{ACAD_REACTORS
330
34C
102
}
330
34C
100
AcDbVisualStyle
  2
Flat
 70
     0
 71
     2
 72
     1
 73
     1
 90
        2
 40
-0.6
 41
30.0
 62
     5
 63
     7
421
 16777215
 74
     0
 91
        4
 64
     7
 65
   257
 75
     1
175
     1
 42
1.0
 92
        8
 66
     7
 43
1.0
 76
     1
 77
     6
 78
     2
 67
     7
 79
     5
170
     0
171
     0
290
     0
174
     0
 93
       13
 44
0.0
173
     0
291
     1
 45
0.0
1001
ACAD
1000
AcDbSavedByObjectVersion
1070
     0
  0
VISUALSTYLE
  5
34E
102
{ACAD_REACTORS
330
34C
102
}
330
34C
100
AcDbVisualStyle
  2
FlatWithEdges
 70
     1
 71
     2
 72
     1
 73
     1
 90
        2
 40
-0.6
 41
30.0
 62
     5
 63
     7
421
 16777215
 74
     1
 91
        4
 64
     7
 65
   257
 75
     1
175
     1
 42
1.0
 92
        0
 66
   257
 43
1.0
 76
     1
 77
     6
 78
     2
 67
     7
 79
     5
170
     0
171
     0
290
     0
174
     0
 93
       13
 44
0.0
173
     0
291
     1
 45
0.0
1001
ACAD
1000
AcDbSavedByObjectVersion
1070
     0
  0
VISUALSTYLE
  5
34F
102
{ACAD_REACTORS
330
34C
102
}
330
34C
100
AcDbVisualStyle
  2
Gouraud
 70
     2
 71
     2
 72
     2
 73
     1
 90
        2
 40
-0.6
 41
30.0
 62
     5
 63
     7
421
 16777215
 74
     0
 91
        4
 64
     7
 65
   257
 75
     1
175
     1
 42
1.0
 92
        0
 66
     7
 43
1.0
 76
     1
 77
     6
 78
     2
 67
     7
 79
     5
170
     0
171
     0
290
     0
174
     0
 93
       13
 44
0.0
173
     0
291
     1
 45
0.0
1001
ACAD
1000
AcDbSavedByObjectVersion
1070
     0
  0
VISUALSTYLE
  5
350
102
{ACAD_REACTORS
330
34C
102
}
330
34C
100
AcDbVisualStyle
  2
GouraudWithEdges
 70
     3
 71
     2
 72
     2
 73
     1
 90
        2
 40
-0.6
 41
30.0
 62
     5
 63
     7
421
 16777215
 74
     1
 91
        4
 64
     7
 65
   257
 75
     1
175
     1
 42
1.0
 92
        0
 66
   257
 43
1.0
 76
     1
 77
     6
 78
     2
 67
     7
 79
     5
170
     0
171
     0
290
     0
174
     0
 93
       13
 44
0.0
173
     0
291
     1
 45
0.0
1001
ACAD
1000
AcDbSavedByObjectVersion
1070
     0
  0
VISUALSTYLE
  5
35A
102
{ACAD_REACTORS
330
34C
102
}
330
34C
100
AcDbVisualStyle
  2
Linepattern
 70
    14
 71
     2
 72
     2
 73
     0
 90
        0
 40
-0.6
 41
-30.0
 62
     5
 63
     7
421
 16777215
 74
     1
 91
        4
 64
     7
 65
   257
 75
     7
175
     7
 42
1.0
 92
        8
 66
     7
 43
1.0
 76
     1
 77
     6
 78
     2
 67
     7
 79
     5
170
     0
171
     0
290
     0
174
     0
 93
        1
 44
0.0
173
     0
291
     1
 45
0.0
1001
ACAD
1000
AcDbSavedByObjectVersion
1070
     0
  0
VISUALSTYLE
  5
356
102
{ACAD_REACTORS
330
34C
102
}
330
34C
100
AcDbVisualStyle
  2
Realistic
 70
     8
 71
     2
 72
     2
 73
     0
 90
        0
 40
-0.6
 41
-30.0
 62
     5
 63
     7
421
 16777215
 74
     1
 91
        0
 64
     7
 65
   257
 75
     1
175
     1
 42
1.0
 92
        8
 66
     8
424
  7895160
 43
1.0
 76
     1
 77
     6
 78
     2
 67
     7
 79
     5
170
     0
171
     0
290
     0
174
     0
 93
       13
 44
0.0
173
     0
291
     0
 45
0.0
1001
ACAD
1000
AcDbSavedByObjectVersion
1070
     0
  0
VISUALSTYLE
  5
359
102
{ACAD_REACTORS
330
34C
102
}
330
34C
100
AcDbVisualStyle
  2
Thicken
 70
    13
 71
     2
 72
     2
 73
     0
 90
        0
 40
-0.6
 41
-30.0
 62
     5
 63
     7
421
 16777215
 74
     1
 91
        4
 64
     7
 65
   257
 75
     1
175
     1
 42
1.0
 92
       12
 66
     7
 43
1.0
 76
     1
 77
     6
 78
     2
 67
     7
 79
     5
170
     0
171
     0
290
     0
174
     0
 93
        1
 44
0.0
173
     0
291
     1
 45
0.0
1001
ACAD
1000
AcDbSavedByObjectVersion
1070
     0
  0
DICTIONARYVAR
  5
426
102
{ACAD_REACTORS
330
2D8
102
}
330
2D8
100
DictionaryVariables
280
     0
  1
1:1
  0
DICTIONARYVAR
  5
424
102
{ACAD_REACTORS
330
2D8
102
}
330
2D8
100
DictionaryVariables
280
     0
  1
STANDARD
  0
DICTIONARYVAR
  5
423
102
{ACAD_REACTORS
330
2D8
102
}
330
2D8
100
DictionaryVariables
280
     0
  1
STANDARD
  0
DICTIONARYVAR
  5
427
102
{ACAD_REACTORS
330
2D8
102
}
330
2D8
100
DictionaryVariables
280
     0
  1
0
  0
DICTIONARYVAR
  5
425
102
{ACAD_REACTORS
330
2D8
102
}
330
2D8
100
DictionaryVariables
280
     0
  1
0
  0
DICTIONARYVAR
  5
2D9
102
{ACAD_REACTORS
330
2D8
102
}
330
2D8
100
DictionaryVariables
280
     0
  1
96
  0
DICTIONARY
  5
33D
330
33C
100
AcDbDictionary
280
     1
281
     1
  3
ACAD_XREC_ROUNDTRIP
360
443
  3
BUMPTILE
360
33F
  3
DIFFUSETILE
360
33E
  3
OPACITYTILE
360
342
  3
REFLECTIONTILE
360
341
  3
REFRACTIONTILE
360
343
  3
SPECULARTILE
360
340
  0
DICTIONARY
  5
335
330
334
100
AcDbDictionary
280
     1
281
     1
  3
ACAD_XREC_ROUNDTRIP
360
442
  3
BUMPTILE
360
337
  3
DIFFUSETILE
360
336
  3
OPACITYTILE
360
33A
  3
REFLECTIONTILE
360
339
  3
REFRACTIONTILE
360
33B
  3
SPECULARTILE
360
338
  0
DICTIONARY
  5
345
330
344
100
AcDbDictionary
280
     1
281
     1
  3
ACAD_XREC_ROUNDTRIP
360
444
  3
BUMPTILE
360
347
  3
DIFFUSETILE
360
346
  3
OPACITYTILE
360
34A
  3
REFLECTIONTILE
360
349
  3
REFRACTIONTILE
360
34B
  3
SPECULARTILE
360
348
  0
DICTIONARY
  5
420
330
35F
100
AcDbDictionary
280
     1
281
     1
  3
ACAD_ROUNDTRIP_2008_TABLESTYLE_CELLSTYLEMAP
360
441
  3
ACAD_XREC_ROUNDTRIP
360
445
  0
XRECORD
  5
443
102
{ACAD_REACTORS
330
33D
102
}
330
33D
100
AcDbXrecord
280
     1
102
MATERIAL
148
0.0
149
0.0
149
0.0
 93
        0
 94
      127
282
     0
 72
     0
 77
     0
171
     0
175
     0
179
     0
273
     0
  0
XRECORD
  5
33F
102
{ACAD_REACTORS
330
33D
102
}
330
33D
100
AcDbXrecord
280
     1
270
     1
271
     1
  0
XRECORD
  5
33E
102
{ACAD_REACTORS
330
33D
102
}
330
33D
100
AcDbXrecord
280
     1
270
     1
271
     1
  0
XRECORD
  5
342
102
{ACAD_REACTORS
330
33D
102
}
330
33D
100
AcDbXrecord
280
     1
270
     1
271
     1
  0
XRECORD
  5
341
102
{ACAD_REACTORS
330
33D
102
}
330
33D
100
AcDbXrecord
280
     1
270
     1
271
     1
  0
XRECORD
  5
343
102
{ACAD_REACTORS
330
33D
102
}
330
33D
100
AcDbXrecord
280
     1
270
     1
271
     1
  0
XRECORD
  5
340
102
{ACAD_REACTORS
330
33D
102
}
330
33D
100
AcDbXrecord
280
     1
270
     1
271
     1
  0
XRECORD
  5
442
102
{ACAD_REACTORS
330
335
102
}
330
335
100
AcDbXrecord
280
     1
102
MATERIAL
148
0.0
149
0.0
149
0.0
 93
        0
 94
      127
282
     0
 72
     0
 77
     0
171
     0
175
     0
179
     0
273
     0
  0
XRECORD
  5
337
102
{ACAD_REACTORS
330
335
102
}
330
335
100
AcDbXrecord
280
     1
270
     1
271
     1
  0
XRECORD
  5
336
102
{ACAD_REACTORS
330
335
102
}
330
335
100
AcDbXrecord
280
     1
270
     1
271
     1
  0
XRECORD
  5
33A
102
{ACAD_REACTORS
330
335
102
}
330
335
100
AcDbXrecord
280
     1
270
     1
271
     1
  0
XRECORD
  5
339
102
{ACAD_REACTORS
330
335
102
}
330
335
100
AcDbXrecord
280
     1
270
     1
271
     1
  0
XRECORD
  5
33B
102
{ACAD_REACTORS
330
335
102
}
330
335
100
AcDbXrecord
280
     1
270
     1
271
     1
  0
XRECORD
  5
338
102
{ACAD_REACTORS
330
335
102
}
330
335
100
AcDbXrecord
280
     1
270
     1
271
     1
  0
XRECORD
  5
444
102
{ACAD_REACTORS
330
345
102
}
330
345
100
AcDbXrecord
280
     1
102
MATERIAL
148
0.0
149
0.0
149
0.0
 93
        0
 94
      127
282
     0
 72
     0
 77
     0
171
     0
175
     0
179
     0
273
     0
  0
XRECORD
  5
347
102
{ACAD_REACTORS
330
345
102
}
330
345
100
AcDbXrecord
280
     1
270
     1
271
     1
  0
XRECORD
  5
346
102
{ACAD_REACTORS
330
345
102
}
330
345
100
AcDbXrecord
280
     1
270
     1
271
     1
  0
XRECORD
  5
34A
102
{ACAD_REACTORS
330
345
102
}
330
345
100
AcDbXrecord
280
     1
270
     1
271
     1
  0
XRECORD
  5
349
102
{ACAD_REACTORS
330
345
102
}
330
345
100
AcDbXrecord
280
     1
270
     1
271
     1
  0
XRECORD
  5
34B
102
{ACAD_REACTORS
330
345
102
}
330
345
100
AcDbXrecord
280
     1
270
     1
271
     1
  0
XRECORD
  5
348
102
{ACAD_REACTORS
330
345
102
}
330
345
100
AcDbXrecord
280
     1
270
     1
271
     1
  0
CELLSTYLEMAP
  5
441
102
{ACAD_REACTORS
330
420
102
}
330
420
100
AcDbCellStyleMap
 90
        3
300
CELLSTYLE
  1
TABLEFORMAT_BEGIN
 90
        5
170
     1
 91
        0
 92
    32768
 62
   257
 93
        1
300
CONTENTFORMAT
  1
CONTENTFORMAT_BEGIN
 90
        0
 91
        0
 92
      512
 93
        0
300

 40
0.0
140
1.0
 94
        5
 62
     0
340
10
144
0.25
309
CONTENTFORMAT_END
171
     0
 94
        0
309
TABLEFORMAT_END
  1
CELLSTYLE_BEGIN
 90
        1
 91
        1
300
_TITLE
309
CELLSTYLE_END
300
CELLSTYLE
  1
TABLEFORMAT_BEGIN
 90
        5
170
     1
 91
        0
 92
        0
 62
   257
 93
        1
300
CONTENTFORMAT
  1
CONTENTFORMAT_BEGIN
 90
        0
 91
        0
 92
      512
 93
        0
300

 40
0.0
140
1.0
 94
        5
 62
     0
340
10
144
0.18
309
CONTENTFORMAT_END
171
     0
 94
        0
309
TABLEFORMAT_END
  1
CELLSTYLE_BEGIN
 90
        2
 91
        1
300
_HEADER
309
CELLSTYLE_END
300
CELLSTYLE
  1
TABLEFORMAT_BEGIN
 90
        5
170
     1
 91
        0
 92
        0
 62
   257
 93
        1
300
CONTENTFORMAT
  1
CONTENTFORMAT_BEGIN
 90
        0
 91
        0
 92
      512
 93
        0
300

 40
0.0
140
1.0
 94
        2
 62
     0
340
10
144
0.18
309
CONTENTFORMAT_END
171
     0
 94
        0
309
TABLEFORMAT_END
  1
CELLSTYLE_BEGIN
 90
        3
 91
        2
300
_DATA
309
CELLSTYLE_END
  0
XRECORD
  5
445
102
{ACAD_REACTORS
330
420
102
}
330
420
100
AcDbXrecord
280
     1
102
ACAD_ROUNDTRIP_PRE2007_TABLESTYLE
 90
      512
 91
        0
  1

 92
      512
 93
        0
  2

 94
      512
 95
        0
  3

  0
ENDSEC
  0
EOF
