  0
SECTION
  2
HEADER
  9
$ACADVER
  1
AC1018
  9
$ACADMAINTVER
 70
   104
  9
$DWGCODEPAGE
  3
ANSI_932
  9
$LASTSAVEDBY
  1
poracon
  9
$INSBASE
 10
0.0
 20
0.0
 30
0.0
  9
$EXTMIN
 10
-828.3204646753292
 20
1500.666733836635
 30
-0.0000000349181948
  9
$EXTMAX
 10
22933.69743126981
 20
9901.408940485453
 30
0.0000000814935746
  9
$LIMMIN
 10
0.0
 20
0.0
  9
$LIMMAX
 10
2970.0
 20
2100.0
  9
$ORTHOMODE
 70
     1
  9
$REGENMODE
 70
     1
  9
$FILLMODE
 70
     1
  9
$QTEXTMODE
 70
     0
  9
$MIRRTEXT
 70
     1
  9
$LTSCALE
 40
60.0
  9
$ATTMODE
 70
     1
  9
$TEXTSIZE
 40
50.0
  9
$TRACEWID
 40
0.05
  9
$TEXTSTYLE
  7
BIGFONT
  9
$CLAYER
  8
DEFPOINTS
  9
$CELTYPE
  6
BYLAYER
  9
$CECOLOR
 62
   256
  9
$CELTSCALE
 40
1.0
  9
$DISPSILH
 70
     0
  9
$DIMSCALE
 40
40.0
  9
$DIMASZ
 40
2.0
  9
$DIMEXO
 40
1.0
  9
$DIMDLI
 40
10.0
  9
$DIMRND
 40
0.0
  9
$DIMDLE
 40
0.0
  9
$DIMEXE
 40
1.0
  9
$DIMTP
 40
0.0
  9
$DIMTM
 40
0.0
  9
$DIMTXT
 40
3.0
  9
$DIMCEN
 40
0.0
  9
$DIMTSZ
 40
0.0
  9
$DIMTOL
 70
     0
  9
$DIMLIM
 70
     0
  9
$DIMTIH
 70
     0
  9
$DIMTOH
 70
     0
  9
$DIMSE1
 70
     0
  9
$DIMSE2
 70
     0
  9
$DIMTAD
 70
     1
  9
$DIMZIN
 70
     0
  9
$DIMBLK
  1
ARROW
  9
$DIMASO
 70
     1
  9
$DIMSHO
 70
     1
  9
$DIMPOST
  1

  9
$DIMAPOST
  1

  9
$DIMALT
 70
     0
  9
$DIMALTD
 70
     2
  9
$DIMALTF
 40
25.4
  9
$DIMLFAC
 40
1.0
  9
$DIMTOFL
 70
     1
  9
$DIMTVP
 40
0.0
  9
$DIMTIX
 70
     0
  9
$DIMSOXD
 70
     0
  9
$DIMSAH
 70
     1
  9
$DIMBLK1
  1
ARROW
  9
$DIMBLK2
  1
ARROW
  9
$DIMSTYLE
  2
DIA1
  9
$DIMCLRD
 70
     0
  9
$DIMCLRE
 70
     0
  9
$DIMCLRT
 70
     0
  9
$DIMTFAC
 40
1.0
  9
$DIMGAP
 40
1.0
  9
$DIMJUST
 70
     0
  9
$DIMSD1
 70
     0
  9
$DIMSD2
 70
     0
  9
$DIMTOLJ
 70
     1
  9
$DIMTZIN
 70
     0
  9
$DIMALTZ
 70
     0
  9
$DIMALTTZ
 70
     0
  9
$DIMUPT
 70
     1
  9
$DIMDEC
 70
     0
  9
$DIMTDEC
 70
     4
  9
$DIMALTU
 70
     2
  9
$DIMALTTD
 70
     2
  9
$DIMTXSTY
  7
BIGFONT
  9
$DIMAUNIT
 70
     0
  9
$DIMADEC
 70
     0
  9
$DIMALTRND
 40
0.0
  9
$DIMAZIN
 70
     0
  9
$DIMDSEP
 70
    46
  9
$DIMATFIT
 70
     3
  9
$DIMFRAC
 70
     0
  9
$DIMLDRBLK
  1
ARROW
  9
$DIMLUNIT
 70
     2
  9
$DIMLWD
 70
    -2
  9
$DIMLWE
 70
    -2
  9
$DIMTMOVE
 70
     2
  9
$LUNITS
 70
     2
  9
$LUPREC
 70
     1
  9
$SKETCHINC
 40
0.1
  9
$FILLETRAD
 40
0.0
  9
$AUNITS
 70
     1
  9
$AUPREC
 70
     2
  9
$MENU
  1
MASTERS
  9
$ELEVATION
 40
0.0
  9
$PELEVATION
 40
0.0
  9
$THICKNESS
 40
0.0
  9
$LIMCHECK
 70
     0
  9
$CHAMFERA
 40
0.0
  9
$CHAMFERB
 40
0.0
  9
$CHAMFERC
 40
0.0
  9
$CHAMFERD
 40
0.0
  9
$SKPOLY
 70
     0
  9
$TDCREATE
 40
2450434.826770834
  9
$TDUCREATE
 40
2450434.451770833
  9
$TDUPDATE
 40
2457732.372358160
  9
$TDUUPDATE
 40
2457731.997358160
  9
$TDINDWG
 40
0.0745771528
  9
$TDUSRTIMER
 40
0.0745771528
  9
$USRTIMER
 70
     1
  9
$ANGBASE
 50
0.0
  9
$ANGDIR
 70
     0
  9
$PDMODE
 70
     0
  9
$PDSIZE
 40
0.0
  9
$PLINEWID
 40
0.0
  9
$SPLFRAME
 70
     0
  9
$SPLINETYPE
 70
     6
  9
$SPLINESEGS
 70
     8
  9
$HANDSEED
  5
2BB0
  9
$SURFTAB1
 70
     6
  9
$SURFTAB2
 70
     6
  9
$SURFTYPE
 70
     6
  9
$SURFU
 70
     6
  9
$SURFV
 70
     6
  9
$UCSBASE
  2

  9
$UCSNAME
  2

  9
$UCSORG
 10
0.0
 20
0.0
 30
0.0
  9
$UCSXDIR
 10
1.0
 20
0.0
 30
0.0
  9
$UCSYDIR
 10
0.0
 20
1.0
 30
0.0
  9
$UCSORTHOREF
  2

  9
$UCSORTHOVIEW
 70
     0
  9
$UCSORGTOP
 10
0.0
 20
0.0
 30
0.0
  9
$UCSORGBOTTOM
 10
0.0
 20
0.0
 30
0.0
  9
$UCSORGLEFT
 10
0.0
 20
0.0
 30
0.0
  9
$UCSORGRIGHT
 10
0.0
 20
0.0
 30
0.0
  9
$UCSORGFRONT
 10
0.0
 20
0.0
 30
0.0
  9
$UCSORGBACK
 10
0.0
 20
0.0
 30
0.0
  9
$PUCSBASE
  2

  9
$PUCSNAME
  2

  9
$PUCSORG
 10
0.0
 20
0.0
 30
0.0
  9
$PUCSXDIR
 10
1.0
 20
0.0
 30
0.0
  9
$PUCSYDIR
 10
0.0
 20
1.0
 30
0.0
  9
$PUCSORTHOREF
  2

  9
$PUCSORTHOVIEW
 70
     0
  9
$PUCSORGTOP
 10
0.0
 20
0.0
 30
0.0
  9
$PUCSORGBOTTOM
 10
0.0
 20
0.0
 30
0.0
  9
$PUCSORGLEFT
 10
0.0
 20
0.0
 30
0.0
  9
$PUCSORGRIGHT
 10
0.0
 20
0.0
 30
0.0
  9
$PUCSORGFRONT
 10
0.0
 20
0.0
 30
0.0
  9
$PUCSORGBACK
 10
0.0
 20
0.0
 30
0.0
  9
$USERI1
 70
     0
  9
$USERI2
 70
     0
  9
$USERI3
 70
     0
  9
$USERI4
 70
     0
  9
$USERI5
 70
     0
  9
$USERR1
 40
0.0
  9
$USERR2
 40
0.0
  9
$USERR3
 40
0.0
  9
$USERR4
 40
0.0
  9
$USERR5
 40
0.0
  9
$WORLDVIEW
 70
     1
  9
$SHADEDGE
 70
     3
  9
$SHADEDIF
 70
    70
  9
$TILEMODE
 70
     1
  9
$MAXACTVP
 70
    16
  9
$PINSBASE
 10
0.0
 20
0.0
 30
0.0
  9
$PLIMCHECK
 70
     0
  9
$PEXTMIN
 10
1.000000000000000E+20
 20
1.000000000000000E+20
 30
1.000000000000000E+20
  9
$PEXTMAX
 10
-1.000000000000000E+20
 20
-1.000000000000000E+20
 30
-1.000000000000000E+20
  9
$PLIMMIN
 10
0.0
 20
0.0
  9
$PLIMMAX
 10
12.0
 20
9.0
  9
$UNITMODE
 70
     0
  9
$VISRETAIN
 70
     0
  9
$PLINEGEN
 70
     0
  9
$PSLTSCALE
 70
     1
  9
$TREEDEPTH
 70
  3020
  9
$CMLSTYLE
  2
STANDARD
  9
$CMLJUST
 70
     0
  9
$CMLSCALE
 40
1.0
  9
$PROXYGRAPHICS
 70
     1
  9
$MEASUREMENT
 70
     0
  9
$CELWEIGHT
370
    -1
  9
$ENDCAPS
280
     0
  9
$JOINSTYLE
280
     0
  9
$LWDISPLAY
290
     0
  9
$INSUNITS
 70
     0
  9
$HYPERLINKBASE
  1

  9
$STYLESHEET
  1

  9
$XEDIT
290
     1
  9
$CEPSNTYPE
380
     0
  9
$PSTYLEMODE
290
     1
  9
$FINGERPRINTGUID
  2
{AD55CE50-9E6B-46FA-8F71-1C7CFC404995}
  9
$VERSIONGUID
  2
{ACF3EC18-48D3-42C3-BF40-7DEFF9BB7102}
  9
$EXTNAMES
290
     1
  9
$PSVPSCALE
 40
0.0
  9
$OLESTARTUP
290
     0
  9
$SORTENTS
280
    96
  9
$INDEXCTL
280
     0
  9
$HIDETEXT
280
     0
  9
$XCLIPFRAME
290
     0
  9
$HALOGAP
280
     0
  9
$OBSCOLOR
 70
   257
  9
$OBSLTYPE
280
     0
  9
$INTERSECTIONDISPLAY
280
     0
  9
$INTERSECTIONCOLOR
 70
   257
  9
$DIMASSOC
280
     1
  9
$PROJECTNAME
  1

  0
ENDSEC
  0
SECTION
  2
CLASSES
  0
CLASS
  1
DICTIONARYVAR
  2
AcDbDictionaryVar
  3
ObjectDBX Classes
 90
        0
 91
        6
280
     0
281
     0
  0
CLASS
  1
ACDBDICTIONARYWDFLT
  2
AcDbDictionaryWithDefault
  3
ObjectDBX Classes
 90
        0
 91
        1
280
     0
281
     0
  0
CLASS
  1
MATERIAL
  2
AcDbMaterial
  3
ObjectDBX Classes
 90
     1153
 91
        3
280
     0
281
     0
  0
CLASS
  1
VISUALSTYLE
  2
AcDbVisualStyle
  3
ObjectDBX Classes
 90
     4095
 91
       16
280
     0
281
     0
  0
CLASS
  1
TABLESTYLE
  2
AcDbTableStyle
  3
ObjectDBX Classes
 90
     4095
 91
        1
280
     0
281
     0
  0
CLASS
  1
SCALE
  2
AcDbScale
  3
ObjectDBX Classes
 90
     1153
 91
       33
280
     0
281
     0
  0
CLASS
  1
MLEADERSTYLE
  2
AcDbMLeaderStyle
  3
ACDB_MLEADERSTYLE_CLASS
 90
     4095
 91
        1
280
     0
281
     0
  0
CLASS
  1
CELLSTYLEMAP
  2
AcDbCellStyleMap
  3
ObjectDBX Classes
 90
     1152
 91
        4
280
     0
281
     0
  0
CLASS
  1
SORTENTSTABLE
  2
AcDbSortentsTable
  3
ObjectDBX Classes
 90
        0
 91
        2
280
     0
281
     0
  0
ENDSEC
  0
SECTION
  2
TABLES
  0
TABLE
  2
VPORT
  5
8
330
0
100
AcDbSymbolTable
 70
     1
  0
VPORT
  5
23FF
330
8
100
AcDbSymbolTableRecord
100
AcDbViewportTableRecord
  2
*Active
 70
     0
 10
0.0
 20
0.0
 11
1.0
 21
1.0
 12
11052.68848329724
 22
4950.704470242726
 13
0.0
 23
0.0
 14
1.0
 24
1.0
 15
0.0
 25
0.0
 16
0.0
 26
0.0
 36
1.0
 17
0.0
 27
0.0
 37
0.0
 40
14298.51717739427
 41
1.669761273209549
 42
50.0
 43
0.0
 44
0.0
 50
0.0
 51
0.0
 71
     0
 72
   100
 73
     1
 74
     1
 75
     0
 76
     0
 77
     0
 78
     0
281
     0
 65
     1
110
0.0
120
0.0
130
0.0
111
1.0
121
0.0
131
0.0
112
0.0
122
1.0
132
0.0
 79
     0
146
0.0
  0
ENDTAB
  0
TABLE
  2
LTYPE
  5
5
330
0
100
AcDbSymbolTable
 70
    26
  0
LTYPE
  5
12
330
5
100
AcDbSymbolTableRecord
100
AcDbLinetypeTableRecord
  2
BYBLOCK
 70
     0
  3

 72
    65
 73
     0
 40
0.0
  0
LTYPE
  5
13
330
5
100
AcDbSymbolTableRecord
100
AcDbLinetypeTableRecord
  2
BYLAYER
 70
     0
  3

 72
    65
 73
     0
 40
0.0
  0
LTYPE
  5
14
330
5
100
AcDbSymbolTableRecord
100
AcDbLinetypeTableRecord
  2
CONTINUOUS
 70
     0
  3
Solid line
 72
    65
 73
     0
 40
0.0
  0
LTYPE
  5
6E
330
5
100
AcDbSymbolTableRecord
100
AcDbLinetypeTableRecord
  2
BORDER
 70
     0
  3
__ __ . __ __ . __ __ . __ __ . __ __ . __ __ .
 72
    65
 73
     6
 40
1.75
 49
0.5
 74
     0
 49
-0.25
 74
     0
 49
0.5
 74
     0
 49
-0.25
 74
     0
 49
0.0
 74
     0
 49
-0.25
 74
     0
  0
LTYPE
  5
6F
330
5
100
AcDbSymbolTableRecord
100
AcDbLinetypeTableRecord
  2
BORDER2
 70
     0
  3
__.__.__.__.__.__.__.__.__.__.__.__.__.__.__.__
 72
    65
 73
     6
 40
0.875
 49
0.25
 74
     0
 49
-0.125
 74
     0
 49
0.25
 74
     0
 49
-0.125
 74
     0
 49
0.0
 74
     0
 49
-0.125
 74
     0
  0
LTYPE
  5
70
330
5
100
AcDbSymbolTableRecord
100
AcDbLinetypeTableRecord
  2
BORDERX2
 70
     0
  3
____  ____  .  ____  ____  .  ____  ____  .  __
 72
    65
 73
     6
 40
3.5
 49
1.0
 74
     0
 49
-0.5
 74
     0
 49
1.0
 74
     0
 49
-0.5
 74
     0
 49
0.0
 74
     0
 49
-0.5
 74
     0
  0
LTYPE
  5
71
330
5
100
AcDbSymbolTableRecord
100
AcDbLinetypeTableRecord
  2
CENTER
 70
     0
  3
____ _ ____ _ ____ _ ____ _ ____ _ ____ _ ____ 
 72
    65
 73
     4
 40
2.0
 49
1.25
 74
     0
 49
-0.25
 74
     0
 49
0.25
 74
     0
 49
-0.25
 74
     0
  0
LTYPE
  5
72
330
5
100
AcDbSymbolTableRecord
100
AcDbLinetypeTableRecord
  2
CENTER2
 70
     0
  3
___ _ ___ _ ___ _ ___ _ ___ _ ___ _ ___ _ ___ _
 72
    65
 73
     4
 40
1.125
 49
0.75
 74
     0
 49
-0.125
 74
     0
 49
0.125
 74
     0
 49
-0.125
 74
     0
  0
LTYPE
  5
73
330
5
100
AcDbSymbolTableRecord
100
AcDbLinetypeTableRecord
  2
CENTERX2
 70
     0
  3
________  __  ________  __  ________  __  _____
 72
    65
 73
     4
 40
4.0
 49
2.5
 74
     0
 49
-0.5
 74
     0
 49
0.5
 74
     0
 49
-0.5
 74
     0
  0
LTYPE
  5
74
330
5
100
AcDbSymbolTableRecord
100
AcDbLinetypeTableRecord
  2
DASHDOT
 70
     0
  3
__ . __ . __ . __ . __ . __ . __ . __ . __ . __
 72
    65
 73
     4
 40
1.0
 49
0.5
 74
     0
 49
-0.25
 74
     0
 49
0.0
 74
     0
 49
-0.25
 74
     0
  0
LTYPE
  5
75
330
5
100
AcDbSymbolTableRecord
100
AcDbLinetypeTableRecord
  2
DASHDOT2
 70
     0
  3
_._._._._._._._._._._._._._._._._._._._._._._._
 72
    65
 73
     4
 40
0.5
 49
0.25
 74
     0
 49
-0.125
 74
     0
 49
0.0
 74
     0
 49
-0.125
 74
     0
  0
LTYPE
  5
76
330
5
100
AcDbSymbolTableRecord
100
AcDbLinetypeTableRecord
  2
DASHDOTX2
 70
     0
  3
____  .  ____  .  ____  .  ____  .  ____  .  __
 72
    65
 73
     4
 40
2.0
 49
1.0
 74
     0
 49
-0.5
 74
     0
 49
0.0
 74
     0
 49
-0.5
 74
     0
  0
LTYPE
  5
77
330
5
100
AcDbSymbolTableRecord
100
AcDbLinetypeTableRecord
  2
DASHED
 70
     0
  3
__ __ __ __ __ __ __ __ __ __ __ __ __ __ __ __
 72
    65
 73
     2
 40
0.75
 49
0.5
 74
     0
 49
-0.25
 74
     0
  0
LTYPE
  5
78
330
5
100
AcDbSymbolTableRecord
100
AcDbLinetypeTableRecord
  2
DASHED2
 70
     0
  3
_ _ _ _ _ _ _ _ _ _ _ _ _ _ _ _ _ _ _ _ _ _ _ _
 72
    65
 73
     2
 40
0.375
 49
0.25
 74
     0
 49
-0.125
 74
     0
  0
LTYPE
  5
79
330
5
100
AcDbSymbolTableRecord
100
AcDbLinetypeTableRecord
  2
DASHEDX2
 70
     0
  3
____  ____  ____  ____  ____  ____  ____  ____ 
 72
    65
 73
     2
 40
1.5
 49
1.0
 74
     0
 49
-0.5
 74
     0
  0
LTYPE
  5
7A
330
5
100
AcDbSymbolTableRecord
100
AcDbLinetypeTableRecord
  2
DIVIDE
 70
     0
  3
____ . . ____ . . ____ . . ____ . . ____ . . __
 72
    65
 73
     6
 40
1.25
 49
0.5
 74
     0
 49
-0.25
 74
     0
 49
0.0
 74
     0
 49
-0.25
 74
     0
 49
0.0
 74
     0
 49
-0.25
 74
     0
  0
LTYPE
  5
7B
330
5
100
AcDbSymbolTableRecord
100
AcDbLinetypeTableRecord
  2
DIVIDE2
 70
     0
  3
__..__..__..__..__..__..__..__..__..__..__..__.
 72
    65
 73
     6
 40
0.625
 49
0.25
 74
     0
 49
-0.125
 74
     0
 49
0.0
 74
     0
 49
-0.125
 74
     0
 49
0.0
 74
     0
 49
-0.125
 74
     0
  0
LTYPE
  5
7C
330
5
100
AcDbSymbolTableRecord
100
AcDbLinetypeTableRecord
  2
DIVIDEX2
 70
     0
  3
________  .  .  ________  .  .  ________  .  . 
 72
    65
 73
     6
 40
2.5
 49
1.0
 74
     0
 49
-0.5
 74
     0
 49
0.0
 74
     0
 49
-0.5
 74
     0
 49
0.0
 74
     0
 49
-0.5
 74
     0
  0
LTYPE
  5
7D
330
5
100
AcDbSymbolTableRecord
100
AcDbLinetypeTableRecord
  2
DOT
 70
     0
  3
. . . . . . . . . . . . . . . . . . . . . . . .
 72
    65
 73
     2
 40
0.25
 49
0.0
 74
     0
 49
-0.25
 74
     0
  0
LTYPE
  5
7E
330
5
100
AcDbSymbolTableRecord
100
AcDbLinetypeTableRecord
  2
DOT2
 70
     0
  3
...............................................
 72
    65
 73
     2
 40
0.125
 49
0.0
 74
     0
 49
-0.125
 74
     0
  0
LTYPE
  5
7F
330
5
100
AcDbSymbolTableRecord
100
AcDbLinetypeTableRecord
  2
DOTX2
 70
     0
  3
.  .  .  .  .  .  .  .  .  .  .  .  .  .  .  . 
 72
    65
 73
     2
 40
0.5
 49
0.0
 74
     0
 49
-0.5
 74
     0
  0
LTYPE
  5
80
330
5
100
AcDbSymbolTableRecord
100
AcDbLinetypeTableRecord
  2
HIDDEN
 70
     0
  3
__ __ __ __ __ __ __ __ __ __ __ __ __ __ __ __
 72
    65
 73
     2
 40
0.375
 49
0.25
 74
     0
 49
-0.125
 74
     0
  0
LTYPE
  5
81
330
5
100
AcDbSymbolTableRecord
100
AcDbLinetypeTableRecord
  2
HIDDEN2
 70
     0
  3
_ _ _ _ _ _ _ _ _ _ _ _ _ _ _ _ _ _ _ _ _ _ _ _
 72
    65
 73
     2
 40
0.1875
 49
0.125
 74
     0
 49
-0.0625
 74
     0
  0
LTYPE
  5
82
330
5
100
AcDbSymbolTableRecord
100
AcDbLinetypeTableRecord
  2
HIDDENX2
 70
     0
  3
____ ____ ____ ____ ____ ____ ____ ____ ____ __
 72
    65
 73
     2
 40
0.75
 49
0.5
 74
     0
 49
-0.25
 74
     0
  0
LTYPE
  5
83
330
5
100
AcDbSymbolTableRecord
100
AcDbLinetypeTableRecord
  2
PHANTOM
 70
     0
  3
______  __  __  ______  __  __  ______  __  __ 
 72
    65
 73
     6
 40
2.5
 49
1.25
 74
     0
 49
-0.25
 74
     0
 49
0.25
 74
     0
 49
-0.25
 74
     0
 49
0.25
 74
     0
 49
-0.25
 74
     0
  0
LTYPE
  5
84
330
5
100
AcDbSymbolTableRecord
100
AcDbLinetypeTableRecord
  2
PHANTOM2
 70
     0
  3
___ _ _ ___ _ _ ___ _ _ ___ _ _ ___ _ _ ___ _ _
 72
    65
 73
     6
 40
1.25
 49
0.625
 74
     0
 49
-0.125
 74
     0
 49
0.125
 74
     0
 49
-0.125
 74
     0
 49
0.125
 74
     0
 49
-0.125
 74
     0
  0
LTYPE
  5
85
330
5
100
AcDbSymbolTableRecord
100
AcDbLinetypeTableRecord
  2
PHANTOMX2
 70
     0
  3
____________    ____    ____    ____________   
 72
    65
 73
     6
 40
5.0
 49
2.5
 74
     0
 49
-0.5
 74
     0
 49
0.5
 74
     0
 49
-0.5
 74
     0
 49
0.5
 74
     0
 49
-0.5
 74
     0
  0
ENDTAB
  0
TABLE
  2
LAYER
  5
2
102
{ACAD_XDICTIONARY
360
2855
102
}
330
0
100
AcDbSymbolTable
 70
     7
  0
LAYER
  5
F
102
{ACAD_XDICTIONARY
360
2456
102
}
330
2
100
AcDbSymbolTableRecord
100
AcDbLayerTableRecord
  2
0
 70
     0
 62
     7
  6
CONTINUOUS
370
    -3
390
2223
  0
LAYER
  5
89
102
{ACAD_XDICTIONARY
360
2458
102
}
330
2
100
AcDbSymbolTableRecord
100
AcDbLayerTableRecord
  2
SUNPOU
 70
     0
 62
     3
  6
CONTINUOUS
370
    -3
390
2223
  0
LAYER
  5
8A
102
{ACAD_XDICTIONARY
360
245A
102
}
330
2
100
AcDbSymbolTableRecord
100
AcDbLayerTableRecord
  2
nazor
 70
     0
 62
     4
  6
CONTINUOUS
370
    -3
390
2223
  0
LAYER
  5
8B
102
{ACAD_XDICTIONARY
360
245C
102
}
330
2
100
AcDbSymbolTableRecord
100
AcDbLayerTableRecord
  2
CT1
 70
     0
 62
     3
  6
CENTER2
370
    -3
390
2223
  0
LAYER
  5
8D
102
{ACAD_XDICTIONARY
360
245E
102
}
330
2
100
AcDbSymbolTableRecord
100
AcDbLayerTableRecord
  2
CT2
 70
     0
 62
     1
  6
CENTER2
370
    -3
390
2223
  0
LAYER
  5
8E
102
{ACAD_XDICTIONARY
360
2460
102
}
330
2
100
AcDbSymbolTableRecord
100
AcDbLayerTableRecord
  2
KL
 70
     0
 62
     5
  6
HIDDEN
370
    -3
390
2223
  0
LAYER
  5
90
330
2
100
AcDbSymbolTableRecord
100
AcDbLayerTableRecord
  2
DEFPOINTS
 70
     0
 62
     7
  6
CONTINUOUS
290
     0
370
    -3
390
2223
  0
ENDTAB
  0
TABLE
  2
STYLE
  5
3
330
0
100
AcDbSymbolTable
 70
     2
  0
STYLE
  5
10
330
3
100
AcDbSymbolTableRecord
100
AcDbTextStyleTableRecord
  2
STANDARD
 70
     0
 40
0.0
 41
1.0
 50
0.0
 71
     0
 42
0.2
  3
txt
  4

  0
STYLE
  5
6D
330
3
100
AcDbSymbolTableRecord
100
AcDbTextStyleTableRecord
  2
BIGFONT
 70
     0
 40
0.0
 41
1.0
 50
0.0
 71
     0
 42
50.0
  3
simplex
  4
extfont
  0
ENDTAB
  0
TABLE
  2
VIEW
  5
6
330
0
100
AcDbSymbolTable
 70
     0
  0
ENDTAB
  0
TABLE
  2
UCS
  5
7
330
0
100
AcDbSymbolTable
 70
     0
  0
ENDTAB
  0
TABLE
  2
APPID
  5
9
330
0
100
AcDbSymbolTable
 70
     4
  0
APPID
  5
11
330
9
100
AcDbSymbolTableRecord
100
AcDbRegAppTableRecord
  2
ACAD
 70
     0
  0
APPID
  5
2452
330
9
100
AcDbSymbolTableRecord
100
AcDbRegAppTableRecord
  2
ACAD_MLEADERVER
 70
     0
  0
APPID
  5
262B
330
9
100
AcDbSymbolTableRecord
100
AcDbRegAppTableRecord
  2
ACAD_EXEMPT_FROM_CAD_STANDARDS
 70
     0
  0
APPID
  5
2A25
330
9
100
AcDbSymbolTableRecord
100
AcDbRegAppTableRecord
  2
ACAD_DSTYLE_DIMRADIAL_EXTENSION
 70
     0
  0
ENDTAB
  0
TABLE
  2
DIMSTYLE
  5
A
330
0
100
AcDbSymbolTable
 70
     4
100
AcDbDimStyleTable
 71
     1
340
1DC5
  0
DIMSTYLE
105
190A
102
{ACAD_REACTORS
330
1C39
330
1C37
330
1C38
330
1CB7
330
26F7
330
26F8
330
2863
330
2864
330
2865
330
28B9
330
2907
330
2908
102
}
330
A
100
AcDbSymbolTableRecord
100
AcDbDimStyleTableRecord
  2
STANDARD
 70
     0
340
10
  0
DIMSTYLE
105
1DC5
102
{ACAD_REACTORS
330
1E0D
330
1E21
330
1E4A
330
1FC0
330
1C9B
330
2782
330
2799
330
28A9
330
28CC
330
28CE
330
28CF
330
28D0
330
2909
330
290A
330
2A45
102
}
330
A
100
AcDbSymbolTableRecord
100
AcDbDimStyleTableRecord
  2
DIA1
 70
     0
 40
40.0
 41
2.0
 42
1.0
 43
10.0
 44
1.0
 73
     0
 74
     0
 77
     1
140
3.0
141
0.0
147
1.0
172
     1
173
     1
271
     0
279
     2
288
     1
340
6D
341
20
342
20
343
20
344
20
  0
DIMSTYLE
105
222C
330
A
100
AcDbSymbolTableRecord
100
AcDbDimStyleTableRecord
  2
P1
 70
     0
 40
40.0
 41
2.0
 42
1.0
 43
10.0
 44
1.0
 73
     0
 74
     0
 77
     1
140
2.5
141
0.0
147
1.0
172
     1
173
     1
271
     0
279
     2
288
     1
340
6D
341
20
342
20
343
20
344
20
  0
ENDTAB
  0
TABLE
  2
BLOCK_RECORD
  5
1
330
0
100
AcDbSymbolTable
 70
    47
  0
BLOCK_RECORD
  5
18
102
{ACAD_XDICTIONARY
360
2634
102
}
330
1
100
AcDbSymbolTableRecord
100
AcDbBlockTableRecord
  2
*MODEL_SPACE
340
2226
  0
BLOCK_RECORD
  5
15
330
1
100
AcDbSymbolTableRecord
100
AcDbBlockTableRecord
  2
*PAPER_SPACE
340
2227
  0
BLOCK_RECORD
  5
1E
330
1
100
AcDbSymbolTableRecord
100
AcDbBlockTableRecord
  2
YA_N
340
0
102
{BLKREFS
331
1908
331
ACB
331
AEB
331
B07
331
B25
331
B4B
331
12D3
331
2235
102
}
  0
BLOCK_RECORD
  5
20
330
1
100
AcDbSymbolTableRecord
100
AcDbBlockTableRecord
  2
ARROW
340
0
102
{BLKREFS
331
1C49
331
1C69
331
1C6E
331
1C72
331
1C8D
331
1CBF
331
269D
331
269E
331
26A6
331
26A7
331
26B8
331
26B9
331
26C1
331
26C2
331
26C9
331
26CA
331
26D4
331
26D5
331
26DC
331
26DD
331
26E5
331
26E6
331
282E
331
282F
331
286E
331
287B
331
2880
331
2883
331
289D
331
28BC
331
2A20
331
2A21
331
2AB6
331
2AB7
331
2ABF
331
2AC0
331
2AC8
331
2AC9
331
2AD1
331
2AD2
331
2ADA
331
2ADB
331
2AE2
331
2AE3
331
2AED
331
2AEE
331
2AF5
331
2AF6
331
2AFE
331
2AFF
331
2B07
331
2B08
331
2B10
331
2B11
331
2B19
331
2B1A
331
2B22
331
2B23
331
2B2B
331
2B2C
331
2B34
331
2B35
331
2B3D
331
2B3E
331
2B46
331
2B47
331
2B4F
331
2B50
331
2B57
331
2B58
331
2B62
331
2B63
331
2B6A
331
2B6B
331
2B73
331
2B74
331
2B7C
331
2B7D
331
2B85
331
2B86
331
2B8E
331
2B8F
331
2B97
331
2B98
331
2B9F
331
2BA0
102
}
  0
BLOCK_RECORD
  5
2D
330
1
100
AcDbSymbolTableRecord
100
AcDbBlockTableRecord
  2
SH600A
340
0
  0
BLOCK_RECORD
  5
2E
330
1
100
AcDbSymbolTableRecord
100
AcDbBlockTableRecord
  2
FUTA600
340
0
  0
BLOCK_RECORD
  5
2F
330
1
100
AcDbSymbolTableRecord
100
AcDbBlockTableRecord
  2
SH600C
340
0
  0
BLOCK_RECORD
  5
30
330
1
100
AcDbSymbolTableRecord
100
AcDbBlockTableRecord
  2
SH1200
340
0
  0
BLOCK_RECORD
  5
31
330
1
100
AcDbSymbolTableRecord
100
AcDbBlockTableRecord
  2
SH600D
340
0
  0
BLOCK_RECORD
  5
5F
330
1
100
AcDbSymbolTableRecord
100
AcDbBlockTableRecord
  2
KSH600D
340
0
  0
BLOCK_RECORD
  5
1CCD
330
1
100
AcDbSymbolTableRecord
100
AcDbBlockTableRecord
  2
*D8
340
0
  0
BLOCK_RECORD
  5
1CD9
330
1
100
AcDbSymbolTableRecord
100
AcDbBlockTableRecord
  2
*D9
340
0
  0
BLOCK_RECORD
  5
1CE5
330
1
100
AcDbSymbolTableRecord
100
AcDbBlockTableRecord
  2
*D10
340
0
  0
BLOCK_RECORD
  5
1CF1
330
1
100
AcDbSymbolTableRecord
100
AcDbBlockTableRecord
  2
*D11
340
0
  0
BLOCK_RECORD
  5
1D2F
330
1
100
AcDbSymbolTableRecord
100
AcDbBlockTableRecord
  2
*D12
340
0
  0
BLOCK_RECORD
  5
1E02
330
1
100
AcDbSymbolTableRecord
100
AcDbBlockTableRecord
  2
*D13
340
0
  0
BLOCK_RECORD
  5
1E13
330
1
100
AcDbSymbolTableRecord
100
AcDbBlockTableRecord
  2
*D14
340
0
  0
BLOCK_RECORD
  5
1E3E
330
1
100
AcDbSymbolTableRecord
100
AcDbBlockTableRecord
  2
*D15
340
0
  0
BLOCK_RECORD
  5
1FB4
330
1
100
AcDbSymbolTableRecord
100
AcDbBlockTableRecord
  2
*D16
340
0
  0
BLOCK_RECORD
  5
251C
330
1
100
AcDbSymbolTableRecord
100
AcDbBlockTableRecord
  2
*D17
340
0
  0
BLOCK_RECORD
  5
2528
330
1
100
AcDbSymbolTableRecord
100
AcDbBlockTableRecord
  2
*D18
340
0
  0
BLOCK_RECORD
  5
2534
330
1
100
AcDbSymbolTableRecord
100
AcDbBlockTableRecord
  2
*D19
340
0
  0
BLOCK_RECORD
  5
2540
330
1
100
AcDbSymbolTableRecord
100
AcDbBlockTableRecord
  2
*D20
340
0
  0
BLOCK_RECORD
  5
254C
330
1
100
AcDbSymbolTableRecord
100
AcDbBlockTableRecord
  2
*D21
340
0
  0
BLOCK_RECORD
  5
2558
330
1
100
AcDbSymbolTableRecord
100
AcDbBlockTableRecord
  2
*D22
340
0
  0
BLOCK_RECORD
  5
2563
330
1
100
AcDbSymbolTableRecord
100
AcDbBlockTableRecord
  2
*D23
340
0
  0
BLOCK_RECORD
  5
2570
330
1
100
AcDbSymbolTableRecord
100
AcDbBlockTableRecord
  2
*D24
340
0
  0
BLOCK_RECORD
  5
257C
330
1
100
AcDbSymbolTableRecord
100
AcDbBlockTableRecord
  2
*D25
340
0
  0
BLOCK_RECORD
  5
26F9
330
1
100
AcDbSymbolTableRecord
100
AcDbBlockTableRecord
  2
*D26
340
0
  0
BLOCK_RECORD
  5
2705
330
1
100
AcDbSymbolTableRecord
100
AcDbBlockTableRecord
  2
*D27
340
0
  0
BLOCK_RECORD
  5
2783
330
1
100
AcDbSymbolTableRecord
100
AcDbBlockTableRecord
  2
*D28
340
0
  0
BLOCK_RECORD
  5
279A
330
1
100
AcDbSymbolTableRecord
100
AcDbBlockTableRecord
  2
*D29
340
0
  0
BLOCK_RECORD
  5
290B
330
1
100
AcDbSymbolTableRecord
100
AcDbBlockTableRecord
  2
*D30
340
0
  0
BLOCK_RECORD
  5
2917
330
1
100
AcDbSymbolTableRecord
100
AcDbBlockTableRecord
  2
*D31
340
0
  0
BLOCK_RECORD
  5
2923
330
1
100
AcDbSymbolTableRecord
100
AcDbBlockTableRecord
  2
*D32
340
0
  0
BLOCK_RECORD
  5
292F
330
1
100
AcDbSymbolTableRecord
100
AcDbBlockTableRecord
  2
*D33
340
0
  0
BLOCK_RECORD
  5
293B
330
1
100
AcDbSymbolTableRecord
100
AcDbBlockTableRecord
  2
*D34
340
0
  0
BLOCK_RECORD
  5
2947
330
1
100
AcDbSymbolTableRecord
100
AcDbBlockTableRecord
  2
*D35
340
0
  0
BLOCK_RECORD
  5
2952
330
1
100
AcDbSymbolTableRecord
100
AcDbBlockTableRecord
  2
*D36
340
0
  0
BLOCK_RECORD
  5
295F
330
1
100
AcDbSymbolTableRecord
100
AcDbBlockTableRecord
  2
*D37
340
0
  0
BLOCK_RECORD
  5
296B
330
1
100
AcDbSymbolTableRecord
100
AcDbBlockTableRecord
  2
*D38
340
0
  0
BLOCK_RECORD
  5
2977
330
1
100
AcDbSymbolTableRecord
100
AcDbBlockTableRecord
  2
*D39
340
0
  0
BLOCK_RECORD
  5
2983
330
1
100
AcDbSymbolTableRecord
100
AcDbBlockTableRecord
  2
*D40
340
0
  0
BLOCK_RECORD
  5
298F
330
1
100
AcDbSymbolTableRecord
100
AcDbBlockTableRecord
  2
*D41
340
0
  0
BLOCK_RECORD
  5
299B
330
1
100
AcDbSymbolTableRecord
100
AcDbBlockTableRecord
  2
*D42
340
0
  0
BLOCK_RECORD
  5
2A1C
330
1
100
AcDbSymbolTableRecord
100
AcDbBlockTableRecord
  2
*D43
340
0
  0
BLOCK_RECORD
  5
2A4E
330
1
100
AcDbSymbolTableRecord
100
AcDbBlockTableRecord
  2
*D45
340
0
  0
ENDTAB
  0
ENDSEC
  0
SECTION
  2
BLOCKS
  0
BLOCK
  5
93
330
18
100
AcDbEntity
  8
0
100
AcDbBlockBegin
  2
*MODEL_SPACE
 70
     0
 10
0.0
 20
0.0
 30
0.0
  3
*MODEL_SPACE
  1

  0
ENDBLK
  5
94
330
18
100
AcDbEntity
  8
0
100
AcDbBlockEnd
  0
BLOCK
  5
91
330
15
100
AcDbEntity
 67
     1
  8
0
100
AcDbBlockBegin
  2
*PAPER_SPACE
 70
     0
 10
0.0
 20
0.0
 30
0.0
  3
*PAPER_SPACE
  1

  0
ENDBLK
  5
92
330
15
100
AcDbEntity
 67
     1
  8
0
100
AcDbBlockEnd
  0
BLOCK
  5
9C
330
1E
100
AcDbEntity
  8
0
100
AcDbBlockBegin
  2
YA_N
 70
     0
 10
0.0
 20
0.0
 30
0.0
  3
YA_N
  1

  0
ENDBLK
  5
9D
330
1E
100
AcDbEntity
  8
0
100
AcDbBlockEnd
  0
BLOCK
  5
A5
330
20
100
AcDbEntity
  8
0
100
AcDbBlockBegin
  2
ARROW
 70
     0
 10
0.0
 20
0.0
 30
0.0
  3
ARROW
  1

  0
LINE
  5
A6
330
20
100
AcDbEntity
  8
0
100
AcDbLine
 10
-0.9999999999999991
 20
0.1666666667000003
 30
0.0
 11
0.0
 21
0.0
 31
0.0
  0
LINE
  5
A7
330
20
100
AcDbEntity
  8
0
100
AcDbLine
 10
-0.9999999999999991
 20
0.0
 30
0.0
 11
0.0
 21
0.0
 31
0.0
  0
LINE
  5
A8
330
20
100
AcDbEntity
  8
0
100
AcDbLine
 10
-0.9999999999999991
 20
-0.1666666667000003
 30
0.0
 11
0.0
 21
0.0
 31
0.0
  0
ENDBLK
  5
A9
330
20
100
AcDbEntity
  8
0
100
AcDbBlockEnd
  0
BLOCK
  5
ACA
330
2D
100
AcDbEntity
  8
0
100
AcDbBlockBegin
  2
SH600A
 70
     0
 10
0.0
 20
0.0
 30
0.0
  3
SH600A
  1

  0
INSERT
  5
ACB
330
2D
100
AcDbEntity
  8
0
100
AcDbBlockReference
  2
YA_N
 10
6.0
 20
5.0
 30
0.0
  0
LINE
  5
ACC
330
2D
100
AcDbEntity
  8
0
100
AcDbLine
 10
3.936294756790056
 20
6.651845655122985
 30
0.0
 11
1103.93629475679
 21
6.651845655122985
 31
0.0
  0
LINE
  5
ACD
330
2D
100
AcDbEntity
  8
0
100
AcDbLine
 10
1103.93629475679
 20
6.651845655122985
 30
0.0
 11
1103.93629475679
 21
-53.34815434487701
 31
0.0
  0
LINE
  5
ACE
330
2D
100
AcDbEntity
  8
0
100
AcDbLine
 10
3.936294756790056
 20
6.651845655122985
 30
0.0
 11
3.936294756790056
 21
-53.34815434487701
 31
0.0
  0
LINE
  5
ACF
330
2D
100
AcDbEntity
  8
0
100
AcDbLine
 10
3.936294756790056
 20
-53.34815434487701
 30
0.0
 11
128.6349738492943
 21
-125.3429702865252
 31
0.0
  0
LINE
  5
AD0
330
2D
100
AcDbEntity
  8
0
100
AcDbLine
 10
3.936294756790056
 20
6.651845655122985
 30
0.0
 11
553.9362947567901
 21
6.651845655122985
 31
0.0
  0
LINE
  5
AD1
330
2D
100
AcDbEntity
  8
0
100
AcDbLine
 10
553.9362947567901
 20
-293.348154344877
 30
0.0
 11
-46.06370524320993
 21
-293.348154344877
 31
0.0
  0
LINE
  5
AD2
330
2D
100
AcDbEntity
  8
0
100
AcDbLine
 10
-46.06370524320993
 20
-293.348154344877
 30
0.0
 11
-46.06370524320993
 21
-243.348154344877
 31
0.0
  0
LINE
  5
AD3
330
2D
100
AcDbEntity
  8
0
100
AcDbLine
 10
-46.06370524320993
 20
-243.348154344877
 30
0.0
 11
114.6139061426339
 21
-150.580892158514
 31
0.0
  0
LINE
  5
AD4
330
2D
100
AcDbEntity
  8
CT1
100
AcDbLine
 10
553.9362947567901
 20
6.651845655122985
 30
0.0
 11
553.9362947567901
 21
-426.6276275581621
 31
0.0
  0
LINE
  5
AD5
330
2D
100
AcDbEntity
  8
CT1
100
AcDbLine
 10
553.9362947567901
 20
6.651845655122985
 30
0.0
 11
553.9362947567901
 21
111.0194336537063
 31
0.0
  0
LINE
  5
AD6
330
2D
100
AcDbEntity
  8
KL
100
AcDbLine
 10
253.9362947567901
 20
6.651845655122985
 30
0.0
 11
253.9362947567901
 21
-23.34815434487701
 31
0.0
  0
LINE
  5
AD7
330
2D
100
AcDbEntity
  8
KL
100
AcDbLine
 10
253.9362947567901
 20
-23.34815434487701
 30
0.0
 11
103.93629475679
 21
-293.348154344877
 31
0.0
  0
LINE
  5
AD8
330
2D
100
AcDbEntity
  8
0
100
AcDbLine
 10
128.6349738492943
 20
-125.3429702865252
 30
0.0
 11
114.6139061426339
 21
-150.5808921585139
 31
0.0
  0
LINE
  5
AD9
330
2D
100
AcDbEntity
  8
0
100
AcDbLine
 10
1103.93629475679
 20
-53.34815434487701
 30
0.0
 11
979.2376156642859
 21
-125.3429702865252
 31
0.0
  0
LINE
  5
ADA
330
2D
100
AcDbEntity
  8
KL
100
AcDbLine
 10
853.9362947567902
 20
-23.34815434487701
 30
0.0
 11
1003.93629475679
 21
-293.348154344877
 31
0.0
  0
LINE
  5
ADB
330
2D
100
AcDbEntity
  8
0
100
AcDbLine
 10
553.9362947567902
 20
-293.348154344877
 30
0.0
 11
1153.93629475679
 21
-293.348154344877
 31
0.0
  0
LINE
  5
ADC
330
2D
100
AcDbEntity
  8
0
100
AcDbLine
 10
1153.93629475679
 20
-243.348154344877
 30
0.0
 11
993.2586833709464
 21
-150.580892158514
 31
0.0
  0
LINE
  5
ADD
330
2D
100
AcDbEntity
  8
0
100
AcDbLine
 10
1153.93629475679
 20
-293.348154344877
 30
0.0
 11
1153.93629475679
 21
-243.348154344877
 31
0.0
  0
LINE
  5
ADE
330
2D
100
AcDbEntity
  8
0
100
AcDbLine
 10
979.2376156642859
 20
-125.3429702865252
 30
0.0
 11
993.2586833709464
 21
-150.5808921585139
 31
0.0
  0
LINE
  5
ADF
330
2D
100
AcDbEntity
  8
0
100
AcDbLine
 10
1103.93629475679
 20
6.651845655122985
 30
0.0
 11
553.9362947567902
 21
6.651845655122985
 31
0.0
  0
LINE
  5
AE0
330
2D
100
AcDbEntity
  8
0
100
AcDbLine
 10
1103.93629475679
 20
6.651845655122985
 30
0.0
 11
1103.93629475679
 21
-53.34815434487701
 31
0.0
  0
LINE
  5
AE1
330
2D
100
AcDbEntity
  8
KL
100
AcDbLine
 10
853.9362947567902
 20
6.651845655122985
 30
0.0
 11
853.9362947567902
 21
-23.34815434487701
 31
0.0
  0
LINE
  5
AE2
330
2D
100
AcDbEntity
  8
KL
100
AcDbLine
 10
853.9362947567902
 20
-23.34815434487701
 30
0.0
 11
1003.93629475679
 21
-293.348154344877
 31
0.0
  0
LINE
  5
AE3
330
2D
100
AcDbEntity
  8
KL
100
AcDbLine
 10
253.9362947567901
 20
-23.34815434487701
 30
0.0
 11
853.9362947567902
 21
-23.34815434487701
 31
0.0
  0
LINE
  5
AE4
330
2D
100
AcDbEntity
  8
0
100
AcDbLine
 10
3.936294756790056
 20
-53.34815434487701
 30
0.0
 11
1103.93629475679
 21
-53.34815434487728
 31
0.0
  0
LINE
  5
AE5
330
2D
100
AcDbEntity
  8
0
100
AcDbLine
 10
-46.06370524320993
 20
-243.348154344877
 30
0.0
 11
1153.93629475679
 21
-243.348154344877
 31
0.0
  0
LINE
  5
AE6
330
2D
100
AcDbEntity
  8
0
100
AcDbLine
 10
979.2376156642859
 20
-125.3429702865252
 30
0.0
 11
128.6349738492943
 21
-125.3429702865252
 31
0.0
  0
LINE
  5
AE7
330
2D
100
AcDbEntity
  8
0
100
AcDbLine
 10
114.6139061426339
 20
-150.580892158514
 30
0.0
 11
993.2586833709464
 21
-150.580892158514
 31
0.0
  0
LINE
  5
AE8
330
2D
100
AcDbEntity
  8
KL
100
AcDbLine
 10
778.9362947567901
 20
-143.348154344877
 30
0.0
 11
628.9362947567901
 21
-143.348154344877
 31
0.0
  0
ENDBLK
  5
AE9
330
2D
100
AcDbEntity
  8
0
100
AcDbBlockEnd
  0
BLOCK
  5
AEA
330
2E
100
AcDbEntity
  8
0
100
AcDbBlockBegin
  2
FUTA600
 70
     0
 10
0.0
 20
0.0
 30
0.0
  3
FUTA600
  1

  0
INSERT
  5
AEB
330
2E
100
AcDbEntity
  8
0
100
AcDbBlockReference
  2
YA_N
 10
6.0
 20
5.0
 30
0.0
  0
LINE
  5
AEC
330
2E
100
AcDbEntity
  8
0
100
AcDbLine
 10
125.2429594938415
 20
244.880592526053
 30
0.0
 11
1085.242959493841
 21
244.880592526053
 31
0.0
  0
LINE
  5
AED
330
2E
100
AcDbEntity
  8
0
100
AcDbLine
 10
1085.242959493841
 20
244.880592526053
 30
0.0
 11
1085.242959493841
 21
344.880592526053
 31
0.0
  0
LINE
  5
AEE
330
2E
100
AcDbEntity
  8
0
100
AcDbLine
 10
1075.242959493841
 20
354.880592526053
 30
0.0
 11
135.2429594938414
 21
354.880592526053
 31
0.0
  0
LINE
  5
AEF
330
2E
100
AcDbEntity
  8
0
100
AcDbLine
 10
125.2429594938414
 20
344.880592526053
 30
0.0
 11
125.2429594938415
 21
244.880592526053
 31
0.0
  0
LINE
  5
AF0
330
2E
100
AcDbEntity
  8
0
100
AcDbLine
 10
135.2429594938414
 20
354.880592526053
 30
0.0
 11
279.2429594938415
 21
354.880592526053
 31
0.0
  0
LINE
  5
AF1
330
2E
100
AcDbEntity
  8
0
100
AcDbLine
 10
135.2429594938414
 20
354.880592526053
 30
0.0
 11
268.2429594938414
 21
354.880592526053
 31
0.0
  0
LINE
  5
AF2
330
2E
100
AcDbEntity
  8
0
100
AcDbLine
 10
268.2429594938414
 20
354.880592526053
 30
0.0
 11
268.2429594938414
 21
294.880592526053
 31
0.0
  0
LINE
  5
AF3
330
2E
100
AcDbEntity
  8
0
100
AcDbLine
 10
268.2429594938414
 20
294.880592526053
 30
0.0
 11
268.2429594938414
 21
294.880592526053
 31
0.0
  0
LINE
  5
AF4
330
2E
100
AcDbEntity
  8
0
100
AcDbLine
 10
125.2429594938415
 20
244.880592526053
 30
0.0
 11
305.2429594938416
 21
244.880592526053
 31
0.0
  0
LINE
  5
AF5
330
2E
100
AcDbEntity
  8
0
100
AcDbLine
 10
305.2429594938416
 20
244.880592526053
 30
0.0
 11
305.2429594938416
 21
304.880592526053
 31
0.0
  0
LINE
  5
AF6
330
2E
100
AcDbEntity
  8
0
100
AcDbLine
 10
305.2429594938416
 20
304.880592526053
 30
0.0
 11
268.2429594938414
 21
304.880592526053
 31
0.0
  0
LINE
  5
AF7
330
2E
100
AcDbEntity
  8
0
100
AcDbLine
 10
268.2429594938414
 20
354.880592526053
 30
0.0
 11
278.2429594938415
 21
354.880592526053
 31
0.0
  0
LINE
  5
AF8
330
2E
100
AcDbEntity
  8
0
100
AcDbLine
 10
278.2429594938415
 20
354.880592526053
 30
0.0
 11
278.2429594938415
 21
304.880592526053
 31
0.0
  0
LINE
  5
AF9
330
2E
100
AcDbEntity
  8
0
100
AcDbLine
 10
268.2429594938414
 20
294.880592526053
 30
0.0
 11
305.2429594938416
 21
294.880592526053
 31
0.0
  0
LINE
  5
AFA
330
2E
100
AcDbEntity
  8
0
100
AcDbLine
 10
905.2429594938413
 20
244.880592526053
 30
0.0
 11
905.2429594938413
 21
304.880592526053
 31
0.0
  0
LINE
  5
AFB
330
2E
100
AcDbEntity
  8
0
100
AcDbLine
 10
932.2429594938414
 20
354.880592526053
 30
0.0
 11
932.2429594938414
 21
304.880592526053
 31
0.0
  0
LINE
  5
AFC
330
2E
100
AcDbEntity
  8
0
100
AcDbLine
 10
942.2429594938414
 20
354.880592526053
 30
0.0
 11
942.2429594938414
 21
294.880592526053
 31
0.0
  0
LINE
  5
AFD
330
2E
100
AcDbEntity
  8
0
100
AcDbLine
 10
942.2429594938414
 20
294.880592526053
 30
0.0
 11
905.2429594938413
 21
294.880592526053
 31
0.0
  0
LINE
  5
AFE
330
2E
100
AcDbEntity
  8
0
100
AcDbLine
 10
905.2429594938413
 20
304.880592526053
 30
0.0
 11
942.2429594938414
 21
304.880592526053
 31
0.0
  0
LINE
  5
AFF
330
2E
100
AcDbEntity
  8
0
100
AcDbLine
 10
942.2429594938414
 20
294.880592526053
 30
0.0
 11
942.2429594938414
 21
294.880592526053
 31
0.0
  0
LINE
  5
B00
330
2E
100
AcDbEntity
  8
0
100
AcDbLine
 10
942.2429594938414
 20
354.880592526053
 30
0.0
 11
932.2429594938414
 21
354.880592526053
 31
0.0
  0
LINE
  5
B01
330
2E
100
AcDbEntity
  8
0
100
AcDbLine
 10
905.2429594938413
 20
304.880592526053
 30
0.0
 11
305.2429594938416
 21
304.880592526053
 31
0.0
  0
ARC
  5
B02
330
2E
100
AcDbEntity
  8
0
100
AcDbCircle
 10
135.2429594938414
 20
344.880592526053
 30
0.0
 40
10.0
100
AcDbArc
 50
90.0
 51
180.0
  0
ARC
  5
B03
330
2E
100
AcDbEntity
  8
0
100
AcDbCircle
 10
1075.242959493841
 20
344.880592526053
 30
0.0
 40
10.0
100
AcDbArc
 50
0.0
 51
90.0
  0
LINE
  5
B04
330
2E
100
AcDbEntity
  8
CT1
100
AcDbLine
 10
605.2429594938415
 20
401.3322274388021
 30
0.0
 11
605.2429594938415
 21
200.601827072778
 31
0.0
  0
ENDBLK
  5
B05
330
2E
100
AcDbEntity
  8
0
100
AcDbBlockEnd
  0
BLOCK
  5
B06
330
2F
100
AcDbEntity
  8
0
100
AcDbBlockBegin
  2
SH600C
 70
     0
 10
0.0
 20
0.0
 30
0.0
  3
SH600C
  1

  0
INSERT
  5
B07
330
2F
100
AcDbEntity
  8
0
100
AcDbBlockReference
  2
YA_N
 10
6.0
 20
5.0
 30
0.0
  0
LINE
  5
B08
330
2F
100
AcDbEntity
  8
0
100
AcDbLine
 10
1051.189764022455
 20
1072.263574619085
 30
0.0
 11
1051.189764022455
 21
1132.263574619085
 31
0.0
  0
LINE
  5
B09
330
2F
100
AcDbEntity
  8
0
100
AcDbLine
 10
1051.189764022455
 20
1132.263574619085
 30
0.0
 11
2151.189764022455
 21
1132.263574619085
 31
0.0
  0
LINE
  5
B0A
330
2F
100
AcDbEntity
  8
0
100
AcDbLine
 10
1051.189764022455
 20
1072.263574619085
 30
0.0
 11
1211.092891626236
 21
979.9434608527786
 31
0.0
  0
LINE
  5
B0B
330
2F
100
AcDbEntity
  8
0
100
AcDbLine
 10
1051.189764022455
 20
1132.263574619085
 30
0.0
 11
1301.189764022455
 21
1132.263574619085
 31
0.0
  0
LINE
  5
B0C
330
2F
100
AcDbEntity
  8
0
100
AcDbLine
 10
1051.189764022455
 20
1132.263574619085
 30
0.0
 11
1601.189764022455
 21
1132.263574619085
 31
0.0
  0
LINE
  5
B0D
330
2F
100
AcDbEntity
  8
0
100
AcDbLine
 10
1601.189764022455
 20
532.2635746190851
 30
0.0
 11
1001.189764022455
 21
532.2635746190851
 31
0.0
  0
LINE
  5
B0E
330
2F
100
AcDbEntity
  8
0
100
AcDbLine
 10
1001.189764022455
 20
532.2635746190851
 30
0.0
 11
1001.189764022455
 21
582.2635746190851
 31
0.0
  0
LINE
  5
B0F
330
2F
100
AcDbEntity
  8
0
100
AcDbLine
 10
1001.189764022455
 20
582.2635746190851
 30
0.0
 11
1121.593396128232
 21
651.7786440267646
 31
0.0
  0
LINE
  5
B10
330
2F
100
AcDbEntity
  8
0
100
AcDbLine
 10
1211.092891626236
 20
979.9434608527787
 30
0.0
 11
1121.593396128232
 21
651.7786440267646
 31
0.0
  0
LINE
  5
B11
330
2F
100
AcDbEntity
  8
0
100
AcDbLine
 10
1991.286636418673
 20
979.9434608527784
 30
0.0
 11
2080.786131916677
 21
651.7786440267643
 31
0.0
  0
LINE
  5
B12
330
2F
100
AcDbEntity
  8
0
100
AcDbLine
 10
2201.189764022454
 20
582.2635746190849
 30
0.0
 11
2080.786131916677
 21
651.7786440267643
 31
0.0
  0
LINE
  5
B13
330
2F
100
AcDbEntity
  8
0
100
AcDbLine
 10
2201.189764022454
 20
532.2635746190849
 30
0.0
 11
2201.189764022454
 21
582.2635746190849
 31
0.0
  0
LINE
  5
B14
330
2F
100
AcDbEntity
  8
0
100
AcDbLine
 10
2151.189764022455
 20
1072.263574619085
 30
0.0
 11
2151.189764022455
 21
1132.263574619085
 31
0.0
  0
LINE
  5
B15
330
2F
100
AcDbEntity
  8
0
100
AcDbLine
 10
2151.189764022455
 20
1072.263574619085
 30
0.0
 11
1991.286636418673
 21
979.9434608527784
 31
0.0
  0
LINE
  5
B16
330
2F
100
AcDbEntity
  8
0
100
AcDbLine
 10
2151.189764022455
 20
1132.263574619085
 30
0.0
 11
1901.189764022454
 21
1132.263574619085
 31
0.0
  0
LINE
  5
B17
330
2F
100
AcDbEntity
  8
0
100
AcDbLine
 10
2201.189764022454
 20
532.2635746190849
 30
0.0
 11
1601.189764022455
 21
532.2635746190851
 31
0.0
  0
LINE
  5
B18
330
2F
100
AcDbEntity
  8
CT1
100
AcDbLine
 10
1601.189764022455
 20
1132.263574619085
 30
0.0
 11
1601.189764022455
 21
1296.723368852169
 31
0.0
  0
LINE
  5
B19
330
2F
100
AcDbEntity
  8
CT1
100
AcDbLine
 10
1601.189764022455
 20
1132.263574619085
 30
0.0
 11
1601.189764022455
 21
278.8243045129239
 31
0.0
  0
LINE
  5
B1A
330
2F
100
AcDbEntity
  8
KL
100
AcDbLine
 10
1301.189764022455
 20
1132.263574619085
 30
0.0
 11
1301.189764022455
 21
1082.263574619085
 31
0.0
  0
LINE
  5
B1B
330
2F
100
AcDbEntity
  8
KL
100
AcDbLine
 10
1301.189764022455
 20
1082.263574619085
 30
0.0
 11
1151.189764022455
 21
532.2635746190851
 31
0.0
  0
LINE
  5
B1C
330
2F
100
AcDbEntity
  8
KL
100
AcDbLine
 10
1901.189764022454
 20
1132.263574619085
 30
0.0
 11
1901.189764022454
 21
1082.263574619085
 31
0.0
  0
LINE
  5
B1D
330
2F
100
AcDbEntity
  8
KL
100
AcDbLine
 10
1901.189764022454
 20
1082.263574619085
 30
0.0
 11
2051.189764022455
 21
532.2635746190849
 31
0.0
  0
LINE
  5
B1E
330
2F
100
AcDbEntity
  8
KL
100
AcDbLine
 10
1901.189764022454
 20
1082.263574619085
 30
0.0
 11
1301.189764022455
 21
1082.263574619085
 31
0.0
  0
LINE
  5
B1F
330
2F
100
AcDbEntity
  8
0
100
AcDbLine
 10
2151.189764022455
 20
1072.263574619085
 30
0.0
 11
1051.189764022455
 21
1072.263574619085
 31
0.0
  0
LINE
  5
B20
330
2F
100
AcDbEntity
  8
0
100
AcDbLine
 10
1211.092891626236
 20
979.9434608527786
 30
0.0
 11
1991.286636418673
 21
979.9434608527786
 31
0.0
  0
LINE
  5
B21
330
2F
100
AcDbEntity
  8
0
100
AcDbLine
 10
2080.786131916677
 20
651.7786440267643
 30
0.0
 11
1121.593396128232
 21
651.7786440267646
 31
0.0
  0
LINE
  5
B22
330
2F
100
AcDbEntity
  8
0
100
AcDbLine
 10
1001.189764022455
 20
582.2635746190851
 30
0.0
 11
2201.189764022454
 21
582.2635746190849
 31
0.0
  0
ENDBLK
  5
B23
330
2F
100
AcDbEntity
  8
0
100
AcDbBlockEnd
  0
BLOCK
  5
B24
330
30
100
AcDbEntity
  8
0
100
AcDbBlockBegin
  2
SH1200
 70
     0
 10
0.0
 20
0.0
 30
0.0
  3
SH1200
  1

  0
INSERT
  5
B25
330
30
100
AcDbEntity
  8
0
100
AcDbBlockReference
  2
YA_N
 10
6.0
 20
5.0
 30
0.0
  0
LINE
  5
B26
330
30
100
AcDbEntity
  8
0
100
AcDbLine
 10
1272.810867968869
 20
1335.402683713899
 30
0.0
 11
1272.810867968869
 21
1285.402683713898
 31
0.0
  0
LINE
  5
B27
330
30
100
AcDbEntity
  8
0
100
AcDbLine
 10
1272.810867968869
 20
1335.402683713899
 30
0.0
 11
2772.81086796887
 21
1335.402683713899
 31
0.0
  0
LINE
  5
B28
330
30
100
AcDbEntity
  8
0
100
AcDbLine
 10
2772.81086796887
 20
1335.402683713899
 30
0.0
 11
2772.81086796887
 21
1285.402683713898
 31
0.0
  0
LINE
  5
B29
330
30
100
AcDbEntity
  8
0
100
AcDbLine
 10
1272.810867968869
 20
1335.402683713899
 30
0.0
 11
1272.810867968869
 21
1285.402683713898
 31
0.0
  0
LINE
  5
B2A
330
30
100
AcDbEntity
  8
0
100
AcDbLine
 10
1272.810867968869
 20
1285.402683713898
 30
0.0
 11
1320.906717533286
 21
1257.634532020979
 31
0.0
  0
LINE
  5
B2B
330
30
100
AcDbEntity
  8
0
100
AcDbLine
 10
1272.810867968869
 20
1335.402683713899
 30
0.0
 11
1422.810867968869
 21
1335.402683713899
 31
0.0
  0
LINE
  5
B2C
330
30
100
AcDbEntity
  8
0
100
AcDbLine
 10
1272.810867968869
 20
735.4026837138985
 30
0.0
 11
1122.810867968869
 21
735.4026837138985
 31
0.0
  0
LINE
  5
B2D
330
30
100
AcDbEntity
  8
0
100
AcDbLine
 10
1122.810867968869
 20
735.4026837138985
 30
0.0
 11
1122.810867968869
 21
785.4026837138985
 31
0.0
  0
LINE
  5
B2E
330
30
100
AcDbEntity
  8
0
100
AcDbLine
 10
1122.810867968869
 20
785.4026837138985
 30
0.0
 11
1216.349960522984
 21
839.4075039797698
 31
0.0
  0
LINE
  5
B2F
330
30
100
AcDbEntity
  8
0
100
AcDbLine
 10
1320.906717533286
 20
1257.634532020979
 30
0.0
 11
1216.349960522983
 21
839.4075039797696
 31
0.0
  0
LINE
  5
B30
330
30
100
AcDbEntity
  8
0
100
AcDbLine
 10
1272.810867968869
 20
735.4026837138985
 30
0.0
 11
2022.810867968869
 21
735.4026837138985
 31
0.0
  0
LINE
  5
B31
330
30
100
AcDbEntity
  8
0
100
AcDbLine
 10
1272.810867968869
 20
735.4026837138985
 30
0.0
 11
2772.81086796887
 21
735.4026837138985
 31
0.0
  0
LINE
  5
B32
330
30
100
AcDbEntity
  8
0
100
AcDbLine
 10
1272.810867968869
 20
1285.402683713898
 30
0.0
 11
2022.810867968869
 21
1285.402683713898
 31
0.0
  0
LINE
  5
B33
330
30
100
AcDbEntity
  8
0
100
AcDbLine
 10
1320.906717533286
 20
1257.634532020979
 30
0.0
 11
2022.810867968869
 21
1257.634532020979
 31
0.0
  0
LINE
  5
B34
330
30
100
AcDbEntity
  8
0
100
AcDbLine
 10
1216.349960522983
 20
839.4075039797696
 30
0.0
 11
2022.810867968869
 21
839.4075039797696
 31
0.0
  0
LINE
  5
B35
330
30
100
AcDbEntity
  8
0
100
AcDbLine
 10
1122.810867968869
 20
785.4026837138985
 30
0.0
 11
2022.810867968868
 21
785.4026837138985
 31
0.0
  0
LINE
  5
B36
330
30
100
AcDbEntity
  8
0
100
AcDbLine
 10
2772.81086796887
 20
1285.402683713898
 30
0.0
 11
2724.715018404453
 21
1257.634532020979
 31
0.0
  0
LINE
  5
B37
330
30
100
AcDbEntity
  8
0
100
AcDbLine
 10
2922.81086796887
 20
785.4026837138985
 30
0.0
 11
2022.81086796887
 21
785.4026837138985
 31
0.0
  0
LINE
  5
B38
330
30
100
AcDbEntity
  8
0
100
AcDbLine
 10
2829.271775414755
 20
839.4075039797696
 30
0.0
 11
2022.810867968869
 21
839.4075039797696
 31
0.0
  0
LINE
  5
B39
330
30
100
AcDbEntity
  8
0
100
AcDbLine
 10
2724.715018404453
 20
1257.634532020979
 30
0.0
 11
2022.810867968869
 21
1257.634532020979
 31
0.0
  0
LINE
  5
B3A
330
30
100
AcDbEntity
  8
0
100
AcDbLine
 10
2772.81086796887
 20
735.4026837138985
 30
0.0
 11
2022.810867968869
 21
735.4026837138985
 31
0.0
  0
LINE
  5
B3B
330
30
100
AcDbEntity
  8
0
100
AcDbLine
 10
2724.715018404453
 20
1257.634532020979
 30
0.0
 11
2829.271775414755
 21
839.4075039797696
 31
0.0
  0
LINE
  5
B3C
330
30
100
AcDbEntity
  8
0
100
AcDbLine
 10
2922.81086796887
 20
785.4026837138985
 30
0.0
 11
2829.271775414754
 21
839.4075039797698
 31
0.0
  0
LINE
  5
B3D
330
30
100
AcDbEntity
  8
0
100
AcDbLine
 10
2772.81086796887
 20
735.4026837138985
 30
0.0
 11
2922.81086796887
 21
735.4026837138985
 31
0.0
  0
LINE
  5
B3E
330
30
100
AcDbEntity
  8
0
100
AcDbLine
 10
2922.81086796887
 20
735.4026837138985
 30
0.0
 11
2922.81086796887
 21
785.4026837138985
 31
0.0
  0
LINE
  5
B3F
330
30
100
AcDbEntity
  8
0
100
AcDbLine
 10
2772.81086796887
 20
1285.402683713898
 30
0.0
 11
2022.810867968869
 21
1285.402683713898
 31
0.0
  0
LINE
  5
B40
330
30
100
AcDbEntity
  8
0
100
AcDbLine
 10
2772.81086796887
 20
1335.402683713899
 30
0.0
 11
2622.810867968869
 21
1335.402683713899
 31
0.0
  0
LINE
  5
B41
330
30
100
AcDbEntity
  8
0
100
AcDbLine
 10
2772.81086796887
 20
1335.402683713899
 30
0.0
 11
2772.81086796887
 21
1285.402683713898
 31
0.0
  0
LINE
  5
B42
330
30
100
AcDbEntity
  8
0
100
AcDbLine
 10
2772.81086796887
 20
1335.402683713899
 30
0.0
 11
2772.81086796887
 21
1285.402683713898
 31
0.0
  0
LINE
  5
B43
330
30
100
AcDbEntity
  8
KL
100
AcDbLine
 10
2622.810867968869
 20
1335.402683713899
 30
0.0
 11
2772.81086796887
 21
735.4026837138985
 31
0.0
  0
LINE
  5
B44
330
30
100
AcDbEntity
  8
KL
100
AcDbLine
 10
1422.81086796887
 20
1335.402683713899
 30
0.0
 11
1272.81086796887
 21
735.4026837138985
 31
0.0
  0
LINE
  5
B45
330
30
100
AcDbEntity
  8
CT1
100
AcDbLine
 10
2022.810867968869
 20
1335.402683713899
 30
0.0
 11
2022.810867968869
 21
1833.976521048745
 31
0.0
  0
LINE
  5
B46
330
30
100
AcDbEntity
  8
CT1
100
AcDbLine
 10
2022.810867968869
 20
1335.402683713899
 30
0.0
 11
2022.810867968869
 21
181.4597279126376
 31
0.0
  0
LINE
  5
B47
330
30
100
AcDbEntity
  8
KL
100
AcDbLine
 10
1797.810867968869
 20
1185.402683713898
 30
0.0
 11
1947.810867968869
 21
1185.402683713898
 31
0.0
  0
LINE
  5
B48
330
30
100
AcDbEntity
  8
KL
100
AcDbLine
 10
2097.81086796887
 20
885.4026837138986
 30
0.0
 11
2247.810867968869
 21
885.4026837138986
 31
0.0
  0
ENDBLK
  5
B49
330
30
100
AcDbEntity
  8
0
100
AcDbBlockEnd
  0
BLOCK
  5
B4A
330
31
100
AcDbEntity
  8
0
100
AcDbBlockBegin
  2
SH600D
 70
     0
 10
0.0
 20
0.0
 30
0.0
  3
SH600D
  1

  0
INSERT
  5
B4B
330
31
100
AcDbEntity
  8
0
100
AcDbBlockReference
  2
YA_N
 10
6.0
 20
5.0
 30
0.0
  0
LINE
  5
B4C
330
31
100
AcDbEntity
  8
0
100
AcDbLine
 10
3211.996386607026
 20
1229.697980247202
 30
0.0
 11
3961.996386607026
 21
1229.697980247202
 31
0.0
  0
LINE
  5
B4D
330
31
100
AcDbEntity
  8
0
100
AcDbLine
 10
3961.996386607026
 20
1229.697980247202
 30
0.0
 11
3961.996386607026
 21
1279.697980247202
 31
0.0
  0
LINE
  5
B4E
330
31
100
AcDbEntity
  8
0
100
AcDbLine
 10
3821.019003505016
 20
1361.091310330798
 30
0.0
 11
3961.996386607027
 21
1279.697980247202
 31
0.0
  0
LINE
  5
B4F
330
31
100
AcDbEntity
  8
0
100
AcDbLine
 10
3211.996386607026
 20
1829.697980247202
 30
0.0
 11
3761.996386607027
 21
1829.697980247202
 31
0.0
  0
LINE
  5
B50
330
31
100
AcDbEntity
  8
0
100
AcDbLine
 10
3761.996386607027
 20
1829.697980247202
 30
0.0
 11
3761.996386607027
 21
1769.697980247202
 31
0.0
  0
LINE
  5
B51
330
31
100
AcDbEntity
  8
0
100
AcDbLine
 10
3639.889573845137
 20
1699.199579029237
 30
0.0
 11
3761.996386607027
 21
1769.697980247202
 31
0.0
  0
LINE
  5
B52
330
31
100
AcDbEntity
  8
0
100
AcDbLine
 10
3211.996386607026
 20
1829.697980247202
 30
0.0
 11
3511.996386607027
 21
1829.697980247202
 31
0.0
  0
LINE
  5
B53
330
31
100
AcDbEntity
  8
0
100
AcDbLine
 10
3639.889573845137
 20
1699.199579029237
 30
0.0
 11
3821.019003505016
 21
1361.091310330798
 31
0.0
  0
LINE
  5
B54
330
31
100
AcDbEntity
  8
0
100
AcDbLine
 10
2602.973769709039
 20
1361.091310330798
 30
0.0
 11
2461.996386607026
 21
1279.697980247202
 31
0.0
  0
LINE
  5
B55
330
31
100
AcDbEntity
  8
0
100
AcDbLine
 10
3211.996386607027
 20
1229.697980247202
 30
0.0
 11
2461.996386607027
 21
1229.697980247202
 31
0.0
  0
LINE
  5
B56
330
31
100
AcDbEntity
  8
0
100
AcDbLine
 10
2784.103199368917
 20
1699.199579029237
 30
0.0
 11
2602.973769709039
 21
1361.091310330798
 31
0.0
  0
LINE
  5
B57
330
31
100
AcDbEntity
  8
0
100
AcDbLine
 10
3211.996386607027
 20
1829.697980247202
 30
0.0
 11
2911.996386607027
 21
1829.697980247202
 31
0.0
  0
LINE
  5
B58
330
31
100
AcDbEntity
  8
0
100
AcDbLine
 10
3211.996386607027
 20
1829.697980247202
 30
0.0
 11
2661.996386607027
 21
1829.697980247202
 31
0.0
  0
LINE
  5
B59
330
31
100
AcDbEntity
  8
0
100
AcDbLine
 10
2661.996386607027
 20
1829.697980247202
 30
0.0
 11
2661.996386607027
 21
1769.697980247202
 31
0.0
  0
LINE
  5
B5A
330
31
100
AcDbEntity
  8
0
100
AcDbLine
 10
2784.103199368917
 20
1699.199579029237
 30
0.0
 11
2661.996386607027
 21
1769.697980247202
 31
0.0
  0
LINE
  5
B5B
330
31
100
AcDbEntity
  8
0
100
AcDbLine
 10
2461.996386607027
 20
1229.697980247202
 30
0.0
 11
2461.996386607027
 21
1279.697980247202
 31
0.0
  0
LINE
  5
B5C
330
31
100
AcDbEntity
  8
0
100
AcDbLine
 10
2661.996386607027
 20
1769.697980247202
 30
0.0
 11
3761.996386607027
 21
1769.697980247202
 31
0.0
  0
LINE
  5
B5D
330
31
100
AcDbEntity
  8
0
100
AcDbLine
 10
2784.103199368917
 20
1699.199579029237
 30
0.0
 11
3639.889573845137
 21
1699.199579029237
 31
0.0
  0
LINE
  5
B5E
330
31
100
AcDbEntity
  8
0
100
AcDbLine
 10
3821.019003505016
 20
1361.091310330798
 30
0.0
 11
2602.973769709039
 21
1361.091310330798
 31
0.0
  0
LINE
  5
B5F
330
31
100
AcDbEntity
  8
0
100
AcDbLine
 10
2461.996386607027
 20
1279.697980247202
 30
0.0
 11
3961.996386607026
 21
1279.697980247202
 31
0.0
  0
LINE
  5
B60
330
31
100
AcDbEntity
  8
KL
100
AcDbLine
 10
3511.996386607027
 20
1829.697980247202
 30
0.0
 11
3511.996386607027
 21
1789.697980247202
 31
0.0
  0
LINE
  5
B61
330
31
100
AcDbEntity
  8
KL
100
AcDbLine
 10
3511.996386607027
 20
1789.697980247202
 30
0.0
 11
3811.996386607026
 21
1229.697980247202
 31
0.0
  0
LINE
  5
B62
330
31
100
AcDbEntity
  8
KL
100
AcDbLine
 10
3511.996386607027
 20
1789.697980247203
 30
0.0
 11
3211.996386607027
 21
1789.697980247202
 31
0.0
  0
LINE
  5
B63
330
31
100
AcDbEntity
  8
KL
100
AcDbLine
 10
2986.996386607027
 20
1679.697980247202
 30
0.0
 11
3136.996386607027
 21
1679.697980247202
 31
0.0
  0
LINE
  5
B64
330
31
100
AcDbEntity
  8
KL
100
AcDbLine
 10
3286.996386607027
 20
1379.697980247202
 30
0.0
 11
3436.996386607026
 21
1379.697980247202
 31
0.0
  0
LINE
  5
B65
330
31
100
AcDbEntity
  8
KL
100
AcDbLine
 10
2911.996386607027
 20
1789.697980247203
 30
0.0
 11
3211.996386607026
 21
1789.697980247202
 31
0.0
  0
LINE
  5
B66
330
31
100
AcDbEntity
  8
KL
100
AcDbLine
 10
2911.996386607027
 20
1829.697980247202
 30
0.0
 11
2911.996386607026
 21
1789.697980247202
 31
0.0
  0
LINE
  5
B67
330
31
100
AcDbEntity
  8
KL
100
AcDbLine
 10
2911.996386607026
 20
1789.697980247202
 30
0.0
 11
2611.996386607027
 21
1229.697980247202
 31
0.0
  0
LINE
  5
B68
330
31
100
AcDbEntity
  8
CT1
100
AcDbLine
 10
3211.996386607026
 20
1829.697980247202
 30
0.0
 11
3211.996386607026
 21
2060.798216714418
 31
0.0
  0
LINE
  5
B69
330
31
100
AcDbEntity
  8
CT1
100
AcDbLine
 10
3211.996386607026
 20
1829.697980247202
 30
0.0
 11
3211.996386607026
 21
941.2151994102172
 31
0.0
  0
ENDBLK
  5
B6A
330
31
100
AcDbEntity
  8
0
100
AcDbBlockEnd
  0
BLOCK
  5
12D2
330
5F
100
AcDbEntity
  8
0
100
AcDbBlockBegin
  2
KSH600D
 70
     0
 10
0.0
 20
0.0
 30
0.0
  3
KSH600D
  1

  0
INSERT
  5
12D3
330
5F
100
AcDbEntity
  8
0
100
AcDbBlockReference
  2
YA_N
 10
6.0
 20
5.0
 30
0.0
  0
LINE
  5
12D4
330
5F
100
AcDbEntity
  8
0
100
AcDbLine
 10
3211.996386607026
 20
1829.697980247202
 30
0.0
 11
3761.996386607027
 21
1829.697980247202
 31
0.0
  0
LINE
  5
12D5
330
5F
100
AcDbEntity
  8
0
100
AcDbLine
 10
3761.996386607027
 20
1829.697980247202
 30
0.0
 11
3761.996386607027
 21
1769.697980247202
 31
0.0
  0
LINE
  5
12D6
330
5F
100
AcDbEntity
  8
0
100
AcDbLine
 10
3581.996386607027
 20
1665.774931793069
 30
0.0
 11
3761.996386607027
 21
1769.697980247202
 31
0.0
  0
LINE
  5
12D7
330
5F
100
AcDbEntity
  8
0
100
AcDbLine
 10
3211.996386607026
 20
1829.697980247202
 30
0.0
 11
3511.996386607027
 21
1829.697980247202
 31
0.0
  0
LINE
  5
12D8
330
5F
100
AcDbEntity
  8
0
100
AcDbLine
 10
3211.996386607027
 20
1229.697980247202
 30
0.0
 11
2461.996386607027
 21
1229.697980247202
 31
0.0
  0
LINE
  5
12D9
330
5F
100
AcDbEntity
  8
0
100
AcDbLine
 10
3211.996386607027
 20
1829.697980247202
 30
0.0
 11
2911.996386607027
 21
1829.697980247202
 31
0.0
  0
LINE
  5
12DA
330
5F
100
AcDbEntity
  8
0
100
AcDbLine
 10
3211.996386607027
 20
1829.697980247202
 30
0.0
 11
2661.996386607027
 21
1829.697980247202
 31
0.0
  0
LINE
  5
12DB
330
5F
100
AcDbEntity
  8
0
100
AcDbLine
 10
2661.996386607027
 20
1829.697980247202
 30
0.0
 11
2661.996386607027
 21
1769.697980247202
 31
0.0
  0
LINE
  5
12DC
330
5F
100
AcDbEntity
  8
0
100
AcDbLine
 10
2661.996386607027
 20
1769.697980247202
 30
0.0
 11
3761.996386607027
 21
1769.697980247202
 31
0.0
  0
LINE
  5
12DD
330
5F
100
AcDbEntity
  8
KL
100
AcDbLine
 10
3511.996386607027
 20
1829.697980247202
 30
0.0
 11
3511.996386607027
 21
1789.697980247202
 31
0.0
  0
LINE
  5
12DE
330
5F
100
AcDbEntity
  8
KL
100
AcDbLine
 10
3511.996386607027
 20
1789.697980247203
 30
0.0
 11
3211.996386607027
 21
1789.697980247202
 31
0.0
  0
LINE
  5
12DF
330
5F
100
AcDbEntity
  8
KL
100
AcDbLine
 10
2911.996386607027
 20
1789.697980247203
 30
0.0
 11
3211.996386607026
 21
1789.697980247202
 31
0.0
  0
LINE
  5
12E0
330
5F
100
AcDbEntity
  8
KL
100
AcDbLine
 10
2911.996386607027
 20
1829.697980247202
 30
0.0
 11
2911.996386607026
 21
1789.697980247202
 31
0.0
  0
LINE
  5
12E1
330
5F
100
AcDbEntity
  8
CT1
100
AcDbLine
 10
3211.996386607026
 20
1829.697980247202
 30
0.0
 11
3211.996386607026
 21
2060.798216714418
 31
0.0
  0
LINE
  5
12E2
330
5F
100
AcDbEntity
  8
CT1
100
AcDbLine
 10
3211.996386607026
 20
1829.697980247202
 30
0.0
 11
3211.996386607026
 21
941.2151994102172
 31
0.0
  0
LINE
  5
12E3
330
5F
100
AcDbEntity
  8
0
100
AcDbLine
 10
2661.996386607027
 20
1829.697980247202
 30
0.0
 11
3761.996386607027
 21
1829.697980247202
 31
0.0
  0
LINE
  5
12E4
330
5F
100
AcDbEntity
  8
0
100
AcDbLine
 10
3761.996386607027
 20
1829.697980247202
 30
0.0
 11
3761.996386607027
 21
1769.697980247202
 31
0.0
  0
LINE
  5
12E5
330
5F
100
AcDbEntity
  8
KL
100
AcDbLine
 10
3511.996386607027
 20
1789.697980247203
 30
0.0
 11
3511.996386607027
 21
1229.697980247202
 31
0.0
  0
LINE
  5
12E6
330
5F
100
AcDbEntity
  8
0
100
AcDbLine
 10
3511.996386607027
 20
1229.697980247202
 30
0.0
 11
3661.996386607027
 21
1229.697980247202
 31
0.0
  0
LINE
  5
12E7
330
5F
100
AcDbEntity
  8
0
100
AcDbLine
 10
3661.996386607027
 20
1229.697980247202
 30
0.0
 11
3661.996386607027
 21
1279.697980247202
 31
0.0
  0
LINE
  5
12E8
330
5F
100
AcDbEntity
  8
0
100
AcDbLine
 10
3581.996386607027
 20
1325.886001782372
 30
0.0
 11
3661.996386607027
 21
1279.697980247202
 31
0.0
  0
LINE
  5
12E9
330
5F
100
AcDbEntity
  8
0
100
AcDbLine
 10
3511.996386607027
 20
1229.697980247202
 30
0.0
 11
3581.996386607027
 21
1229.697980247202
 31
0.0
  0
LINE
  5
12EA
330
5F
100
AcDbEntity
  8
0
100
AcDbLine
 10
3581.996386607027
 20
1325.886001782372
 30
0.0
 11
3581.996386607027
 21
1665.774931793069
 31
0.0
  0
LINE
  5
12EB
330
5F
100
AcDbEntity
  8
0
100
AcDbLine
 10
3661.996386607027
 20
1229.697980247202
 30
0.0
 11
2161.996386607027
 21
1229.697980247202
 31
0.0
  0
LINE
  5
12EC
330
5F
100
AcDbEntity
  8
0
100
AcDbLine
 10
2161.996386607027
 20
1229.697980247202
 30
0.0
 11
2161.996386607027
 21
1279.697980247202
 31
0.0
  0
LINE
  5
12ED
330
5F
100
AcDbEntity
  8
KL
100
AcDbLine
 10
2911.996386607027
 20
1789.697980247203
 30
0.0
 11
2311.996386607027
 21
1229.697980247202
 31
0.0
  0
LINE
  5
12EE
330
5F
100
AcDbEntity
  8
0
100
AcDbLine
 10
2676.630269191326
 20
1665.774931793069
 30
0.0
 11
2311.996386607027
 21
1325.44997471439
 31
0.0
  0
LINE
  5
12EF
330
5F
100
AcDbEntity
  8
0
100
AcDbLine
 10
2311.996386607027
 20
1325.44997471439
 30
0.0
 11
2161.996386607027
 21
1279.697980247202
 31
0.0
  0
LINE
  5
12F0
330
5F
100
AcDbEntity
  8
0
100
AcDbLine
 10
2311.996386607027
 20
1325.886001782372
 30
0.0
 11
3581.996386607027
 21
1325.886001782372
 31
0.0
  0
LINE
  5
12F1
330
5F
100
AcDbEntity
  8
KL
100
AcDbLine
 10
3361.996386607027
 20
1679.697980247202
 30
0.0
 11
3511.996386607027
 21
1679.697980247202
 31
0.0
  0
LINE
  5
12F2
330
5F
100
AcDbEntity
  8
KL
100
AcDbLine
 10
3361.996386607027
 20
1379.697980247202
 30
0.0
 11
3511.996386607027
 21
1379.697980247202
 31
0.0
  0
LINE
  5
12F3
330
5F
100
AcDbEntity
  8
0
100
AcDbLine
 10
3581.996386607027
 20
1665.774931793069
 30
0.0
 11
2676.630269191326
 21
1665.774931793069
 31
0.0
  0
LINE
  5
12F4
330
5F
100
AcDbEntity
  8
0
100
AcDbLine
 10
2676.630269191326
 20
1665.774931793069
 30
0.0
 11
2661.996386607027
 21
1769.697980247202
 31
0.0
  0
LINE
  5
12F5
330
5F
100
AcDbEntity
  8
CT1
100
AcDbLine
 10
2911.996386607027
 20
1829.697980247202
 30
0.0
 11
2911.996386607027
 21
941.2151994102172
 31
0.0
  0
LINE
  5
12F6
330
5F
100
AcDbEntity
  8
CT1
100
AcDbLine
 10
2911.996386607027
 20
1829.697980247202
 30
0.0
 11
2911.996386607027
 21
2060.798216714418
 31
0.0
  0
ENDBLK
  5
12F7
330
5F
100
AcDbEntity
  8
0
100
AcDbBlockEnd
  0
BLOCK
  5
1D49
330
1CCD
100
AcDbEntity
  8
0
100
AcDbBlockBegin
  2
*D8
 70
     1
 10
0.0
 20
0.0
 30
0.0
  3
*D8
  1

  0
LINE
  5
2AB3
330
1CCD
100
AcDbEntity
  8
SUNPOU
 62
     0
370
    -2
100
AcDbLine
 10
2119.231716187838
 20
5453.151079408947
 30
0.0
 11
2119.231716187838
 21
5481.339014675767
 31
0.0
  0
LINE
  5
2AB4
330
1CCD
100
AcDbEntity
  8
SUNPOU
 62
     0
370
    -2
100
AcDbLine
 10
3319.231716187839
 20
5439.057121554423
 30
0.0
 11
3319.231716187839
 21
5481.339014675767
 31
0.0
  0
LINE
  5
2AB5
330
1CCD
100
AcDbEntity
  8
SUNPOU
 62
     0
370
    -2
100
AcDbLine
 10
2199.231716187838
 20
5441.339014675766
 30
0.0
 11
3239.231716187838
 21
5441.339014675766
 31
0.0
  0
INSERT
  5
2AB6
330
1CCD
100
AcDbEntity
  8
SUNPOU
 62
     0
370
    -2
100
AcDbBlockReference
  2
ARROW
 10
2119.231716187838
 20
5441.339014675766
 30
0.0
 41
80.0
 42
80.0
 43
80.0
 50
180.0
  0
INSERT
  5
2AB7
330
1CCD
100
AcDbEntity
  8
SUNPOU
 62
     0
370
    -2
100
AcDbBlockReference
  2
ARROW
 10
3319.231716187839
 20
5441.339014675766
 30
0.0
 41
80.0
 42
80.0
 43
80.0
  0
MTEXT
  5
2AB8
330
1CCD
100
AcDbEntity
  8
SUNPOU
 62
     0
100
AcDbMText
 10
2719.231716187838
 20
5541.339014675767
 30
0.0
 40
120.0
 41
0.0
 71
     5
 72
     1
  1
\A1;φ1200
  7
BIGFONT
 73
     1
 44
1.0
  0
POINT
  5
2AB9
330
1CCD
100
AcDbEntity
  8
DEFPOINTS
 62
     0
100
AcDbPoint
 10
2119.231716187838
 20
5413.151079408947
 30
0.0
  0
POINT
  5
2ABA
330
1CCD
100
AcDbEntity
  8
DEFPOINTS
 62
     0
100
AcDbPoint
 10
3319.231716187839
 20
5399.057121554422
 30
0.0
  0
POINT
  5
2ABB
330
1CCD
100
AcDbEntity
  8
DEFPOINTS
 62
     0
100
AcDbPoint
 10
3319.231716187839
 20
5441.339014675766
 30
0.0
  0
ENDBLK
  5
1D53
330
1CCD
100
AcDbEntity
  8
0
100
AcDbBlockEnd
  0
BLOCK
  5
2215
330
1CD9
100
AcDbEntity
  8
0
100
AcDbBlockBegin
  2
*D9
 70
     1
 10
0.0
 20
0.0
 30
0.0
  3
*D9
  1

  0
LINE
  5
2ABC
330
1CD9
100
AcDbEntity
  8
SUNPOU
 62
     0
370
    -2
100
AcDbLine
 10
1269.231716187837
 20
4608.909722140952
 30
0.0
 11
1269.231716187837
 21
3756.728420592335
 31
0.0
  0
LINE
  5
2ABD
330
1CD9
100
AcDbEntity
  8
SUNPOU
 62
     0
370
    -2
100
AcDbLine
 10
4169.231716187836
 20
4608.909722140952
 30
0.0
 11
4169.231716187836
 21
3756.728420592335
 31
0.0
  0
LINE
  5
2ABE
330
1CD9
100
AcDbEntity
  8
SUNPOU
 62
     0
370
    -2
100
AcDbLine
 10
1349.231716187837
 20
3796.728420592334
 30
0.0
 11
4089.231716187837
 21
3796.728420592334
 31
0.0
  0
INSERT
  5
2ABF
330
1CD9
100
AcDbEntity
  8
SUNPOU
 62
     0
370
    -2
100
AcDbBlockReference
  2
ARROW
 10
1269.231716187837
 20
3796.728420592334
 30
0.0
 41
80.0
 42
80.0
 43
80.0
 50
180.0
  0
INSERT
  5
2AC0
330
1CD9
100
AcDbEntity
  8
SUNPOU
 62
     0
370
    -2
100
AcDbBlockReference
  2
ARROW
 10
4169.231716187836
 20
3796.728420592334
 30
0.0
 41
80.0
 42
80.0
 43
80.0
  0
MTEXT
  5
2AC1
330
1CD9
100
AcDbEntity
  8
SUNPOU
 62
     0
100
AcDbMText
 10
2719.231716187838
 20
3896.728420592334
 30
0.0
 40
120.0
 41
0.0
 71
     5
 72
     1
  1
\A1;2900
  7
BIGFONT
 73
     1
 44
1.0
  0
POINT
  5
2AC2
330
1CD9
100
AcDbEntity
  8
DEFPOINTS
 62
     0
100
AcDbPoint
 10
1269.231716187837
 20
4648.909722140952
 30
0.0
  0
POINT
  5
2AC3
330
1CD9
100
AcDbEntity
  8
DEFPOINTS
 62
     0
100
AcDbPoint
 10
4169.231716187836
 20
4648.909722140952
 30
0.0
  0
POINT
  5
2AC4
330
1CD9
100
AcDbEntity
  8
DEFPOINTS
 62
     0
100
AcDbPoint
 10
4169.231716187836
 20
3796.728420592334
 30
0.0
  0
ENDBLK
  5
221F
330
1CD9
100
AcDbEntity
  8
0
100
AcDbBlockEnd
  0
BLOCK
  5
1FDE
330
1CE5
100
AcDbEntity
  8
0
100
AcDbBlockBegin
  2
*D10
 70
     1
 10
0.0
 20
0.0
 30
0.0
  3
*D10
  1

  0
LINE
  5
2AC5
330
1CE5
100
AcDbEntity
  8
SUNPOU
 62
     0
370
    -2
100
AcDbLine
 10
1719.231716187837
 20
4620.438390718264
 30
0.0
 11
1719.231716187837
 21
4041.18528380183
 31
0.0
  0
LINE
  5
2AC6
330
1CE5
100
AcDbEntity
  8
SUNPOU
 62
     0
370
    -2
100
AcDbLine
 10
3719.231716187838
 20
4620.438390718264
 30
0.0
 11
3719.231716187838
 21
4041.18528380183
 31
0.0
  0
LINE
  5
2AC7
330
1CE5
100
AcDbEntity
  8
SUNPOU
 62
     0
370
    -2
100
AcDbLine
 10
1799.231716187837
 20
4081.18528380183
 30
0.0
 11
3639.231716187838
 21
4081.18528380183
 31
0.0
  0
INSERT
  5
2AC8
330
1CE5
100
AcDbEntity
  8
SUNPOU
 62
     0
370
    -2
100
AcDbBlockReference
  2
ARROW
 10
1719.231716187837
 20
4081.18528380183
 30
0.0
 41
80.0
 42
80.0
 43
80.0
 50
180.0
  0
INSERT
  5
2AC9
330
1CE5
100
AcDbEntity
  8
SUNPOU
 62
     0
370
    -2
100
AcDbBlockReference
  2
ARROW
 10
3719.231716187838
 20
4081.18528380183
 30
0.0
 41
80.0
 42
80.0
 43
80.0
  0
MTEXT
  5
2ACA
330
1CE5
100
AcDbEntity
  8
SUNPOU
 62
     0
100
AcDbMText
 10
2719.231716187838
 20
4181.18528380183
 30
0.0
 40
120.0
 41
0.0
 71
     5
 72
     1
  1
\A1;2000
  7
BIGFONT
 73
     1
 44
1.0
  0
POINT
  5
2ACB
330
1CE5
100
AcDbEntity
  8
DEFPOINTS
 62
     0
100
AcDbPoint
 10
1719.231716187837
 20
4660.438390718264
 30
0.0
  0
POINT
  5
2ACC
330
1CE5
100
AcDbEntity
  8
DEFPOINTS
 62
     0
100
AcDbPoint
 10
3719.231716187838
 20
4660.438390718264
 30
0.0
  0
POINT
  5
2ACD
330
1CE5
100
AcDbEntity
  8
DEFPOINTS
 62
     0
100
AcDbPoint
 10
3719.231716187838
 20
4081.18528380183
 30
0.0
  0
ENDBLK
  5
1FE8
330
1CE5
100
AcDbEntity
  8
0
100
AcDbBlockEnd
  0
BLOCK
  5
1F7B
330
1CF1
100
AcDbEntity
  8
0
100
AcDbBlockBegin
  2
*D11
 70
     1
 10
0.0
 20
0.0
 30
0.0
  3
*D11
  1

  0
LINE
  5
2ACE
330
1CF1
100
AcDbEntity
  8
SUNPOU
 62
     0
370
    -2
100
AcDbLine
 10
4288.032141110976
 20
6760.438390718265
 30
0.0
 11
5101.65227982742
 21
6760.438390718265
 31
0.0
  0
LINE
  5
2ACF
330
1CF1
100
AcDbEntity
  8
SUNPOU
 62
     0
370
    -2
100
AcDbLine
 10
4576.250147902454
 20
6160.438390718264
 30
0.0
 11
5101.65227982742
 21
6160.438390718264
 31
0.0
  0
LINE
  5
2AD0
330
1CF1
100
AcDbEntity
  8
SUNPOU
 62
     0
370
    -2
100
AcDbLine
 10
5061.65227982742
 20
6680.438390718265
 30
0.0
 11
5061.65227982742
 21
6240.438390718264
 31
0.0
  0
INSERT
  5
2AD1
330
1CF1
100
AcDbEntity
  8
SUNPOU
 62
     0
370
    -2
100
AcDbBlockReference
  2
ARROW
 10
5061.65227982742
 20
6760.438390718265
 30
0.0
 41
80.0
 42
80.0
 43
80.0
 50
90.0
  0
INSERT
  5
2AD2
330
1CF1
100
AcDbEntity
  8
SUNPOU
 62
     0
370
    -2
100
AcDbBlockReference
  2
ARROW
 10
5061.65227982742
 20
6160.438390718264
 30
0.0
 41
80.0
 42
80.0
 43
80.0
 50
270.0
  0
MTEXT
  5
2AD3
330
1CF1
100
AcDbEntity
  8
SUNPOU
 62
     0
100
AcDbMText
 10
4961.652279827418
 20
6460.438390718265
 30
0.0
 40
120.0
 41
0.0
 71
     5
 72
     1
  1
\A1;600
  7
BIGFONT
 11
0.0000000000000001
 21
1.0
 31
0.0
 73
     1
 44
1.0
  0
POINT
  5
2AD4
330
1CF1
100
AcDbEntity
  8
DEFPOINTS
 62
     0
100
AcDbPoint
 10
4248.032141110976
 20
6760.438390718265
 30
0.0
  0
POINT
  5
2AD5
330
1CF1
100
AcDbEntity
  8
DEFPOINTS
 62
     0
100
AcDbPoint
 10
4536.250147902454
 20
6160.438390718264
 30
0.0
  0
POINT
  5
2AD6
330
1CF1
100
AcDbEntity
  8
DEFPOINTS
 62
     0
100
AcDbPoint
 10
5061.65227982742
 20
6160.438390718264
 30
0.0
  0
ENDBLK
  5
1F85
330
1CF1
100
AcDbEntity
  8
0
100
AcDbBlockEnd
  0
BLOCK
  5
1F70
330
1D2F
100
AcDbEntity
  8
0
100
AcDbBlockBegin
  2
*D12
 70
     1
 10
0.0
 20
0.0
 30
0.0
  3
*D12
  1

  0
LINE
  5
2AD7
330
1D2F
100
AcDbEntity
  8
SUNPOU
 62
     0
370
    -2
100
AcDbLine
 10
4288.032141110976
 20
6160.438390718264
 30
0.0
 11
5101.652279827421
 21
6160.438390718264
 31
0.0
  0
LINE
  5
2AD8
330
1D2F
100
AcDbEntity
  8
SUNPOU
 62
     0
370
    -2
100
AcDbLine
 10
4288.032141110976
 20
5160.438390718264
 30
0.0
 11
5101.65227982742
 21
5160.438390718264
 31
0.0
  0
LINE
  5
2AD9
330
1D2F
100
AcDbEntity
  8
SUNPOU
 62
     0
370
    -2
100
AcDbLine
 10
5061.65227982742
 20
6080.438390718263
 30
0.0
 11
5061.65227982742
 21
5240.438390718264
 31
0.0
  0
INSERT
  5
2ADA
330
1D2F
100
AcDbEntity
  8
SUNPOU
 62
     0
370
    -2
100
AcDbBlockReference
  2
ARROW
 10
5061.652279827421
 20
6160.438390718264
 30
0.0
 41
80.0
 42
80.0
 43
80.0
 50
90.0
  0
INSERT
  5
2ADB
330
1D2F
100
AcDbEntity
  8
SUNPOU
 62
     0
370
    -2
100
AcDbBlockReference
  2
ARROW
 10
5061.65227982742
 20
5160.438390718264
 30
0.0
 41
80.0
 42
80.0
 43
80.0
 50
270.0
  0
MTEXT
  5
2ADC
330
1D2F
100
AcDbEntity
  8
SUNPOU
 62
     0
100
AcDbMText
 10
4961.652279827418
 20
5660.438390718264
 30
0.0
 40
120.0
 41
0.0
 71
     5
 72
     1
  1
\A1;1000
  7
BIGFONT
 11
0.0000000000000001
 21
1.0
 31
0.0
 73
     1
 44
1.0
  0
POINT
  5
2ADD
330
1D2F
100
AcDbEntity
  8
DEFPOINTS
 62
     0
100
AcDbPoint
 10
4248.032141110976
 20
6160.438390718264
 30
0.0
  0
POINT
  5
2ADE
330
1D2F
100
AcDbEntity
  8
DEFPOINTS
 62
     0
100
AcDbPoint
 10
4248.032141110976
 20
5160.438390718264
 30
0.0
  0
POINT
  5
2ADF
330
1D2F
100
AcDbEntity
  8
DEFPOINTS
 62
     0
100
AcDbPoint
 10
5061.65227982742
 20
5160.438390718264
 30
0.0
  0
ENDBLK
  5
1F7A
330
1D2F
100
AcDbEntity
  8
0
100
AcDbBlockEnd
  0
BLOCK
  5
1F9E
330
1E02
100
AcDbEntity
  8
0
100
AcDbBlockBegin
  2
*D13
 70
     1
 10
0.0
 20
0.0
 30
0.0
  3
*D13
  1

  0
LINE
  5
2AE0
330
1E02
100
AcDbEntity
  8
SUNPOU
 62
     0
370
    -2
100
AcDbLine
 10
4285.159364707709
 20
4660.438390718264
 30
0.0
 11
5421.652279827419
 21
4660.438390718264
 31
0.0
  0
LINE
  5
2AE1
330
1E02
100
AcDbEntity
  8
SUNPOU
 62
     0
370
    -2
100
AcDbLine
 10
5381.65227982742
 20
6080.438390718263
 30
0.0
 11
5381.65227982742
 21
4740.438390718265
 31
0.0
  0
INSERT
  5
2AE2
330
1E02
100
AcDbEntity
  8
SUNPOU
 62
     0
370
    -2
100
AcDbBlockReference
  2
ARROW
 10
5381.65227982742
 20
6160.438390718264
 30
0.0
 41
80.0
 42
80.0
 43
80.0
 50
90.0
  0
INSERT
  5
2AE3
330
1E02
100
AcDbEntity
  8
SUNPOU
 62
     0
370
    -2
100
AcDbBlockReference
  2
ARROW
 10
5381.65227982742
 20
4660.438390718264
 30
0.0
 41
80.0
 42
80.0
 43
80.0
 50
270.0
  0
MTEXT
  5
2AE4
330
1E02
100
AcDbEntity
  8
SUNPOU
 62
     0
100
AcDbMText
 10
5281.652279827419
 20
5410.438390718265
 30
0.0
 40
120.0
 41
0.0
 71
     5
 72
     1
  1
\A1;1500
  7
BIGFONT
 11
0.0000000000000001
 21
1.0
 31
0.0
 73
     1
 44
1.0
  0
POINT
  5
2AE5
330
1E02
100
AcDbEntity
  8
DEFPOINTS
 62
     0
100
AcDbPoint
 10
4536.250147902454
 20
6160.438390718264
 30
0.0
  0
POINT
  5
2AE6
330
1E02
100
AcDbEntity
  8
DEFPOINTS
 62
     0
100
AcDbPoint
 10
4245.159364707709
 20
4660.438390718264
 30
0.0
  0
POINT
  5
2AE7
330
1E02
100
AcDbEntity
  8
DEFPOINTS
 62
     0
100
AcDbPoint
 10
5381.65227982742
 20
4660.438390718264
 30
0.0
  0
ENDBLK
  5
1FA7
330
1E02
100
AcDbEntity
  8
0
100
AcDbBlockEnd
  0
BLOCK
  5
1F86
330
1E13
100
AcDbEntity
  8
0
100
AcDbBlockBegin
  2
*D14
 70
     1
 10
0.0
 20
0.0
 30
0.0
  3
*D14
  1

  0
LINE
  5
2AE8
330
1E13
100
AcDbEntity
  8
SUNPOU
 62
     0
370
    -2
100
AcDbLine
 10
4288.032141110976
 20
6910.438390718262
 30
0.0
 11
5101.65227982742
 21
6910.438390718262
 31
0.0
  0
LINE
  5
2AE9
330
1E13
100
AcDbEntity
  8
SUNPOU
 62
     0
370
    -2
100
AcDbLine
 10
5061.65227982742
 20
6680.438390718264
 30
0.0
 11
5061.65227982742
 21
6600.438390718264
 31
0.0
  0
LINE
  5
2AEA
330
1E13
100
AcDbEntity
  8
SUNPOU
 62
     0
370
    -2
100
AcDbLine
 10
5061.65227982742
 20
6990.438390718262
 30
0.0
 11
5061.65227982742
 21
7070.438390718262
 31
0.0
  0
MTEXT
  5
2AEB
330
1E13
100
AcDbEntity
  8
SUNPOU
 62
     0
100
AcDbMText
 10
5341.652279827417
 20
6835.438390718263
 30
0.0
 40
120.0
 41
0.0
 71
     5
 72
     1
  1
\A1;150
  7
BIGFONT
 11
0.0000000000000001
 21
1.0
 31
0.0
 73
     1
 44
1.0
  0
LINE
  5
2AEC
330
1E13
100
AcDbEntity
  8
SUNPOU
 62
     0
370
    -2
100
AcDbLine
 10
5061.65227982742
 20
6760.438390718263
 30
0.0
 11
5061.65227982742
 21
6910.438390718262
 31
0.0
  0
INSERT
  5
2AED
330
1E13
100
AcDbEntity
  8
SUNPOU
 62
     0
370
    -2
100
AcDbBlockReference
  2
ARROW
 10
5061.65227982742
 20
6760.438390718263
 30
0.0
 41
80.0
 42
80.0
 43
80.0
 50
90.0
  0
INSERT
  5
2AEE
330
1E13
100
AcDbEntity
  8
SUNPOU
 62
     0
370
    -2
100
AcDbBlockReference
  2
ARROW
 10
5061.65227982742
 20
6910.438390718262
 30
0.0
 41
80.0
 42
80.0
 43
80.0
 50
270.0
  0
POINT
  5
2AEF
330
1E13
100
AcDbEntity
  8
DEFPOINTS
 62
     0
100
AcDbPoint
 10
4536.250147902454
 20
6760.438390718263
 30
0.0
  0
POINT
  5
2AF0
330
1E13
100
AcDbEntity
  8
DEFPOINTS
 62
     0
100
AcDbPoint
 10
4248.032141110976
 20
6910.438390718262
 30
0.0
  0
POINT
  5
2AF1
330
1E13
100
AcDbEntity
  8
DEFPOINTS
 62
     0
100
AcDbPoint
 10
5061.65227982742
 20
6910.438390718262
 30
0.0
  0
ENDBLK
  5
1F92
330
1E13
100
AcDbEntity
  8
0
100
AcDbBlockEnd
  0
BLOCK
  5
1F93
330
1E3E
100
AcDbEntity
  8
0
100
AcDbBlockBegin
  2
*D15
 70
     1
 10
0.0
 20
0.0
 30
0.0
  3
*D15
  1

  0
LINE
  5
2AF2
330
1E3E
100
AcDbEntity
  8
SUNPOU
 62
     0
370
    -2
100
AcDbLine
 10
4288.032141110976
 20
6910.438390718264
 30
0.0
 11
5421.652279827419
 21
6910.438390718264
 31
0.0
  0
LINE
  5
2AF3
330
1E3E
100
AcDbEntity
  8
SUNPOU
 62
     0
370
    -2
100
AcDbLine
 10
4359.814270910538
 20
6160.438390718264
 30
0.0
 11
5421.652279827419
 21
6160.438390718264
 31
0.0
  0
LINE
  5
2AF4
330
1E3E
100
AcDbEntity
  8
SUNPOU
 62
     0
370
    -2
100
AcDbLine
 10
5381.65227982742
 20
6830.438390718263
 30
0.0
 11
5381.65227982742
 21
6240.438390718264
 31
0.0
  0
INSERT
  5
2AF5
330
1E3E
100
AcDbEntity
  8
SUNPOU
 62
     0
370
    -2
100
AcDbBlockReference
  2
ARROW
 10
5381.65227982742
 20
6910.438390718264
 30
0.0
 41
80.0
 42
80.0
 43
80.0
 50
90.0
  0
INSERT
  5
2AF6
330
1E3E
100
AcDbEntity
  8
SUNPOU
 62
     0
370
    -2
100
AcDbBlockReference
  2
ARROW
 10
5381.65227982742
 20
6160.438390718264
 30
0.0
 41
80.0
 42
80.0
 43
80.0
 50
270.0
  0
MTEXT
  5
2AF7
330
1E3E
100
AcDbEntity
  8
SUNPOU
 62
     0
100
AcDbMText
 10
5281.652279827419
 20
6535.438390718265
 30
0.0
 40
120.0
 41
0.0
 71
     5
 72
     1
  1
\A1;750
  7
BIGFONT
 11
0.0000000000000001
 21
1.0
 31
0.0
 73
     1
 44
1.0
  0
POINT
  5
2AF8
330
1E3E
100
AcDbEntity
  8
DEFPOINTS
 62
     0
100
AcDbPoint
 10
4248.032141110976
 20
6910.438390718264
 30
0.0
  0
POINT
  5
2AF9
330
1E3E
100
AcDbEntity
  8
DEFPOINTS
 62
     0
100
AcDbPoint
 10
4319.814270910537
 20
6160.438390718264
 30
0.0
  0
POINT
  5
2AFA
330
1E3E
100
AcDbEntity
  8
DEFPOINTS
 62
     0
100
AcDbPoint
 10
5381.65227982742
 20
6160.438390718264
 30
0.0
  0
ENDBLK
  5
1F9D
330
1E3E
100
AcDbEntity
  8
0
100
AcDbBlockEnd
  0
BLOCK
  5
1FC1
330
1FB4
100
AcDbEntity
  8
0
100
AcDbBlockBegin
  2
*D16
 70
     1
 10
0.0
 20
0.0
 30
0.0
  3
*D16
  1

  0
LINE
  5
2AFB
330
1FB4
100
AcDbEntity
  8
SUNPOU
 62
     0
370
    -2
100
AcDbLine
 10
4288.032141110976
 20
5160.438390718264
 30
0.0
 11
5101.65227982742
 21
5160.438390718264
 31
0.0
  0
LINE
  5
2AFC
330
1FB4
100
AcDbEntity
  8
SUNPOU
 62
     0
370
    -2
100
AcDbLine
 10
4285.159364707709
 20
4660.438390718264
 30
0.0
 11
5101.65227982742
 21
4660.438390718264
 31
0.0
  0
LINE
  5
2AFD
330
1FB4
100
AcDbEntity
  8
SUNPOU
 62
     0
370
    -2
100
AcDbLine
 10
5061.65227982742
 20
5080.438390718263
 30
0.0
 11
5061.65227982742
 21
4740.438390718265
 31
0.0
  0
INSERT
  5
2AFE
330
1FB4
100
AcDbEntity
  8
SUNPOU
 62
     0
370
    -2
100
AcDbBlockReference
  2
ARROW
 10
5061.65227982742
 20
5160.438390718264
 30
0.0
 41
80.0
 42
80.0
 43
80.0
 50
90.0
  0
INSERT
  5
2AFF
330
1FB4
100
AcDbEntity
  8
SUNPOU
 62
     0
370
    -2
100
AcDbBlockReference
  2
ARROW
 10
5061.65227982742
 20
4660.438390718264
 30
0.0
 41
80.0
 42
80.0
 43
80.0
 50
270.0
  0
MTEXT
  5
2B00
330
1FB4
100
AcDbEntity
  8
SUNPOU
 62
     0
100
AcDbMText
 10
4961.652279827418
 20
4910.438390718265
 30
0.0
 40
120.0
 41
0.0
 71
     5
 72
     1
  1
\A1;500
  7
BIGFONT
 11
0.0000000000000001
 21
1.0
 31
0.0
 73
     1
 44
1.0
  0
POINT
  5
2B01
330
1FB4
100
AcDbEntity
  8
DEFPOINTS
 62
     0
100
AcDbPoint
 10
4248.032141110976
 20
5160.438390718264
 30
0.0
  0
POINT
  5
2B02
330
1FB4
100
AcDbEntity
  8
DEFPOINTS
 62
     0
100
AcDbPoint
 10
4245.159364707709
 20
4660.438390718264
 30
0.0
  0
POINT
  5
2B03
330
1FB4
100
AcDbEntity
  8
DEFPOINTS
 62
     0
100
AcDbPoint
 10
5061.65227982742
 20
4660.438390718264
 30
0.0
  0
ENDBLK
  5
1FCB
330
1FB4
100
AcDbEntity
  8
0
100
AcDbBlockEnd
  0
BLOCK
  5
251D
330
251C
100
AcDbEntity
  8
0
100
AcDbBlockBegin
  2
*D17
 70
     1
 10
0.0
 20
0.0
 30
0.0
  3
*D17
  1

  0
LINE
  5
269A
330
251C
100
AcDbEntity
  8
SUNPOU
 62
     0
370
    -2
100
AcDbLine
 10
17887.42306851021
 20
5453.151079408947
 30
0.0
 11
17887.42306851021
 21
5481.339014675767
 31
0.0
  0
LINE
  5
269B
330
251C
100
AcDbEntity
  8
SUNPOU
 62
     0
370
    -2
100
AcDbLine
 10
19087.42306851021
 20
5439.057121554423
 30
0.0
 11
19087.42306851021
 21
5481.339014675767
 31
0.0
  0
LINE
  5
269C
330
251C
100
AcDbEntity
  8
SUNPOU
 62
     0
370
    -2
100
AcDbLine
 10
17967.42306851021
 20
5441.339014675766
 30
0.0
 11
19007.42306851021
 21
5441.339014675766
 31
0.0
  0
INSERT
  5
269D
330
251C
100
AcDbEntity
  8
SUNPOU
 62
     0
370
    -2
100
AcDbBlockReference
  2
ARROW
 10
17887.42306851021
 20
5441.339014675766
 30
0.0
 41
80.0
 42
80.0
 43
80.0
 50
180.0
  0
INSERT
  5
269E
330
251C
100
AcDbEntity
  8
SUNPOU
 62
     0
370
    -2
100
AcDbBlockReference
  2
ARROW
 10
19087.42306851021
 20
5441.339014675766
 30
0.0
 41
80.0
 42
80.0
 43
80.0
  0
MTEXT
  5
269F
330
251C
100
AcDbEntity
  8
SUNPOU
 62
     0
100
AcDbMText
 10
18487.42306851021
 20
5541.339014675767
 30
0.0
 40
120.0
 41
0.0
 71
     5
 72
     1
  1
\A1;φ1200
  7
BIGFONT
 73
     1
 44
1.0
  0
POINT
  5
26A0
330
251C
100
AcDbEntity
  8
DEFPOINTS
 62
     0
100
AcDbPoint
 10
17887.42306851021
 20
5413.151079408947
 30
0.0
  0
POINT
  5
26A1
330
251C
100
AcDbEntity
  8
DEFPOINTS
 62
     0
100
AcDbPoint
 10
19087.42306851021
 20
5399.057121554422
 30
0.0
  0
POINT
  5
26A2
330
251C
100
AcDbEntity
  8
DEFPOINTS
 62
     0
100
AcDbPoint
 10
19087.42306851021
 20
5441.339014675766
 30
0.0
  0
ENDBLK
  5
251E
330
251C
100
AcDbEntity
  8
0
100
AcDbBlockEnd
  0
BLOCK
  5
2529
330
2528
100
AcDbEntity
  8
0
100
AcDbBlockBegin
  2
*D18
 70
     1
 10
0.0
 20
0.0
 30
0.0
  3
*D18
  1

  0
LINE
  5
26A3
330
2528
100
AcDbEntity
  8
SUNPOU
 62
     0
370
    -2
100
AcDbLine
 10
17037.42306851021
 20
4608.909722140952
 30
0.0
 11
17037.42306851021
 21
3756.728420592335
 31
0.0
  0
LINE
  5
26A4
330
2528
100
AcDbEntity
  8
SUNPOU
 62
     0
370
    -2
100
AcDbLine
 10
19937.42306851021
 20
4608.909722140952
 30
0.0
 11
19937.42306851021
 21
3756.728420592335
 31
0.0
  0
LINE
  5
26A5
330
2528
100
AcDbEntity
  8
SUNPOU
 62
     0
370
    -2
100
AcDbLine
 10
17117.42306851021
 20
3796.728420592334
 30
0.0
 11
19857.42306851021
 21
3796.728420592334
 31
0.0
  0
INSERT
  5
26A6
330
2528
100
AcDbEntity
  8
SUNPOU
 62
     0
370
    -2
100
AcDbBlockReference
  2
ARROW
 10
17037.42306851021
 20
3796.728420592334
 30
0.0
 41
80.0
 42
80.0
 43
80.0
 50
180.0
  0
INSERT
  5
26A7
330
2528
100
AcDbEntity
  8
SUNPOU
 62
     0
370
    -2
100
AcDbBlockReference
  2
ARROW
 10
19937.42306851021
 20
3796.728420592334
 30
0.0
 41
80.0
 42
80.0
 43
80.0
  0
MTEXT
  5
26A8
330
2528
100
AcDbEntity
  8
SUNPOU
 62
     0
100
AcDbMText
 10
18487.42306851021
 20
3896.728420592334
 30
0.0
 40
120.0
 41
0.0
 71
     5
 72
     1
  1
\A1;2900
  7
BIGFONT
 73
     1
 44
1.0
  0
POINT
  5
26A9
330
2528
100
AcDbEntity
  8
DEFPOINTS
 62
     0
100
AcDbPoint
 10
17037.42306851021
 20
4648.909722140952
 30
0.0
  0
POINT
  5
26AA
330
2528
100
AcDbEntity
  8
DEFPOINTS
 62
     0
100
AcDbPoint
 10
19937.42306851021
 20
4648.909722140952
 30
0.0
  0
POINT
  5
26AB
330
2528
100
AcDbEntity
  8
DEFPOINTS
 62
     0
100
AcDbPoint
 10
19937.42306851021
 20
3796.728420592334
 30
0.0
  0
ENDBLK
  5
252A
330
2528
100
AcDbEntity
  8
0
100
AcDbBlockEnd
  0
BLOCK
  5
2535
330
2534
100
AcDbEntity
  8
0
100
AcDbBlockBegin
  2
*D19
 70
     1
 10
0.0
 20
0.0
 30
0.0
  3
*D19
  1

  0
LINE
  5
282B
330
2534
100
AcDbEntity
  8
SUNPOU
 62
     0
370
    -2
100
AcDbLine
 10
17487.42306851021
 20
4620.438390718264
 30
0.0
 11
17487.42306851021
 21
4041.18528380183
 31
0.0
  0
LINE
  5
282C
330
2534
100
AcDbEntity
  8
SUNPOU
 62
     0
370
    -2
100
AcDbLine
 10
19487.42306851021
 20
4620.438390718264
 30
0.0
 11
19487.42306851021
 21
4041.18528380183
 31
0.0
  0
LINE
  5
282D
330
2534
100
AcDbEntity
  8
SUNPOU
 62
     0
370
    -2
100
AcDbLine
 10
17567.42306851021
 20
4081.18528380183
 30
0.0
 11
19407.42306851021
 21
4081.18528380183
 31
0.0
  0
INSERT
  5
282E
330
2534
100
AcDbEntity
  8
SUNPOU
 62
     0
370
    -2
100
AcDbBlockReference
  2
ARROW
 10
17487.42306851021
 20
4081.18528380183
 30
0.0
 41
80.0
 42
80.0
 43
80.0
 50
180.0
  0
INSERT
  5
282F
330
2534
100
AcDbEntity
  8
SUNPOU
 62
     0
370
    -2
100
AcDbBlockReference
  2
ARROW
 10
19487.42306851021
 20
4081.18528380183
 30
0.0
 41
80.0
 42
80.0
 43
80.0
  0
MTEXT
  5
2830
330
2534
100
AcDbEntity
  8
SUNPOU
 62
     0
100
AcDbMText
 10
18487.42306851021
 20
4181.18528380183
 30
0.0
 40
120.0
 41
0.0
 71
     5
 72
     1
  1
\A1;2000
  7
BIGFONT
 73
     1
 44
1.0
  0
POINT
  5
2831
330
2534
100
AcDbEntity
  8
DEFPOINTS
 62
     0
100
AcDbPoint
 10
17487.42306851021
 20
4660.438390718264
 30
0.0
  0
POINT
  5
2832
330
2534
100
AcDbEntity
  8
DEFPOINTS
 62
     0
100
AcDbPoint
 10
19487.42306851021
 20
4660.438390718264
 30
0.0
  0
POINT
  5
2833
330
2534
100
AcDbEntity
  8
DEFPOINTS
 62
     0
100
AcDbPoint
 10
19487.42306851021
 20
4081.18528380183
 30
0.0
  0
ENDBLK
  5
2536
330
2534
100
AcDbEntity
  8
0
100
AcDbBlockEnd
  0
BLOCK
  5
2541
330
2540
100
AcDbEntity
  8
0
100
AcDbBlockBegin
  2
*D20
 70
     1
 10
0.0
 20
0.0
 30
0.0
  3
*D20
  1

  0
LINE
  5
26B5
330
2540
100
AcDbEntity
  8
SUNPOU
 62
     0
370
    -2
100
AcDbLine
 10
20056.22349343335
 20
6760.438390718265
 30
0.0
 11
20869.8436321498
 21
6760.438390718265
 31
0.0
  0
LINE
  5
26B6
330
2540
100
AcDbEntity
  8
SUNPOU
 62
     0
370
    -2
100
AcDbLine
 10
20344.44150022483
 20
6160.438390718264
 30
0.0
 11
20869.8436321498
 21
6160.438390718264
 31
0.0
  0
LINE
  5
26B7
330
2540
100
AcDbEntity
  8
SUNPOU
 62
     0
370
    -2
100
AcDbLine
 10
20829.8436321498
 20
6680.438390718265
 30
0.0
 11
20829.8436321498
 21
6240.438390718264
 31
0.0
  0
INSERT
  5
26B8
330
2540
100
AcDbEntity
  8
SUNPOU
 62
     0
370
    -2
100
AcDbBlockReference
  2
ARROW
 10
20829.8436321498
 20
6760.438390718265
 30
0.0
 41
80.0
 42
80.0
 43
80.0
 50
90.0
  0
INSERT
  5
26B9
330
2540
100
AcDbEntity
  8
SUNPOU
 62
     0
370
    -2
100
AcDbBlockReference
  2
ARROW
 10
20829.8436321498
 20
6160.438390718264
 30
0.0
 41
80.0
 42
80.0
 43
80.0
 50
270.0
  0
MTEXT
  5
26BA
330
2540
100
AcDbEntity
  8
SUNPOU
 62
     0
100
AcDbMText
 10
20729.8436321498
 20
6460.438390718268
 30
0.0
 40
120.0
 41
0.0
 71
     5
 72
     1
  1
\A1;600
  7
BIGFONT
 11
0.0000000000000001
 21
1.0
 31
0.0
 73
     1
 44
1.0
  0
POINT
  5
26BB
330
2540
100
AcDbEntity
  8
DEFPOINTS
 62
     0
100
AcDbPoint
 10
20016.22349343335
 20
6760.438390718265
 30
0.0
  0
POINT
  5
26BC
330
2540
100
AcDbEntity
  8
DEFPOINTS
 62
     0
100
AcDbPoint
 10
20304.44150022483
 20
6160.438390718264
 30
0.0
  0
POINT
  5
26BD
330
2540
100
AcDbEntity
  8
DEFPOINTS
 62
     0
100
AcDbPoint
 10
20829.8436321498
 20
6160.438390718264
 30
0.0
  0
ENDBLK
  5
2542
330
2540
100
AcDbEntity
  8
0
100
AcDbBlockEnd
  0
BLOCK
  5
254D
330
254C
100
AcDbEntity
  8
0
100
AcDbBlockBegin
  2
*D21
 70
     1
 10
0.0
 20
0.0
 30
0.0
  3
*D21
  1

  0
LINE
  5
26BE
330
254C
100
AcDbEntity
  8
SUNPOU
 62
     0
370
    -2
100
AcDbLine
 10
20056.22349343335
 20
6160.438390718264
 30
0.0
 11
20869.8436321498
 21
6160.438390718264
 31
0.0
  0
LINE
  5
26BF
330
254C
100
AcDbEntity
  8
SUNPOU
 62
     0
370
    -2
100
AcDbLine
 10
20056.22349343335
 20
5160.438390718264
 30
0.0
 11
20869.8436321498
 21
5160.438390718264
 31
0.0
  0
LINE
  5
26C0
330
254C
100
AcDbEntity
  8
SUNPOU
 62
     0
370
    -2
100
AcDbLine
 10
20829.8436321498
 20
6080.438390718263
 30
0.0
 11
20829.8436321498
 21
5240.438390718264
 31
0.0
  0
INSERT
  5
26C1
330
254C
100
AcDbEntity
  8
SUNPOU
 62
     0
370
    -2
100
AcDbBlockReference
  2
ARROW
 10
20829.8436321498
 20
6160.438390718264
 30
0.0
 41
80.0
 42
80.0
 43
80.0
 50
90.0
  0
INSERT
  5
26C2
330
254C
100
AcDbEntity
  8
SUNPOU
 62
     0
370
    -2
100
AcDbBlockReference
  2
ARROW
 10
20829.8436321498
 20
5160.438390718264
 30
0.0
 41
80.0
 42
80.0
 43
80.0
 50
270.0
  0
MTEXT
  5
26C3
330
254C
100
AcDbEntity
  8
SUNPOU
 62
     0
100
AcDbMText
 10
20729.8436321498
 20
5660.438390718267
 30
0.0
 40
120.0
 41
0.0
 71
     5
 72
     1
  1
\A1;1000
  7
BIGFONT
 11
0.0000000000000001
 21
1.0
 31
0.0
 73
     1
 44
1.0
  0
POINT
  5
26C4
330
254C
100
AcDbEntity
  8
DEFPOINTS
 62
     0
100
AcDbPoint
 10
20016.22349343335
 20
6160.438390718264
 30
0.0
  0
POINT
  5
26C5
330
254C
100
AcDbEntity
  8
DEFPOINTS
 62
     0
100
AcDbPoint
 10
20016.22349343335
 20
5160.438390718264
 30
0.0
  0
POINT
  5
26C6
330
254C
100
AcDbEntity
  8
DEFPOINTS
 62
     0
100
AcDbPoint
 10
20829.8436321498
 20
5160.438390718264
 30
0.0
  0
ENDBLK
  5
254E
330
254C
100
AcDbEntity
  8
0
100
AcDbBlockEnd
  0
BLOCK
  5
2559
330
2558
100
AcDbEntity
  8
0
100
AcDbBlockBegin
  2
*D22
 70
     1
 10
0.0
 20
0.0
 30
0.0
  3
*D22
  1

  0
LINE
  5
26C7
330
2558
100
AcDbEntity
  8
SUNPOU
 62
     0
370
    -2
100
AcDbLine
 10
20053.35071703009
 20
4660.438390718264
 30
0.0
 11
21189.8436321498
 21
4660.438390718264
 31
0.0
  0
LINE
  5
26C8
330
2558
100
AcDbEntity
  8
SUNPOU
 62
     0
370
    -2
100
AcDbLine
 10
21149.8436321498
 20
6080.438390718263
 30
0.0
 11
21149.8436321498
 21
4740.438390718265
 31
0.0
  0
INSERT
  5
26C9
330
2558
100
AcDbEntity
  8
SUNPOU
 62
     0
370
    -2
100
AcDbBlockReference
  2
ARROW
 10
21149.8436321498
 20
6160.438390718264
 30
0.0
 41
80.0
 42
80.0
 43
80.0
 50
90.0
  0
INSERT
  5
26CA
330
2558
100
AcDbEntity
  8
SUNPOU
 62
     0
370
    -2
100
AcDbBlockReference
  2
ARROW
 10
21149.8436321498
 20
4660.438390718264
 30
0.0
 41
80.0
 42
80.0
 43
80.0
 50
270.0
  0
MTEXT
  5
26CB
330
2558
100
AcDbEntity
  8
SUNPOU
 62
     0
100
AcDbMText
 10
21049.8436321498
 20
5410.438390718269
 30
0.0
 40
120.0
 41
0.0
 71
     5
 72
     1
  1
\A1;1500
  7
BIGFONT
 11
0.0000000000000001
 21
1.0
 31
0.0
 73
     1
 44
1.0
  0
POINT
  5
26CC
330
2558
100
AcDbEntity
  8
DEFPOINTS
 62
     0
100
AcDbPoint
 10
20304.44150022483
 20
6160.438390718264
 30
0.0
  0
POINT
  5
26CD
330
2558
100
AcDbEntity
  8
DEFPOINTS
 62
     0
100
AcDbPoint
 10
20013.35071703009
 20
4660.438390718264
 30
0.0
  0
POINT
  5
26CE
330
2558
100
AcDbEntity
  8
DEFPOINTS
 62
     0
100
AcDbPoint
 10
21149.8436321498
 20
4660.438390718264
 30
0.0
  0
ENDBLK
  5
255A
330
2558
100
AcDbEntity
  8
0
100
AcDbBlockEnd
  0
BLOCK
  5
2564
330
2563
100
AcDbEntity
  8
0
100
AcDbBlockBegin
  2
*D23
 70
     1
 10
0.0
 20
0.0
 30
0.0
  3
*D23
  1

  0
LINE
  5
26CF
330
2563
100
AcDbEntity
  8
SUNPOU
 62
     0
370
    -2
100
AcDbLine
 10
20056.22349343335
 20
6910.438390718262
 30
0.0
 11
20869.8436321498
 21
6910.438390718262
 31
0.0
  0
LINE
  5
26D0
330
2563
100
AcDbEntity
  8
SUNPOU
 62
     0
370
    -2
100
AcDbLine
 10
20829.8436321498
 20
6680.438390718264
 30
0.0
 11
20829.8436321498
 21
6600.438390718264
 31
0.0
  0
LINE
  5
26D1
330
2563
100
AcDbEntity
  8
SUNPOU
 62
     0
370
    -2
100
AcDbLine
 10
20829.8436321498
 20
6990.438390718262
 30
0.0
 11
20829.8436321498
 21
7070.438390718262
 31
0.0
  0
MTEXT
  5
26D2
330
2563
100
AcDbEntity
  8
SUNPOU
 62
     0
100
AcDbMText
 10
21109.8436321498
 20
6835.438390718266
 30
0.0
 40
120.0
 41
0.0
 71
     5
 72
     1
  1
\A1;150
  7
BIGFONT
 11
0.0000000000000001
 21
1.0
 31
0.0
 73
     1
 44
1.0
  0
LINE
  5
26D3
330
2563
100
AcDbEntity
  8
SUNPOU
 62
     0
370
    -2
100
AcDbLine
 10
20829.8436321498
 20
6760.438390718263
 30
0.0
 11
20829.8436321498
 21
6910.438390718262
 31
0.0
  0
INSERT
  5
26D4
330
2563
100
AcDbEntity
  8
SUNPOU
 62
     0
370
    -2
100
AcDbBlockReference
  2
ARROW
 10
20829.8436321498
 20
6760.438390718263
 30
0.0
 41
80.0
 42
80.0
 43
80.0
 50
90.0
  0
INSERT
  5
26D5
330
2563
100
AcDbEntity
  8
SUNPOU
 62
     0
370
    -2
100
AcDbBlockReference
  2
ARROW
 10
20829.8436321498
 20
6910.438390718262
 30
0.0
 41
80.0
 42
80.0
 43
80.0
 50
270.0
  0
POINT
  5
26D6
330
2563
100
AcDbEntity
  8
DEFPOINTS
 62
     0
100
AcDbPoint
 10
20304.44150022483
 20
6760.438390718263
 30
0.0
  0
POINT
  5
26D7
330
2563
100
AcDbEntity
  8
DEFPOINTS
 62
     0
100
AcDbPoint
 10
20016.22349343335
 20
6910.438390718262
 30
0.0
  0
POINT
  5
26D8
330
2563
100
AcDbEntity
  8
DEFPOINTS
 62
     0
100
AcDbPoint
 10
20829.8436321498
 20
6910.438390718262
 30
0.0
  0
ENDBLK
  5
2565
330
2563
100
AcDbEntity
  8
0
100
AcDbBlockEnd
  0
BLOCK
  5
2571
330
2570
100
AcDbEntity
  8
0
100
AcDbBlockBegin
  2
*D24
 70
     1
 10
0.0
 20
0.0
 30
0.0
  3
*D24
  1

  0
LINE
  5
26D9
330
2570
100
AcDbEntity
  8
SUNPOU
 62
     0
370
    -2
100
AcDbLine
 10
20056.22349343335
 20
6910.438390718264
 30
0.0
 11
21189.8436321498
 21
6910.438390718264
 31
0.0
  0
LINE
  5
26DA
330
2570
100
AcDbEntity
  8
SUNPOU
 62
     0
370
    -2
100
AcDbLine
 10
20128.00562323291
 20
6160.438390718264
 30
0.0
 11
21189.8436321498
 21
6160.438390718264
 31
0.0
  0
LINE
  5
26DB
330
2570
100
AcDbEntity
  8
SUNPOU
 62
     0
370
    -2
100
AcDbLine
 10
21149.8436321498
 20
6830.438390718263
 30
0.0
 11
21149.8436321498
 21
6240.438390718264
 31
0.0
  0
INSERT
  5
26DC
330
2570
100
AcDbEntity
  8
SUNPOU
 62
     0
370
    -2
100
AcDbBlockReference
  2
ARROW
 10
21149.8436321498
 20
6910.438390718264
 30
0.0
 41
80.0
 42
80.0
 43
80.0
 50
90.0
  0
INSERT
  5
26DD
330
2570
100
AcDbEntity
  8
SUNPOU
 62
     0
370
    -2
100
AcDbBlockReference
  2
ARROW
 10
21149.8436321498
 20
6160.438390718264
 30
0.0
 41
80.0
 42
80.0
 43
80.0
 50
270.0
  0
MTEXT
  5
26DE
330
2570
100
AcDbEntity
  8
SUNPOU
 62
     0
100
AcDbMText
 10
21049.8436321498
 20
6535.438390718268
 30
0.0
 40
120.0
 41
0.0
 71
     5
 72
     1
  1
\A1;750
  7
BIGFONT
 11
0.0000000000000001
 21
1.0
 31
0.0
 73
     1
 44
1.0
  0
POINT
  5
26DF
330
2570
100
AcDbEntity
  8
DEFPOINTS
 62
     0
100
AcDbPoint
 10
20016.22349343335
 20
6910.438390718264
 30
0.0
  0
POINT
  5
26E0
330
2570
100
AcDbEntity
  8
DEFPOINTS
 62
     0
100
AcDbPoint
 10
20088.00562323291
 20
6160.438390718264
 30
0.0
  0
POINT
  5
26E1
330
2570
100
AcDbEntity
  8
DEFPOINTS
 62
     0
100
AcDbPoint
 10
21149.8436321498
 20
6160.438390718264
 30
0.0
  0
ENDBLK
  5
2572
330
2570
100
AcDbEntity
  8
0
100
AcDbBlockEnd
  0
BLOCK
  5
257D
330
257C
100
AcDbEntity
  8
0
100
AcDbBlockBegin
  2
*D25
 70
     1
 10
0.0
 20
0.0
 30
0.0
  3
*D25
  1

  0
LINE
  5
26E2
330
257C
100
AcDbEntity
  8
SUNPOU
 62
     0
370
    -2
100
AcDbLine
 10
20056.22349343335
 20
5160.438390718264
 30
0.0
 11
20869.8436321498
 21
5160.438390718264
 31
0.0
  0
LINE
  5
26E3
330
257C
100
AcDbEntity
  8
SUNPOU
 62
     0
370
    -2
100
AcDbLine
 10
20053.35071703009
 20
4660.438390718264
 30
0.0
 11
20869.8436321498
 21
4660.438390718264
 31
0.0
  0
LINE
  5
26E4
330
257C
100
AcDbEntity
  8
SUNPOU
 62
     0
370
    -2
100
AcDbLine
 10
20829.8436321498
 20
5080.438390718263
 30
0.0
 11
20829.8436321498
 21
4740.438390718265
 31
0.0
  0
INSERT
  5
26E5
330
257C
100
AcDbEntity
  8
SUNPOU
 62
     0
370
    -2
100
AcDbBlockReference
  2
ARROW
 10
20829.8436321498
 20
5160.438390718264
 30
0.0
 41
80.0
 42
80.0
 43
80.0
 50
90.0
  0
INSERT
  5
26E6
330
257C
100
AcDbEntity
  8
SUNPOU
 62
     0
370
    -2
100
AcDbBlockReference
  2
ARROW
 10
20829.8436321498
 20
4660.438390718264
 30
0.0
 41
80.0
 42
80.0
 43
80.0
 50
270.0
  0
MTEXT
  5
26E7
330
257C
100
AcDbEntity
  8
SUNPOU
 62
     0
100
AcDbMText
 10
20729.8436321498
 20
4910.438390718269
 30
0.0
 40
120.0
 41
0.0
 71
     5
 72
     1
  1
\A1;500
  7
BIGFONT
 11
0.0000000000000001
 21
1.0
 31
0.0
 73
     1
 44
1.0
  0
POINT
  5
26E8
330
257C
100
AcDbEntity
  8
DEFPOINTS
 62
     0
100
AcDbPoint
 10
20016.22349343335
 20
5160.438390718264
 30
0.0
  0
POINT
  5
26E9
330
257C
100
AcDbEntity
  8
DEFPOINTS
 62
     0
100
AcDbPoint
 10
20013.35071703009
 20
4660.438390718264
 30
0.0
  0
POINT
  5
26EA
330
257C
100
AcDbEntity
  8
DEFPOINTS
 62
     0
100
AcDbPoint
 10
20829.8436321498
 20
4660.438390718264
 30
0.0
  0
ENDBLK
  5
257E
330
257C
100
AcDbEntity
  8
0
100
AcDbBlockEnd
  0
BLOCK
  5
26FA
330
26F9
100
AcDbEntity
  8
0
100
AcDbBlockBegin
  2
*D26
 70
     1
 10
0.0
 20
0.0
 30
0.0
  3
*D26
  1

  0
LINE
  5
2B04
330
26F9
100
AcDbEntity
  8
SUNPOU
 62
     0
370
    -2
100
AcDbLine
 10
6224.034096911682
 20
3893.021721587738
 30
0.0
 11
6224.034096911682
 21
3069.311751461806
 31
0.0
  0
LINE
  5
2B05
330
26F9
100
AcDbEntity
  8
SUNPOU
 62
     0
370
    -2
100
AcDbLine
 10
9124.03409691168
 20
3921.493053010424
 30
0.0
 11
9124.03409691168
 21
3069.311751461806
 31
0.0
  0
LINE
  5
2B06
330
26F9
100
AcDbEntity
  8
SUNPOU
 62
     0
370
    -2
100
AcDbLine
 10
6304.034096911682
 20
3109.311751461806
 30
0.0
 11
9044.03409691168
 21
3109.311751461806
 31
0.0
  0
INSERT
  5
2B07
330
26F9
100
AcDbEntity
  8
SUNPOU
 62
     0
370
    -2
100
AcDbBlockReference
  2
ARROW
 10
6224.034096911682
 20
3109.311751461806
 30
0.0
 41
80.0
 42
80.0
 43
80.0
 50
180.0
  0
INSERT
  5
2B08
330
26F9
100
AcDbEntity
  8
SUNPOU
 62
     0
370
    -2
100
AcDbBlockReference
  2
ARROW
 10
9124.03409691168
 20
3109.311751461806
 30
0.0
 41
80.0
 42
80.0
 43
80.0
  0
MTEXT
  5
2B09
330
26F9
100
AcDbEntity
  8
SUNPOU
 62
     0
100
AcDbMText
 10
7674.034096911682
 20
3209.311751461807
 30
0.0
 40
120.0
 41
0.0
 71
     5
 72
     1
  1
\A1;2900
  7
BIGFONT
 73
     1
 44
1.0
  0
POINT
  5
2B0A
330
26F9
100
AcDbEntity
  8
DEFPOINTS
 62
     0
100
AcDbPoint
 10
6224.034096911682
 20
3933.021721587738
 30
0.0
  0
POINT
  5
2B0B
330
26F9
100
AcDbEntity
  8
DEFPOINTS
 62
     0
100
AcDbPoint
 10
9124.03409691168
 20
3961.493053010424
 30
0.0
  0
POINT
  5
2B0C
330
26F9
100
AcDbEntity
  8
DEFPOINTS
 62
     0
100
AcDbPoint
 10
9124.03409691168
 20
3109.311751461806
 30
0.0
  0
ENDBLK
  5
26FB
330
26F9
100
AcDbEntity
  8
0
100
AcDbBlockEnd
  0
BLOCK
  5
2706
330
2705
100
AcDbEntity
  8
0
100
AcDbBlockBegin
  2
*D27
 70
     1
 10
0.0
 20
0.0
 30
0.0
  3
*D27
  1

  0
LINE
  5
2B0D
330
2705
100
AcDbEntity
  8
SUNPOU
 62
     0
370
    -2
100
AcDbLine
 10
6674.03409691168
 20
3893.021721587737
 30
0.0
 11
6674.03409691168
 21
3353.768614671302
 31
0.0
  0
LINE
  5
2B0E
330
2705
100
AcDbEntity
  8
SUNPOU
 62
     0
370
    -2
100
AcDbLine
 10
8674.034096911682
 20
3893.021721587736
 30
0.0
 11
8674.034096911682
 21
3353.768614671302
 31
0.0
  0
LINE
  5
2B0F
330
2705
100
AcDbEntity
  8
SUNPOU
 62
     0
370
    -2
100
AcDbLine
 10
6754.034096911681
 20
3393.768614671302
 30
0.0
 11
8594.034096911682
 21
3393.768614671302
 31
0.0
  0
INSERT
  5
2B10
330
2705
100
AcDbEntity
  8
SUNPOU
 62
     0
370
    -2
100
AcDbBlockReference
  2
ARROW
 10
6674.03409691168
 20
3393.768614671302
 30
0.0
 41
80.0
 42
80.0
 43
80.0
 50
180.0
  0
INSERT
  5
2B11
330
2705
100
AcDbEntity
  8
SUNPOU
 62
     0
370
    -2
100
AcDbBlockReference
  2
ARROW
 10
8674.034096911682
 20
3393.768614671302
 30
0.0
 41
80.0
 42
80.0
 43
80.0
  0
MTEXT
  5
2B12
330
2705
100
AcDbEntity
  8
SUNPOU
 62
     0
100
AcDbMText
 10
7674.034096911682
 20
3493.768614671302
 30
0.0
 40
120.0
 41
0.0
 71
     5
 72
     1
  1
\A1;2000
  7
BIGFONT
 73
     1
 44
1.0
  0
POINT
  5
2B13
330
2705
100
AcDbEntity
  8
DEFPOINTS
 62
     0
100
AcDbPoint
 10
6674.03409691168
 20
3933.021721587737
 30
0.0
  0
POINT
  5
2B14
330
2705
100
AcDbEntity
  8
DEFPOINTS
 62
     0
100
AcDbPoint
 10
8674.034096911682
 20
3933.021721587736
 30
0.0
  0
POINT
  5
2B15
330
2705
100
AcDbEntity
  8
DEFPOINTS
 62
     0
100
AcDbPoint
 10
8674.034096911682
 20
3393.768614671302
 30
0.0
  0
ENDBLK
  5
2707
330
2705
100
AcDbEntity
  8
0
100
AcDbBlockEnd
  0
BLOCK
  5
2784
330
2783
100
AcDbEntity
  8
0
100
AcDbBlockBegin
  2
*D28
 70
     1
 10
0.0
 20
0.0
 30
0.0
  3
*D28
  1

  0
LINE
  5
2B16
330
2783
100
AcDbEntity
  8
SUNPOU
 62
     0
370
    -2
100
AcDbLine
 10
9164.034096911684
 20
6833.021721587738
 30
0.0
 11
9917.974720825966
 21
6833.021721587738
 31
0.0
  0
LINE
  5
2B17
330
2783
100
AcDbEntity
  8
SUNPOU
 62
     0
370
    -2
100
AcDbLine
 10
9195.816226711242
 20
3933.021721587735
 30
0.0
 11
9917.974720825966
 21
3933.021721587735
 31
0.0
  0
LINE
  5
2B18
330
2783
100
AcDbEntity
  8
SUNPOU
 62
     0
370
    -2
100
AcDbLine
 10
9877.974720825967
 20
6753.021721587739
 30
0.0
 11
9877.974720825966
 21
4013.021721587735
 31
0.0
  0
INSERT
  5
2B19
330
2783
100
AcDbEntity
  8
SUNPOU
 62
     0
370
    -2
100
AcDbBlockReference
  2
ARROW
 10
9877.974720825967
 20
6833.021721587738
 30
0.0
 41
80.0
 42
80.0
 43
80.0
 50
90.0
  0
INSERT
  5
2B1A
330
2783
100
AcDbEntity
  8
SUNPOU
 62
     0
370
    -2
100
AcDbBlockReference
  2
ARROW
 10
9877.974720825966
 20
3933.021721587735
 30
0.0
 41
80.0
 42
80.0
 43
80.0
 50
270.0
  0
MTEXT
  5
2B1B
330
2783
100
AcDbEntity
  8
SUNPOU
 62
     0
100
AcDbMText
 10
9777.974720825966
 20
5383.021721587738
 30
0.0
 40
120.0
 41
0.0
 71
     5
 72
     1
  1
\A1;2900
  7
BIGFONT
 11
0.0000000000000001
 21
1.0
 31
0.0
 73
     1
 44
1.0
  0
POINT
  5
2B1C
330
2783
100
AcDbEntity
  8
DEFPOINTS
 62
     0
100
AcDbPoint
 10
9124.034096911683
 20
6833.021721587738
 30
0.0
  0
POINT
  5
2B1D
330
2783
100
AcDbEntity
  8
DEFPOINTS
 62
     0
100
AcDbPoint
 10
9155.816226711243
 20
3933.021721587735
 30
0.0
  0
POINT
  5
2B1E
330
2783
100
AcDbEntity
  8
DEFPOINTS
 62
     0
100
AcDbPoint
 10
9877.974720825966
 20
3933.021721587735
 30
0.0
  0
ENDBLK
  5
2785
330
2783
100
AcDbEntity
  8
0
100
AcDbBlockEnd
  0
BLOCK
  5
279B
330
279A
100
AcDbEntity
  8
0
100
AcDbBlockBegin
  2
*D29
 70
     1
 10
0.0
 20
0.0
 30
0.0
  3
*D29
  1

  0
LINE
  5
2B1F
330
279A
100
AcDbEntity
  8
SUNPOU
 62
     0
370
    -2
100
AcDbLine
 10
9164.034096911684
 20
6383.021721587738
 30
0.0
 11
9588.170647406164
 21
6383.021721587738
 31
0.0
  0
LINE
  5
2B20
330
279A
100
AcDbEntity
  8
SUNPOU
 62
     0
370
    -2
100
AcDbLine
 10
9164.034096911681
 20
4383.021721587737
 30
0.0
 11
9588.170647406164
 21
4383.021721587737
 31
0.0
  0
LINE
  5
2B21
330
279A
100
AcDbEntity
  8
SUNPOU
 62
     0
370
    -2
100
AcDbLine
 10
9548.170647406164
 20
6303.021721587739
 30
0.0
 11
9548.170647406164
 21
4463.021721587736
 31
0.0
  0
INSERT
  5
2B22
330
279A
100
AcDbEntity
  8
SUNPOU
 62
     0
370
    -2
100
AcDbBlockReference
  2
ARROW
 10
9548.170647406164
 20
6383.021721587738
 30
0.0
 41
80.0
 42
80.0
 43
80.0
 50
90.0
  0
INSERT
  5
2B23
330
279A
100
AcDbEntity
  8
SUNPOU
 62
     0
370
    -2
100
AcDbBlockReference
  2
ARROW
 10
9548.170647406164
 20
4383.021721587737
 30
0.0
 41
80.0
 42
80.0
 43
80.0
 50
270.0
  0
MTEXT
  5
2B24
330
279A
100
AcDbEntity
  8
SUNPOU
 62
     0
100
AcDbMText
 10
9448.170647406163
 20
5383.021721587738
 30
0.0
 40
120.0
 41
0.0
 71
     5
 72
     1
  1
\A1;2000
  7
BIGFONT
 11
0.0000000000000001
 21
1.0
 31
0.0
 73
     1
 44
1.0
  0
POINT
  5
2B25
330
279A
100
AcDbEntity
  8
DEFPOINTS
 62
     0
100
AcDbPoint
 10
9124.034096911683
 20
6383.021721587738
 30
0.0
  0
POINT
  5
2B26
330
279A
100
AcDbEntity
  8
DEFPOINTS
 62
     0
100
AcDbPoint
 10
9124.03409691168
 20
4383.021721587737
 30
0.0
  0
POINT
  5
2B27
330
279A
100
AcDbEntity
  8
DEFPOINTS
 62
     0
100
AcDbPoint
 10
9548.170647406164
 20
4383.021721587737
 30
0.0
  0
ENDBLK
  5
279C
330
279A
100
AcDbEntity
  8
0
100
AcDbBlockEnd
  0
BLOCK
  5
290C
330
290B
100
AcDbEntity
  8
0
100
AcDbBlockBegin
  2
*D30
 70
     1
 10
0.0
 20
0.0
 30
0.0
  3
*D30
  1

  0
LINE
  5
2B28
330
290B
100
AcDbEntity
  8
SUNPOU
 62
     0
370
    -2
100
AcDbLine
 10
13999.23171618784
 20
5399.950642870919
 30
0.0
 11
13999.23171618784
 21
5428.13857813774
 31
0.0
  0
LINE
  5
2B29
330
290B
100
AcDbEntity
  8
SUNPOU
 62
     0
370
    -2
100
AcDbLine
 10
15199.23171618784
 20
5385.856685016396
 30
0.0
 11
15199.23171618784
 21
5428.13857813774
 31
0.0
  0
LINE
  5
2B2A
330
290B
100
AcDbEntity
  8
SUNPOU
 62
     0
370
    -2
100
AcDbLine
 10
14079.23171618784
 20
5388.138578137739
 30
0.0
 11
15119.23171618784
 21
5388.138578137739
 31
0.0
  0
INSERT
  5
2B2B
330
290B
100
AcDbEntity
  8
SUNPOU
 62
     0
370
    -2
100
AcDbBlockReference
  2
ARROW
 10
13999.23171618784
 20
5388.138578137739
 30
0.0
 41
80.0
 42
80.0
 43
80.0
 50
180.0
  0
INSERT
  5
2B2C
330
290B
100
AcDbEntity
  8
SUNPOU
 62
     0
370
    -2
100
AcDbBlockReference
  2
ARROW
 10
15199.23171618784
 20
5388.138578137739
 30
0.0
 41
80.0
 42
80.0
 43
80.0
  0
MTEXT
  5
2B2D
330
290B
100
AcDbEntity
  8
SUNPOU
 62
     0
100
AcDbMText
 10
14599.23171618784
 20
5488.138578137739
 30
0.0
 40
120.0
 41
0.0
 71
     5
 72
     1
  1
\A1;φ1200
  7
BIGFONT
 73
     1
 44
1.0
  0
POINT
  5
2B2E
330
290B
100
AcDbEntity
  8
DEFPOINTS
 62
     0
100
AcDbPoint
 10
13999.23171618784
 20
5359.950642870919
 30
0.0
  0
POINT
  5
2B2F
330
290B
100
AcDbEntity
  8
DEFPOINTS
 62
     0
100
AcDbPoint
 10
15199.23171618784
 20
5345.856685016395
 30
0.0
  0
POINT
  5
2B30
330
290B
100
AcDbEntity
  8
DEFPOINTS
 62
     0
100
AcDbPoint
 10
15199.23171618784
 20
5388.138578137739
 30
0.0
  0
ENDBLK
  5
290D
330
290B
100
AcDbEntity
  8
0
100
AcDbBlockEnd
  0
BLOCK
  5
2918
330
2917
100
AcDbEntity
  8
0
100
AcDbBlockBegin
  2
*D31
 70
     1
 10
0.0
 20
0.0
 30
0.0
  3
*D31
  1

  0
LINE
  5
2B31
330
2917
100
AcDbEntity
  8
SUNPOU
 62
     0
370
    -2
100
AcDbLine
 10
13149.23171618784
 20
4608.909722140952
 30
0.0
 11
13149.23171618784
 21
3756.728420592335
 31
0.0
  0
LINE
  5
2B32
330
2917
100
AcDbEntity
  8
SUNPOU
 62
     0
370
    -2
100
AcDbLine
 10
16049.23171618784
 20
4608.909722140952
 30
0.0
 11
16049.23171618784
 21
3756.728420592335
 31
0.0
  0
LINE
  5
2B33
330
2917
100
AcDbEntity
  8
SUNPOU
 62
     0
370
    -2
100
AcDbLine
 10
13229.23171618784
 20
3796.728420592334
 30
0.0
 11
15969.23171618784
 21
3796.728420592334
 31
0.0
  0
INSERT
  5
2B34
330
2917
100
AcDbEntity
  8
SUNPOU
 62
     0
370
    -2
100
AcDbBlockReference
  2
ARROW
 10
13149.23171618784
 20
3796.728420592334
 30
0.0
 41
80.0
 42
80.0
 43
80.0
 50
180.0
  0
INSERT
  5
2B35
330
2917
100
AcDbEntity
  8
SUNPOU
 62
     0
370
    -2
100
AcDbBlockReference
  2
ARROW
 10
16049.23171618784
 20
3796.728420592334
 30
0.0
 41
80.0
 42
80.0
 43
80.0
  0
MTEXT
  5
2B36
330
2917
100
AcDbEntity
  8
SUNPOU
 62
     0
100
AcDbMText
 10
14599.23171618784
 20
3896.728420592334
 30
0.0
 40
120.0
 41
0.0
 71
     5
 72
     1
  1
\A1;2900
  7
BIGFONT
 73
     1
 44
1.0
  0
POINT
  5
2B37
330
2917
100
AcDbEntity
  8
DEFPOINTS
 62
     0
100
AcDbPoint
 10
13149.23171618784
 20
4648.909722140952
 30
0.0
  0
POINT
  5
2B38
330
2917
100
AcDbEntity
  8
DEFPOINTS
 62
     0
100
AcDbPoint
 10
16049.23171618784
 20
4648.909722140952
 30
0.0
  0
POINT
  5
2B39
330
2917
100
AcDbEntity
  8
DEFPOINTS
 62
     0
100
AcDbPoint
 10
16049.23171618784
 20
3796.728420592334
 30
0.0
  0
ENDBLK
  5
2919
330
2917
100
AcDbEntity
  8
0
100
AcDbBlockEnd
  0
BLOCK
  5
2924
330
2923
100
AcDbEntity
  8
0
100
AcDbBlockBegin
  2
*D32
 70
     1
 10
0.0
 20
0.0
 30
0.0
  3
*D32
  1

  0
LINE
  5
2B3A
330
2923
100
AcDbEntity
  8
SUNPOU
 62
     0
370
    -2
100
AcDbLine
 10
13599.23171618784
 20
4620.438390718264
 30
0.0
 11
13599.23171618784
 21
4041.18528380183
 31
0.0
  0
LINE
  5
2B3B
330
2923
100
AcDbEntity
  8
SUNPOU
 62
     0
370
    -2
100
AcDbLine
 10
15599.23171618784
 20
4620.438390718264
 30
0.0
 11
15599.23171618784
 21
4041.18528380183
 31
0.0
  0
LINE
  5
2B3C
330
2923
100
AcDbEntity
  8
SUNPOU
 62
     0
370
    -2
100
AcDbLine
 10
13679.23171618784
 20
4081.18528380183
 30
0.0
 11
15519.23171618784
 21
4081.18528380183
 31
0.0
  0
INSERT
  5
2B3D
330
2923
100
AcDbEntity
  8
SUNPOU
 62
     0
370
    -2
100
AcDbBlockReference
  2
ARROW
 10
13599.23171618784
 20
4081.18528380183
 30
0.0
 41
80.0
 42
80.0
 43
80.0
 50
180.0
  0
INSERT
  5
2B3E
330
2923
100
AcDbEntity
  8
SUNPOU
 62
     0
370
    -2
100
AcDbBlockReference
  2
ARROW
 10
15599.23171618784
 20
4081.18528380183
 30
0.0
 41
80.0
 42
80.0
 43
80.0
  0
MTEXT
  5
2B3F
330
2923
100
AcDbEntity
  8
SUNPOU
 62
     0
100
AcDbMText
 10
14599.23171618784
 20
4181.18528380183
 30
0.0
 40
120.0
 41
0.0
 71
     5
 72
     1
  1
\A1;2000
  7
BIGFONT
 73
     1
 44
1.0
  0
POINT
  5
2B40
330
2923
100
AcDbEntity
  8
DEFPOINTS
 62
     0
100
AcDbPoint
 10
13599.23171618784
 20
4660.438390718264
 30
0.0
  0
POINT
  5
2B41
330
2923
100
AcDbEntity
  8
DEFPOINTS
 62
     0
100
AcDbPoint
 10
15599.23171618784
 20
4660.438390718264
 30
0.0
  0
POINT
  5
2B42
330
2923
100
AcDbEntity
  8
DEFPOINTS
 62
     0
100
AcDbPoint
 10
15599.23171618784
 20
4081.18528380183
 30
0.0
  0
ENDBLK
  5
2925
330
2923
100
AcDbEntity
  8
0
100
AcDbBlockEnd
  0
BLOCK
  5
2930
330
292F
100
AcDbEntity
  8
0
100
AcDbBlockBegin
  2
*D33
 70
     1
 10
0.0
 20
0.0
 30
0.0
  3
*D33
  1

  0
LINE
  5
2B43
330
292F
100
AcDbEntity
  8
SUNPOU
 62
     0
370
    -2
100
AcDbLine
 10
16168.03214111097
 20
6760.438390718265
 30
0.0
 11
16981.65227982742
 21
6760.438390718265
 31
0.0
  0
LINE
  5
2B44
330
292F
100
AcDbEntity
  8
SUNPOU
 62
     0
370
    -2
100
AcDbLine
 10
16456.25014790245
 20
6160.438390718264
 30
0.0
 11
16981.65227982742
 21
6160.438390718264
 31
0.0
  0
LINE
  5
2B45
330
292F
100
AcDbEntity
  8
SUNPOU
 62
     0
370
    -2
100
AcDbLine
 10
16941.65227982742
 20
6680.438390718265
 30
0.0
 11
16941.65227982742
 21
6240.438390718264
 31
0.0
  0
INSERT
  5
2B46
330
292F
100
AcDbEntity
  8
SUNPOU
 62
     0
370
    -2
100
AcDbBlockReference
  2
ARROW
 10
16941.65227982742
 20
6760.438390718265
 30
0.0
 41
80.0
 42
80.0
 43
80.0
 50
90.0
  0
INSERT
  5
2B47
330
292F
100
AcDbEntity
  8
SUNPOU
 62
     0
370
    -2
100
AcDbBlockReference
  2
ARROW
 10
16941.65227982742
 20
6160.438390718264
 30
0.0
 41
80.0
 42
80.0
 43
80.0
 50
270.0
  0
MTEXT
  5
2B48
330
292F
100
AcDbEntity
  8
SUNPOU
 62
     0
100
AcDbMText
 10
16841.65227982742
 20
6460.438390718266
 30
0.0
 40
120.0
 41
0.0
 71
     5
 72
     1
  1
\A1;600
  7
BIGFONT
 11
0.0000000000000001
 21
1.0
 31
0.0
 73
     1
 44
1.0
  0
POINT
  5
2B49
330
292F
100
AcDbEntity
  8
DEFPOINTS
 62
     0
100
AcDbPoint
 10
16128.03214111097
 20
6760.438390718265
 30
0.0
  0
POINT
  5
2B4A
330
292F
100
AcDbEntity
  8
DEFPOINTS
 62
     0
100
AcDbPoint
 10
16416.25014790245
 20
6160.438390718264
 30
0.0
  0
POINT
  5
2B4B
330
292F
100
AcDbEntity
  8
DEFPOINTS
 62
     0
100
AcDbPoint
 10
16941.65227982742
 20
6160.438390718264
 30
0.0
  0
ENDBLK
  5
2931
330
292F
100
AcDbEntity
  8
0
100
AcDbBlockEnd
  0
BLOCK
  5
293C
330
293B
100
AcDbEntity
  8
0
100
AcDbBlockBegin
  2
*D34
 70
     1
 10
0.0
 20
0.0
 30
0.0
  3
*D34
  1

  0
LINE
  5
2B4C
330
293B
100
AcDbEntity
  8
SUNPOU
 62
     0
370
    -2
100
AcDbLine
 10
16168.03214111097
 20
6160.438390718264
 30
0.0
 11
16981.65227982742
 21
6160.438390718264
 31
0.0
  0
LINE
  5
2B4D
330
293B
100
AcDbEntity
  8
SUNPOU
 62
     0
370
    -2
100
AcDbLine
 10
16168.03214111097
 20
5160.438390718264
 30
0.0
 11
16981.65227982742
 21
5160.438390718264
 31
0.0
  0
LINE
  5
2B4E
330
293B
100
AcDbEntity
  8
SUNPOU
 62
     0
370
    -2
100
AcDbLine
 10
16941.65227982742
 20
6080.438390718263
 30
0.0
 11
16941.65227982742
 21
5240.438390718264
 31
0.0
  0
INSERT
  5
2B4F
330
293B
100
AcDbEntity
  8
SUNPOU
 62
     0
370
    -2
100
AcDbBlockReference
  2
ARROW
 10
16941.65227982742
 20
6160.438390718264
 30
0.0
 41
80.0
 42
80.0
 43
80.0
 50
90.0
  0
INSERT
  5
2B50
330
293B
100
AcDbEntity
  8
SUNPOU
 62
     0
370
    -2
100
AcDbBlockReference
  2
ARROW
 10
16941.65227982742
 20
5160.438390718264
 30
0.0
 41
80.0
 42
80.0
 43
80.0
 50
270.0
  0
MTEXT
  5
2B51
330
293B
100
AcDbEntity
  8
SUNPOU
 62
     0
100
AcDbMText
 10
16841.65227982742
 20
5660.438390718266
 30
0.0
 40
120.0
 41
0.0
 71
     5
 72
     1
  1
\A1;1000
  7
BIGFONT
 11
0.0000000000000001
 21
1.0
 31
0.0
 73
     1
 44
1.0
  0
POINT
  5
2B52
330
293B
100
AcDbEntity
  8
DEFPOINTS
 62
     0
100
AcDbPoint
 10
16128.03214111097
 20
6160.438390718264
 30
0.0
  0
POINT
  5
2B53
330
293B
100
AcDbEntity
  8
DEFPOINTS
 62
     0
100
AcDbPoint
 10
16128.03214111097
 20
5160.438390718264
 30
0.0
  0
POINT
  5
2B54
330
293B
100
AcDbEntity
  8
DEFPOINTS
 62
     0
100
AcDbPoint
 10
16941.65227982742
 20
5160.438390718264
 30
0.0
  0
ENDBLK
  5
293D
330
293B
100
AcDbEntity
  8
0
100
AcDbBlockEnd
  0
BLOCK
  5
2948
330
2947
100
AcDbEntity
  8
0
100
AcDbBlockBegin
  2
*D35
 70
     1
 10
0.0
 20
0.0
 30
0.0
  3
*D35
  1

  0
LINE
  5
2B55
330
2947
100
AcDbEntity
  8
SUNPOU
 62
     0
370
    -2
100
AcDbLine
 10
16165.15936470771
 20
4660.438390718264
 30
0.0
 11
17301.65227982742
 21
4660.438390718264
 31
0.0
  0
LINE
  5
2B56
330
2947
100
AcDbEntity
  8
SUNPOU
 62
     0
370
    -2
100
AcDbLine
 10
17261.65227982742
 20
6080.438390718263
 30
0.0
 11
17261.65227982742
 21
4740.438390718265
 31
0.0
  0
INSERT
  5
2B57
330
2947
100
AcDbEntity
  8
SUNPOU
 62
     0
370
    -2
100
AcDbBlockReference
  2
ARROW
 10
17261.65227982742
 20
6160.438390718264
 30
0.0
 41
80.0
 42
80.0
 43
80.0
 50
90.0
  0
INSERT
  5
2B58
330
2947
100
AcDbEntity
  8
SUNPOU
 62
     0
370
    -2
100
AcDbBlockReference
  2
ARROW
 10
17261.65227982742
 20
4660.438390718264
 30
0.0
 41
80.0
 42
80.0
 43
80.0
 50
270.0
  0
MTEXT
  5
2B59
330
2947
100
AcDbEntity
  8
SUNPOU
 62
     0
100
AcDbMText
 10
17161.65227982742
 20
5410.438390718266
 30
0.0
 40
120.0
 41
0.0
 71
     5
 72
     1
  1
\A1;1500
  7
BIGFONT
 11
0.0000000000000001
 21
1.0
 31
0.0
 73
     1
 44
1.0
  0
POINT
  5
2B5A
330
2947
100
AcDbEntity
  8
DEFPOINTS
 62
     0
100
AcDbPoint
 10
16416.25014790245
 20
6160.438390718264
 30
0.0
  0
POINT
  5
2B5B
330
2947
100
AcDbEntity
  8
DEFPOINTS
 62
     0
100
AcDbPoint
 10
16125.15936470771
 20
4660.438390718264
 30
0.0
  0
POINT
  5
2B5C
330
2947
100
AcDbEntity
  8
DEFPOINTS
 62
     0
100
AcDbPoint
 10
17261.65227982742
 20
4660.438390718264
 30
0.0
  0
ENDBLK
  5
2949
330
2947
100
AcDbEntity
  8
0
100
AcDbBlockEnd
  0
BLOCK
  5
2953
330
2952
100
AcDbEntity
  8
0
100
AcDbBlockBegin
  2
*D36
 70
     1
 10
0.0
 20
0.0
 30
0.0
  3
*D36
  1

  0
LINE
  5
2B5D
330
2952
100
AcDbEntity
  8
SUNPOU
 62
     0
370
    -2
100
AcDbLine
 10
16168.03214111097
 20
6910.438390718262
 30
0.0
 11
16981.65227982742
 21
6910.438390718262
 31
0.0
  0
LINE
  5
2B5E
330
2952
100
AcDbEntity
  8
SUNPOU
 62
     0
370
    -2
100
AcDbLine
 10
16941.65227982742
 20
6680.438390718264
 30
0.0
 11
16941.65227982742
 21
6600.438390718264
 31
0.0
  0
LINE
  5
2B5F
330
2952
100
AcDbEntity
  8
SUNPOU
 62
     0
370
    -2
100
AcDbLine
 10
16941.65227982742
 20
6990.438390718262
 30
0.0
 11
16941.65227982742
 21
7070.438390718262
 31
0.0
  0
MTEXT
  5
2B60
330
2952
100
AcDbEntity
  8
SUNPOU
 62
     0
100
AcDbMText
 10
17221.65227982742
 20
6835.438390718265
 30
0.0
 40
120.0
 41
0.0
 71
     5
 72
     1
  1
\A1;150
  7
BIGFONT
 11
0.0000000000000001
 21
1.0
 31
0.0
 73
     1
 44
1.0
  0
LINE
  5
2B61
330
2952
100
AcDbEntity
  8
SUNPOU
 62
     0
370
    -2
100
AcDbLine
 10
16941.65227982742
 20
6760.438390718263
 30
0.0
 11
16941.65227982742
 21
6910.438390718262
 31
0.0
  0
INSERT
  5
2B62
330
2952
100
AcDbEntity
  8
SUNPOU
 62
     0
370
    -2
100
AcDbBlockReference
  2
ARROW
 10
16941.65227982742
 20
6760.438390718263
 30
0.0
 41
80.0
 42
80.0
 43
80.0
 50
90.0
  0
INSERT
  5
2B63
330
2952
100
AcDbEntity
  8
SUNPOU
 62
     0
370
    -2
100
AcDbBlockReference
  2
ARROW
 10
16941.65227982742
 20
6910.438390718262
 30
0.0
 41
80.0
 42
80.0
 43
80.0
 50
270.0
  0
POINT
  5
2B64
330
2952
100
AcDbEntity
  8
DEFPOINTS
 62
     0
100
AcDbPoint
 10
16416.25014790245
 20
6760.438390718263
 30
0.0
  0
POINT
  5
2B65
330
2952
100
AcDbEntity
  8
DEFPOINTS
 62
     0
100
AcDbPoint
 10
16128.03214111097
 20
6910.438390718262
 30
0.0
  0
POINT
  5
2B66
330
2952
100
AcDbEntity
  8
DEFPOINTS
 62
     0
100
AcDbPoint
 10
16941.65227982742
 20
6910.438390718262
 30
0.0
  0
ENDBLK
  5
2954
330
2952
100
AcDbEntity
  8
0
100
AcDbBlockEnd
  0
BLOCK
  5
2960
330
295F
100
AcDbEntity
  8
0
100
AcDbBlockBegin
  2
*D37
 70
     1
 10
0.0
 20
0.0
 30
0.0
  3
*D37
  1

  0
LINE
  5
2B67
330
295F
100
AcDbEntity
  8
SUNPOU
 62
     0
370
    -2
100
AcDbLine
 10
16168.03214111097
 20
6910.438390718264
 30
0.0
 11
17301.65227982742
 21
6910.438390718264
 31
0.0
  0
LINE
  5
2B68
330
295F
100
AcDbEntity
  8
SUNPOU
 62
     0
370
    -2
100
AcDbLine
 10
16239.81427091053
 20
6160.438390718264
 30
0.0
 11
17301.65227982742
 21
6160.438390718264
 31
0.0
  0
LINE
  5
2B69
330
295F
100
AcDbEntity
  8
SUNPOU
 62
     0
370
    -2
100
AcDbLine
 10
17261.65227982742
 20
6830.438390718263
 30
0.0
 11
17261.65227982742
 21
6240.438390718264
 31
0.0
  0
INSERT
  5
2B6A
330
295F
100
AcDbEntity
  8
SUNPOU
 62
     0
370
    -2
100
AcDbBlockReference
  2
ARROW
 10
17261.65227982742
 20
6910.438390718264
 30
0.0
 41
80.0
 42
80.0
 43
80.0
 50
90.0
  0
INSERT
  5
2B6B
330
295F
100
AcDbEntity
  8
SUNPOU
 62
     0
370
    -2
100
AcDbBlockReference
  2
ARROW
 10
17261.65227982742
 20
6160.438390718264
 30
0.0
 41
80.0
 42
80.0
 43
80.0
 50
270.0
  0
MTEXT
  5
2B6C
330
295F
100
AcDbEntity
  8
SUNPOU
 62
     0
100
AcDbMText
 10
17161.65227982742
 20
6535.438390718266
 30
0.0
 40
120.0
 41
0.0
 71
     5
 72
     1
  1
\A1;750
  7
BIGFONT
 11
0.0000000000000001
 21
1.0
 31
0.0
 73
     1
 44
1.0
  0
POINT
  5
2B6D
330
295F
100
AcDbEntity
  8
DEFPOINTS
 62
     0
100
AcDbPoint
 10
16128.03214111097
 20
6910.438390718264
 30
0.0
  0
POINT
  5
2B6E
330
295F
100
AcDbEntity
  8
DEFPOINTS
 62
     0
100
AcDbPoint
 10
16199.81427091054
 20
6160.438390718264
 30
0.0
  0
POINT
  5
2B6F
330
295F
100
AcDbEntity
  8
DEFPOINTS
 62
     0
100
AcDbPoint
 10
17261.65227982742
 20
6160.438390718264
 30
0.0
  0
ENDBLK
  5
2961
330
295F
100
AcDbEntity
  8
0
100
AcDbBlockEnd
  0
BLOCK
  5
296C
330
296B
100
AcDbEntity
  8
0
100
AcDbBlockBegin
  2
*D38
 70
     1
 10
0.0
 20
0.0
 30
0.0
  3
*D38
  1

  0
LINE
  5
2B70
330
296B
100
AcDbEntity
  8
SUNPOU
 62
     0
370
    -2
100
AcDbLine
 10
16168.03214111097
 20
5160.438390718264
 30
0.0
 11
16981.65227982742
 21
5160.438390718264
 31
0.0
  0
LINE
  5
2B71
330
296B
100
AcDbEntity
  8
SUNPOU
 62
     0
370
    -2
100
AcDbLine
 10
16165.15936470771
 20
4660.438390718264
 30
0.0
 11
16981.65227982742
 21
4660.438390718264
 31
0.0
  0
LINE
  5
2B72
330
296B
100
AcDbEntity
  8
SUNPOU
 62
     0
370
    -2
100
AcDbLine
 10
16941.65227982742
 20
5080.438390718263
 30
0.0
 11
16941.65227982742
 21
4740.438390718265
 31
0.0
  0
INSERT
  5
2B73
330
296B
100
AcDbEntity
  8
SUNPOU
 62
     0
370
    -2
100
AcDbBlockReference
  2
ARROW
 10
16941.65227982742
 20
5160.438390718264
 30
0.0
 41
80.0
 42
80.0
 43
80.0
 50
90.0
  0
INSERT
  5
2B74
330
296B
100
AcDbEntity
  8
SUNPOU
 62
     0
370
    -2
100
AcDbBlockReference
  2
ARROW
 10
16941.65227982742
 20
4660.438390718264
 30
0.0
 41
80.0
 42
80.0
 43
80.0
 50
270.0
  0
MTEXT
  5
2B75
330
296B
100
AcDbEntity
  8
SUNPOU
 62
     0
100
AcDbMText
 10
16841.65227982742
 20
4910.438390718266
 30
0.0
 40
120.0
 41
0.0
 71
     5
 72
     1
  1
\A1;500
  7
BIGFONT
 11
0.0000000000000001
 21
1.0
 31
0.0
 73
     1
 44
1.0
  0
POINT
  5
2B76
330
296B
100
AcDbEntity
  8
DEFPOINTS
 62
     0
100
AcDbPoint
 10
16128.03214111097
 20
5160.438390718264
 30
0.0
  0
POINT
  5
2B77
330
296B
100
AcDbEntity
  8
DEFPOINTS
 62
     0
100
AcDbPoint
 10
16125.15936470771
 20
4660.438390718264
 30
0.0
  0
POINT
  5
2B78
330
296B
100
AcDbEntity
  8
DEFPOINTS
 62
     0
100
AcDbPoint
 10
16941.65227982742
 20
4660.438390718264
 30
0.0
  0
ENDBLK
  5
296D
330
296B
100
AcDbEntity
  8
0
100
AcDbBlockEnd
  0
BLOCK
  5
2978
330
2977
100
AcDbEntity
  8
0
100
AcDbBlockBegin
  2
*D39
 70
     1
 10
0.0
 20
0.0
 30
0.0
  3
*D39
  1

  0
LINE
  5
2B79
330
2977
100
AcDbEntity
  8
SUNPOU
 62
     0
370
    -2
100
AcDbLine
 10
18104.03409691168
 20
3893.021721587738
 30
0.0
 11
18104.03409691168
 21
3069.311751461806
 31
0.0
  0
LINE
  5
2B7A
330
2977
100
AcDbEntity
  8
SUNPOU
 62
     0
370
    -2
100
AcDbLine
 10
21004.03409691168
 20
3921.493053010424
 30
0.0
 11
21004.03409691168
 21
3069.311751461806
 31
0.0
  0
LINE
  5
2B7B
330
2977
100
AcDbEntity
  8
SUNPOU
 62
     0
370
    -2
100
AcDbLine
 10
18184.03409691168
 20
3109.311751461806
 30
0.0
 11
20924.03409691168
 21
3109.311751461806
 31
0.0
  0
INSERT
  5
2B7C
330
2977
100
AcDbEntity
  8
SUNPOU
 62
     0
370
    -2
100
AcDbBlockReference
  2
ARROW
 10
18104.03409691168
 20
3109.311751461806
 30
0.0
 41
80.0
 42
80.0
 43
80.0
 50
180.0
  0
INSERT
  5
2B7D
330
2977
100
AcDbEntity
  8
SUNPOU
 62
     0
370
    -2
100
AcDbBlockReference
  2
ARROW
 10
21004.03409691168
 20
3109.311751461806
 30
0.0
 41
80.0
 42
80.0
 43
80.0
  0
MTEXT
  5
2B7E
330
2977
100
AcDbEntity
  8
SUNPOU
 62
     0
100
AcDbMText
 10
19554.03409691168
 20
3209.311751461807
 30
0.0
 40
120.0
 41
0.0
 71
     5
 72
     1
  1
\A1;2900
  7
BIGFONT
 73
     1
 44
1.0
  0
POINT
  5
2B7F
330
2977
100
AcDbEntity
  8
DEFPOINTS
 62
     0
100
AcDbPoint
 10
18104.03409691168
 20
3933.021721587738
 30
0.0
  0
POINT
  5
2B80
330
2977
100
AcDbEntity
  8
DEFPOINTS
 62
     0
100
AcDbPoint
 10
21004.03409691168
 20
3961.493053010424
 30
0.0
  0
POINT
  5
2B81
330
2977
100
AcDbEntity
  8
DEFPOINTS
 62
     0
100
AcDbPoint
 10
21004.03409691168
 20
3109.311751461806
 30
0.0
  0
ENDBLK
  5
2979
330
2977
100
AcDbEntity
  8
0
100
AcDbBlockEnd
  0
BLOCK
  5
2984
330
2983
100
AcDbEntity
  8
0
100
AcDbBlockBegin
  2
*D40
 70
     1
 10
0.0
 20
0.0
 30
0.0
  3
*D40
  1

  0
LINE
  5
2B82
330
2983
100
AcDbEntity
  8
SUNPOU
 62
     0
370
    -2
100
AcDbLine
 10
18554.03409691168
 20
3893.021721587737
 30
0.0
 11
18554.03409691168
 21
3353.768614671302
 31
0.0
  0
LINE
  5
2B83
330
2983
100
AcDbEntity
  8
SUNPOU
 62
     0
370
    -2
100
AcDbLine
 10
20554.03409691168
 20
3893.021721587736
 30
0.0
 11
20554.03409691168
 21
3353.768614671302
 31
0.0
  0
LINE
  5
2B84
330
2983
100
AcDbEntity
  8
SUNPOU
 62
     0
370
    -2
100
AcDbLine
 10
18634.03409691168
 20
3393.768614671302
 30
0.0
 11
20474.03409691168
 21
3393.768614671302
 31
0.0
  0
INSERT
  5
2B85
330
2983
100
AcDbEntity
  8
SUNPOU
 62
     0
370
    -2
100
AcDbBlockReference
  2
ARROW
 10
18554.03409691168
 20
3393.768614671302
 30
0.0
 41
80.0
 42
80.0
 43
80.0
 50
180.0
  0
INSERT
  5
2B86
330
2983
100
AcDbEntity
  8
SUNPOU
 62
     0
370
    -2
100
AcDbBlockReference
  2
ARROW
 10
20554.03409691168
 20
3393.768614671302
 30
0.0
 41
80.0
 42
80.0
 43
80.0
  0
MTEXT
  5
2B87
330
2983
100
AcDbEntity
  8
SUNPOU
 62
     0
100
AcDbMText
 10
19554.03409691168
 20
3493.768614671302
 30
0.0
 40
120.0
 41
0.0
 71
     5
 72
     1
  1
\A1;2000
  7
BIGFONT
 73
     1
 44
1.0
  0
POINT
  5
2B88
330
2983
100
AcDbEntity
  8
DEFPOINTS
 62
     0
100
AcDbPoint
 10
18554.03409691168
 20
3933.021721587737
 30
0.0
  0
POINT
  5
2B89
330
2983
100
AcDbEntity
  8
DEFPOINTS
 62
     0
100
AcDbPoint
 10
20554.03409691168
 20
3933.021721587736
 30
0.0
  0
POINT
  5
2B8A
330
2983
100
AcDbEntity
  8
DEFPOINTS
 62
     0
100
AcDbPoint
 10
20554.03409691168
 20
3393.768614671302
 30
0.0
  0
ENDBLK
  5
2985
330
2983
100
AcDbEntity
  8
0
100
AcDbBlockEnd
  0
BLOCK
  5
2990
330
298F
100
AcDbEntity
  8
0
100
AcDbBlockBegin
  2
*D41
 70
     1
 10
0.0
 20
0.0
 30
0.0
  3
*D41
  1

  0
LINE
  5
2B8B
330
298F
100
AcDbEntity
  8
SUNPOU
 62
     0
370
    -2
100
AcDbLine
 10
21044.03409691169
 20
6833.021721587738
 30
0.0
 11
21797.97472082597
 21
6833.021721587738
 31
0.0
  0
LINE
  5
2B8C
330
298F
100
AcDbEntity
  8
SUNPOU
 62
     0
370
    -2
100
AcDbLine
 10
21075.81622671124
 20
3933.021721587735
 30
0.0
 11
21797.97472082597
 21
3933.021721587735
 31
0.0
  0
LINE
  5
2B8D
330
298F
100
AcDbEntity
  8
SUNPOU
 62
     0
370
    -2
100
AcDbLine
 10
21757.97472082597
 20
6753.021721587739
 30
0.0
 11
21757.97472082597
 21
4013.021721587735
 31
0.0
  0
INSERT
  5
2B8E
330
298F
100
AcDbEntity
  8
SUNPOU
 62
     0
370
    -2
100
AcDbBlockReference
  2
ARROW
 10
21757.97472082597
 20
6833.021721587738
 30
0.0
 41
80.0
 42
80.0
 43
80.0
 50
90.0
  0
INSERT
  5
2B8F
330
298F
100
AcDbEntity
  8
SUNPOU
 62
     0
370
    -2
100
AcDbBlockReference
  2
ARROW
 10
21757.97472082597
 20
3933.021721587735
 30
0.0
 41
80.0
 42
80.0
 43
80.0
 50
270.0
  0
MTEXT
  5
2B90
330
298F
100
AcDbEntity
  8
SUNPOU
 62
     0
100
AcDbMText
 10
21657.97472082596
 20
5383.021721587741
 30
0.0
 40
120.0
 41
0.0
 71
     5
 72
     1
  1
\A1;2900
  7
BIGFONT
 11
0.0000000000000001
 21
1.0
 31
0.0
 73
     1
 44
1.0
  0
POINT
  5
2B91
330
298F
100
AcDbEntity
  8
DEFPOINTS
 62
     0
100
AcDbPoint
 10
21004.03409691169
 20
6833.021721587738
 30
0.0
  0
POINT
  5
2B92
330
298F
100
AcDbEntity
  8
DEFPOINTS
 62
     0
100
AcDbPoint
 10
21035.81622671124
 20
3933.021721587735
 30
0.0
  0
POINT
  5
2B93
330
298F
100
AcDbEntity
  8
DEFPOINTS
 62
     0
100
AcDbPoint
 10
21757.97472082597
 20
3933.021721587735
 30
0.0
  0
ENDBLK
  5
2991
330
298F
100
AcDbEntity
  8
0
100
AcDbBlockEnd
  0
BLOCK
  5
299C
330
299B
100
AcDbEntity
  8
0
100
AcDbBlockBegin
  2
*D42
 70
     1
 10
0.0
 20
0.0
 30
0.0
  3
*D42
  1

  0
LINE
  5
2B94
330
299B
100
AcDbEntity
  8
SUNPOU
 62
     0
370
    -2
100
AcDbLine
 10
21044.03409691169
 20
6383.021721587738
 30
0.0
 11
21468.17064740616
 21
6383.021721587738
 31
0.0
  0
LINE
  5
2B95
330
299B
100
AcDbEntity
  8
SUNPOU
 62
     0
370
    -2
100
AcDbLine
 10
21044.03409691168
 20
4383.021721587737
 30
0.0
 11
21468.17064740616
 21
4383.021721587737
 31
0.0
  0
LINE
  5
2B96
330
299B
100
AcDbEntity
  8
SUNPOU
 62
     0
370
    -2
100
AcDbLine
 10
21428.17064740616
 20
6303.021721587739
 30
0.0
 11
21428.17064740616
 21
4463.021721587736
 31
0.0
  0
INSERT
  5
2B97
330
299B
100
AcDbEntity
  8
SUNPOU
 62
     0
370
    -2
100
AcDbBlockReference
  2
ARROW
 10
21428.17064740616
 20
6383.021721587738
 30
0.0
 41
80.0
 42
80.0
 43
80.0
 50
90.0
  0
INSERT
  5
2B98
330
299B
100
AcDbEntity
  8
SUNPOU
 62
     0
370
    -2
100
AcDbBlockReference
  2
ARROW
 10
21428.17064740616
 20
4383.021721587737
 30
0.0
 41
80.0
 42
80.0
 43
80.0
 50
270.0
  0
MTEXT
  5
2B99
330
299B
100
AcDbEntity
  8
SUNPOU
 62
     0
100
AcDbMText
 10
21328.17064740617
 20
5383.021721587741
 30
0.0
 40
120.0
 41
0.0
 71
     5
 72
     1
  1
\A1;2000
  7
BIGFONT
 11
0.0000000000000001
 21
1.0
 31
0.0
 73
     1
 44
1.0
  0
POINT
  5
2B9A
330
299B
100
AcDbEntity
  8
DEFPOINTS
 62
     0
100
AcDbPoint
 10
21004.03409691169
 20
6383.021721587738
 30
0.0
  0
POINT
  5
2B9B
330
299B
100
AcDbEntity
  8
DEFPOINTS
 62
     0
100
AcDbPoint
 10
21004.03409691168
 20
4383.021721587737
 30
0.0
  0
POINT
  5
2B9C
330
299B
100
AcDbEntity
  8
DEFPOINTS
 62
     0
100
AcDbPoint
 10
21428.17064740616
 20
4383.021721587737
 30
0.0
  0
ENDBLK
  5
299D
330
299B
100
AcDbEntity
  8
0
100
AcDbBlockEnd
  0
BLOCK
  5
2A1D
330
2A1C
100
AcDbEntity
  8
0
100
AcDbBlockBegin
  2
*D43
 70
     1
 10
0.0
 20
0.0
 30
0.0
  3
*D43
  1

  0
LINE
  5
2A1E
330
2A1C
100
AcDbEntity
  8
DEFPOINTS
 62
     0
370
    -2
100
AcDbLine
 10
14638.62028766276
 20
5393.050797275069
 30
0.0
 11
14472.05699621473
 21
5193.409443988732
 31
0.0
  0
MTEXT
  5
2A1F
102
{ACAD_XDICTIONARY
360
2BAC
102
}
330
2A1C
100
AcDbEntity
  8
DEFPOINTS
 62
     0
100
AcDbMText
 10
14319.96799963935
 20
5488.750885965679
 30
0.0
 40
120.0
 41
0.0
 71
     5
 72
     1
  1
\A1;\U+2205420
  7
BIGFONT
 11
0.6406280440308797
 21
0.7678513587935944
 31
0.0
 73
     1
 44
1.0
  0
INSERT
  5
2A20
330
2A1C
100
AcDbEntity
  8
DEFPOINTS
 62
     0
370
    -2
100
AcDbBlockReference
  2
ARROW
 10
14689.87053118523
 20
5454.478905978557
 30
0.0
 41
80.0
 42
80.0
 43
80.0
 50
50.16133288290188
  0
INSERT
  5
2A21
330
2A1C
100
AcDbEntity
  8
DEFPOINTS
 62
     0
370
    -2
100
AcDbBlockReference
  2
ARROW
 10
14420.80675269226
 20
5131.981335285246
 30
0.0
 41
80.0
 42
80.0
 43
80.0
 50
230.1613328829019
  0
POINT
  5
2A22
330
2A1C
100
AcDbEntity
  8
DEFPOINTS
 62
     0
100
AcDbPoint
 10
14420.80675269226
 20
5131.981335285246
 30
0.0
  0
POINT
  5
2A23
330
2A1C
100
AcDbEntity
  8
DEFPOINTS
 62
     0
100
AcDbPoint
 10
14689.87053118523
 20
5454.478905978557
 30
0.0
  0
ENDBLK
  5
2A24
330
2A1C
100
AcDbEntity
  8
0
100
AcDbBlockEnd
  0
BLOCK
  5
2A4F
330
2A4E
100
AcDbEntity
  8
0
100
AcDbBlockBegin
  2
*D45
 70
     1
 10
0.0
 20
0.0
 30
0.0
  3
*D45
  1

  0
LINE
  5
2B9D
330
2A4E
100
AcDbEntity
  8
DEFPOINTS
 62
     0
370
    -2
100
AcDbLine
 10
14682.51336191185
 20
5860.259067361428
 30
0.0
 11
14515.95007046382
 21
5660.617714075092
 31
0.0
  0
MTEXT
  5
2B9E
102
{ACAD_XDICTIONARY
360
2BAE
102
}
330
2A4E
100
AcDbEntity
  8
DEFPOINTS
 62
     0
100
AcDbMText
 10
14363.86107388844
 20
5955.959156052035
 30
0.0
 40
120.0
 41
0.0
 71
     5
 72
     1
  1
\A1;\U+2205420
  7
BIGFONT
 11
0.6406280440308829
 21
0.7678513587935918
 31
0.0
 73
     1
 44
1.0
  0
INSERT
  5
2B9F
330
2A4E
100
AcDbEntity
  8
DEFPOINTS
 62
     0
370
    -2
100
AcDbBlockReference
  2
ARROW
 10
14733.76360543432
 20
5921.687176064915
 30
0.0
 41
80.0
 42
80.0
 43
80.0
 50
50.16133288290164
  0
INSERT
  5
2BA0
330
2A4E
100
AcDbEntity
  8
DEFPOINTS
 62
     0
370
    -2
100
AcDbBlockReference
  2
ARROW
 10
14464.69982694135
 20
5599.189605371607
 30
0.0
 41
80.0
 42
80.0
 43
80.0
 50
230.1613328829017
  0
POINT
  5
2BA1
330
2A4E
100
AcDbEntity
  8
DEFPOINTS
 62
     0
100
AcDbPoint
 10
14464.69982694135
 20
5599.189605371607
 30
0.0
  0
POINT
  5
2BA2
330
2A4E
100
AcDbEntity
  8
DEFPOINTS
 62
     0
100
AcDbPoint
 10
14733.76360543432
 20
5921.687176064915
 30
0.0
  0
ENDBLK
  5
2A50
330
2A4E
100
AcDbEntity
  8
0
100
AcDbBlockEnd
  0
ENDSEC
  0
SECTION
  2
ENTITIES
  0
INSERT
  5
1908
330
18
100
AcDbEntity
  8
0
100
AcDbBlockReference
  2
YA_N
 10
6.0
 20
5.0
 30
0.0
  0
LINE
  5
1C2B
330
18
100
AcDbEntity
  8
KL
100
AcDbLine
 10
2682.231716187838
 20
6850.438390718264
 30
0.0
 11
3019.231716187837
 21
6850.438390718264
 31
0.0
  0
LINE
  5
1C2C
330
18
100
AcDbEntity
  8
KL
100
AcDbLine
 10
2692.231716187837
 20
6860.438390718264
 30
0.0
 11
3019.231716187837
 21
6860.438390718264
 31
0.0
  0
LINE
  5
1C2D
330
18
100
AcDbEntity
  8
0
100
AcDbLine
 10
3489.231716187838
 20
6910.438390718264
 30
0.0
 11
2549.231716187837
 21
6910.438390718264
 31
0.0
  0
TEXT
  5
1C31
330
18
100
AcDbEntity
  8
SUNPOU
100
AcDbText
 10
2434.920419796166
 20
7486.095563122266
 30
0.0
 40
120.0
  1
片斜壁６００Ｄ
  7
BIGFONT
 11
2434.920419796166
 21
7546.095563122266
 31
0.0
100
AcDbText
 73
     2
  0
LWPOLYLINE
  5
1C32
330
18
100
AcDbEntity
  8
SUNPOU
100
AcDbPolyline
 90
        3
 70
     0
 43
0.0
 10
2334.920419796166
 20
6425.371265601774
 10
2334.920419796166
 20
7446.095563122266
 10
3311.588648953132
 20
7446.095563122266
  0
DIMENSION
  5
1C37
330
18
100
AcDbEntity
  8
SUNPOU
100
AcDbDimension
  2
*D8
 10
3319.231716187839
 20
5441.339014675766
 30
0.0
 11
2719.231716187838
 21
5541.339014675767
 31
0.0
 70
    32
  1
φ1200
 71
     5
 42
1200.0
  3
STANDARD
100
AcDbAlignedDimension
 13
2119.231716187838
 23
5413.151079408947
 33
0.0
 14
3319.231716187839
 24
5399.057121554422
 34
0.0
100
AcDbRotatedDimension
1001
ACAD
1000
DSTYLE
1002
{
1070
   288
1070
     1
1070
   140
1040
3.0
1070
   340
1005
6D
1070
    74
1070
     0
1070
   172
1070
     1
1070
    73
1070
     0
1070
    77
1070
     1
1070
    40
1040
40.0
1070
   147
1040
1.0
1070
    42
1040
1.0
1070
    44
1040
1.0
1070
    43
1040
10.0
1070
   271
1070
     0
1070
   141
1040
0.0
1070
     5
1000
ARROW
1070
    41
1040
2.0
1002
}
  0
DIMENSION
  5
1C38
330
18
100
AcDbEntity
  8
SUNPOU
100
AcDbDimension
  2
*D9
 10
4169.231716187836
 20
3796.728420592334
 30
0.0
 11
2719.231716187838
 21
3896.728420592334
 31
0.0
 70
    32
 71
     5
 42
2900.0
  3
STANDARD
100
AcDbAlignedDimension
 13
1269.231716187837
 23
4648.909722140952
 33
0.0
 14
4169.231716187836
 24
4648.909722140952
 34
0.0
100
AcDbRotatedDimension
1001
ACAD
1000
DSTYLE
1002
{
1070
   288
1070
     1
1070
   140
1040
3.0
1070
   340
1005
6D
1070
    74
1070
     0
1070
   172
1070
     1
1070
    73
1070
     0
1070
    77
1070
     1
1070
    40
1040
40.0
1070
   147
1040
1.0
1070
    42
1040
1.0
1070
    44
1040
1.0
1070
    43
1040
10.0
1070
   271
1070
     0
1070
   141
1040
0.0
1070
     5
1000
ARROW
1070
    41
1040
2.0
1002
}
  0
DIMENSION
  5
1C39
330
18
100
AcDbEntity
  8
SUNPOU
100
AcDbDimension
  2
*D10
 10
3719.231716187838
 20
4081.18528380183
 30
0.0
 11
2719.231716187838
 21
4181.18528380183
 31
0.0
 70
    32
 71
     5
 42
2000.000000000001
  3
STANDARD
100
AcDbAlignedDimension
 13
1719.231716187837
 23
4660.438390718264
 33
0.0
 14
3719.231716187838
 24
4660.438390718264
 34
0.0
100
AcDbRotatedDimension
1001
ACAD
1000
DSTYLE
1002
{
1070
   288
1070
     1
1070
   140
1040
3.0
1070
   340
1005
6D
1070
    74
1070
     0
1070
   172
1070
     1
1070
    73
1070
     0
1070
    77
1070
     1
1070
    40
1040
40.0
1070
   147
1040
1.0
1070
    42
1040
1.0
1070
    44
1040
1.0
1070
    43
1040
10.0
1070
   271
1070
     0
1070
   141
1040
0.0
1070
     5
1000
ARROW
1070
    41
1040
2.0
1002
}
  0
LINE
  5
1C3C
330
18
100
AcDbEntity
  8
0
100
AcDbLine
 10
1969.231716187838
 20
6160.438390718264
 30
0.0
 11
3469.231716187838
 21
6160.438390718264
 31
0.0
  0
LINE
  5
1C3D
330
18
100
AcDbEntity
  8
KL
100
AcDbLine
 10
3319.231716187839
 20
5190.438390718264
 30
0.0
 11
2119.231716187837
 21
5190.438390718264
 31
0.0
  0
LINE
  5
1C3E
330
18
100
AcDbEntity
  8
0
100
AcDbLine
 10
2719.231716187838
 20
5030.438390718264
 30
0.0
 11
3194.231716187838
 21
5030.438390718264
 31
0.0
  0
LINE
  5
1C3F
330
18
100
AcDbEntity
  8
0
100
AcDbLine
 10
1969.231716187838
 20
5160.438390718264
 30
0.0
 11
3169.231716187838
 21
5160.438390718264
 31
0.0
  0
LINE
  5
1C40
330
18
100
AcDbEntity
  8
0
100
AcDbLine
 10
2719.231716187838
 20
5030.438390718264
 30
0.0
 11
3494.231716187839
 21
5030.438390718264
 31
0.0
  0
LINE
  5
1C41
330
18
100
AcDbEntity
  8
0
100
AcDbLine
 10
3469.231716187838
 20
5160.438390718264
 30
0.0
 11
1969.231716187838
 21
5160.438390718264
 31
0.0
  0
LINE
  5
1C42
330
18
100
AcDbEntity
  8
0
100
AcDbLine
 10
1969.231716187838
 20
5160.438390718264
 30
0.0
 11
3469.231716187838
 21
5160.438390718264
 31
0.0
  0
LWPOLYLINE
  5
1C43
330
18
100
AcDbEntity
  8
SUNPOU
100
AcDbPolyline
 90
        4
 70
     0
 43
0.0
 10
1403.12648680174
 20
6199.867900813858
 10
1403.12648680174
 20
6411.27730774725
 10
1022.340984939816
 20
6411.27730774725
 10
242.9310216216099
 20
6411.27730774725
  0
INSERT
  5
1C49
330
18
100
AcDbEntity
  8
SUNPOU
100
AcDbBlockReference
  2
ARROW
 10
1403.12648680174
 20
6199.867900813858
 30
0.0
 41
80.0
 42
80.0
 43
80.0
 50
270.0
  0
LWPOLYLINE
  5
1C4C
330
18
100
AcDbEntity
  8
SUNPOU
100
AcDbPolyline
 90
        3
 70
     0
 43
0.0
 10
2028.75389700428
 20
5431.035686468732
 10
844.0878378523175
 20
5431.035686468732
 10
92.80864767762251
 20
5431.208270086361
  0
LWPOLYLINE
  5
1C51
330
18
100
AcDbEntity
  8
SUNPOU
100
AcDbPolyline
 90
        3
 70
     0
 43
0.0
 10
2091.960234032821
 20
5098.867906681098
 10
893.1909903587966
 20
5098.867906681098
 10
117.8086476776225
 20
5098.208270086361
  0
LWPOLYLINE
  5
1C56
330
18
100
AcDbEntity
  8
SUNPOU
100
AcDbPolyline
 90
        3
 70
     0
 43
0.0
 10
1649.286013771324
 20
5777.049106504847
 10
1240.294174880859
 20
5777.049106504847
 10
151.8544270207731
 20
5777.049106504847
  0
TEXT
  5
1C5B
330
18
100
AcDbEntity
  8
SUNPOU
100
AcDbText
 10
189.8086476776225
 20
5138.208270086361
 30
0.0
 40
120.0
  1
ＲＬ－１２００
  7
BIGFONT
 72
     2
 11
1141.808647677622
 21
5198.208270086361
 31
0.0
100
AcDbText
 73
     2
  0
TEXT
  5
1C5C
330
18
100
AcDbEntity
  8
SUNPOU
100
AcDbText
 10
184.8086476776225
 20
5471.208270086361
 30
0.0
 40
120.0
  1
ＥＷ－１２００
  7
BIGFONT
 72
     2
 11
1136.808647677622
 21
5531.208270086361
 31
0.0
100
AcDbText
 73
     2
  0
TEXT
  5
1C5D
330
18
100
AcDbEntity
  8
SUNPOU
100
AcDbText
 10
222.6264950241528
 20
5817.049106504846
 30
0.0
 40
120.0
  1
単粒度砕石
  7
BIGFONT
 72
     2
 11
910.6264950241529
 21
5877.049106504847
 31
0.0
100
AcDbText
 73
     2
  0
LINE
  5
1C63
330
18
100
AcDbEntity
  8
0
100
AcDbLine
 10
2719.231716187838
 20
5030.438390718264
 30
0.0
 11
1944.231716187837
 21
5030.438390718264
 31
0.0
  0
LINE
  5
1C64
330
18
100
AcDbEntity
  8
0
100
AcDbLine
 10
2119.231716187837
 20
5030.438390718264
 30
0.0
 11
2594.231716187837
 21
5030.438390718264
 31
0.0
  0
LINE
  5
1C65
330
18
100
AcDbEntity
  8
0
100
AcDbLine
 10
2719.231716187838
 20
5030.438390718264
 30
0.0
 11
2244.231716187838
 21
5030.438390718264
 31
0.0
  0
LINE
  5
1C66
330
18
100
AcDbEntity
  8
0
100
AcDbLine
 10
2719.231716187838
 20
5030.438390718264
 30
0.0
 11
1944.231716187837
 21
5030.438390718262
 31
0.0
  0
LINE
  5
1C67
330
18
100
AcDbEntity
  8
0
100
AcDbLine
 10
2119.231716187837
 20
5030.438390718264
 30
0.0
 11
1944.231716187837
 21
5030.438390718264
 31
0.0
  0
LINE
  5
1C68
330
18
100
AcDbEntity
  8
0
100
AcDbLine
 10
1944.231716187837
 20
5160.438390718264
 30
0.0
 11
2119.231716187837
 21
5160.438390718264
 31
0.0
  0
INSERT
  5
1C69
330
18
100
AcDbEntity
  8
SUNPOU
100
AcDbBlockReference
  2
ARROW
 10
2066.960234032821
 20
5099.867906681098
 30
0.0
 41
80.0
 42
80.0
 43
80.0
  0
LINE
  5
1C6A
330
18
100
AcDbEntity
  8
0
100
AcDbLine
 10
1944.231716187837
 20
5030.438390718264
 30
0.0
 11
1944.231716187837
 21
5160.438390718264
 31
0.0
  0
LINE
  5
1C6B
330
18
100
AcDbEntity
  8
KL
100
AcDbLine
 10
2244.231716187838
 20
5190.438390718264
 30
0.0
 11
2244.231716187838
 21
5030.438390718264
 31
0.0
  0
LINE
  5
1C6C
330
18
100
AcDbEntity
  8
KL
100
AcDbLine
 10
2119.231716187837
 20
5160.438390718264
 30
0.0
 11
2119.231716187837
 21
5190.438390718264
 31
0.0
  0
LINE
  5
1C6D
330
18
100
AcDbEntity
  8
0
100
AcDbLine
 10
2119.231716187837
 20
5190.438390718264
 30
0.0
 11
2119.231716187837
 21
5160.438390718264
 31
0.0
  0
INSERT
  5
1C6E
330
18
100
AcDbEntity
  8
SUNPOU
100
AcDbBlockReference
  2
ARROW
 10
2028.75389700428
 20
5431.035686468732
 30
0.0
 41
80.0
 42
80.0
 43
80.0
  0
LINE
  5
1C6F
330
18
100
AcDbEntity
  8
0
100
AcDbLine
 10
1969.231716187835
 20
6160.438390718264
 30
0.0
 11
1269.231716187837
 21
6160.438390718264
 31
0.0
  0
LINE
  5
1C70
330
18
100
AcDbEntity
  8
KL
100
AcDbLine
 10
1969.231716187835
 20
6190.438390718264
 30
0.0
 11
1228.910796661107
 21
6190.438390718264
 31
0.0
  0
INSERT
  5
1C72
330
18
100
AcDbEntity
  8
SUNPOU
100
AcDbBlockReference
  2
ARROW
 10
1649.286013771324
 20
5777.049106504847
 30
0.0
 41
80.0
 42
80.0
 43
80.0
  0
LINE
  5
1C73
330
18
100
AcDbEntity
  8
KL
100
AcDbLine
 10
2119.231716187838
 20
5160.438390718264
 30
0.0
 11
2119.231716187838
 21
6160.438390718264
 31
0.0
  0
LINE
  5
1C74
330
18
100
AcDbEntity
  8
0
100
AcDbLine
 10
1969.231716187838
 20
5160.438390718264
 30
0.0
 11
1969.231716187838
 21
6160.438390718264
 31
0.0
  0
LINE
  5
1C75
330
18
100
AcDbEntity
  8
0
100
AcDbLine
 10
337.3205172245234
 20
6721.344419662305
 30
0.0
 11
477.5115337012989
 21
6861.53543613908
 31
0.0
  0
LINE
  5
1C76
330
18
100
AcDbEntity
  8
0
100
AcDbLine
 10
828.7008385448681
 20
6717.749994152066
 30
0.0
 11
924.99890711659
 21
6814.048062723789
 31
0.0
  0
LINE
  5
1C77
330
18
100
AcDbEntity
  8
0
100
AcDbLine
 10
832.2952640551056
 20
6721.344419662305
 30
0.0
 11
981.3892351110652
 21
6870.438390718264
 31
0.0
  0
LINE
  5
1C78
330
18
100
AcDbEntity
  8
0
100
AcDbLine
 10
732.5969996585418
 20
6727.712172443722
 30
0.0
 11
875.3232179330835
 21
6870.438390718264
 31
0.0
  0
LINE
  5
1C79
330
18
100
AcDbEntity
  8
0
100
AcDbLine
 10
722.6348213668861
 20
6717.749994152066
 30
0.0
 11
871.9658985275991
 21
6867.081071312779
 31
0.0
  0
LINE
  5
1C7A
330
18
100
AcDbEntity
  8
0
100
AcDbLine
 10
726.2292468771248
 20
6721.344419662305
 30
0.0
 11
871.9658985275991
 21
6867.081071312779
 31
0.0
  0
TEXT
  5
1C7B
330
18
100
AcDbEntity
  8
SUNPOU
100
AcDbText
 10
258.3409849398158
 20
6451.27730774725
 30
0.0
 40
120.0
  1
透水シート
  7
BIGFONT
 72
     2
 11
922.3409849398159
 21
6511.277307747249
 31
0.0
100
AcDbText
 73
     2
  0
LINE
  5
1C7C
330
18
100
AcDbEntity
  8
0
100
AcDbLine
 10
591.1756434212325
 20
6763.06751150305
 30
0.0
 11
632.8987352619788
 21
6721.344419662305
 31
0.0
  0
LINE
  5
1C7D
330
18
100
AcDbEntity
  8
0
100
AcDbLine
 10
583.5775508792807
 20
6755.469418961098
 30
0.0
 11
698.5465226364468
 21
6870.438390718264
 31
0.0
  0
LINE
  5
1C7E
330
18
100
AcDbEntity
  8
0
100
AcDbLine
 10
443.3865344025048
 20
6721.344419662305
 30
0.0
 11
530.5445422902899
 21
6808.50242755009
 31
0.0
  0
LINE
  5
1C7F
330
18
100
AcDbEntity
  8
0
100
AcDbLine
 10
477.5115337012989
 20
6861.53543613908
 30
0.0
 11
486.4144882804826
 21
6870.438390718264
 31
0.0
  0
LINE
  5
1C80
330
18
100
AcDbEntity
  8
0
100
AcDbLine
 10
549.4525515804866
 20
6721.344419662305
 30
0.0
 11
583.5775508792807
 21
6755.469418961098
 31
0.0
  0
LINE
  5
1C81
330
18
100
AcDbEntity
  8
0
100
AcDbLine
 10
530.5445422902899
 20
6808.50242755009
 30
0.0
 11
592.4805054584644
 21
6870.438390718264
 31
0.0
  0
LINE
  5
1C82
330
18
100
AcDbEntity
  8
0
100
AcDbLine
 10
695.9367985619828
 20
6870.438390718264
 30
0.0
 11
785.6300082475336
 21
6780.745181032713
 31
0.0
  0
LINE
  5
1C83
330
18
100
AcDbEntity
  8
0
100
AcDbLine
 10
644.2086520102239
 20
6816.100520092041
 30
0.0
 11
732.5969996585418
 21
6727.712172443722
 31
0.0
  0
LINE
  5
1C84
330
18
100
AcDbEntity
  8
0
100
AcDbLine
 10
802.0028157399647
 20
6870.438390718264
 30
0.0
 11
838.6630168365245
 21
6833.778189621703
 31
0.0
  0
LINE
  5
1C85
330
18
100
AcDbEntity
  8
0
100
AcDbLine
 10
1050.795051192488
 20
6833.778189621703
 30
0.0
 11
1163.228821151888
 21
6721.344419662305
 31
0.0
  0
LINE
  5
1C86
330
18
100
AcDbEntity
  8
0
100
AcDbLine
 10
938.3612812330884
 20
6721.344419662305
 30
0.0
 11
1087.455252289047
 21
6870.438390718264
 31
0.0
  0
LINE
  5
1C87
330
18
100
AcDbEntity
  8
0
100
AcDbLine
 10
934.7668557228498
 20
6717.749994152066
 30
0.0
 11
978.031915705581
 21
6761.015054134798
 31
0.0
  0
LINE
  5
1C88
330
18
100
AcDbEntity
  8
0
100
AcDbLine
 10
944.7290340145064
 20
6727.712172443722
 30
0.0
 11
951.0967867959225
 21
6721.344419662305
 31
0.0
  0
LINE
  5
1C89
330
18
100
AcDbEntity
  8
0
100
AcDbLine
 10
908.0688329179466
 20
6870.438390718264
 30
0.0
 11
944.7290340145055
 21
6833.778189621703
 31
0.0
  0
LINE
  5
1C8A
330
18
100
AcDbEntity
  8
0
100
AcDbLine
 10
997.7620426034963
 20
6780.745181032713
 30
0.0
 11
1057.162803973904
 21
6721.344419662305
 31
0.0
  0
LINE
  5
1C8B
330
18
100
AcDbEntity
  8
0
100
AcDbLine
 10
1120.200867273909
 20
6870.438390718264
 30
0.0
 11
1269.294838329871
 21
6721.344419662305
 31
0.0
  0
INSERT
  5
1C8D
330
18
100
AcDbEntity
  8
SUNPOU
100
AcDbBlockReference
  2
ARROW
 10
2334.920419796166
 20
6425.371265601774
 30
0.0
 41
80.0
 42
80.0
 43
80.0
 50
270.0
  0
ARC
  5
1C8E
330
18
100
AcDbEntity
  8
0
100
AcDbCircle
 10
2549.231716187837
 20
6900.438390718264
 30
0.0
 40
10.0
100
AcDbArc
 50
90.0
 51
180.0
  0
LINE
  5
1C90
330
18
100
AcDbEntity
  8
0
100
AcDbLine
 10
2539.231716187837
 20
6900.438390718264
 30
0.0
 11
2539.231716187837
 21
6760.438390718263
 31
0.0
  0
LINE
  5
1C92
330
18
100
AcDbEntity
  8
0
100
AcDbLine
 10
2549.231716187837
 20
6910.438390718264
 30
0.0
 11
2682.231716187838
 21
6910.438390718264
 31
0.0
  0
LINE
  5
1C93
330
18
100
AcDbEntity
  8
0
100
AcDbLine
 10
2549.231716187837
 20
6910.438390718264
 30
0.0
 11
2693.231716187837
 21
6910.438390718264
 31
0.0
  0
LINE
  5
1C94
330
18
100
AcDbEntity
  8
KL
100
AcDbLine
 10
2692.231716187837
 20
6860.438390718264
 30
0.0
 11
2692.231716187837
 21
6910.438390718264
 31
0.0
  0
LINE
  5
1C95
330
18
100
AcDbEntity
  8
KL
100
AcDbLine
 10
2682.231716187838
 20
6860.438390718264
 30
0.0
 11
2692.231716187837
 21
6860.438390718264
 31
0.0
  0
LINE
  5
1C96
330
18
100
AcDbEntity
  8
KL
100
AcDbLine
 10
2682.231716187838
 20
6850.438390718264
 30
0.0
 11
2682.231716187838
 21
6910.438390718264
 31
0.0
  0
LINE
  5
1C97
330
18
100
AcDbEntity
  8
KL
100
AcDbLine
 10
2719.231716187838
 20
6860.438390718264
 30
0.0
 11
2719.231716187838
 21
6800.438390718264
 31
0.0
  0
LINE
  5
1C98
330
18
100
AcDbEntity
  8
KL
100
AcDbLine
 10
2692.231716187837
 20
6860.438390718264
 30
0.0
 11
2682.231716187838
 21
6860.438390718264
 31
0.0
  0
LINE
  5
1C99
330
18
100
AcDbEntity
  8
0
100
AcDbLine
 10
2682.231716187838
 20
6910.438390718264
 30
0.0
 11
2692.231716187837
 21
6910.438390718264
 31
0.0
  0
LINE
  5
1C9A
330
18
100
AcDbEntity
  8
0
100
AcDbLine
 10
2334.920419796166
 20
7446.095563122266
 30
0.0
 11
2334.920419796166
 21
7446.095563122266
 31
0.0
  0
DIMENSION
  5
1C9B
330
18
100
AcDbEntity
  8
SUNPOU
100
AcDbDimension
  2
*D11
 10
5061.65227982742
 20
6160.438390718264
 30
0.0
 11
4961.652279827418
 21
6460.438390718265
 31
0.0
 70
    32
 71
     5
 42
600.0000000000008
  3
DIA1
100
AcDbAlignedDimension
 13
4248.032141110976
 23
6760.438390718265
 33
0.0
 14
4536.250147902454
 24
6160.438390718264
 34
0.0
 50
90.0
100
AcDbRotatedDimension
1001
ACAD
1000
DSTYLE
1002
{
1002
}
  0
LINE
  5
1CA5
330
18
100
AcDbEntity
  8
0
100
AcDbLine
 10
3319.231716187839
 20
5030.438390718264
 30
0.0
 11
2844.231716187838
 21
5030.438390718264
 31
0.0
  0
LINE
  5
1CA6
330
18
100
AcDbEntity
  8
0
100
AcDbLine
 10
3169.231716187838
 20
5160.438390718264
 30
0.0
 11
3469.231716187838
 21
5160.438390718264
 31
0.0
  0
LINE
  5
1CA7
330
18
100
AcDbEntity
  8
KL
100
AcDbLine
 10
3194.231716187838
 20
5190.438390718264
 30
0.0
 11
3194.231716187838
 21
5030.438390718264
 31
0.0
  0
LINE
  5
1CA8
330
18
100
AcDbEntity
  8
0
100
AcDbLine
 10
3494.231716187839
 20
5160.438390718264
 30
0.0
 11
3319.231716187839
 21
5160.438390718264
 31
0.0
  0
LINE
  5
1CA9
330
18
100
AcDbEntity
  8
0
100
AcDbLine
 10
3319.231716187839
 20
5030.438390718264
 30
0.0
 11
3494.231716187839
 21
5030.438390718264
 31
0.0
  0
LINE
  5
1CAA
330
18
100
AcDbEntity
  8
KL
100
AcDbLine
 10
3319.231716187839
 20
5190.438390718264
 30
0.0
 11
3319.231716187839
 21
5160.438390718264
 31
0.0
  0
LINE
  5
1CAB
330
18
100
AcDbEntity
  8
0
100
AcDbLine
 10
3319.231716187839
 20
5190.438390718264
 30
0.0
 11
3319.231716187839
 21
5160.438390718264
 31
0.0
  0
LINE
  5
1CAC
330
18
100
AcDbEntity
  8
0
100
AcDbLine
 10
3494.231716187839
 20
5030.438390718264
 30
0.0
 11
3494.231716187839
 21
5160.438390718264
 31
0.0
  0
LINE
  5
1CAF
330
18
100
AcDbEntity
  8
KL
100
AcDbLine
 10
3469.231716187838
 20
6190.438390718264
 30
0.0
 11
4209.552635714572
 21
6190.438390718264
 31
0.0
  0
LINE
  5
1CB0
330
18
100
AcDbEntity
  8
0
100
AcDbLine
 10
3469.231716187838
 20
6160.438390718264
 30
0.0
 11
4169.231716187836
 21
6160.438390718264
 31
0.0
  0
LINE
  5
1CB1
330
18
100
AcDbEntity
  8
0
100
AcDbLine
 10
3469.231716187838
 20
6160.438390718263
 30
0.0
 11
3469.231716187838
 21
5160.438390718264
 31
0.0
  0
LINE
  5
1CB2
330
18
100
AcDbEntity
  8
KL
100
AcDbLine
 10
3319.231716187839
 20
6160.438390718264
 30
0.0
 11
3319.231716187839
 21
5160.438390718264
 31
0.0
  0
LINE
  5
1CB4
330
18
100
AcDbEntity
  8
KL
100
AcDbLine
 10
3319.231716187839
 20
5327.438390718263
 30
0.0
 11
3169.231716187838
 21
5327.438390718263
 31
0.0
  0
LINE
  5
1CB5
330
18
100
AcDbEntity
  8
KL
100
AcDbLine
 10
3319.231716187839
 20
5993.438390718264
 30
0.0
 11
3169.231716187838
 21
5993.438390718264
 31
0.0
  0
LINE
  5
1CB6
330
18
100
AcDbEntity
  8
KL
100
AcDbLine
 10
3319.231716187839
 20
5660.438390718264
 30
0.0
 11
3169.231716187838
 21
5660.438390718264
 31
0.0
  0
DIMENSION
  5
1CB7
330
18
100
AcDbEntity
  8
SUNPOU
100
AcDbDimension
  2
*D12
 10
5061.65227982742
 20
5160.438390718264
 30
0.0
 11
4961.652279827418
 21
5660.438390718264
 31
0.0
 70
    32
 71
     5
 42
1000.0
  3
STANDARD
100
AcDbAlignedDimension
 13
4248.032141110976
 23
6160.438390718264
 33
0.0
 14
4248.032141110976
 24
5160.438390718264
 34
0.0
 50
90.0
100
AcDbRotatedDimension
1001
ACAD
1000
DSTYLE
1002
{
1070
   288
1070
     1
1070
   140
1040
3.0
1070
   340
1005
6D
1070
    74
1070
     0
1070
   172
1070
     1
1070
    73
1070
     0
1070
    77
1070
     1
1070
    40
1040
40.0
1070
   147
1040
1.0
1070
    42
1040
1.0
1070
    44
1040
1.0
1070
    43
1040
10.0
1070
   271
1070
     0
1070
   141
1040
0.0
1070
     5
1000
ARROW
1070
    41
1040
2.0
1002
}
  0
TEXT
  5
1CB9
330
18
100
AcDbEntity
  8
SUNPOU
100
AcDbText
 10
3224.697792564153
 20
7240.539045389407
 30
0.0
 40
120.0
  1
口環上・蓋
  7
BIGFONT
 11
3224.697792564153
 21
7300.539045389406
 31
0.0
100
AcDbText
 73
     2
  0
LWPOLYLINE
  5
1CBA
330
18
100
AcDbEntity
  8
SUNPOU
100
AcDbPolyline
 90
        3
 70
     0
 43
0.0
 10
3124.770500316922
 20
6860.438390718264
 10
3124.697792564153
 20
7200.539045389406
 10
3938.453876887629
 20
7200.539045389406
  0
INSERT
  5
1CBF
330
18
100
AcDbEntity
  8
SUNPOU
100
AcDbBlockReference
  2
ARROW
 10
3124.697792564153
 20
6860.00214420174
 30
0.0
 41
80.0
 42
80.0
 43
80.0
 50
270.0
  0
LINE
  5
1CC0
330
18
100
AcDbEntity
  8
KL
100
AcDbLine
 10
3346.231716187837
 20
6860.438390718264
 30
0.0
 11
3019.231716187837
 21
6860.438390718264
 31
0.0
  0
LINE
  5
1CC1
330
18
100
AcDbEntity
  8
KL
100
AcDbLine
 10
3356.231716187838
 20
6850.438390718264
 30
0.0
 11
3019.231716187837
 21
6850.438390718264
 31
0.0
  0
LINE
  5
1CC2
330
18
100
AcDbEntity
  8
KL
100
AcDbLine
 10
3346.231716187837
 20
6860.438390718264
 30
0.0
 11
3356.231716187838
 21
6860.438390718264
 31
0.0
  0
LINE
  5
1CC3
330
18
100
AcDbEntity
  8
KL
100
AcDbLine
 10
3356.231716187838
 20
6850.438390718264
 30
0.0
 11
3356.231716187838
 21
6910.438390718264
 31
0.0
  0
LINE
  5
1CC4
330
18
100
AcDbEntity
  8
KL
100
AcDbLine
 10
3346.231716187837
 20
6860.438390718264
 30
0.0
 11
3346.231716187837
 21
6910.438390718264
 31
0.0
  0
LINE
  5
1CC5
330
18
100
AcDbEntity
  8
KL
100
AcDbLine
 10
3356.231716187838
 20
6860.438390718264
 30
0.0
 11
3346.231716187837
 21
6860.438390718264
 31
0.0
  0
LINE
  5
1CC6
330
18
100
AcDbEntity
  8
KL
100
AcDbLine
 10
3319.231716187837
 20
6860.438390718264
 30
0.0
 11
3319.231716187837
 21
6800.438390718264
 31
0.0
  0
LINE
  5
1CC7
330
18
100
AcDbEntity
  8
0
100
AcDbLine
 10
3356.231716187838
 20
6910.438390718264
 30
0.0
 11
3346.231716187837
 21
6910.438390718264
 31
0.0
  0
ARC
  5
1CC8
330
18
100
AcDbEntity
  8
0
100
AcDbCircle
 10
3489.231716187838
 20
6900.438390718264
 30
0.0
 40
10.0
100
AcDbArc
 50
0.0
 51
90.0
  0
LINE
  5
1CC9
330
18
100
AcDbEntity
  8
0
100
AcDbLine
 10
3499.231716187838
 20
6760.438390718263
 30
0.0
 11
3499.231716187838
 21
6900.438390718264
 31
0.0
  0
LINE
  5
1CCA
330
18
100
AcDbEntity
  8
0
100
AcDbLine
 10
3124.697792564153
 20
7200.539045389406
 30
0.0
 11
3124.697792564153
 21
7200.539045389406
 31
0.0
  0
LINE
  5
1DF2
330
18
100
AcDbEntity
  8
0
100
AcDbLine
 10
1269.231716187837
 20
6160.438390718264
 30
0.0
 11
1719.231716187837
 21
4660.438390718264
 31
0.0
  0
LINE
  5
1DF3
330
18
100
AcDbEntity
  8
KL
100
AcDbLine
 10
1228.910796661107
 20
6190.438390718264
 30
0.0
 11
1687.910796661105
 21
4660.438390718264
 31
0.0
  0
LINE
  5
1DF4
330
18
100
AcDbEntity
  8
KL
100
AcDbLine
 10
4209.552635714572
 20
6190.438390718264
 30
0.0
 11
3750.55263571457
 21
4660.438390718264
 31
0.0
  0
LINE
  5
1DF5
330
18
100
AcDbEntity
  8
0
100
AcDbLine
 10
4169.231716187836
 20
6160.438390718264
 30
0.0
 11
3719.231716187838
 21
4660.438390718264
 31
0.0
  0
DIMENSION
  5
1E0D
330
18
100
AcDbEntity
  8
SUNPOU
100
AcDbDimension
  2
*D13
 10
5381.65227982742
 20
4660.438390718264
 30
0.0
 11
5281.652279827419
 21
5410.438390718265
 31
0.0
 70
    32
 71
     5
 42
1499.999999999999
  3
DIA1
100
AcDbAlignedDimension
 13
4536.250147902454
 23
6160.438390718264
 33
0.0
 14
4245.159364707709
 24
4660.438390718264
 34
0.0
 50
90.0
100
AcDbRotatedDimension
1001
ACAD
1000
DSTYLE
1002
{
1070
    75
1070
     1
1002
}
  0
LINE
  5
1E0E
330
18
100
AcDbEntity
  8
0
100
AcDbLine
 10
211.5662543605431
 20
6910.438390718264
 30
0.0
 11
5504.759619840559
 21
6910.438390718262
 31
0.0
  0
DIMENSION
  5
1E21
330
18
100
AcDbEntity
  8
SUNPOU
100
AcDbDimension
  2
*D14
 10
5061.65227982742
 20
6910.438390718262
 30
0.0
 11
5341.652279827417
 21
6835.438390718263
 31
0.0
 70
    32
 71
     5
 42
149.9999999999982
  3
DIA1
100
AcDbAlignedDimension
 13
4536.250147902454
 23
6760.438390718263
 33
0.0
 14
4248.032141110976
 24
6910.438390718262
 34
0.0
 50
90.0
100
AcDbRotatedDimension
1001
ACAD
1000
DSTYLE
1002
{
1070
    75
1070
     1
1002
}
  0
DIMENSION
  5
1E4A
330
18
100
AcDbEntity
  8
SUNPOU
100
AcDbDimension
  2
*D15
 10
5381.65227982742
 20
6160.438390718264
 30
0.0
 11
5281.652279827419
 21
6535.438390718265
 31
0.0
 70
    32
 71
     5
 42
750.0
  3
DIA1
100
AcDbAlignedDimension
 13
4248.032141110976
 23
6910.438390718264
 33
0.0
 14
4319.814270910537
 24
6160.438390718264
 34
0.0
 50
90.0
100
AcDbRotatedDimension
  0
DIMENSION
  5
1FC0
330
18
100
AcDbEntity
  8
SUNPOU
100
AcDbDimension
  2
*D16
 10
5061.65227982742
 20
4660.438390718264
 30
0.0
 11
4961.652279827418
 21
4910.438390718265
 31
0.0
 70
    32
 71
     5
 42
499.9999999999991
  3
DIA1
100
AcDbAlignedDimension
 13
4248.032141110976
 23
5160.438390718264
 33
0.0
 14
4245.159364707709
 24
4660.438390718264
 34
0.0
 50
90.0
100
AcDbRotatedDimension
  0
HATCH
  5
2206
330
18
100
AcDbEntity
  8
nazor
100
AcDbHatch
 10
0.0
 20
0.0
 30
0.0
210
0.0
220
0.0
230
1.0
  2
HONEY
 70
     0
 71
     0
 91
       10
 92
       20
 93
        4
 72
     4
 94
        3
 73
     0
 74
     0
 95
        8
 96
        4
 40
92.35183305515262
 40
92.35183305515262
 40
92.35183305515262
 40
92.35183305515262
 40
243.2059067050578
 40
243.2059067050578
 40
243.2059067050578
 40
243.2059067050578
 10
2119.231716187839
 20
5990.605610524504
 10
2067.455953297714
 20
5988.710075848635
 10
2017.918803836873
 20
5996.184994044909
 10
1969.231716187839
 20
6007.218125571705
 72
     1
 10
1969.231716187838
 20
6007.218125571705
 11
1969.231716187838
 21
5775.655800814901
 72
     1
 10
1969.231716187838
 20
5775.655800814901
 11
2119.231716187838
 21
5837.477008789115
 72
     1
 10
2119.231716187838
 20
5837.477008789115
 11
2119.231716187838
 21
5990.605610524506
 97
        0
 92
        5
 93
        2
 72
     4
 94
        3
 73
     0
 74
     0
 95
       12
 96
        8
 40
243.2059067050577
 40
243.2059067050577
 40
243.2059067050577
 40
243.2059067050577
 40
369.5931480765985
 40
779.131524302525
 40
979.3433801779624
 40
1388.219953771764
 40
1441.954999446194
 40
1441.954999446194
 40
1441.954999446194
 40
1441.954999446194
 10
2119.231716187844
 20
5607.478851918036
 10
2187.79132818164
 20
5611.670739189747
 10
2502.165126352943
 20
5632.395488759385
 10
2714.984810930638
 20
5770.774508925382
 10
2566.720339375874
 20
6184.478489259153
 10
2298.89628391193
 20
6007.329461818321
 10
2137.674525960321
 20
5991.280810337947
 10
2119.231716187839
 20
5990.605610524504
 72
     1
 10
2119.231716187838
 20
5990.605610524504
 11
2119.231716187838
 21
5607.478851918036
 97
        0
 92
       20
 93
        4
 72
     1
 10
2119.231716187839
 20
5837.477008789115
 11
1969.231716187838
 21
5775.655800814901
 72
     1
 10
1969.231716187838
 20
5775.655800814901
 11
1969.231716187839
 21
5596.436508508173
 72
     4
 94
        3
 73
     0
 74
     0
 95
        8
 96
        4
 40
1441.954999446194
 40
1441.954999446194
 40
1441.954999446194
 40
1441.954999446194
 40
1546.070208819441
 40
1546.070208819441
 40
1546.070208819441
 40
1546.070208819441
 10
1969.231716187838
 20
5596.436508508173
 10
2010.061770225155
 20
5601.044531905595
 10
2062.753718252129
 20
5604.02566142011
 10
2119.231716187844
 20
5607.478851918036
 72
     1
 10
2119.231716187838
 20
5607.478851918036
 11
2119.231716187839
 21
5837.477008789115
 97
        0
 92
        5
 93
        4
 72
     4
 94
        3
 73
     0
 74
     0
 95
       11
 96
        7
 40
590.5438662087846
 40
590.5438662087846
 40
590.5438662087846
 40
590.5438662087846
 40
702.8290264485149
 40
1012.056212719029
 40
1282.741615198418
 40
1377.619963383273
 40
1377.619963383273
 40
1377.619963383273
 40
1377.619963383273
 10
3319.231716187837
 20
5599.30392465431
 10
3283.315669709412
 20
5592.742358773333
 10
3137.138924943092
 20
5509.603330115919
 10
2860.232468141742
 20
5801.067305577106
 10
2852.226079605274
 20
5439.782097536967
 10
2908.792083604949
 20
5325.08893269412
 10
2927.007840983084
 20
5300.024243673455
 72
     1
 10
2927.007840983085
 20
5300.024243673454
 11
2984.683377064977
 21
5381.660214523617
 72
     1
 10
2984.683377064977
 20
5381.660214523617
 11
3319.231716187837
 21
5511.05020749064
 72
     1
 10
3319.231716187837
 20
5511.05020749064
 11
3319.231716187839
 21
5599.303924654311
 97
        0
 92
        7
 72
     0
 73
     1
 93
        4
 10
3469.231716187839
 20
5678.615296860934
 10
3319.231716187839
 20
5599.303924654311
 10
3319.231716187839
 20
5511.050207490639
 10
3469.231716187838
 20
5569.064242161801
 97
        0
 92
        5
 93
        4
 72
     1
 10
3469.23171618784
 20
5569.064242161802
 11
3319.231716187839
 21
5511.05020749064
 72
     1
 10
3319.231716187839
 20
5511.05020749064
 11
3319.231716187839
 21
5177.726056811142
 72
     4
 94
        3
 73
     0
 74
     0
 95
        8
 96
        4
 40
56.54456248499648
 40
56.54456248499648
 40
56.54456248499648
 40
56.54456248499648
 40
177.3263709406046
 40
177.3263709406046
 40
177.3263709406046
 40
177.3263709406046
 10
3319.231716187839
 20
5177.726056811144
 10
3367.902213320063
 20
5179.72093670976
 10
3418.2927308624
 20
5184.004270822001
 10
3469.231716187837
 20
5189.017330815339
 72
     1
 10
3469.231716187837
 20
5189.017330815339
 11
3469.23171618784
 21
5569.064242161802
 97
        0
 92
        5
 93
        5
 72
     1
 10
3319.231716187839
 20
5511.05020749064
 11
2984.683377064976
 21
5381.660214523618
 72
     1
 10
2984.683377064976
 20
5381.660214523618
 11
2927.007840983086
 21
5300.024243673454
 72
     4
 94
        3
 73
     0
 74
     0
 95
        8
 96
        4
 40
363.1180350078532
 40
363.1180350078532
 40
363.1180350078532
 40
363.1180350078532
 40
590.5438662087848
 40
590.5438662087848
 40
590.5438662087848
 40
590.5438662087848
 10
2927.007840983084
 20
5300.024243673455
 10
2970.671478071343
 20
5239.94354198152
 10
3034.644134939595
 20
5206.883602146145
 10
3111.104553983401
 20
5190.438390718264
 72
     1
 10
3111.104553983396
 20
5190.438390718264
 11
3319.231716187839
 21
5190.438390718264
 72
     1
 10
3319.231716187839
 20
5190.438390718264
 11
3319.231716187839
 21
5511.05020749064
 97
        0
 92
        5
 93
        4
 72
     1
 10
3319.231716187839
 20
5190.438390718265
 11
3194.231716187838
 21
5190.438390718265
 72
     1
 10
3194.231716187838
 20
5190.438390718265
 11
3194.231716187838
 21
5178.93389103487
 72
     4
 94
        3
 73
     0
 74
     0
 95
        8
 96
        4
 40
177.3263709406046
 40
177.3263709406046
 40
177.3263709406046
 40
177.3263709406046
 40
284.7888103000558
 40
284.7888103000558
 40
284.7888103000558
 40
284.7888103000558
 10
3194.231716187838
 20
5178.93389103487
 10
3233.986707535002
 20
5175.987832226993
 10
3275.92842065399
 20
5175.951164856174
 10
3319.231716187839
 20
5177.726056811144
 72
     1
 10
3319.231716187839
 20
5177.726056811142
 11
3319.231716187839
 21
5190.438390718265
 97
        0
 92
       20
 93
        3
 72
     1
 10
3194.231716187838
 20
5190.438390718264
 11
3111.104553983396
 21
5190.438390718264
 72
     4
 94
        3
 73
     0
 74
     0
 95
        8
 96
        4
 40
284.788810300056
 40
284.788810300056
 40
284.788810300056
 40
284.788810300056
 40
363.1180350078533
 40
363.1180350078533
 40
363.1180350078533
 40
363.1180350078533
 10
3111.104553983401
 20
5190.438390718264
 10
3137.438789249944
 20
5184.774387405624
 10
3165.254357502795
 20
5181.081269260604
 10
3194.231716187838
 20
5178.93389103487
 72
     1
 10
3194.231716187838
 20
5178.93389103487
 11
3194.231716187838
 21
5190.438390718264
 97
        0
 92
      137
 93
        4
 72
     1
 10
2429.231716187838
 20
5631.339014675766
 11
3009.231716187839
 21
5631.339014675766
 72
     1
 10
3009.231716187839
 20
5631.339014675766
 11
3009.231716187839
 21
5451.339014675767
 72
     1
 10
3009.231716187839
 20
5451.339014675767
 11
2429.231716187838
 21
5451.339014675767
 72
     1
 10
2429.231716187838
 20
5451.339014675767
 11
2429.231716187838
 21
5631.339014675766
 97
        0
 75
     0
 76
     1
 52
10.0
 41
150.0
 77
     0
 78
     3
 53
10.0
 43
-3888.191352322377
 44
467.2082700863611
 45
24.87802306865696
 46
20.87513990111052
 79
     2
 49
18.74999999999999
 49
-37.49999999999998
 53
130.0
 43
-3888.191352322377
 44
467.2082700863611
 45
-30.51741299624435
 46
11.10743002283696
 79
     2
 49
18.75
 49
-37.5
 53
70.0
 43
-3888.191352322377
 44
467.2082700863611
 45
-5.639389927587397
 46
31.98256992394748
 79
     2
 49
-37.49999999999998
 49
18.74999999999999
 47
6.930041322597535
 98
        9
 10
2049.036255738152
 20
5912.241485581384
 10
2360.918629513763
 20
5785.912610255468
 10
2091.182511901592
 20
5710.115300993162
 10
3068.975889391855
 20
5524.832945204071
 10
3389.287553483227
 20
5609.052195421347
 10
3363.999780243626
 20
5331.128648460006
 10
3212.273189659864
 20
5272.175194552238
 10
3272.000477032881
 20
5184.442770274498
 10
3181.831580625513
 20
5186.175271551019
  0
TEXT
  5
2233
330
18
100
AcDbEntity
  8
0
100
AcDbText
 10
2900.162562425532
 20
8529.201308787921
 30
0.0
 40
200.0
  1
浸透井戸 EW-1200（１段積）
  7
BIGFONT
100
AcDbText
  0
TEXT
  5
2234
330
18
100
AcDbEntity
  8
0
100
AcDbText
 10
6601.723811702099
 20
8523.890603921252
 30
0.0
 40
140.0
  1
Ｓ＝１／４０
  7
BIGFONT
100
AcDbText
  0
INSERT
  5
2235
330
18
100
AcDbEntity
  8
0
100
AcDbBlockReference
  2
YA_N
 10
3701.426681903189
 20
4468.532140384701
 30
0.0
  0
LINE
  5
2236
330
18
100
AcDbEntity
  8
0
100
AcDbLine
 10
3019.231716187838
 20
6760.438390718265
 30
0.0
 11
3569.231716187839
 21
6760.438390718265
 31
0.0
  0
LINE
  5
2237
330
18
100
AcDbEntity
  8
0
100
AcDbLine
 10
3569.231716187839
 20
6760.438390718265
 30
0.0
 11
3569.231716187839
 21
6700.438390718264
 31
0.0
  0
LINE
  5
2238
330
18
100
AcDbEntity
  8
0
100
AcDbLine
 10
3389.231716187838
 20
6596.515342264132
 30
0.0
 11
3569.231716187839
 21
6700.438390718264
 31
0.0
  0
LINE
  5
2239
330
18
100
AcDbEntity
  8
0
100
AcDbLine
 10
3019.231716187838
 20
6760.438390718265
 30
0.0
 11
3319.231716187839
 21
6760.438390718265
 31
0.0
  0
LINE
  5
223A
330
18
100
AcDbEntity
  8
0
100
AcDbLine
 10
3019.231716187838
 20
6160.438390718264
 30
0.0
 11
2269.231716187838
 21
6160.438390718264
 31
0.0
  0
LINE
  5
223B
330
18
100
AcDbEntity
  8
0
100
AcDbLine
 10
3019.231716187838
 20
6760.438390718265
 30
0.0
 11
2719.231716187838
 21
6760.438390718265
 31
0.0
  0
LINE
  5
223C
330
18
100
AcDbEntity
  8
0
100
AcDbLine
 10
3019.231716187838
 20
6760.438390718265
 30
0.0
 11
2469.231716187838
 21
6760.438390718265
 31
0.0
  0
LINE
  5
223D
330
18
100
AcDbEntity
  8
0
100
AcDbLine
 10
2469.231716187838
 20
6760.438390718265
 30
0.0
 11
2469.231716187838
 21
6700.438390718264
 31
0.0
  0
LINE
  5
223F
330
18
100
AcDbEntity
  8
KL
100
AcDbLine
 10
3319.231716187839
 20
6760.438390718265
 30
0.0
 11
3319.231716187839
 21
6720.438390718263
 31
0.0
  0
LINE
  5
2240
330
18
100
AcDbEntity
  8
KL
100
AcDbLine
 10
3319.231716187839
 20
6720.438390718266
 30
0.0
 11
3019.231716187838
 21
6720.438390718263
 31
0.0
  0
LINE
  5
2241
330
18
100
AcDbEntity
  8
KL
100
AcDbLine
 10
2719.231716187838
 20
6720.438390718266
 30
0.0
 11
3019.231716187838
 21
6720.438390718263
 31
0.0
  0
LINE
  5
2242
330
18
100
AcDbEntity
  8
KL
100
AcDbLine
 10
2719.231716187838
 20
6760.438390718265
 30
0.0
 11
2719.231716187838
 21
6720.438390718263
 31
0.0
  0
LINE
  5
2245
330
18
100
AcDbEntity
  8
0
100
AcDbLine
 10
2469.231716187838
 20
6760.438390718265
 30
0.0
 11
3569.231716187839
 21
6760.438390718265
 31
0.0
  0
LINE
  5
2246
330
18
100
AcDbEntity
  8
0
100
AcDbLine
 10
3569.231716187839
 20
6760.438390718265
 30
0.0
 11
3569.231716187839
 21
6700.438390718264
 31
0.0
  0
LINE
  5
2247
330
18
100
AcDbEntity
  8
KL
100
AcDbLine
 10
3319.231716187839
 20
6720.438390718266
 30
0.0
 11
3319.231716187839
 21
6160.438390718264
 31
0.0
  0
LINE
  5
2248
330
18
100
AcDbEntity
  8
0
100
AcDbLine
 10
3319.231716187839
 20
6160.438390718264
 30
0.0
 11
3469.231716187838
 21
6160.438390718264
 31
0.0
  0
LINE
  5
2249
330
18
100
AcDbEntity
  8
0
100
AcDbLine
 10
3469.231716187838
 20
6160.438390718264
 30
0.0
 11
3469.231716187838
 21
6210.438390718264
 31
0.0
  0
LINE
  5
224A
330
18
100
AcDbEntity
  8
0
100
AcDbLine
 10
3389.231716187838
 20
6256.626412253434
 30
0.0
 11
3469.231716187838
 21
6210.438390718264
 31
0.0
  0
LINE
  5
224B
330
18
100
AcDbEntity
  8
0
100
AcDbLine
 10
3319.231716187839
 20
6160.438390718264
 30
0.0
 11
3389.231716187838
 21
6160.438390718264
 31
0.0
  0
LINE
  5
224C
330
18
100
AcDbEntity
  8
0
100
AcDbLine
 10
3389.231716187838
 20
6256.626412253434
 30
0.0
 11
3389.231716187838
 21
6596.515342264132
 31
0.0
  0
LINE
  5
224D
330
18
100
AcDbEntity
  8
0
100
AcDbLine
 10
3469.231716187838
 20
6160.438390718264
 30
0.0
 11
1969.231716187838
 21
6160.438390718264
 31
0.0
  0
LINE
  5
224E
330
18
100
AcDbEntity
  8
0
100
AcDbLine
 10
1969.231716187838
 20
6160.438390718264
 30
0.0
 11
1969.231716187838
 21
6210.438390718264
 31
0.0
  0
LINE
  5
224F
330
18
100
AcDbEntity
  8
KL
100
AcDbLine
 10
2719.231716187838
 20
6720.438390718266
 30
0.0
 11
2119.231716187838
 21
6160.438390718264
 31
0.0
  0
LINE
  5
2250
330
18
100
AcDbEntity
  8
0
100
AcDbLine
 10
2483.865598772138
 20
6596.515342264132
 30
0.0
 11
2119.231716187838
 21
6256.190385185452
 31
0.0
  0
LINE
  5
2251
330
18
100
AcDbEntity
  8
0
100
AcDbLine
 10
2119.231716187838
 20
6256.190385185452
 30
0.0
 11
1969.231716187838
 21
6210.438390718264
 31
0.0
  0
LINE
  5
2253
330
18
100
AcDbEntity
  8
KL
100
AcDbLine
 10
3169.231716187838
 20
6610.438390718265
 30
0.0
 11
3319.231716187839
 21
6610.438390718265
 31
0.0
  0
LINE
  5
2254
330
18
100
AcDbEntity
  8
KL
100
AcDbLine
 10
3169.231716187838
 20
6310.438390718264
 30
0.0
 11
3319.231716187839
 21
6310.438390718264
 31
0.0
  0
LINE
  5
2256
330
18
100
AcDbEntity
  8
0
100
AcDbLine
 10
2483.865598772138
 20
6596.515342264132
 30
0.0
 11
2469.231716187838
 21
6700.438390718264
 31
0.0
  0
LINE
  5
2266
330
18
100
AcDbEntity
  8
0
100
AcDbLine
 10
3719.231716187838
 20
4660.438390718264
 30
0.0
 11
1719.231716187837
 21
4660.438390718264
 31
0.0
  0
HATCH
  5
2398
330
18
100
AcDbEntity
  8
nazor
100
AcDbHatch
 10
0.0
 20
0.0
 30
0.0
210
0.0
220
0.0
230
1.0
  2
HONEY
 70
     0
 71
     0
 91
        2
 92
        7
 72
     0
 73
     1
 93
        5
 10
1969.231716187837
 20
6160.438390718264
 10
1269.231716187836
 20
6160.438390718264
 10
1488.052527462696
 20
5431.035686468732
 10
1877.114326129125
 20
5431.035686468732
 10
1969.231716187838
 20
5472.40412199648
 97
        0
 92
        7
 72
     0
 73
     1
 93
        3
 10
1877.114326129123
 20
5431.035686468732
 10
1488.052527462697
 20
5431.035686468732
 10
1534.245576623251
 20
5277.058855933553
 97
        0
 75
     0
 76
     1
 52
10.0
 41
360.0
 77
     0
 78
     3
 53
10.0
 43
-3888.191352322377
 44
467.2082700863611
 45
59.70725536477669
 46
50.10033576266524
 79
     2
 49
44.99999999999998
 49
-89.99999999999996
 53
130.0
 43
-3888.191352322377
 44
467.2082700863611
 45
-73.24179119098644
 46
26.65783205480872
 79
     2
 49
45.0
 49
-90.0
 53
70.0
 43
-3888.191352322377
 44
467.2082700863611
 45
-13.53453582620975
 46
76.75816781747396
 79
     2
 49
-89.99999999999996
 49
44.99999999999998
 47
18.79510363032917
 98
        2
 10
1716.082836571353
 20
5634.716950247424
 10
1584.347049860225
 20
5390.38060134606
  0
HATCH
  5
23C2
330
18
100
AcDbEntity
  8
nazor
100
AcDbHatch
 10
0.0
 20
0.0
 30
0.0
210
0.0
220
0.0
230
1.0
  2
HONEY
 70
     0
 71
     0
 91
        2
 92
        7
 72
     0
 73
     1
 93
        4
 10
2719.231716187838
 20
5030.438390718264
 10
2368.529136446154
 20
5030.438390718262
 10
2173.684994757169
 20
4660.438390718264
 10
2719.231716187838
 20
4660.438390718264
 97
        0
 92
        7
 72
     0
 73
     1
 93
       10
 10
4002.744868471128
 20
5605.482231662564
 10
3469.231716187838
 20
5594.718106352114
 10
3469.231716187838
 20
5160.438390718264
 10
3494.231716187837
 20
5160.438390718264
 10
3494.231716187839
 20
5030.438390718264
 10
3319.231716187839
 20
5030.438390718264
 10
2844.231716187838
 20
5030.438390718264
 10
2719.231716187838
 20
5030.438390718264
 10
2719.231716187838
 20
4660.438390718264
 10
3719.231716187837
 20
4660.438390718264
 97
        0
 75
     0
 76
     1
 52
10.0
 41
360.0
 77
     0
 78
     3
 53
10.0
 43
-3888.191352322377
 44
467.2082700863611
 45
59.70725536477669
 46
50.10033576266524
 79
     2
 49
44.99999999999998
 49
-89.99999999999996
 53
130.0
 43
-3888.191352322377
 44
467.2082700863611
 45
-73.24179119098644
 46
26.65783205480872
 79
     2
 49
45.0
 49
-90.0
 53
70.0
 43
-3888.191352322377
 44
467.2082700863611
 45
-13.53453582620975
 46
76.75816781747396
 79
     2
 49
-89.99999999999996
 49
44.99999999999998
 47
18.79510363032917
 98
        2
 10
2487.678302247398
 20
4845.322594603306
 10
3089.899058381903
 20
4845.322594603306
  0
LWPOLYLINE
  5
2485
330
18
100
AcDbEntity
  8
0
100
AcDbPolyline
 90
        4
 70
     1
 43
0.0
 10
-826.5534088960848
 20
1500.804588003251
 10
-826.5534088960848
 20
9900.804588003252
 10
11053.44659110391
 20
9900.804588003252
 10
11053.44659110391
 20
1500.804588003251
  0
LINE
  5
2633
330
18
100
AcDbEntity
  8
0
  6
DASHED
100
AcDbLine
 10
6674.034096911682
 20
6383.021721587738
 30
0.0
 11
8674.034096911684
 21
6383.021721587738
 31
0.0
  0
LINE
  5
2636
330
18
100
AcDbEntity
  8
0
  6
DASHED
100
AcDbLine
 10
6224.034096911682
 20
6833.021721587738
 30
0.0
 11
9124.034096911683
 21
6833.021721587738
 31
0.0
  0
LINE
  5
263D
330
18
100
AcDbEntity
  8
0
  6
DASHED
100
AcDbLine
 10
6224.034096911682
 20
3933.021721587738
 30
0.0
 11
6224.034096911682
 21
6833.021721587738
 31
0.0
  0
LINE
  5
263E
330
18
100
AcDbEntity
  8
0
  6
DASHED
100
AcDbLine
 10
6674.03409691168
 20
4383.021721587737
 30
0.0
 11
6674.034096911682
 21
6383.021721587738
 31
0.0
  0
LINE
  5
263F
330
18
100
AcDbEntity
  8
0
  6
DASHED
100
AcDbLine
 10
9124.03409691168
 20
3933.021721587735
 30
0.0
 11
6224.034096911682
 21
3933.021721587738
 31
0.0
  0
LINE
  5
2640
330
18
100
AcDbEntity
  8
0
  6
DASHED
100
AcDbLine
 10
8674.034096911682
 20
4383.021721587737
 30
0.0
 11
6674.03409691168
 21
4383.021721587737
 31
0.0
  0
LINE
  5
2641
330
18
100
AcDbEntity
  8
0
  6
DASHED
100
AcDbLine
 10
9124.034096911683
 20
6833.021721587738
 30
0.0
 11
9124.03409691168
 21
3933.021721587735
 31
0.0
  0
LINE
  5
2642
330
18
100
AcDbEntity
  8
0
  6
DASHED
100
AcDbLine
 10
8674.034096911684
 20
6383.021721587738
 30
0.0
 11
8674.034096911682
 21
4383.021721587737
 31
0.0
  0
LINE
  5
2643
330
18
100
AcDbEntity
  8
0
  6
DASHED
100
AcDbLine
 10
6224.034096911682
 20
6833.021721587738
 30
0.0
 11
6674.034096911682
 21
6383.021721587738
 31
0.0
  0
LINE
  5
2644
330
18
100
AcDbEntity
  8
0
  6
DASHED
100
AcDbLine
 10
8674.034096911684
 20
6383.021721587738
 30
0.0
 11
9124.034096911683
 21
6833.021721587738
 31
0.0
  0
LINE
  5
2645
330
18
100
AcDbEntity
  8
0
  6
DASHED
100
AcDbLine
 10
8674.034096911682
 20
4383.021721587737
 30
0.0
 11
9124.03409691168
 21
3933.021721587735
 31
0.0
  0
LINE
  5
2646
330
18
100
AcDbEntity
  8
0
  6
DASHED
100
AcDbLine
 10
6674.03409691168
 20
4383.021721587737
 30
0.0
 11
6224.034096911682
 21
3933.021721587738
 31
0.0
  0
CIRCLE
  5
2647
330
18
100
AcDbEntity
  8
0
  6
DASHED
100
AcDbCircle
 10
7674.03409691168
 20
5383.021721587738
 30
0.0
 40
600.0
  0
CIRCLE
  5
2648
330
18
100
AcDbEntity
  8
0
  6
DASHED
100
AcDbCircle
 10
7674.03409691168
 20
5383.021721587738
 30
0.0
 40
750.0
  0
LINE
  5
26ED
330
18
100
AcDbEntity
  8
DEFPOINTS
  6
DASHED
100
AcDbLine
 10
3319.231716187839
 20
6440.438390718266
 30
0.0
 11
3319.231716187839
 21
6440.438390718266
 31
0.0
  0
LINE
  5
26F0
330
18
100
AcDbEntity
  8
DEFPOINTS
  6
DASHED
100
AcDbLine
 10
3569.231716187839
 20
6760.438390718265
 30
0.0
 11
3569.231716187839
 21
6760.438390718265
 31
0.0
  0
CIRCLE
  5
26F4
330
18
100
AcDbEntity
  8
0
  6
DASHED
100
AcDbCircle
 10
7974.03409691168
 20
5383.021721587738
 30
0.0
 40
550.0
  0
CIRCLE
  5
26F5
330
18
100
AcDbEntity
  8
0
100
AcDbCircle
 10
7974.03409691168
 20
5383.021721587738
 30
0.0
 40
337.0
  0
CIRCLE
  5
26F6
330
18
100
AcDbEntity
  8
0
100
AcDbCircle
 10
7974.03409691168
 20
5383.021721587738
 30
0.0
 40
480.0
  0
DIMENSION
  5
26F7
330
18
100
AcDbEntity
  8
SUNPOU
100
AcDbDimension
  2
*D26
 10
9124.03409691168
 20
3109.311751461806
 30
0.0
 11
7674.034096911682
 21
3209.311751461807
 31
0.0
 70
    32
 71
     5
 42
2899.999999999998
  3
STANDARD
100
AcDbAlignedDimension
 13
6224.034096911682
 23
3933.021721587738
 33
0.0
 14
9124.03409691168
 24
3961.493053010424
 34
0.0
100
AcDbRotatedDimension
1001
ACAD
1000
DSTYLE
1002
{
1070
   288
1070
     1
1070
   140
1040
3.0
1070
   340
1005
6D
1070
    74
1070
     0
1070
   172
1070
     1
1070
    73
1070
     0
1070
    77
1070
     1
1070
    40
1040
40.0
1070
   147
1040
1.0
1070
    42
1040
1.0
1070
    44
1040
1.0
1070
    43
1040
10.0
1070
   271
1070
     0
1070
   141
1040
0.0
1070
     5
1000
ARROW
1070
    41
1040
2.0
1002
}
  0
DIMENSION
  5
26F8
330
18
100
AcDbEntity
  8
SUNPOU
100
AcDbDimension
  2
*D27
 10
8674.034096911682
 20
3393.768614671302
 30
0.0
 11
7674.034096911682
 21
3493.768614671302
 31
0.0
 70
    32
 71
     5
 42
2000.000000000002
  3
STANDARD
100
AcDbAlignedDimension
 13
6674.03409691168
 23
3933.021721587737
 33
0.0
 14
8674.034096911682
 24
3933.021721587736
 34
0.0
100
AcDbRotatedDimension
1001
ACAD
1000
DSTYLE
1002
{
1070
   288
1070
     1
1070
   140
1040
3.0
1070
   340
1005
6D
1070
    74
1070
     0
1070
   172
1070
     1
1070
    73
1070
     0
1070
    77
1070
     1
1070
    40
1040
40.0
1070
   147
1040
1.0
1070
    42
1040
1.0
1070
    44
1040
1.0
1070
    43
1040
10.0
1070
   271
1070
     0
1070
   141
1040
0.0
1070
     5
1000
ARROW
1070
    41
1040
2.0
1002
}
  0
DIMENSION
  5
2782
330
18
100
AcDbEntity
  8
SUNPOU
100
AcDbDimension
  2
*D28
 10
9877.974720825966
 20
3933.021721587735
 30
0.0
 11
9777.974720825966
 21
5383.021721587738
 31
0.0
 70
    32
 71
     5
 42
2900.000000000003
  3
DIA1
100
AcDbAlignedDimension
 13
9124.034096911683
 23
6833.021721587738
 33
0.0
 14
9155.816226711243
 24
3933.021721587735
 34
0.0
 50
90.0
100
AcDbRotatedDimension
  0
DIMENSION
  5
2799
330
18
100
AcDbEntity
  8
SUNPOU
100
AcDbDimension
  2
*D29
 10
9548.170647406164
 20
4383.021721587737
 30
0.0
 11
9448.170647406163
 21
5383.021721587738
 31
0.0
 70
    32
 71
     5
 42
2000.000000000002
  3
DIA1
100
AcDbAlignedDimension
 13
9124.034096911683
 23
6383.021721587738
 33
0.0
 14
9124.03409691168
 24
4383.021721587737
 34
0.0
 50
90.0
100
AcDbRotatedDimension
  0
LINE
  5
285E
330
18
100
AcDbEntity
  8
KL
100
AcDbLine
 10
14562.23171618784
 20
6850.438390718264
 30
0.0
 11
14899.23171618784
 21
6850.438390718264
 31
0.0
  0
LINE
  5
285F
330
18
100
AcDbEntity
  8
KL
100
AcDbLine
 10
14572.23171618784
 20
6860.438390718264
 30
0.0
 11
14899.23171618784
 21
6860.438390718264
 31
0.0
  0
LINE
  5
2860
330
18
100
AcDbEntity
  8
0
100
AcDbLine
 10
15369.23171618784
 20
6910.438390718264
 30
0.0
 11
14429.23171618784
 21
6910.438390718264
 31
0.0
  0
TEXT
  5
2861
330
18
100
AcDbEntity
  8
SUNPOU
100
AcDbText
 10
14314.92041979616
 20
7486.095563122266
 30
0.0
 40
120.0
  1
片斜壁６００Ｄ
  7
BIGFONT
 11
14314.92041979616
 21
7546.095563122266
 31
0.0
100
AcDbText
 73
     2
  0
LWPOLYLINE
  5
2862
330
18
100
AcDbEntity
  8
SUNPOU
100
AcDbPolyline
 90
        3
 70
     0
 43
0.0
 10
14214.92041979616
 20
6425.371265601774
 10
14214.92041979616
 20
7446.095563122266
 10
15191.58864895313
 20
7446.095563122266
  0
DIMENSION
  5
2863
330
18
100
AcDbEntity
  8
SUNPOU
100
AcDbDimension
  2
*D30
 10
15199.23171618784
 20
5388.138578137739
 30
0.0
 11
14599.23171618784
 21
5488.138578137739
 31
0.0
 70
    32
  1
φ1200
 71
     5
 42
1200.0
  3
STANDARD
100
AcDbAlignedDimension
 13
13999.23171618784
 23
5359.950642870919
 33
0.0
 14
15199.23171618784
 24
5345.856685016395
 34
0.0
100
AcDbRotatedDimension
1001
ACAD
1000
DSTYLE
1002
{
1070
   288
1070
     1
1070
   140
1040
3.0
1070
   340
1005
6D
1070
    74
1070
     0
1070
   172
1070
     1
1070
    73
1070
     0
1070
    77
1070
     1
1070
    40
1040
40.0
1070
   147
1040
1.0
1070
    42
1040
1.0
1070
    44
1040
1.0
1070
    43
1040
10.0
1070
   271
1070
     0
1070
   141
1040
0.0
1070
     5
1000
ARROW
1070
    41
1040
2.0
1002
}
  0
DIMENSION
  5
2864
330
18
100
AcDbEntity
  8
SUNPOU
100
AcDbDimension
  2
*D31
 10
16049.23171618784
 20
3796.728420592334
 30
0.0
 11
14599.23171618784
 21
3896.728420592334
 31
0.0
 70
    32
 71
     5
 42
2900.0
  3
STANDARD
100
AcDbAlignedDimension
 13
13149.23171618784
 23
4648.909722140952
 33
0.0
 14
16049.23171618784
 24
4648.909722140952
 34
0.0
100
AcDbRotatedDimension
1001
ACAD
1000
DSTYLE
1002
{
1070
   288
1070
     1
1070
   140
1040
3.0
1070
   340
1005
6D
1070
    74
1070
     0
1070
   172
1070
     1
1070
    73
1070
     0
1070
    77
1070
     1
1070
    40
1040
40.0
1070
   147
1040
1.0
1070
    42
1040
1.0
1070
    44
1040
1.0
1070
    43
1040
10.0
1070
   271
1070
     0
1070
   141
1040
0.0
1070
     5
1000
ARROW
1070
    41
1040
2.0
1002
}
  0
DIMENSION
  5
2865
330
18
100
AcDbEntity
  8
SUNPOU
100
AcDbDimension
  2
*D32
 10
15599.23171618784
 20
4081.18528380183
 30
0.0
 11
14599.23171618784
 21
4181.18528380183
 31
0.0
 70
    32
 71
     5
 42
2000.0
  3
STANDARD
100
AcDbAlignedDimension
 13
13599.23171618784
 23
4660.438390718264
 33
0.0
 14
15599.23171618784
 24
4660.438390718264
 34
0.0
100
AcDbRotatedDimension
1001
ACAD
1000
DSTYLE
1002
{
1070
   288
1070
     1
1070
   140
1040
3.0
1070
   340
1005
6D
1070
    74
1070
     0
1070
   172
1070
     1
1070
    73
1070
     0
1070
    77
1070
     1
1070
    40
1040
40.0
1070
   147
1040
1.0
1070
    42
1040
1.0
1070
    44
1040
1.0
1070
    43
1040
10.0
1070
   271
1070
     0
1070
   141
1040
0.0
1070
     5
1000
ARROW
1070
    41
1040
2.0
1002
}
  0
LINE
  5
2866
330
18
100
AcDbEntity
  8
0
100
AcDbLine
 10
13849.23171618784
 20
6160.438390718264
 30
0.0
 11
15349.23171618784
 21
6160.438390718264
 31
0.0
  0
LINE
  5
2867
330
18
100
AcDbEntity
  8
KL
100
AcDbLine
 10
15199.23171618784
 20
5190.438390718264
 30
0.0
 11
13999.23171618783
 21
5190.438390718264
 31
0.0
  0
LINE
  5
2868
330
18
100
AcDbEntity
  8
0
100
AcDbLine
 10
14599.23171618784
 20
5030.438390718264
 30
0.0
 11
15074.23171618784
 21
5030.438390718264
 31
0.0
  0
LINE
  5
2869
330
18
100
AcDbEntity
  8
0
100
AcDbLine
 10
13849.23171618784
 20
5160.438390718264
 30
0.0
 11
15049.23171618784
 21
5160.438390718264
 31
0.0
  0
LINE
  5
286A
330
18
100
AcDbEntity
  8
0
100
AcDbLine
 10
14599.23171618784
 20
5030.438390718264
 30
0.0
 11
15374.23171618784
 21
5030.438390718264
 31
0.0
  0
LINE
  5
286B
330
18
100
AcDbEntity
  8
0
100
AcDbLine
 10
15349.23171618784
 20
5160.438390718264
 30
0.0
 11
13849.23171618784
 21
5160.438390718264
 31
0.0
  0
LINE
  5
286C
330
18
100
AcDbEntity
  8
0
100
AcDbLine
 10
13849.23171618784
 20
5160.438390718264
 30
0.0
 11
15349.23171618784
 21
5160.438390718264
 31
0.0
  0
LWPOLYLINE
  5
286D
330
18
100
AcDbEntity
  8
SUNPOU
100
AcDbPolyline
 90
        4
 70
     0
 43
0.0
 10
13283.12648680174
 20
6199.867900813858
 10
13283.12648680174
 20
6411.27730774725
 10
12902.34098493981
 20
6411.27730774725
 10
12122.93102162161
 20
6411.27730774725
  0
INSERT
  5
286E
330
18
100
AcDbEntity
  8
SUNPOU
100
AcDbBlockReference
  2
ARROW
 10
13283.12648680174
 20
6199.867900813858
 30
0.0
 41
80.0
 42
80.0
 43
80.0
 50
270.0
  0
LWPOLYLINE
  5
286F
330
18
100
AcDbEntity
  8
SUNPOU
100
AcDbPolyline
 90
        3
 70
     0
 43
0.0
 10
13908.75389700428
 20
5431.035686468732
 10
12724.08783785232
 20
5431.035686468732
 10
11972.80864767762
 20
5431.208270086361
  0
LWPOLYLINE
  5
2870
330
18
100
AcDbEntity
  8
SUNPOU
100
AcDbPolyline
 90
        3
 70
     0
 43
0.0
 10
13971.96023403282
 20
5098.867906681098
 10
12773.1909903588
 20
5098.867906681098
 10
11997.80864767762
 20
5098.208270086361
  0
LWPOLYLINE
  5
2871
330
18
100
AcDbEntity
  8
SUNPOU
100
AcDbPolyline
 90
        3
 70
     0
 43
0.0
 10
13529.28601377132
 20
5777.049106504847
 10
13120.29417488086
 20
5777.049106504847
 10
12031.85442702077
 20
5777.049106504847
  0
TEXT
  5
2872
330
18
100
AcDbEntity
  8
SUNPOU
100
AcDbText
 10
12069.80864767762
 20
5138.208270086361
 30
0.0
 40
120.0
  1
ＲＬ－１２００
  7
BIGFONT
 72
     2
 11
13021.80864767762
 21
5198.208270086361
 31
0.0
100
AcDbText
 73
     2
  0
TEXT
  5
2873
330
18
100
AcDbEntity
  8
SUNPOU
100
AcDbText
 10
12064.80864767762
 20
5471.208270086361
 30
0.0
 40
120.0
  1
ＥＷ－１２００
  7
BIGFONT
 72
     2
 11
13016.80864767762
 21
5531.208270086361
 31
0.0
100
AcDbText
 73
     2
  0
TEXT
  5
2874
330
18
100
AcDbEntity
  8
SUNPOU
100
AcDbText
 10
12102.62649502415
 20
5817.049106504846
 30
0.0
 40
120.0
  1
単粒度砕石
  7
BIGFONT
 72
     2
 11
12790.62649502415
 21
5877.049106504847
 31
0.0
100
AcDbText
 73
     2
  0
LINE
  5
2875
330
18
100
AcDbEntity
  8
0
100
AcDbLine
 10
14599.23171618784
 20
5030.438390718264
 30
0.0
 11
13824.23171618784
 21
5030.438390718264
 31
0.0
  0
LINE
  5
2876
330
18
100
AcDbEntity
  8
0
100
AcDbLine
 10
13999.23171618783
 20
5030.438390718264
 30
0.0
 11
14474.23171618784
 21
5030.438390718264
 31
0.0
  0
LINE
  5
2877
330
18
100
AcDbEntity
  8
0
100
AcDbLine
 10
14599.23171618784
 20
5030.438390718264
 30
0.0
 11
14124.23171618784
 21
5030.438390718264
 31
0.0
  0
LINE
  5
2878
330
18
100
AcDbEntity
  8
0
100
AcDbLine
 10
14599.23171618784
 20
5030.438390718264
 30
0.0
 11
13824.23171618784
 21
5030.438390718262
 31
0.0
  0
LINE
  5
2879
330
18
100
AcDbEntity
  8
0
100
AcDbLine
 10
13999.23171618783
 20
5030.438390718264
 30
0.0
 11
13824.23171618784
 21
5030.438390718264
 31
0.0
  0
LINE
  5
287A
102
{ACAD_REACTORS
330
2AB1
102
}
330
18
100
AcDbEntity
  8
0
100
AcDbLine
 10
13824.23171618784
 20
5160.438390718264
 30
0.0
 11
13999.23171618783
 21
5160.438390718264
 31
0.0
  0
INSERT
  5
287B
330
18
100
AcDbEntity
  8
SUNPOU
100
AcDbBlockReference
  2
ARROW
 10
13946.96023403282
 20
5099.867906681098
 30
0.0
 41
80.0
 42
80.0
 43
80.0
  0
LINE
  5
287C
330
18
100
AcDbEntity
  8
0
100
AcDbLine
 10
13824.23171618784
 20
5030.438390718264
 30
0.0
 11
13824.23171618784
 21
5160.438390718264
 31
0.0
  0
LINE
  5
287D
330
18
100
AcDbEntity
  8
KL
100
AcDbLine
 10
14124.23171618784
 20
5190.438390718264
 30
0.0
 11
14124.23171618784
 21
5030.438390718264
 31
0.0
  0
LINE
  5
287E
330
18
100
AcDbEntity
  8
KL
100
AcDbLine
 10
13999.23171618783
 20
5160.438390718264
 30
0.0
 11
13999.23171618783
 21
5190.438390718264
 31
0.0
  0
LINE
  5
287F
330
18
100
AcDbEntity
  8
0
100
AcDbLine
 10
13999.23171618783
 20
5190.438390718264
 30
0.0
 11
13999.23171618783
 21
5160.438390718264
 31
0.0
  0
INSERT
  5
2880
102
{ACAD_REACTORS
330
2AB1
102
}
330
18
100
AcDbEntity
  8
SUNPOU
100
AcDbBlockReference
  2
ARROW
 10
13908.75389700428
 20
5431.035686468732
 30
0.0
 41
80.0
 42
80.0
 43
80.0
  0
LINE
  5
2881
330
18
100
AcDbEntity
  8
0
100
AcDbLine
 10
13849.23171618783
 20
6160.438390718264
 30
0.0
 11
13149.23171618784
 21
6160.438390718264
 31
0.0
  0
LINE
  5
2882
330
18
100
AcDbEntity
  8
KL
100
AcDbLine
 10
13849.23171618783
 20
6190.438390718264
 30
0.0
 11
13108.91079666111
 21
6190.438390718264
 31
0.0
  0
INSERT
  5
2883
330
18
100
AcDbEntity
  8
SUNPOU
100
AcDbBlockReference
  2
ARROW
 10
13529.28601377132
 20
5777.049106504847
 30
0.0
 41
80.0
 42
80.0
 43
80.0
  0
LINE
  5
2884
102
{ACAD_REACTORS
330
2AB1
102
}
330
18
100
AcDbEntity
  8
KL
100
AcDbLine
 10
13999.23171618784
 20
5160.438390718264
 30
0.0
 11
13999.23171618784
 21
6160.438390718264
 31
0.0
  0
LINE
  5
2885
102
{ACAD_REACTORS
330
2AB1
102
}
330
18
100
AcDbEntity
  8
0
100
AcDbLine
 10
13849.23171618784
 20
5160.438390718264
 30
0.0
 11
13849.23171618784
 21
6160.438390718264
 31
0.0
  0
LINE
  5
2886
330
18
100
AcDbEntity
  8
0
100
AcDbLine
 10
12217.32051722452
 20
6721.344419662305
 30
0.0
 11
12357.5115337013
 21
6861.53543613908
 31
0.0
  0
LINE
  5
2887
330
18
100
AcDbEntity
  8
0
100
AcDbLine
 10
12708.70083854487
 20
6717.749994152066
 30
0.0
 11
12804.99890711659
 21
6814.048062723789
 31
0.0
  0
LINE
  5
2888
330
18
100
AcDbEntity
  8
0
100
AcDbLine
 10
12712.2952640551
 20
6721.344419662305
 30
0.0
 11
12861.38923511106
 21
6870.438390718264
 31
0.0
  0
LINE
  5
2889
330
18
100
AcDbEntity
  8
0
100
AcDbLine
 10
12612.59699965854
 20
6727.712172443722
 30
0.0
 11
12755.32321793308
 21
6870.438390718264
 31
0.0
  0
LINE
  5
288A
330
18
100
AcDbEntity
  8
0
100
AcDbLine
 10
12602.63482136688
 20
6717.749994152066
 30
0.0
 11
12751.9658985276
 21
6867.081071312779
 31
0.0
  0
LINE
  5
288B
330
18
100
AcDbEntity
  8
0
100
AcDbLine
 10
12606.22924687712
 20
6721.344419662305
 30
0.0
 11
12751.9658985276
 21
6867.081071312779
 31
0.0
  0
TEXT
  5
288C
330
18
100
AcDbEntity
  8
SUNPOU
100
AcDbText
 10
12138.34098493981
 20
6451.27730774725
 30
0.0
 40
120.0
  1
透水シート
  7
BIGFONT
 72
     2
 11
12802.34098493981
 21
6511.277307747249
 31
0.0
100
AcDbText
 73
     2
  0
LINE
  5
288D
330
18
100
AcDbEntity
  8
0
100
AcDbLine
 10
12471.17564342123
 20
6763.06751150305
 30
0.0
 11
12512.89873526198
 21
6721.344419662305
 31
0.0
  0
LINE
  5
288E
330
18
100
AcDbEntity
  8
0
100
AcDbLine
 10
12463.57755087928
 20
6755.469418961098
 30
0.0
 11
12578.54652263644
 21
6870.438390718264
 31
0.0
  0
LINE
  5
288F
330
18
100
AcDbEntity
  8
0
100
AcDbLine
 10
12323.3865344025
 20
6721.344419662305
 30
0.0
 11
12410.54454229029
 21
6808.50242755009
 31
0.0
  0
LINE
  5
2890
330
18
100
AcDbEntity
  8
0
100
AcDbLine
 10
12357.5115337013
 20
6861.53543613908
 30
0.0
 11
12366.41448828048
 21
6870.438390718264
 31
0.0
  0
LINE
  5
2891
330
18
100
AcDbEntity
  8
0
100
AcDbLine
 10
12429.45255158049
 20
6721.344419662305
 30
0.0
 11
12463.57755087928
 21
6755.469418961098
 31
0.0
  0
LINE
  5
2892
330
18
100
AcDbEntity
  8
0
100
AcDbLine
 10
12410.54454229029
 20
6808.50242755009
 30
0.0
 11
12472.48050545846
 21
6870.438390718264
 31
0.0
  0
LINE
  5
2893
330
18
100
AcDbEntity
  8
0
100
AcDbLine
 10
12575.93679856198
 20
6870.438390718264
 30
0.0
 11
12665.63000824753
 21
6780.745181032713
 31
0.0
  0
LINE
  5
2894
330
18
100
AcDbEntity
  8
0
100
AcDbLine
 10
12524.20865201022
 20
6816.100520092041
 30
0.0
 11
12612.59699965854
 21
6727.712172443722
 31
0.0
  0
LINE
  5
2895
330
18
100
AcDbEntity
  8
0
100
AcDbLine
 10
12682.00281573996
 20
6870.438390718264
 30
0.0
 11
12718.66301683652
 21
6833.778189621703
 31
0.0
  0
LINE
  5
2896
330
18
100
AcDbEntity
  8
0
100
AcDbLine
 10
12930.79505119249
 20
6833.778189621703
 30
0.0
 11
13043.22882115189
 21
6721.344419662305
 31
0.0
  0
LINE
  5
2897
330
18
100
AcDbEntity
  8
0
100
AcDbLine
 10
12818.36128123309
 20
6721.344419662305
 30
0.0
 11
12967.45525228905
 21
6870.438390718264
 31
0.0
  0
LINE
  5
2898
330
18
100
AcDbEntity
  8
0
100
AcDbLine
 10
12814.76685572285
 20
6717.749994152066
 30
0.0
 11
12858.03191570558
 21
6761.015054134798
 31
0.0
  0
LINE
  5
2899
330
18
100
AcDbEntity
  8
0
100
AcDbLine
 10
12824.7290340145
 20
6727.712172443722
 30
0.0
 11
12831.09678679592
 21
6721.344419662305
 31
0.0
  0
LINE
  5
289A
330
18
100
AcDbEntity
  8
0
100
AcDbLine
 10
12788.06883291794
 20
6870.438390718264
 30
0.0
 11
12824.7290340145
 21
6833.778189621703
 31
0.0
  0
LINE
  5
289B
330
18
100
AcDbEntity
  8
0
100
AcDbLine
 10
12877.76204260349
 20
6780.745181032713
 30
0.0
 11
12937.1628039739
 21
6721.344419662305
 31
0.0
  0
LINE
  5
289C
330
18
100
AcDbEntity
  8
0
100
AcDbLine
 10
13000.20086727391
 20
6870.438390718264
 30
0.0
 11
13149.29483832987
 21
6721.344419662305
 31
0.0
  0
INSERT
  5
289D
330
18
100
AcDbEntity
  8
SUNPOU
100
AcDbBlockReference
  2
ARROW
 10
14214.92041979616
 20
6425.371265601774
 30
0.0
 41
80.0
 42
80.0
 43
80.0
 50
270.0
  0
ARC
  5
289E
330
18
100
AcDbEntity
  8
0
100
AcDbCircle
 10
14429.23171618784
 20
6900.438390718264
 30
0.0
 40
10.0
100
AcDbArc
 50
90.0
 51
180.0
  0
LINE
  5
289F
330
18
100
AcDbEntity
  8
0
100
AcDbLine
 10
14419.23171618784
 20
6900.438390718264
 30
0.0
 11
14419.23171618784
 21
6760.438390718263
 31
0.0
  0
LINE
  5
28A0
330
18
100
AcDbEntity
  8
0
100
AcDbLine
 10
14429.23171618784
 20
6910.438390718264
 30
0.0
 11
14562.23171618784
 21
6910.438390718264
 31
0.0
  0
LINE
  5
28A1
330
18
100
AcDbEntity
  8
0
100
AcDbLine
 10
14429.23171618784
 20
6910.438390718264
 30
0.0
 11
14573.23171618784
 21
6910.438390718264
 31
0.0
  0
LINE
  5
28A2
330
18
100
AcDbEntity
  8
KL
100
AcDbLine
 10
14572.23171618784
 20
6860.438390718264
 30
0.0
 11
14572.23171618784
 21
6910.438390718264
 31
0.0
  0
LINE
  5
28A3
330
18
100
AcDbEntity
  8
KL
100
AcDbLine
 10
14562.23171618784
 20
6860.438390718264
 30
0.0
 11
14572.23171618784
 21
6860.438390718264
 31
0.0
  0
LINE
  5
28A4
330
18
100
AcDbEntity
  8
KL
100
AcDbLine
 10
14562.23171618784
 20
6850.438390718264
 30
0.0
 11
14562.23171618784
 21
6910.438390718264
 31
0.0
  0
LINE
  5
28A5
330
18
100
AcDbEntity
  8
KL
100
AcDbLine
 10
14599.23171618784
 20
6860.438390718264
 30
0.0
 11
14599.23171618784
 21
6800.438390718264
 31
0.0
  0
LINE
  5
28A6
330
18
100
AcDbEntity
  8
KL
100
AcDbLine
 10
14572.23171618784
 20
6860.438390718264
 30
0.0
 11
14562.23171618784
 21
6860.438390718264
 31
0.0
  0
LINE
  5
28A7
330
18
100
AcDbEntity
  8
0
100
AcDbLine
 10
14562.23171618784
 20
6910.438390718264
 30
0.0
 11
14572.23171618784
 21
6910.438390718264
 31
0.0
  0
LINE
  5
28A8
330
18
100
AcDbEntity
  8
0
100
AcDbLine
 10
14214.92041979616
 20
7446.095563122266
 30
0.0
 11
14214.92041979616
 21
7446.095563122266
 31
0.0
  0
DIMENSION
  5
28A9
330
18
100
AcDbEntity
  8
SUNPOU
100
AcDbDimension
  2
*D33
 10
16941.65227982742
 20
6160.438390718264
 30
0.0
 11
16841.65227982742
 21
6460.438390718266
 31
0.0
 70
    32
 71
     5
 42
600.0000000000008
  3
DIA1
100
AcDbAlignedDimension
 13
16128.03214111097
 23
6760.438390718265
 33
0.0
 14
16416.25014790245
 24
6160.438390718264
 34
0.0
 50
90.0
100
AcDbRotatedDimension
1001
ACAD
1000
DSTYLE
1002
{
1002
}
  0
LINE
  5
28AA
330
18
100
AcDbEntity
  8
0
100
AcDbLine
 10
15199.23171618784
 20
5030.438390718264
 30
0.0
 11
14724.23171618784
 21
5030.438390718264
 31
0.0
  0
LINE
  5
28AB
330
18
100
AcDbEntity
  8
0
100
AcDbLine
 10
15049.23171618784
 20
5160.438390718264
 30
0.0
 11
15349.23171618784
 21
5160.438390718264
 31
0.0
  0
LINE
  5
28AC
330
18
100
AcDbEntity
  8
KL
100
AcDbLine
 10
15074.23171618784
 20
5190.438390718264
 30
0.0
 11
15074.23171618784
 21
5030.438390718264
 31
0.0
  0
LINE
  5
28AD
102
{ACAD_REACTORS
330
2AB1
102
}
330
18
100
AcDbEntity
  8
0
100
AcDbLine
 10
15374.23171618784
 20
5160.438390718264
 30
0.0
 11
15199.23171618784
 21
5160.438390718264
 31
0.0
  0
LINE
  5
28AE
330
18
100
AcDbEntity
  8
0
100
AcDbLine
 10
15199.23171618784
 20
5030.438390718264
 30
0.0
 11
15374.23171618784
 21
5030.438390718264
 31
0.0
  0
LINE
  5
28AF
330
18
100
AcDbEntity
  8
KL
100
AcDbLine
 10
15199.23171618784
 20
5190.438390718264
 30
0.0
 11
15199.23171618784
 21
5160.438390718264
 31
0.0
  0
LINE
  5
28B0
330
18
100
AcDbEntity
  8
0
100
AcDbLine
 10
15199.23171618784
 20
5190.438390718264
 30
0.0
 11
15199.23171618784
 21
5160.438390718264
 31
0.0
  0
LINE
  5
28B1
330
18
100
AcDbEntity
  8
0
100
AcDbLine
 10
15374.23171618784
 20
5030.438390718264
 30
0.0
 11
15374.23171618784
 21
5160.438390718264
 31
0.0
  0
LINE
  5
28B2
330
18
100
AcDbEntity
  8
KL
100
AcDbLine
 10
15349.23171618784
 20
6190.438390718264
 30
0.0
 11
16089.55263571457
 21
6190.438390718264
 31
0.0
  0
LINE
  5
28B3
330
18
100
AcDbEntity
  8
0
100
AcDbLine
 10
15349.23171618784
 20
6160.438390718264
 30
0.0
 11
16049.23171618784
 21
6160.438390718264
 31
0.0
  0
LINE
  5
28B4
102
{ACAD_REACTORS
330
2AB1
102
}
330
18
100
AcDbEntity
  8
0
100
AcDbLine
 10
15349.23171618784
 20
6160.438390718263
 30
0.0
 11
15349.23171618784
 21
5160.438390718264
 31
0.0
  0
LINE
  5
28B5
102
{ACAD_REACTORS
330
2AB1
102
}
330
18
100
AcDbEntity
  8
KL
100
AcDbLine
 10
15199.23171618784
 20
6160.438390718264
 30
0.0
 11
15199.23171618784
 21
5160.438390718264
 31
0.0
  0
LINE
  5
28B6
330
18
100
AcDbEntity
  8
KL
100
AcDbLine
 10
15199.23171618784
 20
5327.438390718263
 30
0.0
 11
15049.23171618784
 21
5327.438390718263
 31
0.0
  0
LINE
  5
28B7
330
18
100
AcDbEntity
  8
KL
100
AcDbLine
 10
15199.23171618784
 20
5993.438390718264
 30
0.0
 11
15049.23171618784
 21
5993.438390718264
 31
0.0
  0
LINE
  5
28B8
330
18
100
AcDbEntity
  8
KL
100
AcDbLine
 10
15199.23171618784
 20
5660.438390718264
 30
0.0
 11
15049.23171618784
 21
5660.438390718264
 31
0.0
  0
DIMENSION
  5
28B9
330
18
100
AcDbEntity
  8
SUNPOU
100
AcDbDimension
  2
*D34
 10
16941.65227982742
 20
5160.438390718264
 30
0.0
 11
16841.65227982742
 21
5660.438390718266
 31
0.0
 70
    32
 71
     5
 42
1000.0
  3
STANDARD
100
AcDbAlignedDimension
 13
16128.03214111097
 23
6160.438390718264
 33
0.0
 14
16128.03214111097
 24
5160.438390718264
 34
0.0
 50
90.0
100
AcDbRotatedDimension
1001
ACAD
1000
DSTYLE
1002
{
1070
   288
1070
     1
1070
   140
1040
3.0
1070
   340
1005
6D
1070
    74
1070
     0
1070
   172
1070
     1
1070
    73
1070
     0
1070
    77
1070
     1
1070
    40
1040
40.0
1070
   147
1040
1.0
1070
    42
1040
1.0
1070
    44
1040
1.0
1070
    43
1040
10.0
1070
   271
1070
     0
1070
   141
1040
0.0
1070
     5
1000
ARROW
1070
    41
1040
2.0
1002
}
  0
TEXT
  5
28BA
330
18
100
AcDbEntity
  8
SUNPOU
100
AcDbText
 10
15104.69779256415
 20
7240.539045389407
 30
0.0
 40
120.0
  1
口環上・蓋
  7
BIGFONT
 11
15104.69779256415
 21
7300.539045389406
 31
0.0
100
AcDbText
 73
     2
  0
LWPOLYLINE
  5
28BB
330
18
100
AcDbEntity
  8
SUNPOU
100
AcDbPolyline
 90
        3
 70
     0
 43
0.0
 10
15004.77050031692
 20
6860.438390718264
 10
15004.69779256415
 20
7200.539045389406
 10
15818.45387688763
 20
7200.539045389406
  0
INSERT
  5
28BC
330
18
100
AcDbEntity
  8
SUNPOU
100
AcDbBlockReference
  2
ARROW
 10
15004.69779256415
 20
6860.00214420174
 30
0.0
 41
80.0
 42
80.0
 43
80.0
 50
270.0
  0
LINE
  5
28BD
330
18
100
AcDbEntity
  8
KL
100
AcDbLine
 10
15226.23171618784
 20
6860.438390718264
 30
0.0
 11
14899.23171618784
 21
6860.438390718264
 31
0.0
  0
LINE
  5
28BE
330
18
100
AcDbEntity
  8
KL
100
AcDbLine
 10
15236.23171618783
 20
6850.438390718264
 30
0.0
 11
14899.23171618784
 21
6850.438390718264
 31
0.0
  0
LINE
  5
28BF
330
18
100
AcDbEntity
  8
KL
100
AcDbLine
 10
15226.23171618784
 20
6860.438390718264
 30
0.0
 11
15236.23171618783
 21
6860.438390718264
 31
0.0
  0
LINE
  5
28C0
330
18
100
AcDbEntity
  8
KL
100
AcDbLine
 10
15236.23171618783
 20
6850.438390718264
 30
0.0
 11
15236.23171618783
 21
6910.438390718264
 31
0.0
  0
LINE
  5
28C1
330
18
100
AcDbEntity
  8
KL
100
AcDbLine
 10
15226.23171618784
 20
6860.438390718264
 30
0.0
 11
15226.23171618784
 21
6910.438390718264
 31
0.0
  0
LINE
  5
28C2
330
18
100
AcDbEntity
  8
KL
100
AcDbLine
 10
15236.23171618783
 20
6860.438390718264
 30
0.0
 11
15226.23171618784
 21
6860.438390718264
 31
0.0
  0
LINE
  5
28C3
330
18
100
AcDbEntity
  8
KL
100
AcDbLine
 10
15199.23171618784
 20
6860.438390718264
 30
0.0
 11
15199.23171618784
 21
6800.438390718264
 31
0.0
  0
LINE
  5
28C4
330
18
100
AcDbEntity
  8
0
100
AcDbLine
 10
15236.23171618783
 20
6910.438390718264
 30
0.0
 11
15226.23171618784
 21
6910.438390718264
 31
0.0
  0
ARC
  5
28C5
330
18
100
AcDbEntity
  8
0
100
AcDbCircle
 10
15369.23171618784
 20
6900.438390718264
 30
0.0
 40
10.0
100
AcDbArc
 50
0.0
 51
90.0
  0
LINE
  5
28C6
330
18
100
AcDbEntity
  8
0
100
AcDbLine
 10
15379.23171618784
 20
6760.438390718263
 30
0.0
 11
15379.23171618784
 21
6900.438390718264
 31
0.0
  0
LINE
  5
28C7
330
18
100
AcDbEntity
  8
0
100
AcDbLine
 10
15004.69779256415
 20
7200.539045389406
 30
0.0
 11
15004.69779256415
 21
7200.539045389406
 31
0.0
  0
LINE
  5
28C8
330
18
100
AcDbEntity
  8
0
100
AcDbLine
 10
13149.23171618784
 20
6160.438390718264
 30
0.0
 11
13599.23171618784
 21
4660.438390718264
 31
0.0
  0
LINE
  5
28C9
330
18
100
AcDbEntity
  8
KL
100
AcDbLine
 10
13108.91079666111
 20
6190.438390718264
 30
0.0
 11
13567.9107966611
 21
4660.438390718264
 31
0.0
  0
LINE
  5
28CA
330
18
100
AcDbEntity
  8
KL
100
AcDbLine
 10
16089.55263571457
 20
6190.438390718264
 30
0.0
 11
15630.55263571457
 21
4660.438390718264
 31
0.0
  0
LINE
  5
28CB
330
18
100
AcDbEntity
  8
0
100
AcDbLine
 10
16049.23171618784
 20
6160.438390718264
 30
0.0
 11
15599.23171618784
 21
4660.438390718264
 31
0.0
  0
DIMENSION
  5
28CC
330
18
100
AcDbEntity
  8
SUNPOU
100
AcDbDimension
  2
*D35
 10
17261.65227982742
 20
4660.438390718264
 30
0.0
 11
17161.65227982742
 21
5410.438390718266
 31
0.0
 70
    32
 71
     5
 42
1499.999999999999
  3
DIA1
100
AcDbAlignedDimension
 13
16416.25014790245
 23
6160.438390718264
 33
0.0
 14
16125.15936470771
 24
4660.438390718264
 34
0.0
 50
90.0
100
AcDbRotatedDimension
1001
ACAD
1000
DSTYLE
1002
{
1070
    75
1070
     1
1002
}
  0
LINE
  5
28CD
330
18
100
AcDbEntity
  8
0
100
AcDbLine
 10
12091.56625436054
 20
6910.438390718264
 30
0.0
 11
17384.75961984056
 21
6910.438390718262
 31
0.0
  0
DIMENSION
  5
28CE
330
18
100
AcDbEntity
  8
SUNPOU
100
AcDbDimension
  2
*D36
 10
16941.65227982742
 20
6910.438390718262
 30
0.0
 11
17221.65227982742
 21
6835.438390718265
 31
0.0
 70
    32
 71
     5
 42
149.9999999999982
  3
DIA1
100
AcDbAlignedDimension
 13
16416.25014790245
 23
6760.438390718263
 33
0.0
 14
16128.03214111097
 24
6910.438390718262
 34
0.0
 50
90.0
100
AcDbRotatedDimension
1001
ACAD
1000
DSTYLE
1002
{
1070
    75
1070
     1
1002
}
  0
DIMENSION
  5
28CF
330
18
100
AcDbEntity
  8
SUNPOU
100
AcDbDimension
  2
*D37
 10
17261.65227982742
 20
6160.438390718264
 30
0.0
 11
17161.65227982742
 21
6535.438390718266
 31
0.0
 70
    32
 71
     5
 42
750.0
  3
DIA1
100
AcDbAlignedDimension
 13
16128.03214111097
 23
6910.438390718264
 33
0.0
 14
16199.81427091054
 24
6160.438390718264
 34
0.0
 50
90.0
100
AcDbRotatedDimension
  0
DIMENSION
  5
28D0
330
18
100
AcDbEntity
  8
SUNPOU
100
AcDbDimension
  2
*D38
 10
16941.65227982742
 20
4660.438390718264
 30
0.0
 11
16841.65227982742
 21
4910.438390718266
 31
0.0
 70
    32
 71
     5
 42
499.9999999999991
  3
DIA1
100
AcDbAlignedDimension
 13
16128.03214111097
 23
5160.438390718264
 33
0.0
 14
16125.15936470771
 24
4660.438390718264
 34
0.0
 50
90.0
100
AcDbRotatedDimension
  0
TEXT
  5
28D2
330
18
100
AcDbEntity
  8
0
100
AcDbText
 10
14780.16256242553
 20
8529.201308787921
 30
0.0
 40
200.0
  1
浸透井戸 EW-1200（１段積）
  7
BIGFONT
100
AcDbText
  0
TEXT
  5
28D3
330
18
100
AcDbEntity
  8
0
100
AcDbText
 10
18481.72381170209
 20
8523.890603921252
 30
0.0
 40
140.0
  1
Ｓ＝１／４０
  7
BIGFONT
100
AcDbText
  0
LINE
  5
28D4
330
18
100
AcDbEntity
  8
0
100
AcDbLine
 10
14899.23171618784
 20
6760.438390718265
 30
0.0
 11
15449.23171618784
 21
6760.438390718265
 31
0.0
  0
LINE
  5
28D5
330
18
100
AcDbEntity
  8
0
100
AcDbLine
 10
15449.23171618784
 20
6760.438390718265
 30
0.0
 11
15449.23171618784
 21
6700.438390718264
 31
0.0
  0
LINE
  5
28D6
330
18
100
AcDbEntity
  8
0
100
AcDbLine
 10
15269.23171618784
 20
6596.515342264132
 30
0.0
 11
15449.23171618784
 21
6700.438390718264
 31
0.0
  0
LINE
  5
28D7
330
18
100
AcDbEntity
  8
0
100
AcDbLine
 10
14899.23171618784
 20
6760.438390718265
 30
0.0
 11
15199.23171618784
 21
6760.438390718265
 31
0.0
  0
LINE
  5
28D8
330
18
100
AcDbEntity
  8
0
100
AcDbLine
 10
14899.23171618784
 20
6160.438390718264
 30
0.0
 11
14149.23171618784
 21
6160.438390718264
 31
0.0
  0
LINE
  5
28D9
330
18
100
AcDbEntity
  8
0
100
AcDbLine
 10
14899.23171618784
 20
6760.438390718265
 30
0.0
 11
14599.23171618784
 21
6760.438390718265
 31
0.0
  0
LINE
  5
28DA
330
18
100
AcDbEntity
  8
0
100
AcDbLine
 10
14899.23171618784
 20
6760.438390718265
 30
0.0
 11
14349.23171618784
 21
6760.438390718265
 31
0.0
  0
LINE
  5
28DB
330
18
100
AcDbEntity
  8
0
100
AcDbLine
 10
14349.23171618784
 20
6760.438390718265
 30
0.0
 11
14349.23171618784
 21
6700.438390718264
 31
0.0
  0
LINE
  5
28DC
330
18
100
AcDbEntity
  8
KL
100
AcDbLine
 10
15199.23171618784
 20
6760.438390718265
 30
0.0
 11
15199.23171618784
 21
6720.438390718263
 31
0.0
  0
LINE
  5
28DD
330
18
100
AcDbEntity
  8
KL
100
AcDbLine
 10
15199.23171618784
 20
6720.438390718266
 30
0.0
 11
14899.23171618784
 21
6720.438390718263
 31
0.0
  0
LINE
  5
28DE
330
18
100
AcDbEntity
  8
KL
100
AcDbLine
 10
14599.23171618784
 20
6720.438390718266
 30
0.0
 11
14899.23171618784
 21
6720.438390718263
 31
0.0
  0
LINE
  5
28DF
330
18
100
AcDbEntity
  8
KL
100
AcDbLine
 10
14599.23171618784
 20
6760.438390718265
 30
0.0
 11
14599.23171618784
 21
6720.438390718263
 31
0.0
  0
LINE
  5
28E0
330
18
100
AcDbEntity
  8
0
100
AcDbLine
 10
14349.23171618784
 20
6760.438390718265
 30
0.0
 11
15449.23171618784
 21
6760.438390718265
 31
0.0
  0
LINE
  5
28E1
330
18
100
AcDbEntity
  8
0
100
AcDbLine
 10
15449.23171618784
 20
6760.438390718265
 30
0.0
 11
15449.23171618784
 21
6700.438390718264
 31
0.0
  0
LINE
  5
28E2
330
18
100
AcDbEntity
  8
KL
100
AcDbLine
 10
15199.23171618784
 20
6720.438390718266
 30
0.0
 11
15199.23171618784
 21
6160.438390718264
 31
0.0
  0
LINE
  5
28E3
330
18
100
AcDbEntity
  8
0
100
AcDbLine
 10
15199.23171618784
 20
6160.438390718264
 30
0.0
 11
15349.23171618784
 21
6160.438390718264
 31
0.0
  0
LINE
  5
28E4
330
18
100
AcDbEntity
  8
0
100
AcDbLine
 10
15349.23171618784
 20
6160.438390718264
 30
0.0
 11
15349.23171618784
 21
6210.438390718264
 31
0.0
  0
LINE
  5
28E5
330
18
100
AcDbEntity
  8
0
100
AcDbLine
 10
15269.23171618784
 20
6256.626412253434
 30
0.0
 11
15349.23171618784
 21
6210.438390718264
 31
0.0
  0
LINE
  5
28E6
330
18
100
AcDbEntity
  8
0
100
AcDbLine
 10
15199.23171618784
 20
6160.438390718264
 30
0.0
 11
15269.23171618784
 21
6160.438390718264
 31
0.0
  0
LINE
  5
28E7
330
18
100
AcDbEntity
  8
0
100
AcDbLine
 10
15269.23171618784
 20
6256.626412253434
 30
0.0
 11
15269.23171618784
 21
6596.515342264132
 31
0.0
  0
LINE
  5
28E8
102
{ACAD_REACTORS
330
2AB1
102
}
330
18
100
AcDbEntity
  8
0
100
AcDbLine
 10
15349.23171618784
 20
6160.438390718264
 30
0.0
 11
13849.23171618784
 21
6160.438390718264
 31
0.0
  0
LINE
  5
28E9
330
18
100
AcDbEntity
  8
0
100
AcDbLine
 10
13849.23171618784
 20
6160.438390718264
 30
0.0
 11
13849.23171618784
 21
6210.438390718264
 31
0.0
  0
LINE
  5
28EA
330
18
100
AcDbEntity
  8
KL
100
AcDbLine
 10
14599.23171618784
 20
6720.438390718266
 30
0.0
 11
13999.23171618784
 21
6160.438390718264
 31
0.0
  0
LINE
  5
28EB
330
18
100
AcDbEntity
  8
0
100
AcDbLine
 10
14363.86559877214
 20
6596.515342264132
 30
0.0
 11
13999.23171618784
 21
6256.190385185452
 31
0.0
  0
LINE
  5
28EC
330
18
100
AcDbEntity
  8
0
100
AcDbLine
 10
13999.23171618784
 20
6256.190385185452
 30
0.0
 11
13849.23171618784
 21
6210.438390718264
 31
0.0
  0
LINE
  5
28ED
330
18
100
AcDbEntity
  8
KL
100
AcDbLine
 10
15049.23171618784
 20
6610.438390718265
 30
0.0
 11
15199.23171618784
 21
6610.438390718265
 31
0.0
  0
LINE
  5
28EE
330
18
100
AcDbEntity
  8
KL
100
AcDbLine
 10
15049.23171618784
 20
6310.438390718264
 30
0.0
 11
15199.23171618784
 21
6310.438390718264
 31
0.0
  0
LINE
  5
28EF
330
18
100
AcDbEntity
  8
0
100
AcDbLine
 10
14363.86559877214
 20
6596.515342264132
 30
0.0
 11
14349.23171618784
 21
6700.438390718264
 31
0.0
  0
LINE
  5
28F0
330
18
100
AcDbEntity
  8
0
100
AcDbLine
 10
15599.23171618784
 20
4660.438390718264
 30
0.0
 11
13599.23171618784
 21
4660.438390718264
 31
0.0
  0
HATCH
  5
28F1
330
18
100
AcDbEntity
  8
nazor
100
AcDbHatch
 10
0.0
 20
0.0
 30
0.0
210
0.0
220
0.0
230
1.0
  2
HONEY
 70
     0
 71
     0
 91
        2
 92
        7
 72
     0
 73
     1
 93
        5
 10
13849.23171618784
 20
6160.438390718264
 10
13149.23171618783
 20
6160.438390718264
 10
13368.05252746269
 20
5431.035686468732
 10
13757.11432612912
 20
5431.035686468732
 10
13849.23171618784
 20
5472.40412199648
 97
        0
 92
        7
 72
     0
 73
     1
 93
        3
 10
13757.11432612912
 20
5431.035686468732
 10
13368.05252746269
 20
5431.035686468732
 10
13414.24557662325
 20
5277.058855933553
 97
        0
 75
     0
 76
     1
 52
10.0
 41
360.0
 77
     0
 78
     3
 53
10.0
 43
7991.808647677622
 44
467.2082700863611
 45
59.70725536477669
 46
50.10033576266524
 79
     2
 49
44.99999999999997
 49
-89.99999999999994
 53
130.0
 43
7991.808647677622
 44
467.2082700863611
 45
-73.24179119098644
 46
26.65783205480872
 79
     2
 49
45.0
 49
-90.0
 53
70.0
 43
7991.808647677622
 44
467.2082700863611
 45
-13.53453582620975
 46
76.75816781747396
 79
     2
 49
-89.99999999999994
 49
44.99999999999997
 47
18.79510363032917
 98
        2
 10
13596.08283657135
 20
5634.716950247424
 10
13464.34704986022
 20
5390.38060134606
  0
HATCH
  5
28F2
330
18
100
AcDbEntity
  8
nazor
100
AcDbHatch
 10
0.0
 20
0.0
 30
0.0
210
0.0
220
0.0
230
1.0
  2
HONEY
 70
     0
 71
     0
 91
        2
 92
        7
 72
     0
 73
     1
 93
        4
 10
14599.23171618784
 20
5030.438390718264
 10
14248.52913644615
 20
5030.438390718262
 10
14053.68499475717
 20
4660.438390718264
 10
14599.23171618784
 20
4660.438390718264
 97
        0
 92
        7
 72
     0
 73
     1
 93
       10
 10
15882.74486847113
 20
5605.482231662564
 10
15349.23171618784
 20
5594.718106352114
 10
15349.23171618784
 20
5160.438390718264
 10
15374.23171618784
 20
5160.438390718264
 10
15374.23171618784
 20
5030.438390718264
 10
15199.23171618784
 20
5030.438390718264
 10
14724.23171618784
 20
5030.438390718264
 10
14599.23171618784
 20
5030.438390718264
 10
14599.23171618784
 20
4660.438390718264
 10
15599.23171618784
 20
4660.438390718264
 97
        0
 75
     0
 76
     1
 52
10.0
 41
360.0
 77
     0
 78
     3
 53
10.0
 43
7991.808647677622
 44
467.2082700863611
 45
59.70725536477669
 46
50.10033576266524
 79
     2
 49
44.99999999999997
 49
-89.99999999999994
 53
130.0
 43
7991.808647677622
 44
467.2082700863611
 45
-73.24179119098644
 46
26.65783205480872
 79
     2
 49
45.0
 49
-90.0
 53
70.0
 43
7991.808647677622
 44
467.2082700863611
 45
-13.53453582620975
 46
76.75816781747396
 79
     2
 49
-89.99999999999994
 49
44.99999999999997
 47
18.79510363032917
 98
        2
 10
14367.6783022474
 20
4845.322594603306
 10
14969.8990583819
 20
4845.322594603306
  0
LWPOLYLINE
  5
28F3
330
18
100
AcDbEntity
  8
0
100
AcDbPolyline
 90
        4
 70
     1
 43
0.0
 10
11053.44659110391
 20
1500.804588003251
 10
11053.44659110391
 20
9900.804588003252
 10
22933.44659110391
 20
9900.804588003252
 10
22933.44659110391
 20
1500.804588003251
  0
LINE
  5
28F4
330
18
100
AcDbEntity
  8
0
  6
DASHED
100
AcDbLine
 10
18104.03409691168
 20
6833.021721587738
 30
0.0
 11
21004.03409691169
 21
6833.021721587738
 31
0.0
  0
LINE
  5
28F5
330
18
100
AcDbEntity
  8
0
  6
DASHED
100
AcDbLine
 10
18554.03409691168
 20
6383.021721587738
 30
0.0
 11
20554.03409691169
 21
6383.021721587738
 31
0.0
  0
LINE
  5
28F6
330
18
100
AcDbEntity
  8
0
  6
DASHED
100
AcDbLine
 10
18104.03409691168
 20
3933.021721587738
 30
0.0
 11
18104.03409691168
 21
6833.021721587738
 31
0.0
  0
LINE
  5
28F7
330
18
100
AcDbEntity
  8
0
  6
DASHED
100
AcDbLine
 10
18554.03409691168
 20
4383.021721587737
 30
0.0
 11
18554.03409691168
 21
6383.021721587738
 31
0.0
  0
LINE
  5
28F8
330
18
100
AcDbEntity
  8
0
  6
DASHED
100
AcDbLine
 10
21004.03409691168
 20
3933.021721587735
 30
0.0
 11
18104.03409691168
 21
3933.021721587738
 31
0.0
  0
LINE
  5
28F9
330
18
100
AcDbEntity
  8
0
  6
DASHED
100
AcDbLine
 10
20554.03409691168
 20
4383.021721587737
 30
0.0
 11
18554.03409691168
 21
4383.021721587737
 31
0.0
  0
LINE
  5
28FA
330
18
100
AcDbEntity
  8
0
  6
DASHED
100
AcDbLine
 10
21004.03409691169
 20
6833.021721587738
 30
0.0
 11
21004.03409691168
 21
3933.021721587735
 31
0.0
  0
LINE
  5
28FB
330
18
100
AcDbEntity
  8
0
  6
DASHED
100
AcDbLine
 10
20554.03409691169
 20
6383.021721587738
 30
0.0
 11
20554.03409691168
 21
4383.021721587737
 31
0.0
  0
LINE
  5
28FC
330
18
100
AcDbEntity
  8
0
  6
DASHED
100
AcDbLine
 10
18104.03409691168
 20
6833.021721587738
 30
0.0
 11
18554.03409691168
 21
6383.021721587738
 31
0.0
  0
LINE
  5
28FD
330
18
100
AcDbEntity
  8
0
  6
DASHED
100
AcDbLine
 10
20554.03409691169
 20
6383.021721587738
 30
0.0
 11
21004.03409691169
 21
6833.021721587738
 31
0.0
  0
LINE
  5
28FE
330
18
100
AcDbEntity
  8
0
  6
DASHED
100
AcDbLine
 10
20554.03409691168
 20
4383.021721587737
 30
0.0
 11
21004.03409691168
 21
3933.021721587735
 31
0.0
  0
LINE
  5
28FF
330
18
100
AcDbEntity
  8
0
  6
DASHED
100
AcDbLine
 10
18554.03409691168
 20
4383.021721587737
 30
0.0
 11
18104.03409691168
 21
3933.021721587738
 31
0.0
  0
CIRCLE
  5
2900
330
18
100
AcDbEntity
  8
0
  6
DASHED
100
AcDbCircle
 10
19554.03409691168
 20
5383.021721587738
 30
0.0
 40
600.0
  0
CIRCLE
  5
2901
330
18
100
AcDbEntity
  8
0
  6
DASHED
100
AcDbCircle
 10
19554.03409691168
 20
5383.021721587738
 30
0.0
 40
750.0
  0
LINE
  5
2902
330
18
100
AcDbEntity
  8
DEFPOINTS
  6
DASHED
100
AcDbLine
 10
15199.23171618784
 20
6440.438390718266
 30
0.0
 11
15199.23171618784
 21
6440.438390718266
 31
0.0
  0
LINE
  5
2903
330
18
100
AcDbEntity
  8
DEFPOINTS
  6
DASHED
100
AcDbLine
 10
15449.23171618784
 20
6760.438390718265
 30
0.0
 11
15449.23171618784
 21
6760.438390718265
 31
0.0
  0
CIRCLE
  5
2904
330
18
100
AcDbEntity
  8
0
  6
DASHED
100
AcDbCircle
 10
19854.03409691168
 20
5383.021721587738
 30
0.0
 40
550.0
  0
CIRCLE
  5
2905
330
18
100
AcDbEntity
  8
0
100
AcDbCircle
 10
19854.03409691168
 20
5383.021721587738
 30
0.0
 40
337.0
  0
CIRCLE
  5
2906
330
18
100
AcDbEntity
  8
0
100
AcDbCircle
 10
19854.03409691168
 20
5383.021721587738
 30
0.0
 40
480.0
  0
DIMENSION
  5
2907
330
18
100
AcDbEntity
  8
SUNPOU
100
AcDbDimension
  2
*D39
 10
21004.03409691168
 20
3109.311751461806
 30
0.0
 11
19554.03409691168
 21
3209.311751461807
 31
0.0
 70
    32
 71
     5
 42
2900.0
  3
STANDARD
100
AcDbAlignedDimension
 13
18104.03409691168
 23
3933.021721587738
 33
0.0
 14
21004.03409691168
 24
3961.493053010424
 34
0.0
100
AcDbRotatedDimension
1001
ACAD
1000
DSTYLE
1002
{
1070
   288
1070
     1
1070
   140
1040
3.0
1070
   340
1005
6D
1070
    74
1070
     0
1070
   172
1070
     1
1070
    73
1070
     0
1070
    77
1070
     1
1070
    40
1040
40.0
1070
   147
1040
1.0
1070
    42
1040
1.0
1070
    44
1040
1.0
1070
    43
1040
10.0
1070
   271
1070
     0
1070
   141
1040
0.0
1070
     5
1000
ARROW
1070
    41
1040
2.0
1002
}
  0
DIMENSION
  5
2908
330
18
100
AcDbEntity
  8
SUNPOU
100
AcDbDimension
  2
*D40
 10
20554.03409691168
 20
3393.768614671302
 30
0.0
 11
19554.03409691168
 21
3493.768614671302
 31
0.0
 70
    32
 71
     5
 42
2000.0
  3
STANDARD
100
AcDbAlignedDimension
 13
18554.03409691168
 23
3933.021721587737
 33
0.0
 14
20554.03409691168
 24
3933.021721587736
 34
0.0
100
AcDbRotatedDimension
1001
ACAD
1000
DSTYLE
1002
{
1070
   288
1070
     1
1070
   140
1040
3.0
1070
   340
1005
6D
1070
    74
1070
     0
1070
   172
1070
     1
1070
    73
1070
     0
1070
    77
1070
     1
1070
    40
1040
40.0
1070
   147
1040
1.0
1070
    42
1040
1.0
1070
    44
1040
1.0
1070
    43
1040
10.0
1070
   271
1070
     0
1070
   141
1040
0.0
1070
     5
1000
ARROW
1070
    41
1040
2.0
1002
}
  0
DIMENSION
  5
2909
330
18
100
AcDbEntity
  8
SUNPOU
100
AcDbDimension
  2
*D41
 10
21757.97472082597
 20
3933.021721587735
 30
0.0
 11
21657.97472082596
 21
5383.021721587741
 31
0.0
 70
    32
 71
     5
 42
2900.000000000003
  3
DIA1
100
AcDbAlignedDimension
 13
21004.03409691169
 23
6833.021721587738
 33
0.0
 14
21035.81622671124
 24
3933.021721587735
 34
0.0
 50
90.0
100
AcDbRotatedDimension
  0
DIMENSION
  5
290A
330
18
100
AcDbEntity
  8
SUNPOU
100
AcDbDimension
  2
*D42
 10
21428.17064740616
 20
4383.021721587737
 30
0.0
 11
21328.17064740617
 21
5383.021721587741
 31
0.0
 70
    32
 71
     5
 42
2000.000000000002
  3
DIA1
100
AcDbAlignedDimension
 13
21004.03409691169
 23
6383.021721587738
 33
0.0
 14
21004.03409691168
 24
4383.021721587737
 34
0.0
 50
90.0
100
AcDbRotatedDimension
  0
LINE
  5
2A3D
102
{ACAD_REACTORS
330
2AB1
102
}
330
18
100
AcDbEntity
  8
KL
100
AcDbLine
 10
13849.23171618784
 20
5970.438390718263
 30
0.0
 11
13949.23171618784
 21
5942.438390718263
 31
0.0
  0
LINE
  5
2A3F
102
{ACAD_REACTORS
330
2AB1
102
}
330
18
100
AcDbEntity
  8
KL
100
AcDbLine
 10
13949.23171618784
 20
5578.438390718263
 30
0.0
 11
13949.23171618784
 21
5942.438390718261
 31
0.0
  0
ARC
  5
2A40
330
18
100
AcDbEntity
  8
0
  6
DASHED
100
AcDbCircle
 10
19554.03409691168
 20
5383.021721587738
 30
0.0
 40
650.0
100
AcDbArc
 50
73.73979529163577
 51
106.2602047083642
  0
CIRCLE
  5
2A42
330
18
100
AcDbEntity
  8
DEFPOINTS
100
AcDbCircle
 10
14599.23171618784
 20
5760.438390718263
 30
0.0
 40
210.0
  0
CIRCLE
  5
2A43
330
18
100
AcDbEntity
  8
DEFPOINTS
100
AcDbCircle
 10
14599.23171618784
 20
5760.438390718263
 30
0.0
 40
182.0
  0
LINE
  5
2A44
102
{ACAD_REACTORS
330
2AB1
102
}
330
18
100
AcDbEntity
  8
KL
100
AcDbLine
 10
13849.23171618784
 20
5550.438390718262
 30
0.0
 11
13949.23171618784
 21
5578.438390718263
 31
0.0
  0
DIMENSION
  5
2A45
330
18
100
AcDbEntity
  8
DEFPOINTS
100
AcDbDimension
  2
*D45
 10
14733.76360543432
 20
5921.687176064915
 30
0.0
 11
14363.86107388844
 21
5955.959156052035
 31
0.0
 70
   163
 71
     5
 42
420.0000000000017
  3
DIA1
100
AcDbDiametricDimension
 15
14464.69982694135
 25
5599.189605371607
 35
0.0
 40
0.0
1001
ACAD_DSTYLE_DIMRADIAL_EXTENSION
1070
   387
1070
     1
1070
   388
1040
0.0
1070
   390
1040
0.0
  0
LINE
  5
2A46
330
18
100
AcDbEntity
  8
DEFPOINTS
  6
DASHED
100
AcDbLine
 10
19736.03409691168
 20
6007.021721587738
 30
0.0
 11
19764.03409691168
 21
6103.021721587738
 31
0.0
  0
LINE
  5
2A47
330
18
100
AcDbEntity
  8
DEFPOINTS
  6
DASHED
100
AcDbLine
 10
19372.03409691168
 20
6007.021721587738
 30
0.0
 11
19344.03409691168
 21
6103.021721587738
 31
0.0
  0
ARC
  5
2A48
330
18
100
AcDbEntity
  8
0
  6
DASHED
100
AcDbCircle
 10
19554.03409691168
 20
5383.021721587738
 30
0.0
 40
650.0
100
AcDbArc
 50
163.7397952916489
 51
196.260204708351
  0
LINE
  5
2A49
330
18
100
AcDbEntity
  8
DEFPOINTS
  6
DASHED
100
AcDbLine
 10
18930.03409691168
 20
5565.021721587738
 30
0.0
 11
18834.03409691167
 21
5593.021721587739
 31
0.0
  0
LINE
  5
2A4A
330
18
100
AcDbEntity
  8
DEFPOINTS
  6
DASHED
100
AcDbLine
 10
18930.03409691168
 20
5201.021721587738
 30
0.0
 11
18834.03409691167
 21
5173.021721587738
 31
0.0
  0
ARC
  5
2A4B
330
18
100
AcDbEntity
  8
0
  6
DASHED
100
AcDbCircle
 10
19554.03409691168
 20
5383.021721587738
 30
0.0
 40
650.0
100
AcDbArc
 50
253.7397952917576
 51
286.2602047082423
  0
LINE
  5
2A4C
330
18
100
AcDbEntity
  8
DEFPOINTS
  6
DASHED
100
AcDbLine
 10
19372.03409691168
 20
4759.021721587738
 30
0.0
 11
19344.03409691168
 21
4663.021721587738
 31
0.0
  0
LINE
  5
2A4D
330
18
100
AcDbEntity
  8
DEFPOINTS
  6
DASHED
100
AcDbLine
 10
19736.03409691168
 20
4759.021721587738
 30
0.0
 11
19764.03409691168
 21
4663.021721587738
 31
0.0
  0
HATCH
  5
2AB1
330
18
100
AcDbEntity
  8
nazor
100
AcDbHatch
 10
0.0
 20
0.0
 30
0.0
210
0.0
220
0.0
230
1.0
  2
HONEY
 70
     0
 71
     1
 91
        2
 92
        7
 72
     0
 73
     1
 93
        4
 10
15349.23171618784
 20
6160.438390718265
 10
15199.23171618784
 20
6160.438390718265
 10
15199.23171618784
 20
5160.438390718264
 10
15349.23171618783
 20
5160.438390718263
 97
        4
330
28E8
330
28B5
330
28AD
330
28B4
 92
        7
 72
     0
 73
     1
 93
       11
 10
13999.23171618784
 20
6160.438390718264
 10
13849.23171618784
 20
6160.438390718265
 10
13849.23171618784
 20
5970.438390718263
 10
13949.23171618784
 20
5942.438390718262
 10
13949.23171618784
 20
5578.438390718263
 10
13849.23171618784
 20
5550.438390718263
 10
13849.23171618784
 20
5440.956049940122
 10
13908.75389700428
 20
5431.03568646873
 10
13849.23171618784
 20
5421.11532299734
 10
13849.23171618784
 20
5160.438390718264
 10
13999.23171618784
 20
5160.438390718262
 97
        8
330
28E8
330
2885
330
2A3D
330
2A3F
330
2A44
330
2880
330
287A
330
2884
 75
     0
 76
     1
 52
15.0
 41
150.0
 77
     0
 78
     3
 53
15.0
 43
13849.23171618783
 44
5160.438390718263
 45
22.96396635695764
 46
22.96396627005191
 79
     2
 49
18.75
 49
-37.5
 53
135.0
 43
13849.23171618783
 44
5160.438390718263
 45
-31.36936133999276
 46
8.405395101750547
 79
     2
 49
18.75
 49
-37.5
 53
74.99999999999999
 43
13849.23171618783
 44
5160.438390718263
 45
-8.405394983035114
 46
31.36936137180246
 79
     2
 49
-37.5
 49
18.75
 47
3.407065839624776
 98
        2
 10
15282.82442253056
 20
5915.34424837802
 10
13949.95351551103
 20
5503.089287456456
1001
ACAD
1010
15793.49226946748
1020
5160.438390718263
1030
0.0
  0
ENDSEC
  0
SECTION
  2
OBJECTS
  0
DICTIONARY
  5
C
330
0
100
AcDbDictionary
281
     1
  3
ACAD_COLOR
350
242B
  3
ACAD_GROUP
350
D
  3
ACAD_LAYOUT
350
2224
  3
ACAD_MATERIAL
350
2401
  3
ACAD_MLEADERSTYLE
350
2450
  3
ACAD_MLINESTYLE
350
E
  3
ACAD_PLOTSETTINGS
350
2225
  3
ACAD_PLOTSTYLENAME
350
2222
  3
ACAD_SCALELIST
350
242E
  3
ACAD_TABLESTYLE
350
242C
  3
ACAD_VISUALSTYLE
350
241A
  3
ACDB_RECOMPOSE_DATA
350
246E
  3
ACDBVARIABLEDICTIONARY
350
1E51
  0
DICTIONARY
  5
2855
330
2
100
AcDbDictionary
280
     1
281
     1
  3
ACAD_LAYERFILTERS
360
2857
  3
ACLYDICTIONARY
360
2856
  0
DICTIONARY
  5
2456
330
F
100
AcDbDictionary
280
     1
281
     1
  3
ADSK_XREC_LAYER_RECONCILED
360
2457
  0
DICTIONARY
  5
2458
330
89
100
AcDbDictionary
280
     1
281
     1
  3
ADSK_XREC_LAYER_RECONCILED
360
2459
  0
DICTIONARY
  5
245A
330
8A
100
AcDbDictionary
280
     1
281
     1
  3
ADSK_XREC_LAYER_RECONCILED
360
245B
  0
DICTIONARY
  5
245C
330
8B
100
AcDbDictionary
280
     1
281
     1
  3
ADSK_XREC_LAYER_RECONCILED
360
245D
  0
DICTIONARY
  5
245E
330
8D
100
AcDbDictionary
280
     1
281
     1
  3
ADSK_XREC_LAYER_RECONCILED
360
245F
  0
DICTIONARY
  5
2460
330
8E
100
AcDbDictionary
280
     1
281
     1
  3
ADSK_XREC_LAYER_RECONCILED
360
2461
  0
DICTIONARY
  5
2634
330
18
100
AcDbDictionary
280
     1
281
     1
  3
ACAD_SORTENTS
360
2635
  0
DICTIONARY
  5
2BAC
330
2A1F
100
AcDbDictionary
280
     1
281
     1
  3
ACAD_MTEXT_2008_RT
360
2BAD
  0
DICTIONARY
  5
2BAE
330
2B9E
100
AcDbDictionary
280
     1
281
     1
  3
ACAD_MTEXT_2008_RT
360
2BAF
  0
DICTIONARY
  5
242B
102
{ACAD_REACTORS
330
C
102
}
330
C
100
AcDbDictionary
281
     1
  0
DICTIONARY
  5
D
102
{ACAD_REACTORS
330
C
102
}
330
C
100
AcDbDictionary
281
     1
  0
DICTIONARY
  5
2224
102
{ACAD_REACTORS
330
C
102
}
330
C
100
AcDbDictionary
281
     1
  3
Model
350
2226
  3
ﾚｲｱｳﾄ1
350
2227
  0
DICTIONARY
  5
2401
102
{ACAD_REACTORS
330
C
102
}
330
C
100
AcDbDictionary
281
     1
  3
ByBlock
350
240A
  3
ByLayer
350
2402
  3
Global
350
2412
  0
DICTIONARY
  5
2450
102
{ACAD_REACTORS
330
C
102
}
330
C
100
AcDbDictionary
281
     1
  3
Standard
350
2451
  0
DICTIONARY
  5
E
102
{ACAD_REACTORS
330
C
102
}
330
C
100
AcDbDictionary
281
     1
  3
STANDARD
350
1B
  0
DICTIONARY
  5
2225
102
{ACAD_REACTORS
330
C
102
}
330
C
100
AcDbDictionary
281
     1
  0
ACDBDICTIONARYWDFLT
  5
2222
102
{ACAD_REACTORS
330
C
102
}
330
C
100
AcDbDictionary
281
     1
  3
Normal
350
2223
100
AcDbDictionaryWithDefault
340
2223
  0
DICTIONARY
  5
242E
102
{ACAD_REACTORS
330
C
102
}
330
C
100
AcDbDictionary
281
     1
  3
A0
350
242F
  3
A1
350
2430
  3
A2
350
2431
  3
A3
350
2432
  3
A4
350
2433
  3
A5
350
2434
  3
A6
350
2435
  3
A7
350
2436
  3
A8
350
2437
  3
A9
350
2438
  3
B0
350
2439
  3
B1
350
243A
  3
B2
350
243B
  3
B3
350
243C
  3
B4
350
243D
  3
B5
350
243E
  3
B6
350
243F
  3
B7
350
2440
  3
B8
350
2441
  3
B9
350
2442
  3
C0
350
2443
  3
C1
350
2444
  3
C2
350
2445
  3
C3
350
2446
  3
C4
350
2447
  3
C5
350
2448
  3
C6
350
2449
  3
C7
350
244A
  3
C8
350
244B
  3
C9
350
244C
  3
D0
350
244D
  3
D1
350
244E
  3
D2
350
244F
  0
DICTIONARY
  5
242C
102
{ACAD_REACTORS
330
C
102
}
330
C
100
AcDbDictionary
281
     1
  3
Standard
350
242D
  0
DICTIONARY
  5
241A
102
{ACAD_REACTORS
330
C
102
}
330
C
100
AcDbDictionary
281
     1
  3
2dWireframe
350
2420
  3
3D Hidden
350
2422
  3
3dWireframe
350
2421
  3
Basic
350
241F
  3
Brighten
350
2426
  3
ColorChange
350
242A
  3
Conceptual
350
2423
  3
Dim
350
2425
  3
Facepattern
350
2429
  3
Flat
350
241B
  3
FlatWithEdges
350
241C
  3
Gouraud
350
241D
  3
GouraudWithEdges
350
241E
  3
Linepattern
350
2428
  3
Realistic
350
2424
  3
Thicken
350
2427
  0
XRECORD
  5
246E
102
{ACAD_REACTORS
330
C
102
}
330
C
100
AcDbXrecord
280
     1
 90
        1
330
242D
  0
DICTIONARY
  5
1E51
102
{ACAD_REACTORS
330
C
102
}
330
C
100
AcDbDictionary
281
     1
  3
CANNOSCALE
350
2464
  3
CMLEADERSTYLE
350
2463
  3
CTABLESTYLE
350
2462
  3
LIGHTINGUNITS
350
2470
  3
MSLTSCALE
350
246F
  3
SORTENTS
350
1E52
  0
DICTIONARY
  5
2857
102
{ACAD_REACTORS
330
2855
102
}
330
2855
100
AcDbDictionary
281
     1
  0
DICTIONARY
  5
2856
102
{ACAD_REACTORS
330
2855
102
}
330
2855
100
AcDbDictionary
281
     1
1001
ACAD
1000
<All
  0
XRECORD
  5
2457
102
{ACAD_REACTORS
330
2456
102
}
330
2456
100
AcDbXrecord
280
     1
290
     1
  0
XRECORD
  5
2459
102
{ACAD_REACTORS
330
2458
102
}
330
2458
100
AcDbXrecord
280
     1
290
     1
  0
XRECORD
  5
245B
102
{ACAD_REACTORS
330
245A
102
}
330
245A
100
AcDbXrecord
280
     1
290
     1
  0
XRECORD
  5
245D
102
{ACAD_REACTORS
330
245C
102
}
330
245C
100
AcDbXrecord
280
     1
290
     1
  0
XRECORD
  5
245F
102
{ACAD_REACTORS
330
245E
102
}
330
245E
100
AcDbXrecord
280
     1
290
     1
  0
XRECORD
  5
2461
102
{ACAD_REACTORS
330
2460
102
}
330
2460
100
AcDbXrecord
280
     1
290
     1
  0
SORTENTSTABLE
  5
2635
102
{ACAD_REACTORS
330
2634
102
}
330
2634
100
AcDbSortentsTable
330
18
331
28F3
  5
28F5
331
28B4
  5
28B6
331
28FB
  5
28FD
331
28BC
  5
28BE
331
2903
  5
2905
331
28C4
  5
28C6
331
28CC
  5
28CE
331
1C93
  5
1C93
331
1CCA
  5
1CCA
331
1C5C
  5
1C5C
331
1C9B
  5
1C9B
331
2879
  5
2879
331
1C2D
  5
1C2D
331
1C64
  5
1C64
331
2881
  5
2883
331
1C6C
  5
1C6C
331
2236
  5
2236
331
2889
  5
288B
331
26F4
  5
26F4
331
28D4
  5
28D6
331
2895
  5
2897
331
28DC
  5
28DE
331
289D
  5
289F
331
2A46
  5
2A48
331
28E4
  5
28E6
331
28A5
  5
28A7
331
28EC
  5
28EE
331
28AD
  5
28AF
331
1C74
  5
1C74
331
1CAB
  5
1CAB
331
1C7C
  5
1C7C
331
1C3D
  5
1C3D
331
1E21
  5
1E21
331
2246
  5
2246
331
1C84
  5
1C84
331
224E
  5
224E
331
263F
  5
263F
331
2862
  5
2862
331
2647
  5
2647
331
1CC3
  5
1CC3
331
2256
  5
2256
331
286A
  5
286A
331
2266
  5
2266
331
2872
  5
2872
331
28F4
  5
28F6
331
28B5
  5
28B7
331
28FC
  5
28FE
331
28BD
  5
28BF
331
2904
  5
2906
331
28C5
  5
28C7
331
28CD
  5
28CF
331
1FC0
  5
1FC0
331
1C94
  5
1C94
331
1DF2
  5
1DF2
331
1C5D
  5
1C5D
331
287A
  5
287C
331
1C65
  5
1C65
331
2882
  5
2884
331
1C6D
  5
1C6D
331
2237
  5
2237
331
288A
  5
288C
331
223F
  5
223F
331
26ED
  5
26EE
331
26F5
  5
26F5
331
28D5
  5
28D7
331
2896
  5
2898
331
2A3F
  5
2A41
331
28DD
  5
28DF
331
289E
  5
28A0
331
2A47
  5
2A49
331
28E5
  5
28E7
331
28A6
  5
28A8
331
28ED
  5
28EF
331
28AE
  5
28B0
331
1C75
  5
1C75
331
1CAC
  5
1CAC
331
1CB4
  5
1CB4
331
1C3E
  5
1C3E
331
1C7D
  5
1C7D
331
2247
  5
2247
331
2640
  5
2640
331
1C85
  5
1C85
331
224F
  5
224F
331
2863
  5
2863
331
2648
  5
2648
331
1C8D
  5
1C8D
331
1CC4
  5
1CC4
331
1E4A
  5
1E4A
331
286B
  5
286B
331
2873
  5
2873
331
28F5
  5
28F7
331
28B6
  5
28B8
331
28FD
  5
28FF
331
28BE
  5
28C0
331
2905
  5
2907
331
28C6
  5
28C8
331
28CE
  5
28D0
331
1DF3
  5
1DF3
331
1C56
  5
1C56
331
1C95
  5
1C95
331
287B
  5
287D
331
1CA5
  5
1CA5
331
1C66
  5
1C66
331
2883
  5
2885
331
1C6E
  5
1C6E
331
2238
  5
2238
331
288B
  5
288D
331
26F6
  5
26F6
331
28D6
  5
28D8
331
2897
  5
2899
331
2A40
  5
2A42
331
28DE
  5
28E0
331
289F
  5
28A1
331
2A48
  5
2A4A
331
28E6
  5
28E8
331
28A7
  5
28A9
331
28EE
  5
28F0
331
28AF
  5
28B1
331
1C76
  5
1C76
331
1C37
  5
1C37
331
2240
  5
2240
331
2248
  5
2248
331
1C3F
  5
1C3F
331
1C7E
  5
1C7E
331
1CB5
  5
1CB5
331
2485
  5
2485
331
1C86
  5
1C86
331
2250
  5
2250
331
2641
  5
2641
331
2864
  5
2864
331
1CC5
  5
1CC5
331
1C8E
  5
1C8E
331
286C
  5
286C
331
2874
  5
2874
331
28F6
  5
28F8
331
28B7
  5
28B9
331
28FE
  5
2900
331
28BF
  5
28C1
331
2906
  5
2908
331
28C7
  5
28C9
331
28CF
  5
28D2
331
2398
  5
2398
331
1C96
  5
1C96
331
1908
  5
1908
331
1DF4
  5
1DF4
331
287C
  5
287E
331
1C67
  5
1C67
331
1CA6
  5
1CA6
331
2884
  5
2886
331
1C6F
  5
1C6F
331
2239
  5
2239
331
288C
  5
288E
331
26F7
  5
26F7
331
2890
  5
2892
331
28D7
  5
28D9
331
2898
  5
289A
331
28DF
  5
28E1
331
28A0
  5
28A2
331
2A49
  5
2A4B
331
28E7
  5
28E9
331
28A8
  5
28AA
331
28EF
  5
28F1
331
1C38
  5
1C38
331
1C77
  5
1C77
331
2241
  5
2241
331
2249
  5
2249
331
1CB6
  5
1CB6
331
1C40
  5
1C40
331
1C7F
  5
1C7F
331
1C87
  5
1C87
331
2251
  5
2251
331
2642
  5
2642
331
2865
  5
2865
331
1CC6
  5
1CC6
331
286D
  5
286D
331
2875
  5
2875
331
28B0
  5
28B2
331
28F7
  5
28F9
331
28B8
  5
28BA
331
28FF
  5
2901
331
28C0
  5
28C2
331
2907
  5
2909
331
28C8
  5
28CA
331
1DF5
  5
1DF5
331
1C97
  5
1C97
331
287D
  5
287F
331
1CA7
  5
1CA7
331
1C68
  5
1C68
331
1E0D
  5
1E0D
331
2885
  5
2887
331
223A
  5
223A
331
2633
  5
2636
331
288D
  5
288F
331
26F0
  5
26F1
331
28D0
  5
28D3
331
2891
  5
2893
331
28D8
  5
28DA
331
2899
  5
289B
331
2A42
  5
2A44
331
28E0
  5
28E2
331
28A1
  5
28A3
331
2A4A
  5
2A4C
331
28E8
  5
28EA
331
28A9
  5
28AB
331
1C31
  5
1C31
331
1C70
  5
1C70
331
2242
  5
2242
331
1C78
  5
1C78
331
1C39
  5
1C39
331
1CAF
  5
1CAF
331
26F8
  5
26F8
331
1C41
  5
1C41
331
1C80
  5
1C80
331
1CB7
  5
1CB7
331
224A
  5
224A
331
285E
  5
285E
331
1C49
  5
1C49
331
1C88
  5
1C88
331
1CBF
  5
1CBF
331
2643
  5
2643
331
2866
  5
2866
331
1CC7
  5
1CC7
331
286E
  5
286E
331
2876
  5
2876
331
28F0
  5
28F2
331
28B1
  5
28B3
331
28F8
  5
28FA
331
28B9
  5
28BB
331
2900
  5
2902
331
28C1
  5
28C3
331
28C9
  5
28CB
331
1C51
  5
1C51
331
1C90
  5
1C90
331
1C98
  5
1C98
331
23C2
  5
23C2
331
287E
  5
2880
331
1C69
  5
1C69
331
1E0E
  5
1E0E
331
2233
  5
2233
331
2886
  5
2888
331
223B
  5
223B
331
288E
  5
2890
331
2AB1
  5
287B
331
2908
  5
290A
331
2892
  5
2894
331
28D9
  5
28DB
331
289A
  5
289C
331
2A43
  5
2A45
331
28E1
  5
28E3
331
28A2
  5
28A4
331
2A4B
  5
2A4D
331
28E9
  5
28EB
331
28AA
  5
28AC
331
1C32
  5
1C32
331
1CA8
  5
1CA8
331
1CB0
  5
1CB0
331
1C79
  5
1C79
331
224B
  5
224B
331
1C42
  5
1C42
331
1C81
  5
1C81
331
285F
  5
285F
331
1C89
  5
1C89
331
1CC0
  5
1CC0
331
2253
  5
2253
331
2644
  5
2644
331
2867
  5
2867
331
286F
  5
286F
331
2799
  5
2799
331
2877
  5
2877
331
28F1
  5
28F3
331
28B2
  5
28B4
331
28F9
  5
28FB
331
28BA
  5
28BC
331
2901
  5
2903
331
28C2
  5
28C4
331
28CA
  5
28CC
331
1CC8
  5
1CC8
331
1C99
  5
1C99
331
1C2B
  5
1C2B
331
287F
  5
2881
331
1C6A
  5
1C6A
331
2234
  5
2234
331
2887
  5
2889
331
223C
  5
223C
331
288F
  5
2891
331
2909
  5
2A3D
331
28D2
  5
28D4
331
2893
  5
2895
331
28DA
  5
28DC
331
289B
  5
289D
331
2A44
  5
2A46
331
28E2
  5
28E4
331
28A3
  5
28A5
331
2A4C
  5
2A72
331
28EA
  5
28EC
331
28AB
  5
28AD
331
1C72
  5
1C72
331
1CA9
  5
1CA9
331
1C7A
  5
1C7A
331
1CB1
  5
1CB1
331
1C43
  5
1C43
331
1C82
  5
1C82
331
1CB9
  5
1CB9
331
224C
  5
224C
331
263D
  5
263D
331
2860
  5
2860
331
1CC1
  5
1CC1
331
1C8A
  5
1C8A
331
2254
  5
2254
331
2645
  5
2645
331
2868
  5
2868
331
2782
  5
2782
331
2870
  5
2870
331
28F2
  5
28F4
331
28B3
  5
28B5
331
28FA
  5
28FC
331
28BB
  5
28BD
331
2902
  5
2904
331
28C3
  5
28C5
331
28CB
  5
28CD
331
1CC9
  5
1CC9
331
1C92
  5
1C92
331
1C9A
  5
1C9A
331
1C5B
  5
1C5B
331
2878
  5
2878
331
1C2C
  5
1C2C
331
1C63
  5
1C63
331
2880
  5
2882
331
1C6B
  5
1C6B
331
2235
  5
2235
331
2888
  5
288A
331
223D
  5
223D
331
2636
  5
2633
331
290A
  5
2A3E
331
28D3
  5
28D5
331
2894
  5
2896
331
2A3D
  5
2A3F
331
28DB
  5
28DD
331
289C
  5
289E
331
2A45
  5
2A47
331
28E3
  5
28E5
331
28A4
  5
28A6
331
2A4D
  5
2A73
331
28EB
  5
28ED
331
28AC
  5
28AE
331
1C73
  5
1C73
331
1CAA
  5
1CAA
331
1CB2
  5
1CB2
331
1C3C
  5
1C3C
331
1C7B
  5
1C7B
331
2245
  5
2245
331
224D
  5
224D
331
1C83
  5
1C83
331
1CBA
  5
1CBA
331
2206
  5
2206
331
263E
  5
263E
331
2861
  5
2861
331
2646
  5
2646
331
1C8B
  5
1C8B
331
1C4C
  5
1C4C
331
1CC2
  5
1CC2
331
2869
  5
2869
331
2871
  5
2871
  0
XRECORD
  5
2BAD
102
{ACAD_REACTORS
330
2BAC
102
}
330
2BAC
100
AcDbXrecord
280
     1
 40
5735.0
  1
\A1;\U+2205420
  0
XRECORD
  5
2BAF
102
{ACAD_REACTORS
330
2BAE
102
}
330
2BAE
100
AcDbXrecord
280
     1
 40
5735.0
  1
\A1;\U+2205420
  0
LAYOUT
  5
2226
102
{ACAD_REACTORS
330
2224
102
}
330
2224
100
AcDbPlotSettings
  1

  2
D:\ACADLT20\plotters\DWF ePlot.pc3
  4

  6

 40
0.0
 41
0.0
 42
0.0
 43
0.0
 44
0.0
 45
0.0
 46
0.0
 47
0.0
 48
0.0
 49
0.0
140
0.0
141
0.0
142
1.0
143
1.0
 70
  1712
 72
     0
 73
     0
 74
     0
  7

 75
     0
147
1.0
 76
     0
 77
     2
 78
   300
148
0.0
149
0.0
100
AcDbLayout
  1
Model
 70
     1
 71
     0
 10
0.0
 20
0.0
 11
12.0
 21
9.0
 12
0.0
 22
0.0
 32
0.0
 14
0.0
 24
0.0
 34
0.0
 15
0.0
 25
0.0
 35
0.0
146
0.0
 13
0.0
 23
0.0
 33
0.0
 16
1.0
 26
0.0
 36
0.0
 17
0.0
 27
1.0
 37
0.0
 76
     0
330
18
331
23FF
  0
LAYOUT
  5
2227
102
{ACAD_REACTORS
330
2224
102
}
330
2224
100
AcDbPlotSettings
  1

  2
D:\ACADLT20\plotters\DWF ePlot.pc3
  4

  6

 40
0.0
 41
0.0
 42
0.0
 43
0.0
 44
0.0
 45
0.0
 46
0.0
 47
0.0
 48
0.0
 49
0.0
140
0.0
141
0.0
142
1.0
143
1.0
 70
   688
 72
     0
 73
     0
 74
     5
  7

 75
    16
147
1.0
 76
     0
 77
     2
 78
   300
148
0.0
149
0.0
100
AcDbLayout
  1
ﾚｲｱｳﾄ1
 70
     1
 71
     1
 10
0.0
 20
0.0
 11
12.0
 21
9.0
 12
0.0
 22
0.0
 32
0.0
 14
1.000000000000000E+20
 24
1.000000000000000E+20
 34
1.000000000000000E+20
 15
-1.000000000000000E+20
 25
-1.000000000000000E+20
 35
-1.000000000000000E+20
146
0.0
 13
0.0
 23
0.0
 33
0.0
 16
1.0
 26
0.0
 36
0.0
 17
0.0
 27
1.0
 37
0.0
 76
     0
330
15
  0
MATERIAL
  5
240A
102
{ACAD_XDICTIONARY
360
240B
102
}
102
{ACAD_REACTORS
330
2401
102
}
330
2401
100
AcDbMaterial
  1
ByBlock
 72
     0
 43
0.0208333333333333
 43
0.0
 43
0.0
 43
0.0
 43
0.0
 43
0.0208333333333333
 43
0.0
 43
0.0
 43
0.0
 43
0.0
 43
1.0
 43
0.0
 43
0.0
 43
0.0
 43
0.0
 43
1.0
 77
     0
 47
0.0208333333333333
 47
0.0
 47
0.0
 47
0.0
 47
0.0
 47
0.0208333333333333
 47
0.0
 47
0.0
 47
0.0
 47
0.0
 47
1.0
 47
0.0
 47
0.0
 47
0.0
 47
0.0
 47
1.0
171
     0
 49
0.0208333333333333
 49
0.0
 49
0.0
 49
0.0
 49
0.0
 49
0.0208333333333333
 49
0.0
 49
0.0
 49
0.0
 49
0.0
 49
1.0
 49
0.0
 49
0.0
 49
0.0
 49
0.0
 49
1.0
175
     0
142
0.0208333333333333
142
0.0
142
0.0
142
0.0
142
0.0
142
0.0208333333333333
142
0.0
142
0.0
142
0.0
142
0.0
142
1.0
142
0.0
142
0.0
142
0.0
142
0.0
142
1.0
179
     0
144
0.0208333333333333
144
0.0
144
0.0
144
0.0
144
0.0
144
0.0208333333333333
144
0.0
144
0.0
144
0.0
144
0.0
144
1.0
144
0.0
144
0.0
144
0.0
144
0.0
144
1.0
147
0.0208333333333333
147
0.0
147
0.0
147
0.0
147
0.0
147
0.0208333333333333
147
0.0
147
0.0
147
0.0
147
0.0
147
1.0
147
0.0
147
0.0
147
0.0
147
0.0
147
1.0
  0
MATERIAL
  5
2402
102
{ACAD_XDICTIONARY
360
2403
102
}
102
{ACAD_REACTORS
330
2401
102
}
330
2401
100
AcDbMaterial
  1
ByLayer
 72
     0
 43
0.0208333333333333
 43
0.0
 43
0.0
 43
0.0
 43
0.0
 43
0.0208333333333333
 43
0.0
 43
0.0
 43
0.0
 43
0.0
 43
1.0
 43
0.0
 43
0.0
 43
0.0
 43
0.0
 43
1.0
 77
     0
 47
0.0208333333333333
 47
0.0
 47
0.0
 47
0.0
 47
0.0
 47
0.0208333333333333
 47
0.0
 47
0.0
 47
0.0
 47
0.0
 47
1.0
 47
0.0
 47
0.0
 47
0.0
 47
0.0
 47
1.0
171
     0
 49
0.0208333333333333
 49
0.0
 49
0.0
 49
0.0
 49
0.0
 49
0.0208333333333333
 49
0.0
 49
0.0
 49
0.0
 49
0.0
 49
1.0
 49
0.0
 49
0.0
 49
0.0
 49
0.0
 49
1.0
175
     0
142
0.0208333333333333
142
0.0
142
0.0
142
0.0
142
0.0
142
0.0208333333333333
142
0.0
142
0.0
142
0.0
142
0.0
142
1.0
142
0.0
142
0.0
142
0.0
142
0.0
142
1.0
179
     0
144
0.0208333333333333
144
0.0
144
0.0
144
0.0
144
0.0
144
0.0208333333333333
144
0.0
144
0.0
144
0.0
144
0.0
144
1.0
144
0.0
144
0.0
144
0.0
144
0.0
144
1.0
147
0.0208333333333333
147
0.0
147
0.0
147
0.0
147
0.0
147
0.0208333333333333
147
0.0
147
0.0
147
0.0
147
0.0
147
1.0
147
0.0
147
0.0
147
0.0
147
0.0
147
1.0
  0
MATERIAL
  5
2412
102
{ACAD_XDICTIONARY
360
2413
102
}
102
{ACAD_REACTORS
330
2401
102
}
330
2401
100
AcDbMaterial
  1
Global
 72
     0
 43
0.0208333333333333
 43
0.0
 43
0.0
 43
0.0
 43
0.0
 43
0.0208333333333333
 43
0.0
 43
0.0
 43
0.0
 43
0.0
 43
1.0
 43
0.0
 43
0.0
 43
0.0
 43
0.0
 43
1.0
 77
     0
 47
0.0208333333333333
 47
0.0
 47
0.0
 47
0.0
 47
0.0
 47
0.0208333333333333
 47
0.0
 47
0.0
 47
0.0
 47
0.0
 47
1.0
 47
0.0
 47
0.0
 47
0.0
 47
0.0
 47
1.0
171
     0
 49
0.0208333333333333
 49
0.0
 49
0.0
 49
0.0
 49
0.0
 49
0.0208333333333333
 49
0.0
 49
0.0
 49
0.0
 49
0.0
 49
1.0
 49
0.0
 49
0.0
 49
0.0
 49
0.0
 49
1.0
175
     0
142
0.0208333333333333
142
0.0
142
0.0
142
0.0
142
0.0
142
0.0208333333333333
142
0.0
142
0.0
142
0.0
142
0.0
142
1.0
142
0.0
142
0.0
142
0.0
142
0.0
142
1.0
179
     0
144
0.0208333333333333
144
0.0
144
0.0
144
0.0
144
0.0
144
0.0208333333333333
144
0.0
144
0.0
144
0.0
144
0.0
144
1.0
144
0.0
144
0.0
144
0.0
144
0.0
144
1.0
147
0.0208333333333333
147
0.0
147
0.0
147
0.0
147
0.0
147
0.0208333333333333
147
0.0
147
0.0
147
0.0
147
0.0
147
1.0
147
0.0
147
0.0
147
0.0
147
0.0
147
1.0
  0
MLEADERSTYLE
  5
2451
102
{ACAD_REACTORS
330
2450
102
}
330
2450
100
AcDbMLeaderStyle
170
     2
171
     1
172
     0
 90
        2
 40
0.0
 41
0.0
173
     1
 91
-1056964608
340
12
 92
       -2
290
     1
 42
0.09
291
     1
 43
0.36
  3
Standard
 44
0.18
300

342
10
174
     1
178
     6
175
     1
176
     0
 93
-1056964608
 45
0.18
292
     0
297
     0
 46
0.18
 94
-1056964608
 47
1.0
 49
1.0
140
1.0
293
     1
141
0.0
294
     1
177
     0
142
1.0
295
     0
296
     0
143
0.125
1001
ACAD_MLEADERVER
1070
     2
  0
MLINESTYLE
  5
1B
102
{ACAD_REACTORS
330
E
102
}
330
E
100
AcDbMlineStyle
  2
STANDARD
 70
     0
  3

 62
     0
 51
90.0
 52
90.0
 71
     2
 49
0.5
 62
   256
  6
BYLAYER
 49
-0.5
 62
   256
  6
BYLAYER
  0
ACDBPLACEHOLDER
  5
2223
102
{ACAD_REACTORS
330
2222
102
}
330
2222
  0
SCALE
  5
242F
102
{ACAD_REACTORS
330
242E
102
}
330
242E
100
AcDbScale
 70
     0
300
1:1
140
1.0
141
1.0
290
     1
  0
SCALE
  5
2430
102
{ACAD_REACTORS
330
242E
102
}
330
242E
100
AcDbScale
 70
     0
300
1:2
140
1.0
141
2.0
290
     0
  0
SCALE
  5
2431
102
{ACAD_REACTORS
330
242E
102
}
330
242E
100
AcDbScale
 70
     0
300
1:4
140
1.0
141
4.0
290
     0
  0
SCALE
  5
2432
102
{ACAD_REACTORS
330
242E
102
}
330
242E
100
AcDbScale
 70
     0
300
1:5
140
1.0
141
5.0
290
     0
  0
SCALE
  5
2433
102
{ACAD_REACTORS
330
242E
102
}
330
242E
100
AcDbScale
 70
     0
300
1:8
140
1.0
141
8.0
290
     0
  0
SCALE
  5
2434
102
{ACAD_REACTORS
330
242E
102
}
330
242E
100
AcDbScale
 70
     0
300
1:10
140
1.0
141
10.0
290
     0
  0
SCALE
  5
2435
102
{ACAD_REACTORS
330
242E
102
}
330
242E
100
AcDbScale
 70
     0
300
1:16
140
1.0
141
16.0
290
     0
  0
SCALE
  5
2436
102
{ACAD_REACTORS
330
242E
102
}
330
242E
100
AcDbScale
 70
     0
300
1:20
140
1.0
141
20.0
290
     0
  0
SCALE
  5
2437
102
{ACAD_REACTORS
330
242E
102
}
330
242E
100
AcDbScale
 70
     0
300
1:30
140
1.0
141
30.0
290
     0
  0
SCALE
  5
2438
102
{ACAD_REACTORS
330
242E
102
}
330
242E
100
AcDbScale
 70
     0
300
1:40
140
1.0
141
40.0
290
     0
  0
SCALE
  5
2439
102
{ACAD_REACTORS
330
242E
102
}
330
242E
100
AcDbScale
 70
     0
300
1:50
140
1.0
141
50.0
290
     0
  0
SCALE
  5
243A
102
{ACAD_REACTORS
330
242E
102
}
330
242E
100
AcDbScale
 70
     0
300
1:100
140
1.0
141
100.0
290
     0
  0
SCALE
  5
243B
102
{ACAD_REACTORS
330
242E
102
}
330
242E
100
AcDbScale
 70
     0
300
2:1
140
2.0
141
1.0
290
     0
  0
SCALE
  5
243C
102
{ACAD_REACTORS
330
242E
102
}
330
242E
100
AcDbScale
 70
     0
300
4:1
140
4.0
141
1.0
290
     0
  0
SCALE
  5
243D
102
{ACAD_REACTORS
330
242E
102
}
330
242E
100
AcDbScale
 70
     0
300
8:1
140
8.0
141
1.0
290
     0
  0
SCALE
  5
243E
102
{ACAD_REACTORS
330
242E
102
}
330
242E
100
AcDbScale
 70
     0
300
10:1
140
10.0
141
1.0
290
     0
  0
SCALE
  5
243F
102
{ACAD_REACTORS
330
242E
102
}
330
242E
100
AcDbScale
 70
     0
300
100:1
140
100.0
141
1.0
290
     0
  0
SCALE
  5
2440
102
{ACAD_REACTORS
330
242E
102
}
330
242E
100
AcDbScale
 70
     0
300
1/128" = 1'-0"
140
0.0078125
141
12.0
290
     0
  0
SCALE
  5
2441
102
{ACAD_REACTORS
330
242E
102
}
330
242E
100
AcDbScale
 70
     0
300
1/64" = 1'-0"
140
0.015625
141
12.0
290
     0
  0
SCALE
  5
2442
102
{ACAD_REACTORS
330
242E
102
}
330
242E
100
AcDbScale
 70
     0
300
1/32" = 1'-0"
140
0.03125
141
12.0
290
     0
  0
SCALE
  5
2443
102
{ACAD_REACTORS
330
242E
102
}
330
242E
100
AcDbScale
 70
     0
300
1/16" = 1'-0"
140
0.0625
141
12.0
290
     0
  0
SCALE
  5
2444
102
{ACAD_REACTORS
330
242E
102
}
330
242E
100
AcDbScale
 70
     0
300
3/32" = 1'-0"
140
0.09375
141
12.0
290
     0
  0
SCALE
  5
2445
102
{ACAD_REACTORS
330
242E
102
}
330
242E
100
AcDbScale
 70
     0
300
1/8" = 1'-0"
140
0.125
141
12.0
290
     0
  0
SCALE
  5
2446
102
{ACAD_REACTORS
330
242E
102
}
330
242E
100
AcDbScale
 70
     0
300
3/16" = 1'-0"
140
0.1875
141
12.0
290
     0
  0
SCALE
  5
2447
102
{ACAD_REACTORS
330
242E
102
}
330
242E
100
AcDbScale
 70
     0
300
1/4" = 1'-0"
140
0.25
141
12.0
290
     0
  0
SCALE
  5
2448
102
{ACAD_REACTORS
330
242E
102
}
330
242E
100
AcDbScale
 70
     0
300
3/8" = 1'-0"
140
0.375
141
12.0
290
     0
  0
SCALE
  5
2449
102
{ACAD_REACTORS
330
242E
102
}
330
242E
100
AcDbScale
 70
     0
300
1/2" = 1'-0"
140
0.5
141
12.0
290
     0
  0
SCALE
  5
244A
102
{ACAD_REACTORS
330
242E
102
}
330
242E
100
AcDbScale
 70
     0
300
3/4" = 1'-0"
140
0.75
141
12.0
290
     0
  0
SCALE
  5
244B
102
{ACAD_REACTORS
330
242E
102
}
330
242E
100
AcDbScale
 70
     0
300
1" = 1'-0"
140
1.0
141
12.0
290
     0
  0
SCALE
  5
244C
102
{ACAD_REACTORS
330
242E
102
}
330
242E
100
AcDbScale
 70
     0
300
1-1/2" = 1'-0"
140
1.5
141
12.0
290
     0
  0
SCALE
  5
244D
102
{ACAD_REACTORS
330
242E
102
}
330
242E
100
AcDbScale
 70
     0
300
3" = 1'-0"
140
3.0
141
12.0
290
     0
  0
SCALE
  5
244E
102
{ACAD_REACTORS
330
242E
102
}
330
242E
100
AcDbScale
 70
     0
300
6" = 1'-0"
140
6.0
141
12.0
290
     0
  0
SCALE
  5
244F
102
{ACAD_REACTORS
330
242E
102
}
330
242E
100
AcDbScale
 70
     0
300
1'-0" = 1'-0"
140
12.0
141
12.0
290
     0
  0
TABLESTYLE
  5
242D
102
{ACAD_XDICTIONARY
360
246C
102
}
102
{ACAD_REACTORS
330
242C
102
}
330
242C
100
AcDbTableStyle
  3
Standard
 70
     0
 71
     0
 40
0.06
 41
0.06
280
     0
281
     0
  7
STANDARD
140
0.18
170
     2
 62
     0
 63
     7
283
     0
274
    -2
284
     1
 64
     0
275
    -2
285
     1
 65
     0
276
    -2
286
     1
 66
     0
277
    -2
287
     1
 67
     0
278
    -2
288
     1
 68
     0
279
    -2
289
     1
 69
     0
  7
STANDARD
140
0.25
170
     5
 62
     0
 63
     7
283
     0
274
    -2
284
     1
 64
     0
275
    -2
285
     1
 65
     0
276
    -2
286
     1
 66
     0
277
    -2
287
     1
 67
     0
278
    -2
288
     1
 68
     0
279
    -2
289
     1
 69
     0
  7
STANDARD
140
0.18
170
     5
 62
     0
 63
     7
283
     0
274
    -2
284
     1
 64
     0
275
    -2
285
     1
 65
     0
276
    -2
286
     1
 66
     0
277
    -2
287
     1
 67
     0
278
    -2
288
     1
 68
     0
279
    -2
289
     1
 69
     0
  0
VISUALSTYLE
  5
2420
102
{ACAD_REACTORS
330
241A
102
}
330
241A
100
AcDbVisualStyle
  2
2dWireframe
 70
     4
 71
     0
 72
     2
 73
     0
 90
        0
 40
-0.6
 41
-30.0
 62
     5
 63
     7
421
 16777215
 74
     1
 91
        4
 64
     7
 65
   257
 75
     1
175
     1
 42
1.0
 92
        0
 66
   257
 43
1.0
 76
     1
 77
     6
 78
     2
 67
     7
 79
     5
170
     0
171
     0
290
     0
174
     0
 93
        1
 44
0.0
173
     0
291
     0
 45
0.0
1001
ACAD
1000
AcDbSavedByObjectVersion
1070
     0
  0
VISUALSTYLE
  5
2422
102
{ACAD_REACTORS
330
241A
102
}
330
241A
100
AcDbVisualStyle
  2
3D Hidden
 70
     6
 71
     1
 72
     2
 73
     2
 90
        0
 40
-0.6
 41
-30.0
 62
     5
 63
     7
421
 16777215
 74
     2
 91
        2
 64
     7
 65
   257
 75
     2
175
     1
 42
40.0
 92
        0
 66
   257
 43
1.0
 76
     1
 77
     6
 78
     2
 67
     7
 79
     3
170
     0
171
     0
290
     0
174
     0
 93
        1
 44
0.0
173
     0
291
     0
 45
0.0
1001
ACAD
1000
AcDbSavedByObjectVersion
1070
     0
  0
VISUALSTYLE
  5
2421
102
{ACAD_REACTORS
330
241A
102
}
330
241A
100
AcDbVisualStyle
  2
3dWireframe
 70
     5
 71
     0
 72
     2
 73
     0
 90
        0
 40
-0.6
 41
-30.0
 62
     5
 63
     7
421
 16777215
 74
     1
 91
        4
 64
     7
 65
   257
 75
     1
175
     1
 42
1.0
 92
        0
 66
   257
 43
1.0
 76
     1
 77
     6
 78
     2
 67
     7
 79
     5
170
     0
171
     0
290
     0
174
     0
 93
        1
 44
0.0
173
     0
291
     0
 45
0.0
1001
ACAD
1000
AcDbSavedByObjectVersion
1070
     0
  0
VISUALSTYLE
  5
241F
102
{ACAD_REACTORS
330
241A
102
}
330
241A
100
AcDbVisualStyle
  2
Basic
 70
     7
 71
     1
 72
     0
 73
     1
 90
        0
 40
-0.6
 41
-30.0
 62
     5
 63
     7
421
 16777215
 74
     0
 91
        4
 64
     7
 65
   257
 75
     1
175
     1
 42
1.0
 92
        8
 66
     7
 43
1.0
 76
     1
 77
     6
 78
     2
 67
     7
 79
     5
170
     0
171
     0
290
     0
174
     0
 93
        1
 44
0.0
173
     0
291
     1
 45
0.0
1001
ACAD
1000
AcDbSavedByObjectVersion
1070
     0
  0
VISUALSTYLE
  5
2426
102
{ACAD_REACTORS
330
241A
102
}
330
241A
100
AcDbVisualStyle
  2
Brighten
 70
    12
 71
     2
 72
     2
 73
     0
 90
        0
 40
-0.6
 41
-30.0
 62
     5
 63
     7
421
 16777215
 74
     1
 91
        4
 64
     7
 65
   257
 75
     1
175
     1
 42
1.0
 92
        8
 66
     7
 43
1.0
 76
     1
 77
     6
 78
     2
 67
     7
 79
     5
170
     0
171
     0
290
     0
174
     0
 93
        1
 44
50.0
173
     0
291
     1
 45
0.0
1001
ACAD
1000
AcDbSavedByObjectVersion
1070
     0
  0
VISUALSTYLE
  5
242A
102
{ACAD_REACTORS
330
241A
102
}
330
241A
100
AcDbVisualStyle
  2
ColorChange
 70
    16
 71
     2
 72
     2
 73
     3
 90
        0
 40
-0.6
 41
-30.0
 62
     5
 63
     8
421
  8421504
 74
     1
 91
        4
 64
     7
 65
   257
 75
     1
175
     1
 42
1.0
 92
        8
 66
     8
424
  8421504
 43
1.0
 76
     1
 77
     6
 78
     2
 67
     7
 79
     5
170
     0
171
     0
290
     0
174
     0
 93
        1
 44
0.0
173
     0
291
     1
 45
0.0
1001
ACAD
1000
AcDbSavedByObjectVersion
1070
     0
  0
VISUALSTYLE
  5
2423
102
{ACAD_REACTORS
330
241A
102
}
330
241A
100
AcDbVisualStyle
  2
Conceptual
 70
     9
 71
     3
 72
     2
 73
     0
 90
        0
 40
-0.6
 41
-30.0
 62
     5
 63
     7
421
 16777215
 74
     2
 91
        2
 64
     7
 65
   257
 75
     1
175
     1
 42
40.0
 92
        8
 66
     7
 43
1.0
 76
     1
 77
     6
 78
     2
 67
     7
 79
     3
170
     0
171
     0
290
     0
174
     0
 93
        1
 44
0.0
173
     0
291
     0
 45
0.0
1001
ACAD
1000
AcDbSavedByObjectVersion
1070
     0
  0
VISUALSTYLE
  5
2425
102
{ACAD_REACTORS
330
241A
102
}
330
241A
100
AcDbVisualStyle
  2
Dim
 70
    11
 71
     2
 72
     2
 73
     0
 90
        0
 40
-0.6
 41
-30.0
 62
     5
 63
     7
421
 16777215
 74
     1
 91
        4
 64
     7
 65
   257
 75
     1
175
     1
 42
1.0
 92
        8
 66
     7
 43
1.0
 76
     1
 77
     6
 78
     2
 67
     7
 79
     5
170
     0
171
     0
290
     0
174
     0
 93
        1
 44
-50.0
173
     0
291
     1
 45
0.0
1001
ACAD
1000
AcDbSavedByObjectVersion
1070
     0
  0
VISUALSTYLE
  5
2429
102
{ACAD_REACTORS
330
241A
102
}
330
241A
100
AcDbVisualStyle
  2
Facepattern
 70
    15
 71
     2
 72
     2
 73
     0
 90
        0
 40
-0.6
 41
-30.0
 62
     5
 63
     7
421
 16777215
 74
     1
 91
        4
 64
     7
 65
   257
 75
     1
175
     1
 42
1.0
 92
        8
 66
     7
 43
1.0
 76
     1
 77
     6
 78
     2
 67
     7
 79
     5
170
     0
171
     0
290
     0
174
     0
 93
        1
 44
0.0
173
     0
291
     1
 45
0.0
1001
ACAD
1000
AcDbSavedByObjectVersion
1070
     0
  0
VISUALSTYLE
  5
241B
102
{ACAD_REACTORS
330
241A
102
}
330
241A
100
AcDbVisualStyle
  2
Flat
 70
     0
 71
     2
 72
     1
 73
     1
 90
        2
 40
-0.6
 41
30.0
 62
     5
 63
     7
421
 16777215
 74
     0
 91
        4
 64
     7
 65
   257
 75
     1
175
     1
 42
1.0
 92
        8
 66
     7
 43
1.0
 76
     1
 77
     6
 78
     2
 67
     7
 79
     5
170
     0
171
     0
290
     0
174
     0
 93
       13
 44
0.0
173
     0
291
     1
 45
0.0
1001
ACAD
1000
AcDbSavedByObjectVersion
1070
     0
  0
VISUALSTYLE
  5
241C
102
{ACAD_REACTORS
330
241A
102
}
330
241A
100
AcDbVisualStyle
  2
FlatWithEdges
 70
     1
 71
     2
 72
     1
 73
     1
 90
        2
 40
-0.6
 41
30.0
 62
     5
 63
     7
421
 16777215
 74
     1
 91
        4
 64
     7
 65
   257
 75
     1
175
     1
 42
1.0
 92
        0
 66
   257
 43
1.0
 76
     1
 77
     6
 78
     2
 67
     7
 79
     5
170
     0
171
     0
290
     0
174
     0
 93
       13
 44
0.0
173
     0
291
     1
 45
0.0
1001
ACAD
1000
AcDbSavedByObjectVersion
1070
     0
  0
VISUALSTYLE
  5
241D
102
{ACAD_REACTORS
330
241A
102
}
330
241A
100
AcDbVisualStyle
  2
Gouraud
 70
     2
 71
     2
 72
     2
 73
     1
 90
        2
 40
-0.6
 41
30.0
 62
     5
 63
     7
421
 16777215
 74
     0
 91
        4
 64
     7
 65
   257
 75
     1
175
     1
 42
1.0
 92
        0
 66
     7
 43
1.0
 76
     1
 77
     6
 78
     2
 67
     7
 79
     5
170
     0
171
     0
290
     0
174
     0
 93
       13
 44
0.0
173
     0
291
     1
 45
0.0
1001
ACAD
1000
AcDbSavedByObjectVersion
1070
     0
  0
VISUALSTYLE
  5
241E
102
{ACAD_REACTORS
330
241A
102
}
330
241A
100
AcDbVisualStyle
  2
GouraudWithEdges
 70
     3
 71
     2
 72
     2
 73
     1
 90
        2
 40
-0.6
 41
30.0
 62
     5
 63
     7
421
 16777215
 74
     1
 91
        4
 64
     7
 65
   257
 75
     1
175
     1
 42
1.0
 92
        0
 66
   257
 43
1.0
 76
     1
 77
     6
 78
     2
 67
     7
 79
     5
170
     0
171
     0
290
     0
174
     0
 93
       13
 44
0.0
173
     0
291
     1
 45
0.0
1001
ACAD
1000
AcDbSavedByObjectVersion
1070
     0
  0
VISUALSTYLE
  5
2428
102
{ACAD_REACTORS
330
241A
102
}
330
241A
100
AcDbVisualStyle
  2
Linepattern
 70
    14
 71
     2
 72
     2
 73
     0
 90
        0
 40
-0.6
 41
-30.0
 62
     5
 63
     7
421
 16777215
 74
     1
 91
        4
 64
     7
 65
   257
 75
     7
175
     7
 42
1.0
 92
        8
 66
     7
 43
1.0
 76
     1
 77
     6
 78
     2
 67
     7
 79
     5
170
     0
171
     0
290
     0
174
     0
 93
        1
 44
0.0
173
     0
291
     1
 45
0.0
1001
ACAD
1000
AcDbSavedByObjectVersion
1070
     0
  0
VISUALSTYLE
  5
2424
102
{ACAD_REACTORS
330
241A
102
}
330
241A
100
AcDbVisualStyle
  2
Realistic
 70
     8
 71
     2
 72
     2
 73
     0
 90
        0
 40
-0.6
 41
-30.0
 62
     5
 63
     7
421
 16777215
 74
     1
 91
        0
 64
     7
 65
   257
 75
     1
175
     1
 42
1.0
 92
        8
 66
     8
424
  7895160
 43
1.0
 76
     1
 77
     6
 78
     2
 67
     7
 79
     5
170
     0
171
     0
290
     0
174
     0
 93
       13
 44
0.0
173
     0
291
     0
 45
0.0
1001
ACAD
1000
AcDbSavedByObjectVersion
1070
     0
  0
VISUALSTYLE
  5
2427
102
{ACAD_REACTORS
330
241A
102
}
330
241A
100
AcDbVisualStyle
  2
Thicken
 70
    13
 71
     2
 72
     2
 73
     0
 90
        0
 40
-0.6
 41
-30.0
 62
     5
 63
     7
421
 16777215
 74
     1
 91
        4
 64
     7
 65
   257
 75
     1
175
     1
 42
1.0
 92
       12
 66
     7
 43
1.0
 76
     1
 77
     6
 78
     2
 67
     7
 79
     5
170
     0
171
     0
290
     0
174
     0
 93
        1
 44
0.0
173
     0
291
     1
 45
0.0
1001
ACAD
1000
AcDbSavedByObjectVersion
1070
     0
  0
DICTIONARYVAR
  5
2464
102
{ACAD_REACTORS
330
1E51
102
}
330
1E51
100
DictionaryVariables
280
     0
  1
1:1
  0
DICTIONARYVAR
  5
2463
102
{ACAD_REACTORS
330
1E51
102
}
330
1E51
100
DictionaryVariables
280
     0
  1
STANDARD
  0
DICTIONARYVAR
  5
2462
102
{ACAD_REACTORS
330
1E51
102
}
330
1E51
100
DictionaryVariables
280
     0
  1
STANDARD
  0
DICTIONARYVAR
  5
2470
102
{ACAD_REACTORS
330
1E51
102
}
330
1E51
100
DictionaryVariables
280
     0
  1
0
  0
DICTIONARYVAR
  5
246F
102
{ACAD_REACTORS
330
1E51
102
}
330
1E51
100
DictionaryVariables
280
     0
  1
0
  0
DICTIONARYVAR
  5
1E52
102
{ACAD_REACTORS
330
1E51
102
}
330
1E51
100
DictionaryVariables
280
     0
  1
96
  0
DICTIONARY
  5
240B
330
240A
100
AcDbDictionary
280
     1
281
     1
  3
ACAD_XREC_ROUNDTRIP
360
2BA9
  3
BUMPTILE
360
240D
  3
DIFFUSETILE
360
240C
  3
OPACITYTILE
360
2410
  3
REFLECTIONTILE
360
240F
  3
REFRACTIONTILE
360
2411
  3
SPECULARTILE
360
240E
  0
DICTIONARY
  5
2403
330
2402
100
AcDbDictionary
280
     1
281
     1
  3
ACAD_XREC_ROUNDTRIP
360
2BA8
  3
BUMPTILE
360
2405
  3
DIFFUSETILE
360
2404
  3
OPACITYTILE
360
2408
  3
REFLECTIONTILE
360
2407
  3
REFRACTIONTILE
360
2409
  3
SPECULARTILE
360
2406
  0
DICTIONARY
  5
2413
330
2412
100
AcDbDictionary
280
     1
281
     1
  3
ACAD_XREC_ROUNDTRIP
360
2BAA
  3
BUMPTILE
360
2415
  3
DIFFUSETILE
360
2414
  3
OPACITYTILE
360
2418
  3
REFLECTIONTILE
360
2417
  3
REFRACTIONTILE
360
2419
  3
SPECULARTILE
360
2416
  0
DICTIONARY
  5
246C
330
242D
100
AcDbDictionary
280
     1
281
     1
  3
ACAD_ROUNDTRIP_2008_TABLESTYLE_CELLSTYLEMAP
360
2BA7
  3
ACAD_XREC_ROUNDTRIP
360
2BAB
  0
XRECORD
  5
2BA9
102
{ACAD_REACTORS
330
240B
102
}
330
240B
100
AcDbXrecord
280
     1
102
MATERIAL
148
0.0
149
0.0
149
0.0
 93
        0
 94
      127
282
     0
 72
     0
 77
     0
171
     0
175
     0
179
     0
273
     0
  0
XRECORD
  5
240D
102
{ACAD_REACTORS
330
240B
102
}
330
240B
100
AcDbXrecord
280
     1
270
     1
271
     1
  0
XRECORD
  5
240C
102
{ACAD_REACTORS
330
240B
102
}
330
240B
100
AcDbXrecord
280
     1
270
     1
271
     1
  0
XRECORD
  5
2410
102
{ACAD_REACTORS
330
240B
102
}
330
240B
100
AcDbXrecord
280
     1
270
     1
271
     1
  0
XRECORD
  5
240F
102
{ACAD_REACTORS
330
240B
102
}
330
240B
100
AcDbXrecord
280
     1
270
     1
271
     1
  0
XRECORD
  5
2411
102
{ACAD_REACTORS
330
240B
102
}
330
240B
100
AcDbXrecord
280
     1
270
     1
271
     1
  0
XRECORD
  5
240E
102
{ACAD_REACTORS
330
240B
102
}
330
240B
100
AcDbXrecord
280
     1
270
     1
271
     1
  0
XRECORD
  5
2BA8
102
{ACAD_REACTORS
330
2403
102
}
330
2403
100
AcDbXrecord
280
     1
102
MATERIAL
148
0.0
149
0.0
149
0.0
 93
        0
 94
      127
282
     0
 72
     0
 77
     0
171
     0
175
     0
179
     0
273
     0
  0
XRECORD
  5
2405
102
{ACAD_REACTORS
330
2403
102
}
330
2403
100
AcDbXrecord
280
     1
270
     1
271
     1
  0
XRECORD
  5
2404
102
{ACAD_REACTORS
330
2403
102
}
330
2403
100
AcDbXrecord
280
     1
270
     1
271
     1
  0
XRECORD
  5
2408
102
{ACAD_REACTORS
330
2403
102
}
330
2403
100
AcDbXrecord
280
     1
270
     1
271
     1
  0
XRECORD
  5
2407
102
{ACAD_REACTORS
330
2403
102
}
330
2403
100
AcDbXrecord
280
     1
270
     1
271
     1
  0
XRECORD
  5
2409
102
{ACAD_REACTORS
330
2403
102
}
330
2403
100
AcDbXrecord
280
     1
270
     1
271
     1
  0
XRECORD
  5
2406
102
{ACAD_REACTORS
330
2403
102
}
330
2403
100
AcDbXrecord
280
     1
270
     1
271
     1
  0
XRECORD
  5
2BAA
102
{ACAD_REACTORS
330
2413
102
}
330
2413
100
AcDbXrecord
280
     1
102
MATERIAL
148
0.0
149
0.0
149
0.0
 93
        0
 94
      127
282
     0
 72
     0
 77
     0
171
     0
175
     0
179
     0
273
     0
  0
XRECORD
  5
2415
102
{ACAD_REACTORS
330
2413
102
}
330
2413
100
AcDbXrecord
280
     1
270
     1
271
     1
  0
XRECORD
  5
2414
102
{ACAD_REACTORS
330
2413
102
}
330
2413
100
AcDbXrecord
280
     1
270
     1
271
     1
  0
XRECORD
  5
2418
102
{ACAD_REACTORS
330
2413
102
}
330
2413
100
AcDbXrecord
280
     1
270
     1
271
     1
  0
XRECORD
  5
2417
102
{ACAD_REACTORS
330
2413
102
}
330
2413
100
AcDbXrecord
280
     1
270
     1
271
     1
  0
XRECORD
  5
2419
102
{ACAD_REACTORS
330
2413
102
}
330
2413
100
AcDbXrecord
280
     1
270
     1
271
     1
  0
XRECORD
  5
2416
102
{ACAD_REACTORS
330
2413
102
}
330
2413
100
AcDbXrecord
280
     1
270
     1
271
     1
  0
CELLSTYLEMAP
  5
2BA7
102
{ACAD_REACTORS
330
246C
102
}
330
246C
100
AcDbCellStyleMap
 90
        3
300
CELLSTYLE
  1
TABLEFORMAT_BEGIN
 90
        5
170
     1
 91
        0
 92
    32768
 62
   257
 93
        1
300
CONTENTFORMAT
  1
CONTENTFORMAT_BEGIN
 90
        0
 91
        0
 92
      512
 93
        0
300

 40
0.0
140
1.0
 94
        5
 62
     0
340
10
144
0.25
309
CONTENTFORMAT_END
171
     0
 94
        0
309
TABLEFORMAT_END
  1
CELLSTYLE_BEGIN
 90
        1
 91
        1
300
_TITLE
309
CELLSTYLE_END
300
CELLSTYLE
  1
TABLEFORMAT_BEGIN
 90
        5
170
     1
 91
        0
 92
        0
 62
   257
 93
        1
300
CONTENTFORMAT
  1
CONTENTFORMAT_BEGIN
 90
        0
 91
        0
 92
      512
 93
        0
300

 40
0.0
140
1.0
 94
        5
 62
     0
340
10
144
0.18
309
CONTENTFORMAT_END
171
     0
 94
        0
309
TABLEFORMAT_END
  1
CELLSTYLE_BEGIN
 90
        2
 91
        1
300
_HEADER
309
CELLSTYLE_END
300
CELLSTYLE
  1
TABLEFORMAT_BEGIN
 90
        5
170
     1
 91
        0
 92
        0
 62
   257
 93
        1
300
CONTENTFORMAT
  1
CONTENTFORMAT_BEGIN
 90
        0
 91
        0
 92
      512
 93
        0
300

 40
0.0
140
1.0
 94
        2
 62
     0
340
10
144
0.18
309
CONTENTFORMAT_END
171
     0
 94
        0
309
TABLEFORMAT_END
  1
CELLSTYLE_BEGIN
 90
        3
 91
        2
300
_DATA
309
CELLSTYLE_END
  0
XRECORD
  5
2BAB
102
{ACAD_REACTORS
330
246C
102
}
330
246C
100
AcDbXrecord
280
     1
102
ACAD_ROUNDTRIP_PRE2007_TABLESTYLE
 90
      512
 91
        0
  1

 92
      512
 93
        0
  2

 94
      512
 95
        0
  3

  0
ENDSEC
  0
EOF
