  0
SECTION
  2
HEADER
  9
$ACADVER
  1
AC1018
  9
$ACADMAINTVER
 70
   104
  9
$DWGCODEPAGE
  3
ANSI_932
  9
$LASTSAVEDBY
  1
poracon
  9
$INSBASE
 10
0.0
 20
0.0
 30
0.0
  9
$EXTMIN
 10
-774.0752999481419
 20
1139.260830420458
 30
0.0
  9
$EXTMAX
 10
22985.92470005186
 20
9539.260830420458
 30
0.0
  9
$LIMMIN
 10
0.0
 20
0.0
  9
$LIMMAX
 10
2970.0
 20
2100.0
  9
$ORTHOMODE
 70
     1
  9
$REGENMODE
 70
     1
  9
$FILLMODE
 70
     1
  9
$QTEXTMODE
 70
     0
  9
$MIRRTEXT
 70
     1
  9
$LTSCALE
 40
60.0
  9
$ATTMODE
 70
     1
  9
$TEXTSIZE
 40
50.0
  9
$TRACEWID
 40
0.05
  9
$TEXTSTYLE
  7
BIGFONT
  9
$CLAYER
  8
DEFPOINTS
  9
$CELTYPE
  6
BYLAYER
  9
$CECOLOR
 62
   256
  9
$CELTSCALE
 40
1.0
  9
$DISPSILH
 70
     0
  9
$DIMSCALE
 40
40.0
  9
$DIMASZ
 40
2.0
  9
$DIMEXO
 40
1.0
  9
$DIMDLI
 40
10.0
  9
$DIMRND
 40
0.0
  9
$DIMDLE
 40
0.0
  9
$DIMEXE
 40
1.0
  9
$DIMTP
 40
0.0
  9
$DIMTM
 40
0.0
  9
$DIMTXT
 40
3.0
  9
$DIMCEN
 40
0.0
  9
$DIMTSZ
 40
0.0
  9
$DIMTOL
 70
     0
  9
$DIMLIM
 70
     0
  9
$DIMTIH
 70
     0
  9
$DIMTOH
 70
     0
  9
$DIMSE1
 70
     0
  9
$DIMSE2
 70
     0
  9
$DIMTAD
 70
     1
  9
$DIMZIN
 70
     0
  9
$DIMBLK
  1
ARROW
  9
$DIMASO
 70
     1
  9
$DIMSHO
 70
     1
  9
$DIMPOST
  1

  9
$DIMAPOST
  1

  9
$DIMALT
 70
     0
  9
$DIMALTD
 70
     2
  9
$DIMALTF
 40
25.4
  9
$DIMLFAC
 40
1.0
  9
$DIMTOFL
 70
     1
  9
$DIMTVP
 40
0.0
  9
$DIMTIX
 70
     0
  9
$DIMSOXD
 70
     0
  9
$DIMSAH
 70
     1
  9
$DIMBLK1
  1
ARROW
  9
$DIMBLK2
  1
ARROW
  9
$DIMSTYLE
  2
DIA1
  9
$DIMCLRD
 70
     0
  9
$DIMCLRE
 70
     0
  9
$DIMCLRT
 70
     0
  9
$DIMTFAC
 40
1.0
  9
$DIMGAP
 40
1.0
  9
$DIMJUST
 70
     0
  9
$DIMSD1
 70
     0
  9
$DIMSD2
 70
     0
  9
$DIMTOLJ
 70
     1
  9
$DIMTZIN
 70
     0
  9
$DIMALTZ
 70
     0
  9
$DIMALTTZ
 70
     0
  9
$DIMUPT
 70
     1
  9
$DIMDEC
 70
     0
  9
$DIMTDEC
 70
     4
  9
$DIMALTU
 70
     2
  9
$DIMALTTD
 70
     2
  9
$DIMTXSTY
  7
BIGFONT
  9
$DIMAUNIT
 70
     0
  9
$DIMADEC
 70
     0
  9
$DIMALTRND
 40
0.0
  9
$DIMAZIN
 70
     0
  9
$DIMDSEP
 70
    46
  9
$DIMATFIT
 70
     3
  9
$DIMFRAC
 70
     0
  9
$DIMLDRBLK
  1
ARROW
  9
$DIMLUNIT
 70
     2
  9
$DIMLWD
 70
    -2
  9
$DIMLWE
 70
    -2
  9
$DIMTMOVE
 70
     2
  9
$LUNITS
 70
     2
  9
$LUPREC
 70
     1
  9
$SKETCHINC
 40
0.1
  9
$FILLETRAD
 40
0.0
  9
$AUNITS
 70
     1
  9
$AUPREC
 70
     2
  9
$MENU
  1
MASTERS
  9
$ELEVATION
 40
0.0
  9
$PELEVATION
 40
0.0
  9
$THICKNESS
 40
0.0
  9
$LIMCHECK
 70
     0
  9
$CHAMFERA
 40
0.0
  9
$CHAMFERB
 40
0.0
  9
$CHAMFERC
 40
0.0
  9
$CHAMFERD
 40
0.0
  9
$SKPOLY
 70
     0
  9
$TDCREATE
 40
2450434.826770834
  9
$TDUCREATE
 40
2450434.451770833
  9
$TDUPDATE
 40
2459158.679365880
  9
$TDUUPDATE
 40
2459158.304365880
  9
$TDINDWG
 40
0.0799823380
  9
$TDUSRTIMER
 40
0.0799727546
  9
$USRTIMER
 70
     1
  9
$ANGBASE
 50
0.0
  9
$ANGDIR
 70
     0
  9
$PDMODE
 70
     0
  9
$PDSIZE
 40
0.0
  9
$PLINEWID
 40
0.0
  9
$SPLFRAME
 70
     0
  9
$SPLINETYPE
 70
     6
  9
$SPLINESEGS
 70
     8
  9
$HANDSEED
  5
2DB4
  9
$SURFTAB1
 70
     6
  9
$SURFTAB2
 70
     6
  9
$SURFTYPE
 70
     6
  9
$SURFU
 70
     6
  9
$SURFV
 70
     6
  9
$UCSBASE
  2

  9
$UCSNAME
  2

  9
$UCSORG
 10
0.0
 20
0.0
 30
0.0
  9
$UCSXDIR
 10
1.0
 20
0.0
 30
0.0
  9
$UCSYDIR
 10
0.0
 20
1.0
 30
0.0
  9
$UCSORTHOREF
  2

  9
$UCSORTHOVIEW
 70
     0
  9
$UCSORGTOP
 10
0.0
 20
0.0
 30
0.0
  9
$UCSORGBOTTOM
 10
0.0
 20
0.0
 30
0.0
  9
$UCSORGLEFT
 10
0.0
 20
0.0
 30
0.0
  9
$UCSORGRIGHT
 10
0.0
 20
0.0
 30
0.0
  9
$UCSORGFRONT
 10
0.0
 20
0.0
 30
0.0
  9
$UCSORGBACK
 10
0.0
 20
0.0
 30
0.0
  9
$PUCSBASE
  2

  9
$PUCSNAME
  2

  9
$PUCSORG
 10
0.0
 20
0.0
 30
0.0
  9
$PUCSXDIR
 10
1.0
 20
0.0
 30
0.0
  9
$PUCSYDIR
 10
0.0
 20
1.0
 30
0.0
  9
$PUCSORTHOREF
  2

  9
$PUCSORTHOVIEW
 70
     0
  9
$PUCSORGTOP
 10
0.0
 20
0.0
 30
0.0
  9
$PUCSORGBOTTOM
 10
0.0
 20
0.0
 30
0.0
  9
$PUCSORGLEFT
 10
0.0
 20
0.0
 30
0.0
  9
$PUCSORGRIGHT
 10
0.0
 20
0.0
 30
0.0
  9
$PUCSORGFRONT
 10
0.0
 20
0.0
 30
0.0
  9
$PUCSORGBACK
 10
0.0
 20
0.0
 30
0.0
  9
$USERI1
 70
     0
  9
$USERI2
 70
     0
  9
$USERI3
 70
     0
  9
$USERI4
 70
     0
  9
$USERI5
 70
     0
  9
$USERR1
 40
0.0
  9
$USERR2
 40
0.0
  9
$USERR3
 40
0.0
  9
$USERR4
 40
0.0
  9
$USERR5
 40
0.0
  9
$WORLDVIEW
 70
     1
  9
$SHADEDGE
 70
     3
  9
$SHADEDIF
 70
    70
  9
$TILEMODE
 70
     1
  9
$MAXACTVP
 70
    16
  9
$PINSBASE
 10
0.0
 20
0.0
 30
0.0
  9
$PLIMCHECK
 70
     0
  9
$PEXTMIN
 10
1.000000000000000E+20
 20
1.000000000000000E+20
 30
1.000000000000000E+20
  9
$PEXTMAX
 10
-1.000000000000000E+20
 20
-1.000000000000000E+20
 30
-1.000000000000000E+20
  9
$PLIMMIN
 10
0.0
 20
0.0
  9
$PLIMMAX
 10
12.0
 20
9.0
  9
$UNITMODE
 70
     0
  9
$VISRETAIN
 70
     0
  9
$PLINEGEN
 70
     0
  9
$PSLTSCALE
 70
     1
  9
$TREEDEPTH
 70
  3020
  9
$CMLSTYLE
  2
STANDARD
  9
$CMLJUST
 70
     0
  9
$CMLSCALE
 40
1.0
  9
$PROXYGRAPHICS
 70
     1
  9
$MEASUREMENT
 70
     0
  9
$CELWEIGHT
370
    -1
  9
$ENDCAPS
280
     0
  9
$JOINSTYLE
280
     0
  9
$LWDISPLAY
290
     0
  9
$INSUNITS
 70
     0
  9
$HYPERLINKBASE
  1

  9
$STYLESHEET
  1

  9
$XEDIT
290
     1
  9
$CEPSNTYPE
380
     0
  9
$PSTYLEMODE
290
     1
  9
$FINGERPRINTGUID
  2
{5F15F9D8-BF50-4F74-87C7-7E5E6E5B296C}
  9
$VERSIONGUID
  2
{207C7A5B-BA39-4B90-B107-2388450C652F}
  9
$EXTNAMES
290
     1
  9
$PSVPSCALE
 40
0.0
  9
$OLESTARTUP
290
     0
  9
$SORTENTS
280
    96
  9
$INDEXCTL
280
     0
  9
$HIDETEXT
280
     0
  9
$XCLIPFRAME
290
     0
  9
$HALOGAP
280
     0
  9
$OBSCOLOR
 70
   257
  9
$OBSLTYPE
280
     0
  9
$INTERSECTIONDISPLAY
280
     0
  9
$INTERSECTIONCOLOR
 70
   257
  9
$DIMASSOC
280
     1
  9
$PROJECTNAME
  1

  0
ENDSEC
  0
SECTION
  2
CLASSES
  0
CLASS
  1
DICTIONARYVAR
  2
AcDbDictionaryVar
  3
ObjectDBX Classes
 90
        0
 91
        8
280
     0
281
     0
  0
CLASS
  1
ACDBDICTIONARYWDFLT
  2
AcDbDictionaryWithDefault
  3
ObjectDBX Classes
 90
        0
 91
        1
280
     0
281
     0
  0
CLASS
  1
MATERIAL
  2
AcDbMaterial
  3
ObjectDBX Classes
 90
     1153
 91
        3
280
     0
281
     0
  0
CLASS
  1
VISUALSTYLE
  2
AcDbVisualStyle
  3
ObjectDBX Classes
 90
     4095
 91
       16
280
     0
281
     0
  0
CLASS
  1
TABLESTYLE
  2
AcDbTableStyle
  3
ObjectDBX Classes
 90
     4095
 91
        1
280
     0
281
     0
  0
CLASS
  1
SCALE
  2
AcDbScale
  3
ObjectDBX Classes
 90
     1153
 91
       33
280
     0
281
     0
  0
CLASS
  1
MLEADERSTYLE
  2
AcDbMLeaderStyle
  3
ACDB_MLEADERSTYLE_CLASS
 90
     4095
 91
        1
280
     0
281
     0
  0
CLASS
  1
CELLSTYLEMAP
  2
AcDbCellStyleMap
  3
ObjectDBX Classes
 90
     1152
 91
        2
280
     0
281
     0
  0
CLASS
  1
SORTENTSTABLE
  2
AcDbSortentsTable
  3
ObjectDBX Classes
 90
        0
 91
        3
280
     0
281
     0
  0
ENDSEC
  0
SECTION
  2
TABLES
  0
TABLE
  2
VPORT
  5
8
330
0
100
AcDbSymbolTable
 70
     1
  0
VPORT
  5
2606
330
8
100
AcDbSymbolTableRecord
100
AcDbViewportTableRecord
  2
*Active
 70
     0
 10
0.0
 20
0.0
 11
1.0
 21
1.0
 12
11192.64714722046
 22
4769.775983884385
 13
0.0
 23
0.0
 14
1.0
 24
1.0
 15
0.0
 25
0.0
 16
0.0
 26
0.0
 36
1.0
 17
0.0
 27
0.0
 37
0.0
 40
14401.77839570462
 41
1.669761273209549
 42
50.0
 43
0.0
 44
0.0
 50
0.0
 51
0.0
 71
     0
 72
   100
 73
     1
 74
     1
 75
     0
 76
     0
 77
     0
 78
     0
281
     0
 65
     1
110
0.0
120
0.0
130
0.0
111
1.0
121
0.0
131
0.0
112
0.0
122
1.0
132
0.0
 79
     0
146
0.0
  0
ENDTAB
  0
TABLE
  2
LTYPE
  5
5
330
0
100
AcDbSymbolTable
 70
    25
  0
LTYPE
  5
12
330
5
100
AcDbSymbolTableRecord
100
AcDbLinetypeTableRecord
  2
BYBLOCK
 70
     0
  3

 72
    65
 73
     0
 40
0.0
  0
LTYPE
  5
13
330
5
100
AcDbSymbolTableRecord
100
AcDbLinetypeTableRecord
  2
BYLAYER
 70
     0
  3

 72
    65
 73
     0
 40
0.0
  0
LTYPE
  5
14
330
5
100
AcDbSymbolTableRecord
100
AcDbLinetypeTableRecord
  2
CONTINUOUS
 70
     0
  3
Solid line
 72
    65
 73
     0
 40
0.0
  0
LTYPE
  5
6E
330
5
100
AcDbSymbolTableRecord
100
AcDbLinetypeTableRecord
  2
BORDER
 70
     0
  3
__ __ . __ __ . __ __ . __ __ . __ __ . __ __ .
 72
    65
 73
     6
 40
1.75
 49
0.5
 74
     0
 49
-0.25
 74
     0
 49
0.5
 74
     0
 49
-0.25
 74
     0
 49
0.0
 74
     0
 49
-0.25
 74
     0
  0
LTYPE
  5
6F
330
5
100
AcDbSymbolTableRecord
100
AcDbLinetypeTableRecord
  2
BORDER2
 70
     0
  3
__.__.__.__.__.__.__.__.__.__.__.__.__.__.__.__
 72
    65
 73
     6
 40
0.875
 49
0.25
 74
     0
 49
-0.125
 74
     0
 49
0.25
 74
     0
 49
-0.125
 74
     0
 49
0.0
 74
     0
 49
-0.125
 74
     0
  0
LTYPE
  5
70
330
5
100
AcDbSymbolTableRecord
100
AcDbLinetypeTableRecord
  2
BORDERX2
 70
     0
  3
____  ____  .  ____  ____  .  ____  ____  .  __
 72
    65
 73
     6
 40
3.5
 49
1.0
 74
     0
 49
-0.5
 74
     0
 49
1.0
 74
     0
 49
-0.5
 74
     0
 49
0.0
 74
     0
 49
-0.5
 74
     0
  0
LTYPE
  5
71
330
5
100
AcDbSymbolTableRecord
100
AcDbLinetypeTableRecord
  2
CENTER
 70
     0
  3
____ _ ____ _ ____ _ ____ _ ____ _ ____ _ ____ 
 72
    65
 73
     4
 40
2.0
 49
1.25
 74
     0
 49
-0.25
 74
     0
 49
0.25
 74
     0
 49
-0.25
 74
     0
  0
LTYPE
  5
72
330
5
100
AcDbSymbolTableRecord
100
AcDbLinetypeTableRecord
  2
CENTER2
 70
     0
  3
___ _ ___ _ ___ _ ___ _ ___ _ ___ _ ___ _ ___ _
 72
    65
 73
     4
 40
1.125
 49
0.75
 74
     0
 49
-0.125
 74
     0
 49
0.125
 74
     0
 49
-0.125
 74
     0
  0
LTYPE
  5
73
330
5
100
AcDbSymbolTableRecord
100
AcDbLinetypeTableRecord
  2
CENTERX2
 70
     0
  3
________  __  ________  __  ________  __  _____
 72
    65
 73
     4
 40
4.0
 49
2.5
 74
     0
 49
-0.5
 74
     0
 49
0.5
 74
     0
 49
-0.5
 74
     0
  0
LTYPE
  5
74
330
5
100
AcDbSymbolTableRecord
100
AcDbLinetypeTableRecord
  2
DASHDOT
 70
     0
  3
__ . __ . __ . __ . __ . __ . __ . __ . __ . __
 72
    65
 73
     4
 40
1.0
 49
0.5
 74
     0
 49
-0.25
 74
     0
 49
0.0
 74
     0
 49
-0.25
 74
     0
  0
LTYPE
  5
75
330
5
100
AcDbSymbolTableRecord
100
AcDbLinetypeTableRecord
  2
DASHDOT2
 70
     0
  3
_._._._._._._._._._._._._._._._._._._._._._._._
 72
    65
 73
     4
 40
0.5
 49
0.25
 74
     0
 49
-0.125
 74
     0
 49
0.0
 74
     0
 49
-0.125
 74
     0
  0
LTYPE
  5
76
330
5
100
AcDbSymbolTableRecord
100
AcDbLinetypeTableRecord
  2
DASHDOTX2
 70
     0
  3
____  .  ____  .  ____  .  ____  .  ____  .  __
 72
    65
 73
     4
 40
2.0
 49
1.0
 74
     0
 49
-0.5
 74
     0
 49
0.0
 74
     0
 49
-0.5
 74
     0
  0
LTYPE
  5
77
330
5
100
AcDbSymbolTableRecord
100
AcDbLinetypeTableRecord
  2
DASHED
 70
     0
  3
__ __ __ __ __ __ __ __ __ __ __ __ __ __ __ __
 72
    65
 73
     2
 40
0.75
 49
0.5
 74
     0
 49
-0.25
 74
     0
  0
LTYPE
  5
78
330
5
100
AcDbSymbolTableRecord
100
AcDbLinetypeTableRecord
  2
DASHED2
 70
     0
  3
_ _ _ _ _ _ _ _ _ _ _ _ _ _ _ _ _ _ _ _ _ _ _ _
 72
    65
 73
     2
 40
0.375
 49
0.25
 74
     0
 49
-0.125
 74
     0
  0
LTYPE
  5
79
330
5
100
AcDbSymbolTableRecord
100
AcDbLinetypeTableRecord
  2
DASHEDX2
 70
     0
  3
____  ____  ____  ____  ____  ____  ____  ____ 
 72
    65
 73
     2
 40
1.5
 49
1.0
 74
     0
 49
-0.5
 74
     0
  0
LTYPE
  5
7A
330
5
100
AcDbSymbolTableRecord
100
AcDbLinetypeTableRecord
  2
DIVIDE
 70
     0
  3
____ . . ____ . . ____ . . ____ . . ____ . . __
 72
    65
 73
     6
 40
1.25
 49
0.5
 74
     0
 49
-0.25
 74
     0
 49
0.0
 74
     0
 49
-0.25
 74
     0
 49
0.0
 74
     0
 49
-0.25
 74
     0
  0
LTYPE
  5
7B
330
5
100
AcDbSymbolTableRecord
100
AcDbLinetypeTableRecord
  2
DIVIDE2
 70
     0
  3
__..__..__..__..__..__..__..__..__..__..__..__.
 72
    65
 73
     6
 40
0.625
 49
0.25
 74
     0
 49
-0.125
 74
     0
 49
0.0
 74
     0
 49
-0.125
 74
     0
 49
0.0
 74
     0
 49
-0.125
 74
     0
  0
LTYPE
  5
7C
330
5
100
AcDbSymbolTableRecord
100
AcDbLinetypeTableRecord
  2
DIVIDEX2
 70
     0
  3
________  .  .  ________  .  .  ________  .  . 
 72
    65
 73
     6
 40
2.5
 49
1.0
 74
     0
 49
-0.5
 74
     0
 49
0.0
 74
     0
 49
-0.5
 74
     0
 49
0.0
 74
     0
 49
-0.5
 74
     0
  0
LTYPE
  5
7D
330
5
100
AcDbSymbolTableRecord
100
AcDbLinetypeTableRecord
  2
DOT
 70
     0
  3
. . . . . . . . . . . . . . . . . . . . . . . .
 72
    65
 73
     2
 40
0.25
 49
0.0
 74
     0
 49
-0.25
 74
     0
  0
LTYPE
  5
7E
330
5
100
AcDbSymbolTableRecord
100
AcDbLinetypeTableRecord
  2
DOT2
 70
     0
  3
...............................................
 72
    65
 73
     2
 40
0.125
 49
0.0
 74
     0
 49
-0.125
 74
     0
  0
LTYPE
  5
7F
330
5
100
AcDbSymbolTableRecord
100
AcDbLinetypeTableRecord
  2
DOTX2
 70
     0
  3
.  .  .  .  .  .  .  .  .  .  .  .  .  .  .  . 
 72
    65
 73
     2
 40
0.5
 49
0.0
 74
     0
 49
-0.5
 74
     0
  0
LTYPE
  5
80
330
5
100
AcDbSymbolTableRecord
100
AcDbLinetypeTableRecord
  2
HIDDEN
 70
     0
  3
__ __ __ __ __ __ __ __ __ __ __ __ __ __ __ __
 72
    65
 73
     2
 40
0.375
 49
0.25
 74
     0
 49
-0.125
 74
     0
  0
LTYPE
  5
81
330
5
100
AcDbSymbolTableRecord
100
AcDbLinetypeTableRecord
  2
HIDDEN2
 70
     0
  3
_ _ _ _ _ _ _ _ _ _ _ _ _ _ _ _ _ _ _ _ _ _ _ _
 72
    65
 73
     2
 40
0.1875
 49
0.125
 74
     0
 49
-0.0625
 74
     0
  0
LTYPE
  5
82
330
5
100
AcDbSymbolTableRecord
100
AcDbLinetypeTableRecord
  2
HIDDENX2
 70
     0
  3
____ ____ ____ ____ ____ ____ ____ ____ ____ __
 72
    65
 73
     2
 40
0.75
 49
0.5
 74
     0
 49
-0.25
 74
     0
  0
LTYPE
  5
83
330
5
100
AcDbSymbolTableRecord
100
AcDbLinetypeTableRecord
  2
PHANTOM
 70
     0
  3
______  __  __  ______  __  __  ______  __  __ 
 72
    65
 73
     6
 40
2.5
 49
1.25
 74
     0
 49
-0.25
 74
     0
 49
0.25
 74
     0
 49
-0.25
 74
     0
 49
0.25
 74
     0
 49
-0.25
 74
     0
  0
LTYPE
  5
84
330
5
100
AcDbSymbolTableRecord
100
AcDbLinetypeTableRecord
  2
PHANTOM2
 70
     0
  3
___ _ _ ___ _ _ ___ _ _ ___ _ _ ___ _ _ ___ _ _
 72
    65
 73
     6
 40
1.25
 49
0.625
 74
     0
 49
-0.125
 74
     0
 49
0.125
 74
     0
 49
-0.125
 74
     0
 49
0.125
 74
     0
 49
-0.125
 74
     0
  0
LTYPE
  5
85
330
5
100
AcDbSymbolTableRecord
100
AcDbLinetypeTableRecord
  2
PHANTOMX2
 70
     0
  3
____________    ____    ____    ____________   
 72
    65
 73
     6
 40
5.0
 49
2.5
 74
     0
 49
-0.5
 74
     0
 49
0.5
 74
     0
 49
-0.5
 74
     0
 49
0.5
 74
     0
 49
-0.5
 74
     0
  0
ENDTAB
  0
TABLE
  2
LAYER
  5
2
102
{ACAD_XDICTIONARY
360
297C
102
}
330
0
100
AcDbSymbolTable
 70
     8
  0
LAYER
  5
F
102
{ACAD_XDICTIONARY
360
2663
102
}
330
2
100
AcDbSymbolTableRecord
100
AcDbLayerTableRecord
  2
0
 70
     0
 62
     7
  6
CONTINUOUS
370
    -3
390
2223
  0
LAYER
  5
89
102
{ACAD_XDICTIONARY
360
2665
102
}
330
2
100
AcDbSymbolTableRecord
100
AcDbLayerTableRecord
  2
SUNPOU
 70
     0
 62
     3
  6
CONTINUOUS
370
    -3
390
2223
  0
LAYER
  5
8A
102
{ACAD_XDICTIONARY
360
2667
102
}
330
2
100
AcDbSymbolTableRecord
100
AcDbLayerTableRecord
  2
POINT
 70
     0
 62
     1
  6
CONTINUOUS
370
    -3
390
2223
  0
LAYER
  5
8B
102
{ACAD_XDICTIONARY
360
2669
102
}
330
2
100
AcDbSymbolTableRecord
100
AcDbLayerTableRecord
  2
CT1
 70
     0
 62
     3
  6
CENTER2
370
    -3
390
2223
  0
LAYER
  5
8D
102
{ACAD_XDICTIONARY
360
266B
102
}
330
2
100
AcDbSymbolTableRecord
100
AcDbLayerTableRecord
  2
CT2
 70
     0
 62
     1
  6
CENTER2
370
    -3
390
2223
  0
LAYER
  5
8E
102
{ACAD_XDICTIONARY
360
266D
102
}
330
2
100
AcDbSymbolTableRecord
100
AcDbLayerTableRecord
  2
KL
 70
     0
 62
     5
  6
HIDDEN
370
    -3
390
2223
  0
LAYER
  5
8F
102
{ACAD_XDICTIONARY
360
266F
102
}
330
2
100
AcDbSymbolTableRecord
100
AcDbLayerTableRecord
  2
NAZORI
 70
     0
 62
     4
  6
CONTINUOUS
370
    -3
390
2223
  0
LAYER
  5
90
330
2
100
AcDbSymbolTableRecord
100
AcDbLayerTableRecord
  2
DEFPOINTS
 70
     0
 62
     7
  6
CONTINUOUS
290
     0
370
    -3
390
2223
  0
ENDTAB
  0
TABLE
  2
STYLE
  5
3
330
0
100
AcDbSymbolTable
 70
     2
  0
STYLE
  5
10
330
3
100
AcDbSymbolTableRecord
100
AcDbTextStyleTableRecord
  2
STANDARD
 70
     0
 40
0.0
 41
1.0
 50
0.0
 71
     0
 42
0.2
  3
txt
  4

  0
STYLE
  5
6D
330
3
100
AcDbSymbolTableRecord
100
AcDbTextStyleTableRecord
  2
BIGFONT
 70
     0
 40
0.0
 41
1.0
 50
0.0
 71
     0
 42
50.0
  3
simplex
  4
extfont
  0
ENDTAB
  0
TABLE
  2
VIEW
  5
6
330
0
100
AcDbSymbolTable
 70
     0
  0
ENDTAB
  0
TABLE
  2
UCS
  5
7
330
0
100
AcDbSymbolTable
 70
     0
  0
ENDTAB
  0
TABLE
  2
APPID
  5
9
330
0
100
AcDbSymbolTable
 70
     4
  0
APPID
  5
11
330
9
100
AcDbSymbolTableRecord
100
AcDbRegAppTableRecord
  2
ACAD
 70
     0
  0
APPID
  5
2659
330
9
100
AcDbSymbolTableRecord
100
AcDbRegAppTableRecord
  2
ACAD_MLEADERVER
 70
     0
  0
APPID
  5
26A7
330
9
100
AcDbSymbolTableRecord
100
AcDbRegAppTableRecord
  2
ACAD_EXEMPT_FROM_CAD_STANDARDS
 70
     0
  0
APPID
  5
2C7A
330
9
100
AcDbSymbolTableRecord
100
AcDbRegAppTableRecord
  2
ACAD_DSTYLE_DIMRADIAL_EXTENSION
 70
     0
  0
ENDTAB
  0
TABLE
  2
DIMSTYLE
  5
A
330
0
100
AcDbSymbolTable
 70
     2
100
AcDbDimStyleTable
 71
     1
340
1DC5
  0
DIMSTYLE
105
190A
102
{ACAD_REACTORS
330
1C39
330
1C38
330
1CB7
330
2550
330
28DA
330
28DB
330
2A58
330
2A59
330
2AAD
330
2AD1
330
2B09
330
2B0A
102
}
330
A
100
AcDbSymbolTableRecord
100
AcDbDimStyleTableRecord
  2
STANDARD
 70
     0
340
10
  0
DIMSTYLE
105
1DC5
102
{ACAD_REACTORS
330
1E0D
330
1E21
330
1E4A
330
1FC0
330
1C9B
330
259C
330
28DC
330
28DD
330
2A9D
330
2AC0
330
2AC2
330
2AC3
330
2AC4
330
2AD2
330
2B0B
330
2B0C
330
2C7B
102
}
330
A
100
AcDbSymbolTableRecord
100
AcDbDimStyleTableRecord
  2
DIA1
 70
     0
 40
40.0
 41
2.0
 42
1.0
 43
10.0
 44
1.0
 73
     0
 74
     0
 77
     1
140
3.0
141
0.0
147
1.0
172
     1
173
     1
271
     0
279
     2
288
     1
340
6D
341
20
342
20
343
20
344
20
  0
ENDTAB
  0
TABLE
  2
BLOCK_RECORD
  5
1
330
0
100
AcDbSymbolTable
 70
    57
  0
BLOCK_RECORD
  5
18
102
{ACAD_XDICTIONARY
360
2980
102
}
330
1
100
AcDbSymbolTableRecord
100
AcDbBlockTableRecord
  2
*MODEL_SPACE
340
2226
  0
BLOCK_RECORD
  5
15
330
1
100
AcDbSymbolTableRecord
100
AcDbBlockTableRecord
  2
*PAPER_SPACE
340
2227
  0
BLOCK_RECORD
  5
1E
330
1
100
AcDbSymbolTableRecord
100
AcDbBlockTableRecord
  2
YA_N
340
0
102
{BLKREFS
331
1908
331
ACB
331
AEB
331
B07
331
B25
331
B4B
331
12D3
331
25DA
102
}
  0
BLOCK_RECORD
  5
20
330
1
100
AcDbSymbolTableRecord
100
AcDbBlockTableRecord
  2
ARROW
340
0
102
{BLKREFS
331
1C49
331
1C69
331
1C6E
331
1C72
331
1C8D
331
1CBF
331
27DF
331
27E0
331
27E8
331
27E9
331
27F0
331
27F1
331
27FB
331
27FC
331
2803
331
2804
331
280C
331
280D
331
2815
331
2816
331
281E
331
281F
331
2883
331
2884
331
288F
331
2890
331
289B
331
289C
331
28A7
331
28A8
331
2937
331
2938
331
2943
331
2944
331
294F
331
2950
331
295B
331
295C
331
2A38
331
2A39
331
2A41
331
2A42
331
2A62
331
2A6F
331
2A74
331
2A77
331
2A91
331
2AB0
331
2C88
331
2C89
331
2C91
331
2C92
331
2C9A
331
2C9B
331
2CA3
331
2CA4
331
2CAB
331
2CAC
331
2CB6
331
2CB7
331
2CBE
331
2CBF
331
2CC7
331
2CC8
331
2CD0
331
2CD1
331
2CD9
331
2CDA
331
2CE2
331
2CE3
331
2CEB
331
2CEC
331
2CF4
331
2CF5
331
2CFD
331
2CFE
331
2D06
331
2D07
331
2D0F
331
2D10
331
2D18
331
2D19
331
2D21
331
2D22
331
2D29
331
2D2A
331
2D34
331
2D35
331
2D3C
331
2D3D
331
2D45
331
2D46
331
2D4E
331
2D4F
331
2D57
331
2D58
331
2D60
331
2D61
331
2D69
331
2D6A
331
2D72
331
2D73
331
2D7B
331
2D7C
331
2D83
331
2D84
102
}
  0
BLOCK_RECORD
  5
2D
330
1
100
AcDbSymbolTableRecord
100
AcDbBlockTableRecord
  2
SH600A
340
0
  0
BLOCK_RECORD
  5
2E
330
1
100
AcDbSymbolTableRecord
100
AcDbBlockTableRecord
  2
FUTA600
340
0
  0
BLOCK_RECORD
  5
2F
330
1
100
AcDbSymbolTableRecord
100
AcDbBlockTableRecord
  2
SH600C
340
0
  0
BLOCK_RECORD
  5
30
330
1
100
AcDbSymbolTableRecord
100
AcDbBlockTableRecord
  2
SH1200
340
0
  0
BLOCK_RECORD
  5
31
330
1
100
AcDbSymbolTableRecord
100
AcDbBlockTableRecord
  2
SH600D
340
0
  0
BLOCK_RECORD
  5
5F
330
1
100
AcDbSymbolTableRecord
100
AcDbBlockTableRecord
  2
KSH600D
340
0
  0
BLOCK_RECORD
  5
1CD9
330
1
100
AcDbSymbolTableRecord
100
AcDbBlockTableRecord
  2
*D8
340
0
  0
BLOCK_RECORD
  5
1CE5
330
1
100
AcDbSymbolTableRecord
100
AcDbBlockTableRecord
  2
*D9
340
0
  0
BLOCK_RECORD
  5
1CF1
330
1
100
AcDbSymbolTableRecord
100
AcDbBlockTableRecord
  2
*D10
340
0
  0
BLOCK_RECORD
  5
1D2F
330
1
100
AcDbSymbolTableRecord
100
AcDbBlockTableRecord
  2
*D11
340
0
  0
BLOCK_RECORD
  5
1E02
330
1
100
AcDbSymbolTableRecord
100
AcDbBlockTableRecord
  2
*D12
340
0
  0
BLOCK_RECORD
  5
1E13
330
1
100
AcDbSymbolTableRecord
100
AcDbBlockTableRecord
  2
*D13
340
0
  0
BLOCK_RECORD
  5
1E3E
330
1
100
AcDbSymbolTableRecord
100
AcDbBlockTableRecord
  2
*D14
340
0
  0
BLOCK_RECORD
  5
1FB4
330
1
100
AcDbSymbolTableRecord
100
AcDbBlockTableRecord
  2
*D15
340
0
  0
BLOCK_RECORD
  5
2551
330
1
100
AcDbSymbolTableRecord
100
AcDbBlockTableRecord
  2
*D16
340
0
  0
BLOCK_RECORD
  5
259D
330
1
100
AcDbSymbolTableRecord
100
AcDbBlockTableRecord
  2
*D17
340
0
  0
BLOCK_RECORD
  5
287E
330
1
100
AcDbSymbolTableRecord
100
AcDbBlockTableRecord
  2
*D28
340
0
  0
BLOCK_RECORD
  5
288A
330
1
100
AcDbSymbolTableRecord
100
AcDbBlockTableRecord
  2
*D29
340
0
  0
BLOCK_RECORD
  5
2896
330
1
100
AcDbSymbolTableRecord
100
AcDbBlockTableRecord
  2
*D30
340
0
  0
BLOCK_RECORD
  5
28A2
330
1
100
AcDbSymbolTableRecord
100
AcDbBlockTableRecord
  2
*D31
340
0
  0
BLOCK_RECORD
  5
28AE
102
{ACAD_XDICTIONARY
360
28C4
102
}
330
1
100
AcDbSymbolTableRecord
100
AcDbBlockTableRecord
  2
A$C13AE576D
340
0
  0
BLOCK_RECORD
  5
28DE
330
1
100
AcDbSymbolTableRecord
100
AcDbBlockTableRecord
  2
*D33
340
0
  0
BLOCK_RECORD
  5
28EA
330
1
100
AcDbSymbolTableRecord
100
AcDbBlockTableRecord
  2
*D34
340
0
  0
BLOCK_RECORD
  5
28F6
330
1
100
AcDbSymbolTableRecord
100
AcDbBlockTableRecord
  2
*D35
340
0
  0
BLOCK_RECORD
  5
2902
330
1
100
AcDbSymbolTableRecord
100
AcDbBlockTableRecord
  2
*D36
340
0
  0
BLOCK_RECORD
  5
2932
330
1
100
AcDbSymbolTableRecord
100
AcDbBlockTableRecord
  2
*D37
340
0
  0
BLOCK_RECORD
  5
293E
330
1
100
AcDbSymbolTableRecord
100
AcDbBlockTableRecord
  2
*D38
340
0
  0
BLOCK_RECORD
  5
294A
330
1
100
AcDbSymbolTableRecord
100
AcDbBlockTableRecord
  2
*D39
340
0
  0
BLOCK_RECORD
  5
2956
330
1
100
AcDbSymbolTableRecord
100
AcDbBlockTableRecord
  2
*D40
340
0
  0
BLOCK_RECORD
  5
2962
102
{ACAD_XDICTIONARY
360
2978
102
}
330
1
100
AcDbSymbolTableRecord
100
AcDbBlockTableRecord
  2
A$C13077BEE
340
0
  0
BLOCK_RECORD
  5
2B0D
330
1
100
AcDbSymbolTableRecord
100
AcDbBlockTableRecord
  2
*D42
340
0
  0
BLOCK_RECORD
  5
2B19
330
1
100
AcDbSymbolTableRecord
100
AcDbBlockTableRecord
  2
*D43
340
0
  0
BLOCK_RECORD
  5
2B25
330
1
100
AcDbSymbolTableRecord
100
AcDbBlockTableRecord
  2
*D44
340
0
  0
BLOCK_RECORD
  5
2B31
330
1
100
AcDbSymbolTableRecord
100
AcDbBlockTableRecord
  2
*D45
340
0
  0
BLOCK_RECORD
  5
2B3D
330
1
100
AcDbSymbolTableRecord
100
AcDbBlockTableRecord
  2
*D46
340
0
  0
BLOCK_RECORD
  5
2B48
330
1
100
AcDbSymbolTableRecord
100
AcDbBlockTableRecord
  2
*D47
340
0
  0
BLOCK_RECORD
  5
2B55
330
1
100
AcDbSymbolTableRecord
100
AcDbBlockTableRecord
  2
*D48
340
0
  0
BLOCK_RECORD
  5
2B61
330
1
100
AcDbSymbolTableRecord
100
AcDbBlockTableRecord
  2
*D49
340
0
  0
BLOCK_RECORD
  5
2B6D
330
1
100
AcDbSymbolTableRecord
100
AcDbBlockTableRecord
  2
*D50
340
0
  0
BLOCK_RECORD
  5
2B79
330
1
100
AcDbSymbolTableRecord
100
AcDbBlockTableRecord
  2
*D51
340
0
  0
BLOCK_RECORD
  5
2B85
330
1
100
AcDbSymbolTableRecord
100
AcDbBlockTableRecord
  2
*D52
340
0
  0
BLOCK_RECORD
  5
2B91
330
1
100
AcDbSymbolTableRecord
100
AcDbBlockTableRecord
  2
*D53
340
0
  0
BLOCK_RECORD
  5
2B9D
330
1
100
AcDbSymbolTableRecord
100
AcDbBlockTableRecord
  2
*D54
340
0
  0
BLOCK_RECORD
  5
2BA9
330
1
100
AcDbSymbolTableRecord
100
AcDbBlockTableRecord
  2
*D55
340
0
  0
BLOCK_RECORD
  5
2C7C
330
1
100
AcDbSymbolTableRecord
100
AcDbBlockTableRecord
  2
*D56
340
0
  0
ENDTAB
  0
ENDSEC
  0
SECTION
  2
BLOCKS
  0
BLOCK
  5
93
330
18
100
AcDbEntity
  8
0
100
AcDbBlockBegin
  2
*MODEL_SPACE
 70
     0
 10
0.0
 20
0.0
 30
0.0
  3
*MODEL_SPACE
  1

  0
ENDBLK
  5
94
330
18
100
AcDbEntity
  8
0
100
AcDbBlockEnd
  0
BLOCK
  5
91
330
15
100
AcDbEntity
 67
     1
  8
0
100
AcDbBlockBegin
  2
*PAPER_SPACE
 70
     0
 10
0.0
 20
0.0
 30
0.0
  3
*PAPER_SPACE
  1

  0
ENDBLK
  5
92
330
15
100
AcDbEntity
 67
     1
  8
0
100
AcDbBlockEnd
  0
BLOCK
  5
9C
330
1E
100
AcDbEntity
  8
0
100
AcDbBlockBegin
  2
YA_N
 70
     0
 10
0.0
 20
0.0
 30
0.0
  3
YA_N
  1

  0
ENDBLK
  5
9D
330
1E
100
AcDbEntity
  8
0
100
AcDbBlockEnd
  0
BLOCK
  5
A5
330
20
100
AcDbEntity
  8
0
100
AcDbBlockBegin
  2
ARROW
 70
     0
 10
0.0
 20
0.0
 30
0.0
  3
ARROW
  1

  0
LINE
  5
A6
330
20
100
AcDbEntity
  8
0
100
AcDbLine
 10
-0.9999999999999992
 20
0.1666666667000003
 30
0.0
 11
0.0
 21
0.0
 31
0.0
  0
LINE
  5
A7
330
20
100
AcDbEntity
  8
0
100
AcDbLine
 10
-0.9999999999999992
 20
0.0
 30
0.0
 11
0.0
 21
0.0
 31
0.0
  0
LINE
  5
A8
330
20
100
AcDbEntity
  8
0
100
AcDbLine
 10
-0.9999999999999992
 20
-0.1666666667000003
 30
0.0
 11
0.0
 21
0.0
 31
0.0
  0
ENDBLK
  5
A9
330
20
100
AcDbEntity
  8
0
100
AcDbBlockEnd
  0
BLOCK
  5
ACA
330
2D
100
AcDbEntity
  8
0
100
AcDbBlockBegin
  2
SH600A
 70
     0
 10
0.0
 20
0.0
 30
0.0
  3
SH600A
  1

  0
INSERT
  5
ACB
330
2D
100
AcDbEntity
  8
0
100
AcDbBlockReference
  2
YA_N
 10
6.0
 20
5.0
 30
0.0
  0
LINE
  5
ACC
330
2D
100
AcDbEntity
  8
0
100
AcDbLine
 10
3.936294756790056
 20
6.651845655122985
 30
0.0
 11
1103.93629475679
 21
6.651845655122985
 31
0.0
  0
LINE
  5
ACD
330
2D
100
AcDbEntity
  8
0
100
AcDbLine
 10
1103.93629475679
 20
6.651845655122985
 30
0.0
 11
1103.93629475679
 21
-53.348154344877
 31
0.0
  0
LINE
  5
ACE
330
2D
100
AcDbEntity
  8
0
100
AcDbLine
 10
3.936294756790056
 20
6.651845655122985
 30
0.0
 11
3.936294756790056
 21
-53.348154344877
 31
0.0
  0
LINE
  5
ACF
330
2D
100
AcDbEntity
  8
0
100
AcDbLine
 10
3.936294756790056
 20
-53.348154344877
 30
0.0
 11
128.6349738492943
 21
-125.3429702865252
 31
0.0
  0
LINE
  5
AD0
330
2D
100
AcDbEntity
  8
0
100
AcDbLine
 10
3.936294756790056
 20
6.651845655122985
 30
0.0
 11
553.9362947567902
 21
6.651845655122985
 31
0.0
  0
LINE
  5
AD1
330
2D
100
AcDbEntity
  8
0
100
AcDbLine
 10
553.9362947567902
 20
-293.348154344877
 30
0.0
 11
-46.06370524320992
 21
-293.348154344877
 31
0.0
  0
LINE
  5
AD2
330
2D
100
AcDbEntity
  8
0
100
AcDbLine
 10
-46.06370524320992
 20
-293.348154344877
 30
0.0
 11
-46.06370524320992
 21
-243.348154344877
 31
0.0
  0
LINE
  5
AD3
330
2D
100
AcDbEntity
  8
0
100
AcDbLine
 10
-46.06370524320992
 20
-243.348154344877
 30
0.0
 11
114.6139061426339
 21
-150.580892158514
 31
0.0
  0
LINE
  5
AD4
330
2D
100
AcDbEntity
  8
CT1
100
AcDbLine
 10
553.9362947567902
 20
6.651845655122985
 30
0.0
 11
553.9362947567902
 21
-426.6276275581621
 31
0.0
  0
LINE
  5
AD5
330
2D
100
AcDbEntity
  8
CT1
100
AcDbLine
 10
553.9362947567902
 20
6.651845655122985
 30
0.0
 11
553.9362947567902
 21
111.0194336537063
 31
0.0
  0
LINE
  5
AD6
330
2D
100
AcDbEntity
  8
KL
100
AcDbLine
 10
253.9362947567901
 20
6.651845655122985
 30
0.0
 11
253.9362947567901
 21
-23.34815434487701
 31
0.0
  0
LINE
  5
AD7
330
2D
100
AcDbEntity
  8
KL
100
AcDbLine
 10
253.9362947567901
 20
-23.34815434487701
 30
0.0
 11
103.93629475679
 21
-293.348154344877
 31
0.0
  0
LINE
  5
AD8
330
2D
100
AcDbEntity
  8
0
100
AcDbLine
 10
128.6349738492943
 20
-125.3429702865252
 30
0.0
 11
114.6139061426339
 21
-150.5808921585139
 31
0.0
  0
LINE
  5
AD9
330
2D
100
AcDbEntity
  8
0
100
AcDbLine
 10
1103.93629475679
 20
-53.348154344877
 30
0.0
 11
979.2376156642861
 21
-125.3429702865252
 31
0.0
  0
LINE
  5
ADA
330
2D
100
AcDbEntity
  8
KL
100
AcDbLine
 10
853.9362947567903
 20
-23.34815434487701
 30
0.0
 11
1003.93629475679
 21
-293.348154344877
 31
0.0
  0
LINE
  5
ADB
330
2D
100
AcDbEntity
  8
0
100
AcDbLine
 10
553.9362947567902
 20
-293.348154344877
 30
0.0
 11
1153.93629475679
 21
-293.348154344877
 31
0.0
  0
LINE
  5
ADC
330
2D
100
AcDbEntity
  8
0
100
AcDbLine
 10
1153.93629475679
 20
-243.348154344877
 30
0.0
 11
993.2586833709462
 21
-150.580892158514
 31
0.0
  0
LINE
  5
ADD
330
2D
100
AcDbEntity
  8
0
100
AcDbLine
 10
1153.93629475679
 20
-293.348154344877
 30
0.0
 11
1153.93629475679
 21
-243.348154344877
 31
0.0
  0
LINE
  5
ADE
330
2D
100
AcDbEntity
  8
0
100
AcDbLine
 10
979.2376156642861
 20
-125.3429702865252
 30
0.0
 11
993.2586833709462
 21
-150.5808921585139
 31
0.0
  0
LINE
  5
ADF
330
2D
100
AcDbEntity
  8
0
100
AcDbLine
 10
1103.93629475679
 20
6.651845655122985
 30
0.0
 11
553.9362947567902
 21
6.651845655122985
 31
0.0
  0
LINE
  5
AE0
330
2D
100
AcDbEntity
  8
0
100
AcDbLine
 10
1103.93629475679
 20
6.651845655122985
 30
0.0
 11
1103.93629475679
 21
-53.348154344877
 31
0.0
  0
LINE
  5
AE1
330
2D
100
AcDbEntity
  8
KL
100
AcDbLine
 10
853.9362947567903
 20
6.651845655122985
 30
0.0
 11
853.9362947567903
 21
-23.34815434487701
 31
0.0
  0
LINE
  5
AE2
330
2D
100
AcDbEntity
  8
KL
100
AcDbLine
 10
853.9362947567903
 20
-23.34815434487701
 30
0.0
 11
1003.93629475679
 21
-293.348154344877
 31
0.0
  0
LINE
  5
AE3
330
2D
100
AcDbEntity
  8
KL
100
AcDbLine
 10
253.9362947567901
 20
-23.34815434487701
 30
0.0
 11
853.9362947567903
 21
-23.34815434487701
 31
0.0
  0
LINE
  5
AE4
330
2D
100
AcDbEntity
  8
0
100
AcDbLine
 10
3.936294756790056
 20
-53.348154344877
 30
0.0
 11
1103.93629475679
 21
-53.34815434487728
 31
0.0
  0
LINE
  5
AE5
330
2D
100
AcDbEntity
  8
0
100
AcDbLine
 10
-46.06370524320992
 20
-243.348154344877
 30
0.0
 11
1153.93629475679
 21
-243.348154344877
 31
0.0
  0
LINE
  5
AE6
330
2D
100
AcDbEntity
  8
0
100
AcDbLine
 10
979.2376156642861
 20
-125.3429702865252
 30
0.0
 11
128.6349738492943
 21
-125.3429702865252
 31
0.0
  0
LINE
  5
AE7
330
2D
100
AcDbEntity
  8
0
100
AcDbLine
 10
114.6139061426339
 20
-150.580892158514
 30
0.0
 11
993.2586833709462
 21
-150.580892158514
 31
0.0
  0
LINE
  5
AE8
330
2D
100
AcDbEntity
  8
KL
100
AcDbLine
 10
778.9362947567902
 20
-143.348154344877
 30
0.0
 11
628.9362947567902
 21
-143.348154344877
 31
0.0
  0
ENDBLK
  5
AE9
330
2D
100
AcDbEntity
  8
0
100
AcDbBlockEnd
  0
BLOCK
  5
AEA
330
2E
100
AcDbEntity
  8
0
100
AcDbBlockBegin
  2
FUTA600
 70
     0
 10
0.0
 20
0.0
 30
0.0
  3
FUTA600
  1

  0
INSERT
  5
AEB
330
2E
100
AcDbEntity
  8
0
100
AcDbBlockReference
  2
YA_N
 10
6.0
 20
5.0
 30
0.0
  0
LINE
  5
AEC
330
2E
100
AcDbEntity
  8
0
100
AcDbLine
 10
125.2429594938415
 20
244.880592526053
 30
0.0
 11
1085.242959493841
 21
244.880592526053
 31
0.0
  0
LINE
  5
AED
330
2E
100
AcDbEntity
  8
0
100
AcDbLine
 10
1085.242959493841
 20
244.880592526053
 30
0.0
 11
1085.242959493841
 21
344.880592526053
 31
0.0
  0
LINE
  5
AEE
330
2E
100
AcDbEntity
  8
0
100
AcDbLine
 10
1075.242959493841
 20
354.880592526053
 30
0.0
 11
135.2429594938414
 21
354.880592526053
 31
0.0
  0
LINE
  5
AEF
330
2E
100
AcDbEntity
  8
0
100
AcDbLine
 10
125.2429594938414
 20
344.880592526053
 30
0.0
 11
125.2429594938415
 21
244.880592526053
 31
0.0
  0
LINE
  5
AF0
330
2E
100
AcDbEntity
  8
0
100
AcDbLine
 10
135.2429594938414
 20
354.880592526053
 30
0.0
 11
279.2429594938415
 21
354.880592526053
 31
0.0
  0
LINE
  5
AF1
330
2E
100
AcDbEntity
  8
0
100
AcDbLine
 10
135.2429594938414
 20
354.880592526053
 30
0.0
 11
268.2429594938414
 21
354.880592526053
 31
0.0
  0
LINE
  5
AF2
330
2E
100
AcDbEntity
  8
0
100
AcDbLine
 10
268.2429594938414
 20
354.880592526053
 30
0.0
 11
268.2429594938414
 21
294.880592526053
 31
0.0
  0
LINE
  5
AF3
330
2E
100
AcDbEntity
  8
0
100
AcDbLine
 10
268.2429594938414
 20
294.880592526053
 30
0.0
 11
268.2429594938414
 21
294.880592526053
 31
0.0
  0
LINE
  5
AF4
330
2E
100
AcDbEntity
  8
0
100
AcDbLine
 10
125.2429594938415
 20
244.880592526053
 30
0.0
 11
305.2429594938416
 21
244.880592526053
 31
0.0
  0
LINE
  5
AF5
330
2E
100
AcDbEntity
  8
0
100
AcDbLine
 10
305.2429594938416
 20
244.880592526053
 30
0.0
 11
305.2429594938416
 21
304.880592526053
 31
0.0
  0
LINE
  5
AF6
330
2E
100
AcDbEntity
  8
0
100
AcDbLine
 10
305.2429594938416
 20
304.880592526053
 30
0.0
 11
268.2429594938414
 21
304.880592526053
 31
0.0
  0
LINE
  5
AF7
330
2E
100
AcDbEntity
  8
0
100
AcDbLine
 10
268.2429594938414
 20
354.880592526053
 30
0.0
 11
278.2429594938415
 21
354.880592526053
 31
0.0
  0
LINE
  5
AF8
330
2E
100
AcDbEntity
  8
0
100
AcDbLine
 10
278.2429594938415
 20
354.880592526053
 30
0.0
 11
278.2429594938415
 21
304.880592526053
 31
0.0
  0
LINE
  5
AF9
330
2E
100
AcDbEntity
  8
0
100
AcDbLine
 10
268.2429594938414
 20
294.880592526053
 30
0.0
 11
305.2429594938416
 21
294.880592526053
 31
0.0
  0
LINE
  5
AFA
330
2E
100
AcDbEntity
  8
0
100
AcDbLine
 10
905.2429594938413
 20
244.880592526053
 30
0.0
 11
905.2429594938413
 21
304.880592526053
 31
0.0
  0
LINE
  5
AFB
330
2E
100
AcDbEntity
  8
0
100
AcDbLine
 10
932.2429594938414
 20
354.880592526053
 30
0.0
 11
932.2429594938414
 21
304.880592526053
 31
0.0
  0
LINE
  5
AFC
330
2E
100
AcDbEntity
  8
0
100
AcDbLine
 10
942.2429594938414
 20
354.880592526053
 30
0.0
 11
942.2429594938414
 21
294.880592526053
 31
0.0
  0
LINE
  5
AFD
330
2E
100
AcDbEntity
  8
0
100
AcDbLine
 10
942.2429594938414
 20
294.880592526053
 30
0.0
 11
905.2429594938413
 21
294.880592526053
 31
0.0
  0
LINE
  5
AFE
330
2E
100
AcDbEntity
  8
0
100
AcDbLine
 10
905.2429594938413
 20
304.880592526053
 30
0.0
 11
942.2429594938414
 21
304.880592526053
 31
0.0
  0
LINE
  5
AFF
330
2E
100
AcDbEntity
  8
0
100
AcDbLine
 10
942.2429594938414
 20
294.880592526053
 30
0.0
 11
942.2429594938414
 21
294.880592526053
 31
0.0
  0
LINE
  5
B00
330
2E
100
AcDbEntity
  8
0
100
AcDbLine
 10
942.2429594938414
 20
354.880592526053
 30
0.0
 11
932.2429594938414
 21
354.880592526053
 31
0.0
  0
LINE
  5
B01
330
2E
100
AcDbEntity
  8
0
100
AcDbLine
 10
905.2429594938413
 20
304.880592526053
 30
0.0
 11
305.2429594938416
 21
304.880592526053
 31
0.0
  0
ARC
  5
B02
330
2E
100
AcDbEntity
  8
0
100
AcDbCircle
 10
135.2429594938414
 20
344.880592526053
 30
0.0
 40
10.0
100
AcDbArc
 50
90.0
 51
180.0
  0
ARC
  5
B03
330
2E
100
AcDbEntity
  8
0
100
AcDbCircle
 10
1075.242959493841
 20
344.880592526053
 30
0.0
 40
10.0
100
AcDbArc
 50
0.0
 51
90.0
  0
LINE
  5
B04
330
2E
100
AcDbEntity
  8
CT1
100
AcDbLine
 10
605.2429594938415
 20
401.3322274388021
 30
0.0
 11
605.2429594938415
 21
200.601827072778
 31
0.0
  0
ENDBLK
  5
B05
330
2E
100
AcDbEntity
  8
0
100
AcDbBlockEnd
  0
BLOCK
  5
B06
330
2F
100
AcDbEntity
  8
0
100
AcDbBlockBegin
  2
SH600C
 70
     0
 10
0.0
 20
0.0
 30
0.0
  3
SH600C
  1

  0
INSERT
  5
B07
330
2F
100
AcDbEntity
  8
0
100
AcDbBlockReference
  2
YA_N
 10
6.0
 20
5.0
 30
0.0
  0
LINE
  5
B08
330
2F
100
AcDbEntity
  8
0
100
AcDbLine
 10
1051.189764022455
 20
1072.263574619085
 30
0.0
 11
1051.189764022455
 21
1132.263574619085
 31
0.0
  0
LINE
  5
B09
330
2F
100
AcDbEntity
  8
0
100
AcDbLine
 10
1051.189764022455
 20
1132.263574619085
 30
0.0
 11
2151.189764022455
 21
1132.263574619085
 31
0.0
  0
LINE
  5
B0A
330
2F
100
AcDbEntity
  8
0
100
AcDbLine
 10
1051.189764022455
 20
1072.263574619085
 30
0.0
 11
1211.092891626236
 21
979.9434608527786
 31
0.0
  0
LINE
  5
B0B
330
2F
100
AcDbEntity
  8
0
100
AcDbLine
 10
1051.189764022455
 20
1132.263574619085
 30
0.0
 11
1301.189764022455
 21
1132.263574619085
 31
0.0
  0
LINE
  5
B0C
330
2F
100
AcDbEntity
  8
0
100
AcDbLine
 10
1051.189764022455
 20
1132.263574619085
 30
0.0
 11
1601.189764022455
 21
1132.263574619085
 31
0.0
  0
LINE
  5
B0D
330
2F
100
AcDbEntity
  8
0
100
AcDbLine
 10
1601.189764022455
 20
532.2635746190851
 30
0.0
 11
1001.189764022455
 21
532.2635746190851
 31
0.0
  0
LINE
  5
B0E
330
2F
100
AcDbEntity
  8
0
100
AcDbLine
 10
1001.189764022455
 20
532.2635746190851
 30
0.0
 11
1001.189764022455
 21
582.2635746190851
 31
0.0
  0
LINE
  5
B0F
330
2F
100
AcDbEntity
  8
0
100
AcDbLine
 10
1001.189764022455
 20
582.2635746190851
 30
0.0
 11
1121.593396128232
 21
651.7786440267646
 31
0.0
  0
LINE
  5
B10
330
2F
100
AcDbEntity
  8
0
100
AcDbLine
 10
1211.092891626236
 20
979.9434608527787
 30
0.0
 11
1121.593396128232
 21
651.7786440267646
 31
0.0
  0
LINE
  5
B11
330
2F
100
AcDbEntity
  8
0
100
AcDbLine
 10
1991.286636418673
 20
979.9434608527784
 30
0.0
 11
2080.786131916677
 21
651.7786440267642
 31
0.0
  0
LINE
  5
B12
330
2F
100
AcDbEntity
  8
0
100
AcDbLine
 10
2201.189764022454
 20
582.2635746190847
 30
0.0
 11
2080.786131916677
 21
651.7786440267642
 31
0.0
  0
LINE
  5
B13
330
2F
100
AcDbEntity
  8
0
100
AcDbLine
 10
2201.189764022454
 20
532.2635746190847
 30
0.0
 11
2201.189764022454
 21
582.2635746190847
 31
0.0
  0
LINE
  5
B14
330
2F
100
AcDbEntity
  8
0
100
AcDbLine
 10
2151.189764022455
 20
1072.263574619085
 30
0.0
 11
2151.189764022455
 21
1132.263574619085
 31
0.0
  0
LINE
  5
B15
330
2F
100
AcDbEntity
  8
0
100
AcDbLine
 10
2151.189764022455
 20
1072.263574619085
 30
0.0
 11
1991.286636418673
 21
979.9434608527784
 31
0.0
  0
LINE
  5
B16
330
2F
100
AcDbEntity
  8
0
100
AcDbLine
 10
2151.189764022455
 20
1132.263574619085
 30
0.0
 11
1901.189764022454
 21
1132.263574619085
 31
0.0
  0
LINE
  5
B17
330
2F
100
AcDbEntity
  8
0
100
AcDbLine
 10
2201.189764022454
 20
532.2635746190847
 30
0.0
 11
1601.189764022455
 21
532.2635746190851
 31
0.0
  0
LINE
  5
B18
330
2F
100
AcDbEntity
  8
CT1
100
AcDbLine
 10
1601.189764022455
 20
1132.263574619085
 30
0.0
 11
1601.189764022455
 21
1296.723368852169
 31
0.0
  0
LINE
  5
B19
330
2F
100
AcDbEntity
  8
CT1
100
AcDbLine
 10
1601.189764022455
 20
1132.263574619085
 30
0.0
 11
1601.189764022455
 21
278.8243045129239
 31
0.0
  0
LINE
  5
B1A
330
2F
100
AcDbEntity
  8
KL
100
AcDbLine
 10
1301.189764022455
 20
1132.263574619085
 30
0.0
 11
1301.189764022455
 21
1082.263574619085
 31
0.0
  0
LINE
  5
B1B
330
2F
100
AcDbEntity
  8
KL
100
AcDbLine
 10
1301.189764022455
 20
1082.263574619085
 30
0.0
 11
1151.189764022455
 21
532.2635746190851
 31
0.0
  0
LINE
  5
B1C
330
2F
100
AcDbEntity
  8
KL
100
AcDbLine
 10
1901.189764022454
 20
1132.263574619085
 30
0.0
 11
1901.189764022454
 21
1082.263574619085
 31
0.0
  0
LINE
  5
B1D
330
2F
100
AcDbEntity
  8
KL
100
AcDbLine
 10
1901.189764022454
 20
1082.263574619085
 30
0.0
 11
2051.189764022455
 21
532.2635746190847
 31
0.0
  0
LINE
  5
B1E
330
2F
100
AcDbEntity
  8
KL
100
AcDbLine
 10
1901.189764022454
 20
1082.263574619085
 30
0.0
 11
1301.189764022455
 21
1082.263574619085
 31
0.0
  0
LINE
  5
B1F
330
2F
100
AcDbEntity
  8
0
100
AcDbLine
 10
2151.189764022455
 20
1072.263574619085
 30
0.0
 11
1051.189764022455
 21
1072.263574619085
 31
0.0
  0
LINE
  5
B20
330
2F
100
AcDbEntity
  8
0
100
AcDbLine
 10
1211.092891626236
 20
979.9434608527786
 30
0.0
 11
1991.286636418673
 21
979.9434608527786
 31
0.0
  0
LINE
  5
B21
330
2F
100
AcDbEntity
  8
0
100
AcDbLine
 10
2080.786131916677
 20
651.7786440267642
 30
0.0
 11
1121.593396128232
 21
651.7786440267646
 31
0.0
  0
LINE
  5
B22
330
2F
100
AcDbEntity
  8
0
100
AcDbLine
 10
1001.189764022455
 20
582.2635746190851
 30
0.0
 11
2201.189764022454
 21
582.2635746190847
 31
0.0
  0
ENDBLK
  5
B23
330
2F
100
AcDbEntity
  8
0
100
AcDbBlockEnd
  0
BLOCK
  5
B24
330
30
100
AcDbEntity
  8
0
100
AcDbBlockBegin
  2
SH1200
 70
     0
 10
0.0
 20
0.0
 30
0.0
  3
SH1200
  1

  0
INSERT
  5
B25
330
30
100
AcDbEntity
  8
0
100
AcDbBlockReference
  2
YA_N
 10
6.0
 20
5.0
 30
0.0
  0
LINE
  5
B26
330
30
100
AcDbEntity
  8
0
100
AcDbLine
 10
1272.810867968869
 20
1335.402683713899
 30
0.0
 11
1272.810867968869
 21
1285.402683713898
 31
0.0
  0
LINE
  5
B27
330
30
100
AcDbEntity
  8
0
100
AcDbLine
 10
1272.810867968869
 20
1335.402683713899
 30
0.0
 11
2772.81086796887
 21
1335.402683713899
 31
0.0
  0
LINE
  5
B28
330
30
100
AcDbEntity
  8
0
100
AcDbLine
 10
2772.81086796887
 20
1335.402683713899
 30
0.0
 11
2772.81086796887
 21
1285.402683713898
 31
0.0
  0
LINE
  5
B29
330
30
100
AcDbEntity
  8
0
100
AcDbLine
 10
1272.810867968869
 20
1335.402683713899
 30
0.0
 11
1272.810867968869
 21
1285.402683713898
 31
0.0
  0
LINE
  5
B2A
330
30
100
AcDbEntity
  8
0
100
AcDbLine
 10
1272.810867968869
 20
1285.402683713898
 30
0.0
 11
1320.906717533286
 21
1257.634532020979
 31
0.0
  0
LINE
  5
B2B
330
30
100
AcDbEntity
  8
0
100
AcDbLine
 10
1272.810867968869
 20
1335.402683713899
 30
0.0
 11
1422.810867968869
 21
1335.402683713899
 31
0.0
  0
LINE
  5
B2C
330
30
100
AcDbEntity
  8
0
100
AcDbLine
 10
1272.810867968869
 20
735.4026837138984
 30
0.0
 11
1122.810867968869
 21
735.4026837138984
 31
0.0
  0
LINE
  5
B2D
330
30
100
AcDbEntity
  8
0
100
AcDbLine
 10
1122.810867968869
 20
735.4026837138984
 30
0.0
 11
1122.810867968869
 21
785.4026837138984
 31
0.0
  0
LINE
  5
B2E
330
30
100
AcDbEntity
  8
0
100
AcDbLine
 10
1122.810867968869
 20
785.4026837138984
 30
0.0
 11
1216.349960522984
 21
839.4075039797698
 31
0.0
  0
LINE
  5
B2F
330
30
100
AcDbEntity
  8
0
100
AcDbLine
 10
1320.906717533286
 20
1257.634532020979
 30
0.0
 11
1216.349960522983
 21
839.4075039797694
 31
0.0
  0
LINE
  5
B30
330
30
100
AcDbEntity
  8
0
100
AcDbLine
 10
1272.810867968869
 20
735.4026837138984
 30
0.0
 11
2022.810867968869
 21
735.4026837138984
 31
0.0
  0
LINE
  5
B31
330
30
100
AcDbEntity
  8
0
100
AcDbLine
 10
1272.810867968869
 20
735.4026837138984
 30
0.0
 11
2772.81086796887
 21
735.4026837138984
 31
0.0
  0
LINE
  5
B32
330
30
100
AcDbEntity
  8
0
100
AcDbLine
 10
1272.810867968869
 20
1285.402683713898
 30
0.0
 11
2022.810867968869
 21
1285.402683713898
 31
0.0
  0
LINE
  5
B33
330
30
100
AcDbEntity
  8
0
100
AcDbLine
 10
1320.906717533286
 20
1257.634532020979
 30
0.0
 11
2022.810867968869
 21
1257.634532020979
 31
0.0
  0
LINE
  5
B34
330
30
100
AcDbEntity
  8
0
100
AcDbLine
 10
1216.349960522983
 20
839.4075039797694
 30
0.0
 11
2022.810867968869
 21
839.4075039797694
 31
0.0
  0
LINE
  5
B35
330
30
100
AcDbEntity
  8
0
100
AcDbLine
 10
1122.810867968869
 20
785.4026837138984
 30
0.0
 11
2022.810867968868
 21
785.4026837138984
 31
0.0
  0
LINE
  5
B36
330
30
100
AcDbEntity
  8
0
100
AcDbLine
 10
2772.81086796887
 20
1285.402683713898
 30
0.0
 11
2724.715018404453
 21
1257.634532020979
 31
0.0
  0
LINE
  5
B37
330
30
100
AcDbEntity
  8
0
100
AcDbLine
 10
2922.81086796887
 20
785.4026837138984
 30
0.0
 11
2022.81086796887
 21
785.4026837138984
 31
0.0
  0
LINE
  5
B38
330
30
100
AcDbEntity
  8
0
100
AcDbLine
 10
2829.271775414755
 20
839.4075039797694
 30
0.0
 11
2022.810867968869
 21
839.4075039797694
 31
0.0
  0
LINE
  5
B39
330
30
100
AcDbEntity
  8
0
100
AcDbLine
 10
2724.715018404453
 20
1257.634532020979
 30
0.0
 11
2022.810867968869
 21
1257.634532020979
 31
0.0
  0
LINE
  5
B3A
330
30
100
AcDbEntity
  8
0
100
AcDbLine
 10
2772.81086796887
 20
735.4026837138984
 30
0.0
 11
2022.810867968869
 21
735.4026837138984
 31
0.0
  0
LINE
  5
B3B
330
30
100
AcDbEntity
  8
0
100
AcDbLine
 10
2724.715018404453
 20
1257.634532020979
 30
0.0
 11
2829.271775414755
 21
839.4075039797694
 31
0.0
  0
LINE
  5
B3C
330
30
100
AcDbEntity
  8
0
100
AcDbLine
 10
2922.81086796887
 20
785.4026837138984
 30
0.0
 11
2829.271775414754
 21
839.4075039797698
 31
0.0
  0
LINE
  5
B3D
330
30
100
AcDbEntity
  8
0
100
AcDbLine
 10
2772.81086796887
 20
735.4026837138984
 30
0.0
 11
2922.81086796887
 21
735.4026837138984
 31
0.0
  0
LINE
  5
B3E
330
30
100
AcDbEntity
  8
0
100
AcDbLine
 10
2922.81086796887
 20
735.4026837138984
 30
0.0
 11
2922.81086796887
 21
785.4026837138984
 31
0.0
  0
LINE
  5
B3F
330
30
100
AcDbEntity
  8
0
100
AcDbLine
 10
2772.81086796887
 20
1285.402683713898
 30
0.0
 11
2022.810867968869
 21
1285.402683713898
 31
0.0
  0
LINE
  5
B40
330
30
100
AcDbEntity
  8
0
100
AcDbLine
 10
2772.81086796887
 20
1335.402683713899
 30
0.0
 11
2622.810867968869
 21
1335.402683713899
 31
0.0
  0
LINE
  5
B41
330
30
100
AcDbEntity
  8
0
100
AcDbLine
 10
2772.81086796887
 20
1335.402683713899
 30
0.0
 11
2772.81086796887
 21
1285.402683713898
 31
0.0
  0
LINE
  5
B42
330
30
100
AcDbEntity
  8
0
100
AcDbLine
 10
2772.81086796887
 20
1335.402683713899
 30
0.0
 11
2772.81086796887
 21
1285.402683713898
 31
0.0
  0
LINE
  5
B43
330
30
100
AcDbEntity
  8
KL
100
AcDbLine
 10
2622.810867968869
 20
1335.402683713899
 30
0.0
 11
2772.81086796887
 21
735.4026837138984
 31
0.0
  0
LINE
  5
B44
330
30
100
AcDbEntity
  8
KL
100
AcDbLine
 10
1422.81086796887
 20
1335.402683713899
 30
0.0
 11
1272.81086796887
 21
735.4026837138984
 31
0.0
  0
LINE
  5
B45
330
30
100
AcDbEntity
  8
CT1
100
AcDbLine
 10
2022.810867968869
 20
1335.402683713899
 30
0.0
 11
2022.810867968869
 21
1833.976521048745
 31
0.0
  0
LINE
  5
B46
330
30
100
AcDbEntity
  8
CT1
100
AcDbLine
 10
2022.810867968869
 20
1335.402683713899
 30
0.0
 11
2022.810867968869
 21
181.4597279126376
 31
0.0
  0
LINE
  5
B47
330
30
100
AcDbEntity
  8
KL
100
AcDbLine
 10
1797.810867968869
 20
1185.402683713898
 30
0.0
 11
1947.810867968868
 21
1185.402683713898
 31
0.0
  0
LINE
  5
B48
330
30
100
AcDbEntity
  8
KL
100
AcDbLine
 10
2097.81086796887
 20
885.4026837138986
 30
0.0
 11
2247.810867968869
 21
885.4026837138986
 31
0.0
  0
ENDBLK
  5
B49
330
30
100
AcDbEntity
  8
0
100
AcDbBlockEnd
  0
BLOCK
  5
B4A
330
31
100
AcDbEntity
  8
0
100
AcDbBlockBegin
  2
SH600D
 70
     0
 10
0.0
 20
0.0
 30
0.0
  3
SH600D
  1

  0
INSERT
  5
B4B
330
31
100
AcDbEntity
  8
0
100
AcDbBlockReference
  2
YA_N
 10
6.0
 20
5.0
 30
0.0
  0
LINE
  5
B4C
330
31
100
AcDbEntity
  8
0
100
AcDbLine
 10
3211.996386607026
 20
1229.697980247202
 30
0.0
 11
3961.996386607026
 21
1229.697980247202
 31
0.0
  0
LINE
  5
B4D
330
31
100
AcDbEntity
  8
0
100
AcDbLine
 10
3961.996386607026
 20
1229.697980247202
 30
0.0
 11
3961.996386607026
 21
1279.697980247202
 31
0.0
  0
LINE
  5
B4E
330
31
100
AcDbEntity
  8
0
100
AcDbLine
 10
3821.019003505016
 20
1361.091310330798
 30
0.0
 11
3961.996386607027
 21
1279.697980247202
 31
0.0
  0
LINE
  5
B4F
330
31
100
AcDbEntity
  8
0
100
AcDbLine
 10
3211.996386607026
 20
1829.697980247202
 30
0.0
 11
3761.996386607027
 21
1829.697980247202
 31
0.0
  0
LINE
  5
B50
330
31
100
AcDbEntity
  8
0
100
AcDbLine
 10
3761.996386607027
 20
1829.697980247202
 30
0.0
 11
3761.996386607027
 21
1769.697980247202
 31
0.0
  0
LINE
  5
B51
330
31
100
AcDbEntity
  8
0
100
AcDbLine
 10
3639.889573845137
 20
1699.199579029237
 30
0.0
 11
3761.996386607027
 21
1769.697980247202
 31
0.0
  0
LINE
  5
B52
330
31
100
AcDbEntity
  8
0
100
AcDbLine
 10
3211.996386607026
 20
1829.697980247202
 30
0.0
 11
3511.996386607027
 21
1829.697980247202
 31
0.0
  0
LINE
  5
B53
330
31
100
AcDbEntity
  8
0
100
AcDbLine
 10
3639.889573845137
 20
1699.199579029237
 30
0.0
 11
3821.019003505016
 21
1361.091310330798
 31
0.0
  0
LINE
  5
B54
330
31
100
AcDbEntity
  8
0
100
AcDbLine
 10
2602.973769709039
 20
1361.091310330798
 30
0.0
 11
2461.996386607026
 21
1279.697980247202
 31
0.0
  0
LINE
  5
B55
330
31
100
AcDbEntity
  8
0
100
AcDbLine
 10
3211.996386607027
 20
1229.697980247202
 30
0.0
 11
2461.996386607027
 21
1229.697980247202
 31
0.0
  0
LINE
  5
B56
330
31
100
AcDbEntity
  8
0
100
AcDbLine
 10
2784.103199368917
 20
1699.199579029237
 30
0.0
 11
2602.973769709039
 21
1361.091310330798
 31
0.0
  0
LINE
  5
B57
330
31
100
AcDbEntity
  8
0
100
AcDbLine
 10
3211.996386607027
 20
1829.697980247202
 30
0.0
 11
2911.996386607027
 21
1829.697980247202
 31
0.0
  0
LINE
  5
B58
330
31
100
AcDbEntity
  8
0
100
AcDbLine
 10
3211.996386607027
 20
1829.697980247202
 30
0.0
 11
2661.996386607027
 21
1829.697980247202
 31
0.0
  0
LINE
  5
B59
330
31
100
AcDbEntity
  8
0
100
AcDbLine
 10
2661.996386607027
 20
1829.697980247202
 30
0.0
 11
2661.996386607027
 21
1769.697980247202
 31
0.0
  0
LINE
  5
B5A
330
31
100
AcDbEntity
  8
0
100
AcDbLine
 10
2784.103199368917
 20
1699.199579029237
 30
0.0
 11
2661.996386607027
 21
1769.697980247202
 31
0.0
  0
LINE
  5
B5B
330
31
100
AcDbEntity
  8
0
100
AcDbLine
 10
2461.996386607027
 20
1229.697980247202
 30
0.0
 11
2461.996386607027
 21
1279.697980247202
 31
0.0
  0
LINE
  5
B5C
330
31
100
AcDbEntity
  8
0
100
AcDbLine
 10
2661.996386607027
 20
1769.697980247202
 30
0.0
 11
3761.996386607027
 21
1769.697980247202
 31
0.0
  0
LINE
  5
B5D
330
31
100
AcDbEntity
  8
0
100
AcDbLine
 10
2784.103199368917
 20
1699.199579029237
 30
0.0
 11
3639.889573845137
 21
1699.199579029237
 31
0.0
  0
LINE
  5
B5E
330
31
100
AcDbEntity
  8
0
100
AcDbLine
 10
3821.019003505016
 20
1361.091310330798
 30
0.0
 11
2602.973769709039
 21
1361.091310330798
 31
0.0
  0
LINE
  5
B5F
330
31
100
AcDbEntity
  8
0
100
AcDbLine
 10
2461.996386607027
 20
1279.697980247202
 30
0.0
 11
3961.996386607026
 21
1279.697980247202
 31
0.0
  0
LINE
  5
B60
330
31
100
AcDbEntity
  8
KL
100
AcDbLine
 10
3511.996386607027
 20
1829.697980247202
 30
0.0
 11
3511.996386607027
 21
1789.697980247202
 31
0.0
  0
LINE
  5
B61
330
31
100
AcDbEntity
  8
KL
100
AcDbLine
 10
3511.996386607027
 20
1789.697980247202
 30
0.0
 11
3811.996386607026
 21
1229.697980247202
 31
0.0
  0
LINE
  5
B62
330
31
100
AcDbEntity
  8
KL
100
AcDbLine
 10
3511.996386607027
 20
1789.697980247203
 30
0.0
 11
3211.996386607027
 21
1789.697980247202
 31
0.0
  0
LINE
  5
B63
330
31
100
AcDbEntity
  8
KL
100
AcDbLine
 10
2986.996386607027
 20
1679.697980247202
 30
0.0
 11
3136.996386607027
 21
1679.697980247202
 31
0.0
  0
LINE
  5
B64
330
31
100
AcDbEntity
  8
KL
100
AcDbLine
 10
3286.996386607027
 20
1379.697980247202
 30
0.0
 11
3436.996386607026
 21
1379.697980247202
 31
0.0
  0
LINE
  5
B65
330
31
100
AcDbEntity
  8
KL
100
AcDbLine
 10
2911.996386607027
 20
1789.697980247203
 30
0.0
 11
3211.996386607026
 21
1789.697980247202
 31
0.0
  0
LINE
  5
B66
330
31
100
AcDbEntity
  8
KL
100
AcDbLine
 10
2911.996386607027
 20
1829.697980247202
 30
0.0
 11
2911.996386607026
 21
1789.697980247202
 31
0.0
  0
LINE
  5
B67
330
31
100
AcDbEntity
  8
KL
100
AcDbLine
 10
2911.996386607026
 20
1789.697980247202
 30
0.0
 11
2611.996386607027
 21
1229.697980247202
 31
0.0
  0
LINE
  5
B68
330
31
100
AcDbEntity
  8
CT1
100
AcDbLine
 10
3211.996386607026
 20
1829.697980247202
 30
0.0
 11
3211.996386607026
 21
2060.798216714418
 31
0.0
  0
LINE
  5
B69
330
31
100
AcDbEntity
  8
CT1
100
AcDbLine
 10
3211.996386607026
 20
1829.697980247202
 30
0.0
 11
3211.996386607026
 21
941.2151994102172
 31
0.0
  0
ENDBLK
  5
B6A
330
31
100
AcDbEntity
  8
0
100
AcDbBlockEnd
  0
BLOCK
  5
12D2
330
5F
100
AcDbEntity
  8
0
100
AcDbBlockBegin
  2
KSH600D
 70
     0
 10
0.0
 20
0.0
 30
0.0
  3
KSH600D
  1

  0
INSERT
  5
12D3
330
5F
100
AcDbEntity
  8
0
100
AcDbBlockReference
  2
YA_N
 10
6.0
 20
5.0
 30
0.0
  0
LINE
  5
12D4
330
5F
100
AcDbEntity
  8
0
100
AcDbLine
 10
3211.996386607026
 20
1829.697980247202
 30
0.0
 11
3761.996386607027
 21
1829.697980247202
 31
0.0
  0
LINE
  5
12D5
330
5F
100
AcDbEntity
  8
0
100
AcDbLine
 10
3761.996386607027
 20
1829.697980247202
 30
0.0
 11
3761.996386607027
 21
1769.697980247202
 31
0.0
  0
LINE
  5
12D6
330
5F
100
AcDbEntity
  8
0
100
AcDbLine
 10
3581.996386607027
 20
1665.774931793069
 30
0.0
 11
3761.996386607027
 21
1769.697980247202
 31
0.0
  0
LINE
  5
12D7
330
5F
100
AcDbEntity
  8
0
100
AcDbLine
 10
3211.996386607026
 20
1829.697980247202
 30
0.0
 11
3511.996386607027
 21
1829.697980247202
 31
0.0
  0
LINE
  5
12D8
330
5F
100
AcDbEntity
  8
0
100
AcDbLine
 10
3211.996386607027
 20
1229.697980247202
 30
0.0
 11
2461.996386607027
 21
1229.697980247202
 31
0.0
  0
LINE
  5
12D9
330
5F
100
AcDbEntity
  8
0
100
AcDbLine
 10
3211.996386607027
 20
1829.697980247202
 30
0.0
 11
2911.996386607027
 21
1829.697980247202
 31
0.0
  0
LINE
  5
12DA
330
5F
100
AcDbEntity
  8
0
100
AcDbLine
 10
3211.996386607027
 20
1829.697980247202
 30
0.0
 11
2661.996386607027
 21
1829.697980247202
 31
0.0
  0
LINE
  5
12DB
330
5F
100
AcDbEntity
  8
0
100
AcDbLine
 10
2661.996386607027
 20
1829.697980247202
 30
0.0
 11
2661.996386607027
 21
1769.697980247202
 31
0.0
  0
LINE
  5
12DC
330
5F
100
AcDbEntity
  8
0
100
AcDbLine
 10
2661.996386607027
 20
1769.697980247202
 30
0.0
 11
3761.996386607027
 21
1769.697980247202
 31
0.0
  0
LINE
  5
12DD
330
5F
100
AcDbEntity
  8
KL
100
AcDbLine
 10
3511.996386607027
 20
1829.697980247202
 30
0.0
 11
3511.996386607027
 21
1789.697980247202
 31
0.0
  0
LINE
  5
12DE
330
5F
100
AcDbEntity
  8
KL
100
AcDbLine
 10
3511.996386607027
 20
1789.697980247203
 30
0.0
 11
3211.996386607027
 21
1789.697980247202
 31
0.0
  0
LINE
  5
12DF
330
5F
100
AcDbEntity
  8
KL
100
AcDbLine
 10
2911.996386607027
 20
1789.697980247203
 30
0.0
 11
3211.996386607026
 21
1789.697980247202
 31
0.0
  0
LINE
  5
12E0
330
5F
100
AcDbEntity
  8
KL
100
AcDbLine
 10
2911.996386607027
 20
1829.697980247202
 30
0.0
 11
2911.996386607026
 21
1789.697980247202
 31
0.0
  0
LINE
  5
12E1
330
5F
100
AcDbEntity
  8
CT1
100
AcDbLine
 10
3211.996386607026
 20
1829.697980247202
 30
0.0
 11
3211.996386607026
 21
2060.798216714418
 31
0.0
  0
LINE
  5
12E2
330
5F
100
AcDbEntity
  8
CT1
100
AcDbLine
 10
3211.996386607026
 20
1829.697980247202
 30
0.0
 11
3211.996386607026
 21
941.2151994102172
 31
0.0
  0
LINE
  5
12E3
330
5F
100
AcDbEntity
  8
0
100
AcDbLine
 10
2661.996386607027
 20
1829.697980247202
 30
0.0
 11
3761.996386607027
 21
1829.697980247202
 31
0.0
  0
LINE
  5
12E4
330
5F
100
AcDbEntity
  8
0
100
AcDbLine
 10
3761.996386607027
 20
1829.697980247202
 30
0.0
 11
3761.996386607027
 21
1769.697980247202
 31
0.0
  0
LINE
  5
12E5
330
5F
100
AcDbEntity
  8
KL
100
AcDbLine
 10
3511.996386607027
 20
1789.697980247203
 30
0.0
 11
3511.996386607027
 21
1229.697980247202
 31
0.0
  0
LINE
  5
12E6
330
5F
100
AcDbEntity
  8
0
100
AcDbLine
 10
3511.996386607027
 20
1229.697980247202
 30
0.0
 11
3661.996386607027
 21
1229.697980247202
 31
0.0
  0
LINE
  5
12E7
330
5F
100
AcDbEntity
  8
0
100
AcDbLine
 10
3661.996386607027
 20
1229.697980247202
 30
0.0
 11
3661.996386607027
 21
1279.697980247202
 31
0.0
  0
LINE
  5
12E8
330
5F
100
AcDbEntity
  8
0
100
AcDbLine
 10
3581.996386607027
 20
1325.886001782372
 30
0.0
 11
3661.996386607027
 21
1279.697980247202
 31
0.0
  0
LINE
  5
12E9
330
5F
100
AcDbEntity
  8
0
100
AcDbLine
 10
3511.996386607027
 20
1229.697980247202
 30
0.0
 11
3581.996386607027
 21
1229.697980247202
 31
0.0
  0
LINE
  5
12EA
330
5F
100
AcDbEntity
  8
0
100
AcDbLine
 10
3581.996386607027
 20
1325.886001782372
 30
0.0
 11
3581.996386607027
 21
1665.774931793069
 31
0.0
  0
LINE
  5
12EB
330
5F
100
AcDbEntity
  8
0
100
AcDbLine
 10
3661.996386607027
 20
1229.697980247202
 30
0.0
 11
2161.996386607027
 21
1229.697980247202
 31
0.0
  0
LINE
  5
12EC
330
5F
100
AcDbEntity
  8
0
100
AcDbLine
 10
2161.996386607027
 20
1229.697980247202
 30
0.0
 11
2161.996386607027
 21
1279.697980247202
 31
0.0
  0
LINE
  5
12ED
330
5F
100
AcDbEntity
  8
KL
100
AcDbLine
 10
2911.996386607027
 20
1789.697980247203
 30
0.0
 11
2311.996386607027
 21
1229.697980247202
 31
0.0
  0
LINE
  5
12EE
330
5F
100
AcDbEntity
  8
0
100
AcDbLine
 10
2676.630269191326
 20
1665.774931793069
 30
0.0
 11
2311.996386607027
 21
1325.44997471439
 31
0.0
  0
LINE
  5
12EF
330
5F
100
AcDbEntity
  8
0
100
AcDbLine
 10
2311.996386607027
 20
1325.44997471439
 30
0.0
 11
2161.996386607027
 21
1279.697980247202
 31
0.0
  0
LINE
  5
12F0
330
5F
100
AcDbEntity
  8
0
100
AcDbLine
 10
2311.996386607027
 20
1325.886001782372
 30
0.0
 11
3581.996386607027
 21
1325.886001782372
 31
0.0
  0
LINE
  5
12F1
330
5F
100
AcDbEntity
  8
KL
100
AcDbLine
 10
3361.996386607027
 20
1679.697980247202
 30
0.0
 11
3511.996386607027
 21
1679.697980247202
 31
0.0
  0
LINE
  5
12F2
330
5F
100
AcDbEntity
  8
KL
100
AcDbLine
 10
3361.996386607027
 20
1379.697980247202
 30
0.0
 11
3511.996386607027
 21
1379.697980247202
 31
0.0
  0
LINE
  5
12F3
330
5F
100
AcDbEntity
  8
0
100
AcDbLine
 10
3581.996386607027
 20
1665.774931793069
 30
0.0
 11
2676.630269191326
 21
1665.774931793069
 31
0.0
  0
LINE
  5
12F4
330
5F
100
AcDbEntity
  8
0
100
AcDbLine
 10
2676.630269191326
 20
1665.774931793069
 30
0.0
 11
2661.996386607027
 21
1769.697980247202
 31
0.0
  0
LINE
  5
12F5
330
5F
100
AcDbEntity
  8
CT1
100
AcDbLine
 10
2911.996386607027
 20
1829.697980247202
 30
0.0
 11
2911.996386607027
 21
941.2151994102172
 31
0.0
  0
LINE
  5
12F6
330
5F
100
AcDbEntity
  8
CT1
100
AcDbLine
 10
2911.996386607027
 20
1829.697980247202
 30
0.0
 11
2911.996386607027
 21
2060.798216714418
 31
0.0
  0
ENDBLK
  5
12F7
330
5F
100
AcDbEntity
  8
0
100
AcDbBlockEnd
  0
BLOCK
  5
2215
330
1CD9
100
AcDbEntity
  8
0
100
AcDbBlockBegin
  2
*D8
 70
     1
 10
0.0
 20
0.0
 30
0.0
  3
*D8
  1

  0
LINE
  5
2C85
330
1CD9
100
AcDbEntity
  8
SUNPOU
 62
     0
370
    -2
100
AcDbLine
 10
925.3513333519403
 20
3010.839655096608
 30
0.0
 11
925.3513333519403
 21
2290.411241488765
 31
0.0
  0
LINE
  5
2C86
330
1CD9
100
AcDbEntity
  8
SUNPOU
 62
     0
370
    -2
100
AcDbLine
 10
4425.325950525548
 20
3010.839655096608
 30
0.0
 11
4425.325950525548
 21
2290.411241488765
 31
0.0
  0
LINE
  5
2C87
330
1CD9
100
AcDbEntity
  8
SUNPOU
 62
     0
370
    -2
100
AcDbLine
 10
1005.35133335194
 20
2330.411241488765
 30
0.0
 11
4345.325950525547
 21
2330.411241488765
 31
0.0
  0
INSERT
  5
2C88
330
1CD9
100
AcDbEntity
  8
SUNPOU
 62
     0
370
    -2
100
AcDbBlockReference
  2
ARROW
 10
925.3513333519403
 20
2330.411241488765
 30
0.0
 41
80.0
 42
80.0
 43
80.0
 50
180.0
  0
INSERT
  5
2C89
330
1CD9
100
AcDbEntity
  8
SUNPOU
 62
     0
370
    -2
100
AcDbBlockReference
  2
ARROW
 10
4425.325950525548
 20
2330.411241488765
 30
0.0
 41
80.0
 42
80.0
 43
80.0
  0
MTEXT
  5
2C8A
330
1CD9
100
AcDbEntity
  8
SUNPOU
 62
     0
100
AcDbMText
 10
2675.338641938744
 20
2430.411241488765
 30
0.0
 40
120.0
 41
0.0
 71
     5
 72
     1
  1
\A1;3500
  7
BIGFONT
 73
     1
 44
1.0
  0
POINT
  5
2C8B
330
1CD9
100
AcDbEntity
  8
DEFPOINTS
 62
     0
100
AcDbPoint
 10
925.3513333519403
 20
3050.839655096608
 30
0.0
  0
POINT
  5
2C8C
330
1CD9
100
AcDbEntity
  8
DEFPOINTS
 62
     0
100
AcDbPoint
 10
4425.325950525548
 20
3050.839655096608
 30
0.0
  0
POINT
  5
2C8D
330
1CD9
100
AcDbEntity
  8
DEFPOINTS
 62
     0
100
AcDbPoint
 10
4425.325950525548
 20
2330.411241488765
 30
0.0
  0
ENDBLK
  5
221F
330
1CD9
100
AcDbEntity
  8
0
100
AcDbBlockEnd
  0
BLOCK
  5
1FDE
330
1CE5
100
AcDbEntity
  8
0
100
AcDbBlockBegin
  2
*D9
 70
     1
 10
0.0
 20
0.0
 30
0.0
  3
*D9
  1

  0
LINE
  5
2C8E
330
1CE5
100
AcDbEntity
  8
SUNPOU
 62
     0
370
    -2
100
AcDbLine
 10
1675.338641938745
 20
2948.418984751127
 30
0.0
 11
1675.338641938745
 21
2574.868104698261
 31
0.0
  0
LINE
  5
2C8F
330
1CE5
100
AcDbEntity
  8
SUNPOU
 62
     0
370
    -2
100
AcDbLine
 10
3675.338641938746
 20
2948.418984751127
 30
0.0
 11
3675.338641938746
 21
2574.868104698261
 31
0.0
  0
LINE
  5
2C90
330
1CE5
100
AcDbEntity
  8
SUNPOU
 62
     0
370
    -2
100
AcDbLine
 10
1755.338641938745
 20
2614.868104698261
 30
0.0
 11
3595.338641938746
 21
2614.868104698261
 31
0.0
  0
INSERT
  5
2C91
330
1CE5
100
AcDbEntity
  8
SUNPOU
 62
     0
370
    -2
100
AcDbBlockReference
  2
ARROW
 10
1675.338641938745
 20
2614.868104698261
 30
0.0
 41
80.0
 42
80.0
 43
80.0
 50
180.0
  0
INSERT
  5
2C92
330
1CE5
100
AcDbEntity
  8
SUNPOU
 62
     0
370
    -2
100
AcDbBlockReference
  2
ARROW
 10
3675.338641938746
 20
2614.868104698261
 30
0.0
 41
80.0
 42
80.0
 43
80.0
  0
MTEXT
  5
2C93
330
1CE5
100
AcDbEntity
  8
SUNPOU
 62
     0
100
AcDbMText
 10
2675.338641938746
 20
2714.868104698261
 30
0.0
 40
120.0
 41
0.0
 71
     5
 72
     1
  1
\A1;2000
  7
BIGFONT
 73
     1
 44
1.0
  0
POINT
  5
2C94
330
1CE5
100
AcDbEntity
  8
DEFPOINTS
 62
     0
100
AcDbPoint
 10
1675.338641938745
 20
2988.418984751127
 30
0.0
  0
POINT
  5
2C95
330
1CE5
100
AcDbEntity
  8
DEFPOINTS
 62
     0
100
AcDbPoint
 10
3675.338641938746
 20
2988.418984751127
 30
0.0
  0
POINT
  5
2C96
330
1CE5
100
AcDbEntity
  8
DEFPOINTS
 62
     0
100
AcDbPoint
 10
3675.338641938746
 20
2614.868104698261
 30
0.0
  0
ENDBLK
  5
1FE8
330
1CE5
100
AcDbEntity
  8
0
100
AcDbBlockEnd
  0
BLOCK
  5
1F7B
330
1CF1
100
AcDbEntity
  8
0
100
AcDbBlockBegin
  2
*D10
 70
     1
 10
0.0
 20
0.0
 30
0.0
  3
*D10
  1

  0
LINE
  5
2C97
330
1CF1
100
AcDbEntity
  8
SUNPOU
 62
     0
370
    -2
100
AcDbLine
 10
4615.78274088307
 20
6293.230120631903
 30
0.0
 11
5256.623711640922
 21
6293.230120631903
 31
0.0
  0
LINE
  5
2C98
330
1CF1
100
AcDbEntity
  8
SUNPOU
 62
     0
370
    -2
100
AcDbLine
 10
4615.78274088307
 20
5693.230120631902
 30
0.0
 11
5256.623711640921
 21
5693.230120631902
 31
0.0
  0
LINE
  5
2C99
330
1CF1
100
AcDbEntity
  8
SUNPOU
 62
     0
370
    -2
100
AcDbLine
 10
5216.623711640922
 20
6213.230120631903
 30
0.0
 11
5216.623711640921
 21
5773.230120631901
 31
0.0
  0
INSERT
  5
2C9A
330
1CF1
100
AcDbEntity
  8
SUNPOU
 62
     0
370
    -2
100
AcDbBlockReference
  2
ARROW
 10
5216.623711640922
 20
6293.230120631903
 30
0.0
 41
80.0
 42
80.0
 43
80.0
 50
90.0
  0
INSERT
  5
2C9B
330
1CF1
100
AcDbEntity
  8
SUNPOU
 62
     0
370
    -2
100
AcDbBlockReference
  2
ARROW
 10
5216.623711640921
 20
5693.230120631902
 30
0.0
 41
80.0
 42
80.0
 43
80.0
 50
270.0
  0
MTEXT
  5
2C9C
330
1CF1
100
AcDbEntity
  8
SUNPOU
 62
     0
100
AcDbMText
 10
5116.623711640921
 20
5993.230120631904
 30
0.0
 40
120.0
 41
0.0
 71
     5
 72
     1
  1
\A1;600
  7
BIGFONT
 11
0.0000000000000001
 21
1.0
 31
0.0
 73
     1
 44
1.0
  0
POINT
  5
2C9D
330
1CF1
100
AcDbEntity
  8
DEFPOINTS
 62
     0
100
AcDbPoint
 10
4575.78274088307
 20
6293.230120631903
 30
0.0
  0
POINT
  5
2C9E
330
1CF1
100
AcDbEntity
  8
DEFPOINTS
 62
     0
100
AcDbPoint
 10
4575.78274088307
 20
5693.230120631902
 30
0.0
  0
POINT
  5
2C9F
330
1CF1
100
AcDbEntity
  8
DEFPOINTS
 62
     0
100
AcDbPoint
 10
5216.623711640921
 20
5693.230120631902
 30
0.0
  0
ENDBLK
  5
1F85
330
1CF1
100
AcDbEntity
  8
0
100
AcDbBlockEnd
  0
BLOCK
  5
1F70
330
1D2F
100
AcDbEntity
  8
0
100
AcDbBlockBegin
  2
*D11
 70
     1
 10
0.0
 20
0.0
 30
0.0
  3
*D11
  1

  0
LINE
  5
2CA0
330
1D2F
100
AcDbEntity
  8
SUNPOU
 62
     0
370
    -2
100
AcDbLine
 10
4655.782740883071
 20
5693.230120631902
 30
0.0
 11
5256.623711640921
 21
5693.230120631902
 31
0.0
  0
LINE
  5
2CA1
330
1D2F
100
AcDbEntity
  8
SUNPOU
 62
     0
370
    -2
100
AcDbLine
 10
4615.78274088307
 20
3693.230120631903
 30
0.0
 11
5256.623711640921
 21
3693.230120631902
 31
0.0
  0
LINE
  5
2CA2
330
1D2F
100
AcDbEntity
  8
SUNPOU
 62
     0
370
    -2
100
AcDbLine
 10
5216.623711640921
 20
5613.230120631902
 30
0.0
 11
5216.623711640921
 21
3773.230120631903
 31
0.0
  0
INSERT
  5
2CA3
330
1D2F
100
AcDbEntity
  8
SUNPOU
 62
     0
370
    -2
100
AcDbBlockReference
  2
ARROW
 10
5216.623711640921
 20
5693.230120631902
 30
0.0
 41
80.0
 42
80.0
 43
80.0
 50
90.0
  0
INSERT
  5
2CA4
330
1D2F
100
AcDbEntity
  8
SUNPOU
 62
     0
370
    -2
100
AcDbBlockReference
  2
ARROW
 10
5216.623711640921
 20
3693.230120631902
 30
0.0
 41
80.0
 42
80.0
 43
80.0
 50
270.0
  0
MTEXT
  5
2CA5
330
1D2F
100
AcDbEntity
  8
SUNPOU
 62
     0
100
AcDbMText
 10
5085.195140212348
 20
4693.230120631903
 30
0.0
 40
120.0
 41
0.0
 71
     5
 72
     1
  1
\A1;2000(@1000×2)
  7
BIGFONT
 11
0.0000000000000001
 21
1.0
 31
0.0
 73
     1
 44
1.0
  0
POINT
  5
2CA6
330
1D2F
100
AcDbEntity
  8
DEFPOINTS
 62
     0
100
AcDbPoint
 10
4615.78274088307
 20
5693.230120631902
 30
0.0
  0
POINT
  5
2CA7
330
1D2F
100
AcDbEntity
  8
DEFPOINTS
 62
     0
100
AcDbPoint
 10
4575.78274088307
 20
3693.230120631903
 30
0.0
  0
POINT
  5
2CA8
330
1D2F
100
AcDbEntity
  8
DEFPOINTS
 62
     0
100
AcDbPoint
 10
5216.623711640921
 20
3693.230120631902
 30
0.0
  0
ENDBLK
  5
1F7A
330
1D2F
100
AcDbEntity
  8
0
100
AcDbBlockEnd
  0
BLOCK
  5
1F9E
330
1E02
100
AcDbEntity
  8
0
100
AcDbBlockBegin
  2
*D12
 70
     1
 10
0.0
 20
0.0
 30
0.0
  3
*D12
  1

  0
LINE
  5
2CA9
330
1E02
100
AcDbEntity
  8
SUNPOU
 62
     0
370
    -2
100
AcDbLine
 10
4615.78274088307
 20
3193.272425342553
 30
0.0
 11
5576.623711640921
 21
3193.272425342553
 31
0.0
  0
LINE
  5
2CAA
330
1E02
100
AcDbEntity
  8
SUNPOU
 62
     0
370
    -2
100
AcDbLine
 10
5536.62371164092
 20
5613.230120631902
 30
0.0
 11
5536.62371164092
 21
3273.272425342553
 31
0.0
  0
INSERT
  5
2CAB
330
1E02
100
AcDbEntity
  8
SUNPOU
 62
     0
370
    -2
100
AcDbBlockReference
  2
ARROW
 10
5536.62371164092
 20
5693.230120631902
 30
0.0
 41
80.0
 42
80.0
 43
80.0
 50
90.0
  0
INSERT
  5
2CAC
330
1E02
100
AcDbEntity
  8
SUNPOU
 62
     0
370
    -2
100
AcDbBlockReference
  2
ARROW
 10
5536.62371164092
 20
3193.272425342553
 30
0.0
 41
80.0
 42
80.0
 43
80.0
 50
270.0
  0
MTEXT
  5
2CAD
330
1E02
100
AcDbEntity
  8
SUNPOU
 62
     0
100
AcDbMText
 10
5436.62371164092
 20
4443.251272987228
 30
0.0
 40
120.0
 41
0.0
 71
     5
 72
     1
  1
\A1;2500
  7
BIGFONT
 11
0.0000000000000001
 21
1.0
 31
0.0
 73
     1
 44
1.0
  0
POINT
  5
2CAE
330
1E02
100
AcDbEntity
  8
DEFPOINTS
 62
     0
100
AcDbPoint
 10
4615.78274088307
 20
5693.230120631902
 30
0.0
  0
POINT
  5
2CAF
330
1E02
100
AcDbEntity
  8
DEFPOINTS
 62
     0
100
AcDbPoint
 10
4575.78274088307
 20
3193.272425342553
 30
0.0
  0
POINT
  5
2CB0
330
1E02
100
AcDbEntity
  8
DEFPOINTS
 62
     0
100
AcDbPoint
 10
5536.62371164092
 20
3193.272425342553
 30
0.0
  0
ENDBLK
  5
1FA7
330
1E02
100
AcDbEntity
  8
0
100
AcDbBlockEnd
  0
BLOCK
  5
1F86
330
1E13
100
AcDbEntity
  8
0
100
AcDbBlockBegin
  2
*D13
 70
     1
 10
0.0
 20
0.0
 30
0.0
  3
*D13
  1

  0
LINE
  5
2CB1
330
1E13
100
AcDbEntity
  8
SUNPOU
 62
     0
370
    -2
100
AcDbLine
 10
4615.78274088307
 20
6443.230120631901
 30
0.0
 11
5256.623711640921
 21
6443.230120631901
 31
0.0
  0
LINE
  5
2CB2
330
1E13
100
AcDbEntity
  8
SUNPOU
 62
     0
370
    -2
100
AcDbLine
 10
5216.623711640921
 20
6213.230120631903
 30
0.0
 11
5216.62371164092
 21
6133.230120631903
 31
0.0
  0
LINE
  5
2CB3
330
1E13
100
AcDbEntity
  8
SUNPOU
 62
     0
370
    -2
100
AcDbLine
 10
5216.623711640921
 20
6523.230120631902
 30
0.0
 11
5216.623711640921
 21
6603.230120631902
 31
0.0
  0
MTEXT
  5
2CB4
330
1E13
100
AcDbEntity
  8
SUNPOU
 62
     0
100
AcDbMText
 10
5112.014217378135
 20
6443.230120631901
 30
0.0
 40
120.0
 41
0.0
 71
     5
 72
     1
  1
\A1;150
  7
BIGFONT
 11
0.0000000000000001
 21
1.0
 31
0.0
 73
     1
 44
1.0
  0
LINE
  5
2CB5
330
1E13
100
AcDbEntity
  8
SUNPOU
 62
     0
370
    -2
100
AcDbLine
 10
5216.623711640921
 20
6293.230120631903
 30
0.0
 11
5216.623711640921
 21
6443.230120631901
 31
0.0
  0
INSERT
  5
2CB6
330
1E13
100
AcDbEntity
  8
SUNPOU
 62
     0
370
    -2
100
AcDbBlockReference
  2
ARROW
 10
5216.623711640921
 20
6293.230120631903
 30
0.0
 41
80.0
 42
80.0
 43
80.0
 50
90.0
  0
INSERT
  5
2CB7
330
1E13
100
AcDbEntity
  8
SUNPOU
 62
     0
370
    -2
100
AcDbBlockReference
  2
ARROW
 10
5216.623711640921
 20
6443.230120631901
 30
0.0
 41
80.0
 42
80.0
 43
80.0
 50
270.0
  0
POINT
  5
2CB8
330
1E13
100
AcDbEntity
  8
DEFPOINTS
 62
     0
100
AcDbPoint
 10
4575.78274088307
 20
6293.230120631903
 30
0.0
  0
POINT
  5
2CB9
330
1E13
100
AcDbEntity
  8
DEFPOINTS
 62
     0
100
AcDbPoint
 10
4575.78274088307
 20
6443.230120631901
 30
0.0
  0
POINT
  5
2CBA
330
1E13
100
AcDbEntity
  8
DEFPOINTS
 62
     0
100
AcDbPoint
 10
5216.623711640921
 20
6443.230120631901
 30
0.0
  0
ENDBLK
  5
1F92
330
1E13
100
AcDbEntity
  8
0
100
AcDbBlockEnd
  0
BLOCK
  5
1F93
330
1E3E
100
AcDbEntity
  8
0
100
AcDbBlockBegin
  2
*D14
 70
     1
 10
0.0
 20
0.0
 30
0.0
  3
*D14
  1

  0
LINE
  5
2CBB
330
1E3E
100
AcDbEntity
  8
SUNPOU
 62
     0
370
    -2
100
AcDbLine
 10
4615.78274088307
 20
6443.230120631901
 30
0.0
 11
5576.623711640922
 21
6443.230120631901
 31
0.0
  0
LINE
  5
2CBC
330
1E3E
100
AcDbEntity
  8
SUNPOU
 62
     0
370
    -2
100
AcDbLine
 10
4615.78274088307
 20
5693.230120631902
 30
0.0
 11
5576.623711640921
 21
5693.230120631902
 31
0.0
  0
LINE
  5
2CBD
330
1E3E
100
AcDbEntity
  8
SUNPOU
 62
     0
370
    -2
100
AcDbLine
 10
5536.623711640922
 20
6363.2301206319
 30
0.0
 11
5536.62371164092
 21
5773.230120631901
 31
0.0
  0
INSERT
  5
2CBE
330
1E3E
100
AcDbEntity
  8
SUNPOU
 62
     0
370
    -2
100
AcDbBlockReference
  2
ARROW
 10
5536.623711640922
 20
6443.230120631901
 30
0.0
 41
80.0
 42
80.0
 43
80.0
 50
90.0
  0
INSERT
  5
2CBF
330
1E3E
100
AcDbEntity
  8
SUNPOU
 62
     0
370
    -2
100
AcDbBlockReference
  2
ARROW
 10
5536.62371164092
 20
5693.230120631902
 30
0.0
 41
80.0
 42
80.0
 43
80.0
 50
270.0
  0
MTEXT
  5
2CC0
330
1E3E
100
AcDbEntity
  8
SUNPOU
 62
     0
100
AcDbMText
 10
5436.62371164092
 20
6068.230120631902
 30
0.0
 40
120.0
 41
0.0
 71
     5
 72
     1
  1
\A1;750
  7
BIGFONT
 11
0.0000000000000001
 21
1.0
 31
0.0
 73
     1
 44
1.0
  0
POINT
  5
2CC1
330
1E3E
100
AcDbEntity
  8
DEFPOINTS
 62
     0
100
AcDbPoint
 10
4575.78274088307
 20
6443.230120631901
 30
0.0
  0
POINT
  5
2CC2
330
1E3E
100
AcDbEntity
  8
DEFPOINTS
 62
     0
100
AcDbPoint
 10
4575.78274088307
 20
5693.230120631902
 30
0.0
  0
POINT
  5
2CC3
330
1E3E
100
AcDbEntity
  8
DEFPOINTS
 62
     0
100
AcDbPoint
 10
5536.62371164092
 20
5693.230120631902
 30
0.0
  0
ENDBLK
  5
1F9D
330
1E3E
100
AcDbEntity
  8
0
100
AcDbBlockEnd
  0
BLOCK
  5
1FC1
330
1FB4
100
AcDbEntity
  8
0
100
AcDbBlockBegin
  2
*D15
 70
     1
 10
0.0
 20
0.0
 30
0.0
  3
*D15
  1

  0
LINE
  5
2CC4
330
1FB4
100
AcDbEntity
  8
SUNPOU
 62
     0
370
    -2
100
AcDbLine
 10
4615.78274088307
 20
3693.230120631903
 30
0.0
 11
5256.623711640921
 21
3693.230120631902
 31
0.0
  0
LINE
  5
2CC5
330
1FB4
100
AcDbEntity
  8
SUNPOU
 62
     0
370
    -2
100
AcDbLine
 10
4615.78274088307
 20
3193.272425342553
 30
0.0
 11
5256.623711640921
 21
3193.272425342553
 31
0.0
  0
LINE
  5
2CC6
330
1FB4
100
AcDbEntity
  8
SUNPOU
 62
     0
370
    -2
100
AcDbLine
 10
5216.623711640921
 20
3613.230120631903
 30
0.0
 11
5216.623711640921
 21
3273.272425342553
 31
0.0
  0
INSERT
  5
2CC7
330
1FB4
100
AcDbEntity
  8
SUNPOU
 62
     0
370
    -2
100
AcDbBlockReference
  2
ARROW
 10
5216.623711640921
 20
3693.230120631902
 30
0.0
 41
80.0
 42
80.0
 43
80.0
 50
90.0
  0
INSERT
  5
2CC8
330
1FB4
100
AcDbEntity
  8
SUNPOU
 62
     0
370
    -2
100
AcDbBlockReference
  2
ARROW
 10
5216.623711640921
 20
3193.272425342553
 30
0.0
 41
80.0
 42
80.0
 43
80.0
 50
270.0
  0
MTEXT
  5
2CC9
330
1FB4
100
AcDbEntity
  8
SUNPOU
 62
     0
100
AcDbMText
 10
5116.623711640921
 20
3443.251272987229
 30
0.0
 40
120.0
 41
0.0
 71
     5
 72
     1
  1
\A1;500
  7
BIGFONT
 11
0.0000000000000001
 21
1.0
 31
0.0
 73
     1
 44
1.0
  0
POINT
  5
2CCA
330
1FB4
100
AcDbEntity
  8
DEFPOINTS
 62
     0
100
AcDbPoint
 10
4575.78274088307
 20
3693.230120631903
 30
0.0
  0
POINT
  5
2CCB
330
1FB4
100
AcDbEntity
  8
DEFPOINTS
 62
     0
100
AcDbPoint
 10
4575.78274088307
 20
3193.272425342553
 30
0.0
  0
POINT
  5
2CCC
330
1FB4
100
AcDbEntity
  8
DEFPOINTS
 62
     0
100
AcDbPoint
 10
5216.623711640921
 20
3193.272425342553
 30
0.0
  0
ENDBLK
  5
1FCB
330
1FB4
100
AcDbEntity
  8
0
100
AcDbBlockEnd
  0
BLOCK
  5
255B
330
2551
100
AcDbEntity
  8
0
100
AcDbBlockBegin
  2
*D16
 70
     1
 10
0.0
 20
0.0
 30
0.0
  3
*D16
  1

  0
LINE
  5
2CCD
330
2551
100
AcDbEntity
  8
SUNPOU
 62
     0
370
    -2
100
AcDbLine
 10
2075.338641938744
 20
4329.547063217058
 30
0.0
 11
2075.338641938744
 21
4357.734998483878
 31
0.0
  0
LINE
  5
2CCE
330
2551
100
AcDbEntity
  8
SUNPOU
 62
     0
370
    -2
100
AcDbLine
 10
3275.338641938745
 20
4315.453105362534
 30
0.0
 11
3275.338641938745
 21
4357.734998483878
 31
0.0
  0
LINE
  5
2CCF
330
2551
100
AcDbEntity
  8
SUNPOU
 62
     0
370
    -2
100
AcDbLine
 10
2155.338641938744
 20
4317.734998483878
 30
0.0
 11
3195.338641938745
 21
4317.734998483878
 31
0.0
  0
INSERT
  5
2CD0
330
2551
100
AcDbEntity
  8
SUNPOU
 62
     0
370
    -2
100
AcDbBlockReference
  2
ARROW
 10
2075.338641938744
 20
4317.734998483878
 30
0.0
 41
80.0
 42
80.0
 43
80.0
 50
180.0
  0
INSERT
  5
2CD1
330
2551
100
AcDbEntity
  8
SUNPOU
 62
     0
370
    -2
100
AcDbBlockReference
  2
ARROW
 10
3275.338641938745
 20
4317.734998483878
 30
0.0
 41
80.0
 42
80.0
 43
80.0
  0
MTEXT
  5
2CD2
330
2551
100
AcDbEntity
  8
SUNPOU
 62
     0
100
AcDbMText
 10
2675.338641938744
 20
4417.734998483878
 30
0.0
 40
120.0
 41
0.0
 71
     5
 72
     1
  1
\A1;φ1200
  7
BIGFONT
 73
     1
 44
1.0
  0
POINT
  5
2CD3
330
2551
100
AcDbEntity
  8
DEFPOINTS
 62
     0
100
AcDbPoint
 10
2075.338641938744
 20
4289.547063217058
 30
0.0
  0
POINT
  5
2CD4
330
2551
100
AcDbEntity
  8
DEFPOINTS
 62
     0
100
AcDbPoint
 10
3275.338641938745
 20
4275.453105362534
 30
0.0
  0
POINT
  5
2CD5
330
2551
100
AcDbEntity
  8
DEFPOINTS
 62
     0
100
AcDbPoint
 10
3275.338641938745
 20
4317.734998483878
 30
0.0
  0
ENDBLK
  5
255C
330
2551
100
AcDbEntity
  8
0
100
AcDbBlockEnd
  0
BLOCK
  5
25A6
330
259D
100
AcDbEntity
  8
0
100
AcDbBlockBegin
  2
*D17
 70
     1
 10
0.0
 20
0.0
 30
0.0
  3
*D17
  1

  0
LINE
  5
2CD6
330
259D
100
AcDbEntity
  8
SUNPOU
 62
     0
370
    -2
100
AcDbLine
 10
4615.78274088307
 20
6443.230120631901
 30
0.0
 11
5888.220676752683
 21
6443.230120631901
 31
0.0
  0
LINE
  5
2CD7
330
259D
100
AcDbEntity
  8
SUNPOU
 62
     0
370
    -2
100
AcDbLine
 10
4655.782740883071
 20
3193.272425342553
 30
0.0
 11
5888.220676752682
 21
3193.272425342553
 31
0.0
  0
LINE
  5
2CD8
330
259D
100
AcDbEntity
  8
SUNPOU
 62
     0
370
    -2
100
AcDbLine
 10
5848.220676752683
 20
6363.230120631902
 30
0.0
 11
5848.220676752682
 21
3273.272425342553
 31
0.0
  0
INSERT
  5
2CD9
330
259D
100
AcDbEntity
  8
SUNPOU
 62
     0
370
    -2
100
AcDbBlockReference
  2
ARROW
 10
5848.220676752683
 20
6443.230120631901
 30
0.0
 41
80.0
 42
80.0
 43
80.0
 50
90.0
  0
INSERT
  5
2CDA
330
259D
100
AcDbEntity
  8
SUNPOU
 62
     0
370
    -2
100
AcDbBlockReference
  2
ARROW
 10
5848.220676752682
 20
3193.272425342553
 30
0.0
 41
80.0
 42
80.0
 43
80.0
 50
270.0
  0
MTEXT
  5
2CDB
330
259D
100
AcDbEntity
  8
SUNPOU
 62
     0
100
AcDbMText
 10
5748.220676752681
 20
4818.251272987229
 30
0.0
 40
120.0
 41
0.0
 71
     5
 72
     1
  1
\A1;3250
  7
BIGFONT
 11
0.0000000000000001
 21
1.0
 31
0.0
 73
     1
 44
1.0
  0
POINT
  5
2CDC
330
259D
100
AcDbEntity
  8
DEFPOINTS
 62
     0
100
AcDbPoint
 10
4575.78274088307
 20
6443.230120631901
 30
0.0
  0
POINT
  5
2CDD
330
259D
100
AcDbEntity
  8
DEFPOINTS
 62
     0
100
AcDbPoint
 10
4615.78274088307
 20
3193.272425342553
 30
0.0
  0
POINT
  5
2CDE
330
259D
100
AcDbEntity
  8
DEFPOINTS
 62
     0
100
AcDbPoint
 10
5848.220676752682
 20
3193.272425342553
 30
0.0
  0
ENDBLK
  5
25A7
330
259D
100
AcDbEntity
  8
0
100
AcDbBlockEnd
  0
BLOCK
  5
287F
330
287E
100
AcDbEntity
  8
0
100
AcDbBlockBegin
  2
*D28
 70
     1
 10
0.0
 20
0.0
 30
0.0
  3
*D28
  1

  0
LINE
  5
2880
330
287E
100
AcDbEntity
  8
SUNPOU
 62
     0
370
    -2
100
AcDbLine
 10
8168.294650191326
 20
3893.021721587738
 30
0.0
 11
8168.294650191326
 21
3069.311751461806
 31
0.0
  0
LINE
  5
2881
330
287E
100
AcDbEntity
  8
SUNPOU
 62
     0
370
    -2
100
AcDbLine
 10
11068.29465019132
 20
3921.493053010424
 30
0.0
 11
11068.29465019132
 21
3069.311751461806
 31
0.0
  0
LINE
  5
2882
330
287E
100
AcDbEntity
  8
SUNPOU
 62
     0
370
    -2
100
AcDbLine
 10
8248.294650191326
 20
3109.311751461806
 30
0.0
 11
10988.29465019132
 21
3109.311751461806
 31
0.0
  0
INSERT
  5
2883
330
287E
100
AcDbEntity
  8
SUNPOU
 62
     0
370
    -2
100
AcDbBlockReference
  2
ARROW
 10
8168.294650191326
 20
3109.311751461806
 30
0.0
 41
80.0
 42
80.0
 43
80.0
 50
180.0
  0
INSERT
  5
2884
330
287E
100
AcDbEntity
  8
SUNPOU
 62
     0
370
    -2
100
AcDbBlockReference
  2
ARROW
 10
11068.29465019132
 20
3109.311751461806
 30
0.0
 41
80.0
 42
80.0
 43
80.0
  0
MTEXT
  5
2885
330
287E
100
AcDbEntity
  8
SUNPOU
 62
     0
100
AcDbMText
 10
9618.294650191325
 20
3209.311751461807
 30
0.0
 40
120.0
 41
0.0
 71
     5
 72
     1
  1
\A1;2900
  7
BIGFONT
 73
     1
 44
1.0
  0
POINT
  5
2886
330
287E
100
AcDbEntity
  8
DEFPOINTS
 62
     0
100
AcDbPoint
 10
8168.294650191326
 20
3933.021721587738
 30
0.0
  0
POINT
  5
2887
330
287E
100
AcDbEntity
  8
DEFPOINTS
 62
     0
100
AcDbPoint
 10
11068.29465019132
 20
3961.493053010424
 30
0.0
  0
POINT
  5
2888
330
287E
100
AcDbEntity
  8
DEFPOINTS
 62
     0
100
AcDbPoint
 10
11068.29465019132
 20
3109.311751461806
 30
0.0
  0
ENDBLK
  5
2889
330
287E
100
AcDbEntity
  8
0
100
AcDbBlockEnd
  0
BLOCK
  5
288B
330
288A
100
AcDbEntity
  8
0
100
AcDbBlockBegin
  2
*D29
 70
     1
 10
0.0
 20
0.0
 30
0.0
  3
*D29
  1

  0
LINE
  5
288C
330
288A
100
AcDbEntity
  8
SUNPOU
 62
     0
370
    -2
100
AcDbLine
 10
8618.294650191325
 20
3893.021721587737
 30
0.0
 11
8618.294650191325
 21
3353.768614671302
 31
0.0
  0
LINE
  5
288D
330
288A
100
AcDbEntity
  8
SUNPOU
 62
     0
370
    -2
100
AcDbLine
 10
10618.29465019132
 20
3893.021721587736
 30
0.0
 11
10618.29465019132
 21
3353.768614671302
 31
0.0
  0
LINE
  5
288E
330
288A
100
AcDbEntity
  8
SUNPOU
 62
     0
370
    -2
100
AcDbLine
 10
8698.294650191325
 20
3393.768614671302
 30
0.0
 11
10538.29465019132
 21
3393.768614671302
 31
0.0
  0
INSERT
  5
288F
330
288A
100
AcDbEntity
  8
SUNPOU
 62
     0
370
    -2
100
AcDbBlockReference
  2
ARROW
 10
8618.294650191325
 20
3393.768614671302
 30
0.0
 41
80.0
 42
80.0
 43
80.0
 50
180.0
  0
INSERT
  5
2890
330
288A
100
AcDbEntity
  8
SUNPOU
 62
     0
370
    -2
100
AcDbBlockReference
  2
ARROW
 10
10618.29465019132
 20
3393.768614671302
 30
0.0
 41
80.0
 42
80.0
 43
80.0
  0
MTEXT
  5
2891
330
288A
100
AcDbEntity
  8
SUNPOU
 62
     0
100
AcDbMText
 10
9618.294650191325
 20
3493.768614671302
 30
0.0
 40
120.0
 41
0.0
 71
     5
 72
     1
  1
\A1;2000
  7
BIGFONT
 73
     1
 44
1.0
  0
POINT
  5
2892
330
288A
100
AcDbEntity
  8
DEFPOINTS
 62
     0
100
AcDbPoint
 10
8618.294650191325
 20
3933.021721587737
 30
0.0
  0
POINT
  5
2893
330
288A
100
AcDbEntity
  8
DEFPOINTS
 62
     0
100
AcDbPoint
 10
10618.29465019132
 20
3933.021721587736
 30
0.0
  0
POINT
  5
2894
330
288A
100
AcDbEntity
  8
DEFPOINTS
 62
     0
100
AcDbPoint
 10
10618.29465019132
 20
3393.768614671302
 30
0.0
  0
ENDBLK
  5
2895
330
288A
100
AcDbEntity
  8
0
100
AcDbBlockEnd
  0
BLOCK
  5
2897
330
2896
100
AcDbEntity
  8
0
100
AcDbBlockBegin
  2
*D30
 70
     1
 10
0.0
 20
0.0
 30
0.0
  3
*D30
  1

  0
LINE
  5
2898
330
2896
100
AcDbEntity
  8
SUNPOU
 62
     0
370
    -2
100
AcDbLine
 10
11108.29465019133
 20
6833.021721587738
 30
0.0
 11
11862.23527410561
 21
6833.021721587738
 31
0.0
  0
LINE
  5
2899
330
2896
100
AcDbEntity
  8
SUNPOU
 62
     0
370
    -2
100
AcDbLine
 10
11140.07677999088
 20
3933.021721587735
 30
0.0
 11
11862.23527410561
 21
3933.021721587735
 31
0.0
  0
LINE
  5
289A
330
2896
100
AcDbEntity
  8
SUNPOU
 62
     0
370
    -2
100
AcDbLine
 10
11822.23527410561
 20
6753.021721587739
 30
0.0
 11
11822.23527410561
 21
4013.021721587735
 31
0.0
  0
INSERT
  5
289B
330
2896
100
AcDbEntity
  8
SUNPOU
 62
     0
370
    -2
100
AcDbBlockReference
  2
ARROW
 10
11822.23527410561
 20
6833.021721587738
 30
0.0
 41
80.0
 42
80.0
 43
80.0
 50
90.0
  0
INSERT
  5
289C
330
2896
100
AcDbEntity
  8
SUNPOU
 62
     0
370
    -2
100
AcDbBlockReference
  2
ARROW
 10
11822.23527410561
 20
3933.021721587735
 30
0.0
 41
80.0
 42
80.0
 43
80.0
 50
270.0
  0
MTEXT
  5
289D
330
2896
100
AcDbEntity
  8
SUNPOU
 62
     0
100
AcDbMText
 10
11722.23527410561
 20
5383.021721587738
 30
0.0
 40
120.0
 41
0.0
 71
     5
 72
     1
  1
\A1;2900
  7
BIGFONT
 11
0.0000000000000001
 21
1.0
 31
0.0
 73
     1
 44
1.0
  0
POINT
  5
289E
330
2896
100
AcDbEntity
  8
DEFPOINTS
 62
     0
100
AcDbPoint
 10
11068.29465019133
 20
6833.021721587738
 30
0.0
  0
POINT
  5
289F
330
2896
100
AcDbEntity
  8
DEFPOINTS
 62
     0
100
AcDbPoint
 10
11100.07677999088
 20
3933.021721587735
 30
0.0
  0
POINT
  5
28A0
330
2896
100
AcDbEntity
  8
DEFPOINTS
 62
     0
100
AcDbPoint
 10
11822.23527410561
 20
3933.021721587735
 30
0.0
  0
ENDBLK
  5
28A1
330
2896
100
AcDbEntity
  8
0
100
AcDbBlockEnd
  0
BLOCK
  5
28A3
330
28A2
100
AcDbEntity
  8
0
100
AcDbBlockBegin
  2
*D31
 70
     1
 10
0.0
 20
0.0
 30
0.0
  3
*D31
  1

  0
LINE
  5
28A4
330
28A2
100
AcDbEntity
  8
SUNPOU
 62
     0
370
    -2
100
AcDbLine
 10
11108.29465019133
 20
6383.021721587738
 30
0.0
 11
11532.43120068581
 21
6383.021721587738
 31
0.0
  0
LINE
  5
28A5
330
28A2
100
AcDbEntity
  8
SUNPOU
 62
     0
370
    -2
100
AcDbLine
 10
11108.29465019132
 20
4383.021721587737
 30
0.0
 11
11532.43120068581
 21
4383.021721587737
 31
0.0
  0
LINE
  5
28A6
330
28A2
100
AcDbEntity
  8
SUNPOU
 62
     0
370
    -2
100
AcDbLine
 10
11492.43120068581
 20
6303.021721587739
 30
0.0
 11
11492.43120068581
 21
4463.021721587736
 31
0.0
  0
INSERT
  5
28A7
330
28A2
100
AcDbEntity
  8
SUNPOU
 62
     0
370
    -2
100
AcDbBlockReference
  2
ARROW
 10
11492.43120068581
 20
6383.021721587738
 30
0.0
 41
80.0
 42
80.0
 43
80.0
 50
90.0
  0
INSERT
  5
28A8
330
28A2
100
AcDbEntity
  8
SUNPOU
 62
     0
370
    -2
100
AcDbBlockReference
  2
ARROW
 10
11492.43120068581
 20
4383.021721587737
 30
0.0
 41
80.0
 42
80.0
 43
80.0
 50
270.0
  0
MTEXT
  5
28A9
330
28A2
100
AcDbEntity
  8
SUNPOU
 62
     0
100
AcDbMText
 10
11392.43120068581
 20
5383.021721587739
 30
0.0
 40
120.0
 41
0.0
 71
     5
 72
     1
  1
\A1;2000
  7
BIGFONT
 11
0.0000000000000001
 21
1.0
 31
0.0
 73
     1
 44
1.0
  0
POINT
  5
28AA
330
28A2
100
AcDbEntity
  8
DEFPOINTS
 62
     0
100
AcDbPoint
 10
11068.29465019133
 20
6383.021721587738
 30
0.0
  0
POINT
  5
28AB
330
28A2
100
AcDbEntity
  8
DEFPOINTS
 62
     0
100
AcDbPoint
 10
11068.29465019132
 20
4383.021721587737
 30
0.0
  0
POINT
  5
28AC
330
28A2
100
AcDbEntity
  8
DEFPOINTS
 62
     0
100
AcDbPoint
 10
11492.43120068581
 20
4383.021721587737
 30
0.0
  0
ENDBLK
  5
28AD
330
28A2
100
AcDbEntity
  8
0
100
AcDbBlockEnd
  0
BLOCK
  5
28C6
330
28AE
100
AcDbEntity
  8
0
100
AcDbBlockBegin
  2
A$C13AE576D
 70
     0
 10
0.0
 20
0.0
 30
0.0
  3
A$C13AE576D
  1

  0
LINE
  5
28AF
330
28AE
100
AcDbEntity
  8
DEFPOINTS
  6
DASHED
100
AcDbLine
 10
-0.0000299977382383
 20
3763.709975442445
 30
0.0
 11
2899.999970002264
 21
3763.709975442445
 31
0.0
  0
LINE
  5
28B0
330
28AE
100
AcDbEntity
  8
DEFPOINTS
  6
DASHED
100
AcDbLine
 10
449.9999700022617
 20
3313.709975442446
 30
0.0
 11
2449.999970002264
 21
3313.709975442446
 31
0.0
  0
LINE
  5
28B1
330
28AE
100
AcDbEntity
  8
DEFPOINTS
  6
DASHED
100
AcDbLine
 10
-0.0000299977382383
 20
863.7099754424443
 30
0.0
 11
-0.0000299977382383
 21
3763.709975442445
 31
0.0
  0
LINE
  5
28B2
330
28AE
100
AcDbEntity
  8
DEFPOINTS
  6
DASHED
100
AcDbLine
 10
449.9999700022599
 20
1313.709975442443
 30
0.0
 11
449.9999700022617
 21
3313.709975442446
 31
0.0
  0
LINE
  5
28B3
330
28AE
100
AcDbEntity
  8
DEFPOINTS
  6
DASHED
100
AcDbLine
 10
2899.99997000226
 20
863.7099754424426
 30
0.0
 11
-0.0000299977382383
 21
863.7099754424443
 31
0.0
  0
LINE
  5
28B4
330
28AE
100
AcDbEntity
  8
DEFPOINTS
  6
DASHED
100
AcDbLine
 10
2449.999970002262
 20
1313.709975442443
 30
0.0
 11
449.9999700022599
 21
1313.709975442443
 31
0.0
  0
LINE
  5
28B5
330
28AE
100
AcDbEntity
  8
DEFPOINTS
  6
DASHED
100
AcDbLine
 10
2899.999970002264
 20
3763.709975442445
 30
0.0
 11
2899.99997000226
 21
863.7099754424426
 31
0.0
  0
LINE
  5
28B6
330
28AE
100
AcDbEntity
  8
DEFPOINTS
  6
DASHED
100
AcDbLine
 10
2449.999970002264
 20
3313.709975442446
 30
0.0
 11
2449.999970002262
 21
1313.709975442443
 31
0.0
  0
LINE
  5
28B7
330
28AE
100
AcDbEntity
  8
DEFPOINTS
  6
DASHED
100
AcDbLine
 10
-0.0000299977382383
 20
3763.709975442445
 30
0.0
 11
449.9999700022617
 21
3313.709975442446
 31
0.0
  0
LINE
  5
28B8
330
28AE
100
AcDbEntity
  8
DEFPOINTS
  6
DASHED
100
AcDbLine
 10
2449.999970002264
 20
3313.709975442446
 30
0.0
 11
2899.999970002264
 21
3763.709975442445
 31
0.0
  0
LINE
  5
28B9
330
28AE
100
AcDbEntity
  8
DEFPOINTS
  6
DASHED
100
AcDbLine
 10
2449.999970002262
 20
1313.709975442443
 30
0.0
 11
2899.99997000226
 21
863.7099754424426
 31
0.0
  0
LINE
  5
28BA
330
28AE
100
AcDbEntity
  8
DEFPOINTS
  6
DASHED
100
AcDbLine
 10
449.9999700022599
 20
1313.709975442443
 30
0.0
 11
-0.0000299977382383
 21
863.7099754424443
 31
0.0
  0
CIRCLE
  5
28BB
330
28AE
100
AcDbEntity
  8
DEFPOINTS
  6
DASHED
100
AcDbCircle
 10
1449.99997000226
 20
2313.709975442446
 30
0.0
 40
600.0
  0
CIRCLE
  5
28BC
330
28AE
100
AcDbEntity
  8
DEFPOINTS
  6
DASHED
100
AcDbCircle
 10
1449.99997000226
 20
2313.709975442446
 30
0.0
 40
750.0
  0
CIRCLE
  5
28BD
330
28AE
100
AcDbEntity
  8
DEFPOINTS
  6
DASHED
100
AcDbCircle
 10
1749.99997000226
 20
2313.709975442446
 30
0.0
 40
550.0
  0
CIRCLE
  5
28BE
330
28AE
100
AcDbEntity
  8
DEFPOINTS
100
AcDbCircle
 10
1749.99997000226
 20
2313.709975442446
 30
0.0
 40
337.0
  0
CIRCLE
  5
28BF
330
28AE
100
AcDbEntity
  8
DEFPOINTS
100
AcDbCircle
 10
1749.99997000226
 20
2313.709975442446
 30
0.0
 40
480.0
  0
DIMENSION
  5
28C0
330
28AE
100
AcDbEntity
  8
SUNPOU
100
AcDbDimension
  2
*D28
 10
2899.99997000226
 20
40.00000531651312
 30
0.0
 11
1449.99997000226
 21
140.0000053165131
 31
0.0
 12
-8168.294680189065
 22
-3069.311746145293
 32
0.0
 71
     5
 42
2899.999999999998
  3
STANDARD
100
AcDbAlignedDimension
 13
-0.0000299977382383
 23
863.7099754424443
 33
0.0
 14
2899.99997000226
 24
892.1813068651308
 34
0.0
100
AcDbRotatedDimension
1001
ACAD
1000
DSTYLE
1002
{
1070
   288
1070
     1
1070
   140
1040
3.0
1070
   340
1005
6D
1070
    74
1070
     0
1070
   172
1070
     1
1070
    73
1070
     0
1070
    77
1070
     1
1070
    40
1040
40.0
1070
   147
1040
1.0
1070
    42
1040
1.0
1070
    44
1040
1.0
1070
    43
1040
10.0
1070
   271
1070
     0
1070
   141
1040
0.0
1070
     5
1000
ARROW
1070
    41
1040
2.0
1002
}
  0
DIMENSION
  5
28C1
330
28AE
100
AcDbEntity
  8
SUNPOU
100
AcDbDimension
  2
*D29
 10
2449.999970002262
 20
324.4568685260092
 30
0.0
 11
1449.99997000226
 21
424.4568685260092
 31
0.0
 12
-8168.294680189065
 22
-3069.311746145293
 32
0.0
  1
2000
 71
     5
 42
2000.000000000002
  3
STANDARD
100
AcDbAlignedDimension
 13
449.9999700022599
 23
863.7099754424438
 33
0.0
 14
2449.999970002262
 24
863.7099754424429
 34
0.0
100
AcDbRotatedDimension
1001
ACAD
1000
DSTYLE
1002
{
1070
   288
1070
     1
1070
   140
1040
3.0
1070
   340
1005
6D
1070
    74
1070
     0
1070
   172
1070
     1
1070
    73
1070
     0
1070
    77
1070
     1
1070
    40
1040
40.0
1070
   147
1040
1.0
1070
    42
1040
1.0
1070
    44
1040
1.0
1070
    43
1040
10.0
1070
   271
1070
     0
1070
   141
1040
0.0
1070
     5
1000
ARROW
1070
    41
1040
2.0
1002
}
  0
DIMENSION
  5
28C2
330
28AE
100
AcDbEntity
  8
SUNPOU
100
AcDbDimension
  2
*D30
 10
3653.940593916545
 20
863.709975442442
 30
0.0
 11
3553.940593916545
 21
2313.709975442446
 31
0.0
 12
-8168.294680189065
 22
-3069.311746145293
 32
0.0
 71
     5
 42
2900.000000000003
  3
DIA1
100
AcDbAlignedDimension
 13
2899.999970002264
 23
3763.709975442445
 33
0.0
 14
2931.782099801822
 24
863.7099754424426
 34
0.0
 50
90.0
100
AcDbRotatedDimension
  0
DIMENSION
  5
28C3
330
28AE
100
AcDbEntity
  8
SUNPOU
100
AcDbDimension
  2
*D31
 10
3324.136520496745
 20
1313.709975442443
 30
0.0
 11
3224.136520496742
 21
2313.709975442446
 31
0.0
 12
-8168.294680189065
 22
-3069.311746145293
 32
0.0
 71
     5
 42
2000.000000000002
  3
DIA1
100
AcDbAlignedDimension
 13
2899.999970002264
 23
3313.709975442446
 33
0.0
 14
2899.99997000226
 24
1313.709975442443
 34
0.0
 50
90.0
100
AcDbRotatedDimension
  0
ENDBLK
  5
28C7
330
28AE
100
AcDbEntity
  8
0
100
AcDbBlockEnd
  0
BLOCK
  5
28DF
330
28DE
100
AcDbEntity
  8
0
100
AcDbBlockBegin
  2
*D33
 70
     1
 10
0.0
 20
0.0
 30
0.0
  3
*D33
  1

  0
LINE
  5
2CDF
330
28DE
100
AcDbEntity
  8
SUNPOU
 62
     0
370
    -2
100
AcDbLine
 10
6228.746089880804
 20
3056.044554179063
 30
0.0
 11
6228.746089880804
 21
2232.334584053133
 31
0.0
  0
LINE
  5
2CE0
330
28DE
100
AcDbEntity
  8
SUNPOU
 62
     0
370
    -2
100
AcDbLine
 10
9728.746089880802
 20
3056.04455417906
 30
0.0
 11
9728.746089880802
 21
2232.334584053133
 31
0.0
  0
LINE
  5
2CE1
330
28DE
100
AcDbEntity
  8
SUNPOU
 62
     0
370
    -2
100
AcDbLine
 10
6308.746089880804
 20
2272.334584053133
 30
0.0
 11
9648.746089880802
 21
2272.334584053133
 31
0.0
  0
INSERT
  5
2CE2
330
28DE
100
AcDbEntity
  8
SUNPOU
 62
     0
370
    -2
100
AcDbBlockReference
  2
ARROW
 10
6228.746089880804
 20
2272.334584053133
 30
0.0
 41
80.0
 42
80.0
 43
80.0
 50
180.0
  0
INSERT
  5
2CE3
330
28DE
100
AcDbEntity
  8
SUNPOU
 62
     0
370
    -2
100
AcDbBlockReference
  2
ARROW
 10
9728.746089880802
 20
2272.334584053133
 30
0.0
 41
80.0
 42
80.0
 43
80.0
  0
MTEXT
  5
2CE4
330
28DE
100
AcDbEntity
  8
SUNPOU
 62
     0
100
AcDbMText
 10
7978.746089880804
 20
2372.334584053133
 30
0.0
 40
120.0
 41
0.0
 71
     5
 72
     1
  1
\A1;3500
  7
BIGFONT
 73
     1
 44
1.0
  0
POINT
  5
2CE5
330
28DE
100
AcDbEntity
  8
DEFPOINTS
 62
     0
100
AcDbPoint
 10
6228.746089880804
 20
3096.044554179063
 30
0.0
  0
POINT
  5
2CE6
330
28DE
100
AcDbEntity
  8
DEFPOINTS
 62
     0
100
AcDbPoint
 10
9728.746089880802
 20
3096.04455417906
 30
0.0
  0
POINT
  5
2CE7
330
28DE
100
AcDbEntity
  8
DEFPOINTS
 62
     0
100
AcDbPoint
 10
9728.746089880802
 20
2272.334584053133
 30
0.0
  0
ENDBLK
  5
28E0
330
28DE
100
AcDbEntity
  8
0
100
AcDbBlockEnd
  0
BLOCK
  5
28EB
330
28EA
100
AcDbEntity
  8
0
100
AcDbBlockBegin
  2
*D34
 70
     1
 10
0.0
 20
0.0
 30
0.0
  3
*D34
  1

  0
LINE
  5
2CE8
330
28EA
100
AcDbEntity
  8
SUNPOU
 62
     0
370
    -2
100
AcDbLine
 10
6978.746089880802
 20
3056.044554179064
 30
0.0
 11
6978.746089880802
 21
2516.791447262629
 31
0.0
  0
LINE
  5
2CE9
330
28EA
100
AcDbEntity
  8
SUNPOU
 62
     0
370
    -2
100
AcDbLine
 10
8978.746089880804
 20
3056.044554179063
 30
0.0
 11
8978.746089880804
 21
2516.791447262629
 31
0.0
  0
LINE
  5
2CEA
330
28EA
100
AcDbEntity
  8
SUNPOU
 62
     0
370
    -2
100
AcDbLine
 10
7058.746089880802
 20
2556.791447262629
 30
0.0
 11
8898.746089880804
 21
2556.791447262629
 31
0.0
  0
INSERT
  5
2CEB
330
28EA
100
AcDbEntity
  8
SUNPOU
 62
     0
370
    -2
100
AcDbBlockReference
  2
ARROW
 10
6978.746089880802
 20
2556.791447262629
 30
0.0
 41
80.0
 42
80.0
 43
80.0
 50
180.0
  0
INSERT
  5
2CEC
330
28EA
100
AcDbEntity
  8
SUNPOU
 62
     0
370
    -2
100
AcDbBlockReference
  2
ARROW
 10
8978.746089880804
 20
2556.791447262629
 30
0.0
 41
80.0
 42
80.0
 43
80.0
  0
MTEXT
  5
2CED
330
28EA
100
AcDbEntity
  8
SUNPOU
 62
     0
100
AcDbMText
 10
7978.746089880804
 20
2656.791447262629
 30
0.0
 40
120.0
 41
0.0
 71
     5
 72
     1
  1
\A1;2000
  7
BIGFONT
 73
     1
 44
1.0
  0
POINT
  5
2CEE
330
28EA
100
AcDbEntity
  8
DEFPOINTS
 62
     0
100
AcDbPoint
 10
6978.746089880802
 20
3096.044554179064
 30
0.0
  0
POINT
  5
2CEF
330
28EA
100
AcDbEntity
  8
DEFPOINTS
 62
     0
100
AcDbPoint
 10
8978.746089880804
 20
3096.044554179063
 30
0.0
  0
POINT
  5
2CF0
330
28EA
100
AcDbEntity
  8
DEFPOINTS
 62
     0
100
AcDbPoint
 10
8978.746089880804
 20
2556.791447262629
 30
0.0
  0
ENDBLK
  5
28EC
330
28EA
100
AcDbEntity
  8
0
100
AcDbBlockEnd
  0
BLOCK
  5
28F7
330
28F6
100
AcDbEntity
  8
0
100
AcDbBlockBegin
  2
*D35
 70
     1
 10
0.0
 20
0.0
 30
0.0
  3
*D35
  1

  0
LINE
  5
2CF1
330
28F6
100
AcDbEntity
  8
SUNPOU
 62
     0
370
    -2
100
AcDbLine
 10
9768.746089880806
 20
6596.044554179065
 30
0.0
 11
10522.68671379509
 21
6596.044554179065
 31
0.0
  0
LINE
  5
2CF2
330
28F6
100
AcDbEntity
  8
SUNPOU
 62
     0
370
    -2
100
AcDbLine
 10
9768.746089880803
 20
3096.04455417906
 30
0.0
 11
10522.68671379508
 21
3096.04455417906
 31
0.0
  0
LINE
  5
2CF3
330
28F6
100
AcDbEntity
  8
SUNPOU
 62
     0
370
    -2
100
AcDbLine
 10
10482.68671379509
 20
6516.044554179064
 30
0.0
 11
10482.68671379508
 21
3176.04455417906
 31
0.0
  0
INSERT
  5
2CF4
330
28F6
100
AcDbEntity
  8
SUNPOU
 62
     0
370
    -2
100
AcDbBlockReference
  2
ARROW
 10
10482.68671379509
 20
6596.044554179065
 30
0.0
 41
80.0
 42
80.0
 43
80.0
 50
90.0
  0
INSERT
  5
2CF5
330
28F6
100
AcDbEntity
  8
SUNPOU
 62
     0
370
    -2
100
AcDbBlockReference
  2
ARROW
 10
10482.68671379508
 20
3096.04455417906
 30
0.0
 41
80.0
 42
80.0
 43
80.0
 50
270.0
  0
MTEXT
  5
2CF6
330
28F6
100
AcDbEntity
  8
SUNPOU
 62
     0
100
AcDbMText
 10
10382.68671379508
 20
4846.044554179064
 30
0.0
 40
120.0
 41
0.0
 71
     5
 72
     1
  1
\A1;3500
  7
BIGFONT
 11
0.0000000000000001
 21
1.0
 31
0.0
 73
     1
 44
1.0
  0
POINT
  5
2CF7
330
28F6
100
AcDbEntity
  8
DEFPOINTS
 62
     0
100
AcDbPoint
 10
9728.746089880807
 20
6596.044554179065
 30
0.0
  0
POINT
  5
2CF8
330
28F6
100
AcDbEntity
  8
DEFPOINTS
 62
     0
100
AcDbPoint
 10
9728.746089880802
 20
3096.04455417906
 30
0.0
  0
POINT
  5
2CF9
330
28F6
100
AcDbEntity
  8
DEFPOINTS
 62
     0
100
AcDbPoint
 10
10482.68671379508
 20
3096.04455417906
 30
0.0
  0
ENDBLK
  5
28F8
330
28F6
100
AcDbEntity
  8
0
100
AcDbBlockEnd
  0
BLOCK
  5
2903
330
2902
100
AcDbEntity
  8
0
100
AcDbBlockBegin
  2
*D36
 70
     1
 10
0.0
 20
0.0
 30
0.0
  3
*D36
  1

  0
LINE
  5
2CFA
330
2902
100
AcDbEntity
  8
SUNPOU
 62
     0
370
    -2
100
AcDbLine
 10
9768.746089880806
 20
5846.044554179065
 30
0.0
 11
10192.88264037529
 21
5846.044554179065
 31
0.0
  0
LINE
  5
2CFB
330
2902
100
AcDbEntity
  8
SUNPOU
 62
     0
370
    -2
100
AcDbLine
 10
9768.746089880803
 20
3846.044554179064
 30
0.0
 11
10192.88264037528
 21
3846.044554179064
 31
0.0
  0
LINE
  5
2CFC
330
2902
100
AcDbEntity
  8
SUNPOU
 62
     0
370
    -2
100
AcDbLine
 10
10152.88264037529
 20
5766.044554179065
 30
0.0
 11
10152.88264037528
 21
3926.044554179063
 31
0.0
  0
INSERT
  5
2CFD
330
2902
100
AcDbEntity
  8
SUNPOU
 62
     0
370
    -2
100
AcDbBlockReference
  2
ARROW
 10
10152.88264037529
 20
5846.044554179065
 30
0.0
 41
80.0
 42
80.0
 43
80.0
 50
90.0
  0
INSERT
  5
2CFE
330
2902
100
AcDbEntity
  8
SUNPOU
 62
     0
370
    -2
100
AcDbBlockReference
  2
ARROW
 10
10152.88264037528
 20
3846.044554179064
 30
0.0
 41
80.0
 42
80.0
 43
80.0
 50
270.0
  0
MTEXT
  5
2CFF
330
2902
100
AcDbEntity
  8
SUNPOU
 62
     0
100
AcDbMText
 10
10052.88264037528
 20
4846.044554179065
 30
0.0
 40
120.0
 41
0.0
 71
     5
 72
     1
  1
\A1;2000
  7
BIGFONT
 11
0.0000000000000001
 21
1.0
 31
0.0
 73
     1
 44
1.0
  0
POINT
  5
2D00
330
2902
100
AcDbEntity
  8
DEFPOINTS
 62
     0
100
AcDbPoint
 10
9728.746089880807
 20
5846.044554179065
 30
0.0
  0
POINT
  5
2D01
330
2902
100
AcDbEntity
  8
DEFPOINTS
 62
     0
100
AcDbPoint
 10
9728.746089880802
 20
3846.044554179064
 30
0.0
  0
POINT
  5
2D02
330
2902
100
AcDbEntity
  8
DEFPOINTS
 62
     0
100
AcDbPoint
 10
10152.88264037528
 20
3846.044554179064
 30
0.0
  0
ENDBLK
  5
2904
330
2902
100
AcDbEntity
  8
0
100
AcDbBlockEnd
  0
BLOCK
  5
2933
330
2932
100
AcDbEntity
  8
0
100
AcDbBlockBegin
  2
*D37
 70
     1
 10
0.0
 20
0.0
 30
0.0
  3
*D37
  1

  0
LINE
  5
2934
330
2932
100
AcDbEntity
  8
SUNPOU
 62
     0
370
    -2
100
AcDbLine
 10
8168.294650191326
 20
3893.021721587738
 30
0.0
 11
8168.294650191326
 21
3069.311751461806
 31
0.0
  0
LINE
  5
2935
330
2932
100
AcDbEntity
  8
SUNPOU
 62
     0
370
    -2
100
AcDbLine
 10
11068.29465019132
 20
3921.493053010424
 30
0.0
 11
11068.29465019132
 21
3069.311751461806
 31
0.0
  0
LINE
  5
2936
330
2932
100
AcDbEntity
  8
SUNPOU
 62
     0
370
    -2
100
AcDbLine
 10
8248.294650191326
 20
3109.311751461806
 30
0.0
 11
10988.29465019132
 21
3109.311751461806
 31
0.0
  0
INSERT
  5
2937
330
2932
100
AcDbEntity
  8
SUNPOU
 62
     0
370
    -2
100
AcDbBlockReference
  2
ARROW
 10
8168.294650191326
 20
3109.311751461806
 30
0.0
 41
80.0
 42
80.0
 43
80.0
 50
180.0
  0
INSERT
  5
2938
330
2932
100
AcDbEntity
  8
SUNPOU
 62
     0
370
    -2
100
AcDbBlockReference
  2
ARROW
 10
11068.29465019132
 20
3109.311751461806
 30
0.0
 41
80.0
 42
80.0
 43
80.0
  0
MTEXT
  5
2939
330
2932
100
AcDbEntity
  8
SUNPOU
 62
     0
100
AcDbMText
 10
9618.294650191325
 20
3209.311751461807
 30
0.0
 40
120.0
 41
0.0
 71
     5
 72
     1
  1
\A1;2900
  7
BIGFONT
 73
     1
 44
1.0
  0
POINT
  5
293A
330
2932
100
AcDbEntity
  8
DEFPOINTS
 62
     0
100
AcDbPoint
 10
8168.294650191326
 20
3933.021721587738
 30
0.0
  0
POINT
  5
293B
330
2932
100
AcDbEntity
  8
DEFPOINTS
 62
     0
100
AcDbPoint
 10
11068.29465019132
 20
3961.493053010424
 30
0.0
  0
POINT
  5
293C
330
2932
100
AcDbEntity
  8
DEFPOINTS
 62
     0
100
AcDbPoint
 10
11068.29465019132
 20
3109.311751461806
 30
0.0
  0
ENDBLK
  5
293D
330
2932
100
AcDbEntity
  8
0
100
AcDbBlockEnd
  0
BLOCK
  5
293F
330
293E
100
AcDbEntity
  8
0
100
AcDbBlockBegin
  2
*D38
 70
     1
 10
0.0
 20
0.0
 30
0.0
  3
*D38
  1

  0
LINE
  5
2940
330
293E
100
AcDbEntity
  8
SUNPOU
 62
     0
370
    -2
100
AcDbLine
 10
8618.294650191325
 20
3893.021721587737
 30
0.0
 11
8618.294650191325
 21
3353.768614671302
 31
0.0
  0
LINE
  5
2941
330
293E
100
AcDbEntity
  8
SUNPOU
 62
     0
370
    -2
100
AcDbLine
 10
10618.29465019132
 20
3893.021721587736
 30
0.0
 11
10618.29465019132
 21
3353.768614671302
 31
0.0
  0
LINE
  5
2942
330
293E
100
AcDbEntity
  8
SUNPOU
 62
     0
370
    -2
100
AcDbLine
 10
8698.294650191325
 20
3393.768614671302
 30
0.0
 11
10538.29465019132
 21
3393.768614671302
 31
0.0
  0
INSERT
  5
2943
330
293E
100
AcDbEntity
  8
SUNPOU
 62
     0
370
    -2
100
AcDbBlockReference
  2
ARROW
 10
8618.294650191325
 20
3393.768614671302
 30
0.0
 41
80.0
 42
80.0
 43
80.0
 50
180.0
  0
INSERT
  5
2944
330
293E
100
AcDbEntity
  8
SUNPOU
 62
     0
370
    -2
100
AcDbBlockReference
  2
ARROW
 10
10618.29465019132
 20
3393.768614671302
 30
0.0
 41
80.0
 42
80.0
 43
80.0
  0
MTEXT
  5
2945
330
293E
100
AcDbEntity
  8
SUNPOU
 62
     0
100
AcDbMText
 10
9618.294650191325
 20
3493.768614671302
 30
0.0
 40
120.0
 41
0.0
 71
     5
 72
     1
  1
\A1;2000
  7
BIGFONT
 73
     1
 44
1.0
  0
POINT
  5
2946
330
293E
100
AcDbEntity
  8
DEFPOINTS
 62
     0
100
AcDbPoint
 10
8618.294650191325
 20
3933.021721587737
 30
0.0
  0
POINT
  5
2947
330
293E
100
AcDbEntity
  8
DEFPOINTS
 62
     0
100
AcDbPoint
 10
10618.29465019132
 20
3933.021721587736
 30
0.0
  0
POINT
  5
2948
330
293E
100
AcDbEntity
  8
DEFPOINTS
 62
     0
100
AcDbPoint
 10
10618.29465019132
 20
3393.768614671302
 30
0.0
  0
ENDBLK
  5
2949
330
293E
100
AcDbEntity
  8
0
100
AcDbBlockEnd
  0
BLOCK
  5
294B
330
294A
100
AcDbEntity
  8
0
100
AcDbBlockBegin
  2
*D39
 70
     1
 10
0.0
 20
0.0
 30
0.0
  3
*D39
  1

  0
LINE
  5
294C
330
294A
100
AcDbEntity
  8
SUNPOU
 62
     0
370
    -2
100
AcDbLine
 10
11108.29465019133
 20
6833.021721587738
 30
0.0
 11
11862.23527410561
 21
6833.021721587738
 31
0.0
  0
LINE
  5
294D
330
294A
100
AcDbEntity
  8
SUNPOU
 62
     0
370
    -2
100
AcDbLine
 10
11140.07677999088
 20
3933.021721587735
 30
0.0
 11
11862.23527410561
 21
3933.021721587735
 31
0.0
  0
LINE
  5
294E
330
294A
100
AcDbEntity
  8
SUNPOU
 62
     0
370
    -2
100
AcDbLine
 10
11822.23527410561
 20
6753.021721587739
 30
0.0
 11
11822.23527410561
 21
4013.021721587735
 31
0.0
  0
INSERT
  5
294F
330
294A
100
AcDbEntity
  8
SUNPOU
 62
     0
370
    -2
100
AcDbBlockReference
  2
ARROW
 10
11822.23527410561
 20
6833.021721587738
 30
0.0
 41
80.0
 42
80.0
 43
80.0
 50
90.0
  0
INSERT
  5
2950
330
294A
100
AcDbEntity
  8
SUNPOU
 62
     0
370
    -2
100
AcDbBlockReference
  2
ARROW
 10
11822.23527410561
 20
3933.021721587735
 30
0.0
 41
80.0
 42
80.0
 43
80.0
 50
270.0
  0
MTEXT
  5
2951
330
294A
100
AcDbEntity
  8
SUNPOU
 62
     0
100
AcDbMText
 10
11722.23527410561
 20
5383.021721587738
 30
0.0
 40
120.0
 41
0.0
 71
     5
 72
     1
  1
\A1;2900
  7
BIGFONT
 11
0.0000000000000001
 21
1.0
 31
0.0
 73
     1
 44
1.0
  0
POINT
  5
2952
330
294A
100
AcDbEntity
  8
DEFPOINTS
 62
     0
100
AcDbPoint
 10
11068.29465019133
 20
6833.021721587738
 30
0.0
  0
POINT
  5
2953
330
294A
100
AcDbEntity
  8
DEFPOINTS
 62
     0
100
AcDbPoint
 10
11100.07677999088
 20
3933.021721587735
 30
0.0
  0
POINT
  5
2954
330
294A
100
AcDbEntity
  8
DEFPOINTS
 62
     0
100
AcDbPoint
 10
11822.23527410561
 20
3933.021721587735
 30
0.0
  0
ENDBLK
  5
2955
330
294A
100
AcDbEntity
  8
0
100
AcDbBlockEnd
  0
BLOCK
  5
2957
330
2956
100
AcDbEntity
  8
0
100
AcDbBlockBegin
  2
*D40
 70
     1
 10
0.0
 20
0.0
 30
0.0
  3
*D40
  1

  0
LINE
  5
2958
330
2956
100
AcDbEntity
  8
SUNPOU
 62
     0
370
    -2
100
AcDbLine
 10
11108.29465019133
 20
6383.021721587738
 30
0.0
 11
11532.43120068581
 21
6383.021721587738
 31
0.0
  0
LINE
  5
2959
330
2956
100
AcDbEntity
  8
SUNPOU
 62
     0
370
    -2
100
AcDbLine
 10
11108.29465019132
 20
4383.021721587737
 30
0.0
 11
11532.43120068581
 21
4383.021721587737
 31
0.0
  0
LINE
  5
295A
330
2956
100
AcDbEntity
  8
SUNPOU
 62
     0
370
    -2
100
AcDbLine
 10
11492.43120068581
 20
6303.021721587739
 30
0.0
 11
11492.43120068581
 21
4463.021721587736
 31
0.0
  0
INSERT
  5
295B
330
2956
100
AcDbEntity
  8
SUNPOU
 62
     0
370
    -2
100
AcDbBlockReference
  2
ARROW
 10
11492.43120068581
 20
6383.021721587738
 30
0.0
 41
80.0
 42
80.0
 43
80.0
 50
90.0
  0
INSERT
  5
295C
330
2956
100
AcDbEntity
  8
SUNPOU
 62
     0
370
    -2
100
AcDbBlockReference
  2
ARROW
 10
11492.43120068581
 20
4383.021721587737
 30
0.0
 41
80.0
 42
80.0
 43
80.0
 50
270.0
  0
MTEXT
  5
295D
330
2956
100
AcDbEntity
  8
SUNPOU
 62
     0
100
AcDbMText
 10
11392.43120068581
 20
5383.021721587739
 30
0.0
 40
120.0
 41
0.0
 71
     5
 72
     1
  1
\A1;2000
  7
BIGFONT
 11
0.0000000000000001
 21
1.0
 31
0.0
 73
     1
 44
1.0
  0
POINT
  5
295E
330
2956
100
AcDbEntity
  8
DEFPOINTS
 62
     0
100
AcDbPoint
 10
11068.29465019133
 20
6383.021721587738
 30
0.0
  0
POINT
  5
295F
330
2956
100
AcDbEntity
  8
DEFPOINTS
 62
     0
100
AcDbPoint
 10
11068.29465019132
 20
4383.021721587737
 30
0.0
  0
POINT
  5
2960
330
2956
100
AcDbEntity
  8
DEFPOINTS
 62
     0
100
AcDbPoint
 10
11492.43120068581
 20
4383.021721587737
 30
0.0
  0
ENDBLK
  5
2961
330
2956
100
AcDbEntity
  8
0
100
AcDbBlockEnd
  0
BLOCK
  5
297A
330
2962
100
AcDbEntity
  8
0
100
AcDbBlockBegin
  2
A$C13077BEE
 70
     0
 10
0.0
 20
0.0
 30
0.0
  3
A$C13077BEE
  1

  0
LINE
  5
2963
330
2962
100
AcDbEntity
  8
DEFPOINTS
  6
DASHED
100
AcDbLine
 10
-0.0000299977382383
 20
3763.709975442445
 30
0.0
 11
2899.999970002264
 21
3763.709975442445
 31
0.0
  0
LINE
  5
2964
330
2962
100
AcDbEntity
  8
DEFPOINTS
  6
DASHED
100
AcDbLine
 10
449.9999700022617
 20
3313.709975442446
 30
0.0
 11
2449.999970002264
 21
3313.709975442446
 31
0.0
  0
LINE
  5
2965
330
2962
100
AcDbEntity
  8
DEFPOINTS
  6
DASHED
100
AcDbLine
 10
-0.0000299977382383
 20
863.7099754424443
 30
0.0
 11
-0.0000299977382383
 21
3763.709975442445
 31
0.0
  0
LINE
  5
2966
330
2962
100
AcDbEntity
  8
DEFPOINTS
  6
DASHED
100
AcDbLine
 10
449.9999700022599
 20
1313.709975442443
 30
0.0
 11
449.9999700022617
 21
3313.709975442446
 31
0.0
  0
LINE
  5
2967
330
2962
100
AcDbEntity
  8
DEFPOINTS
  6
DASHED
100
AcDbLine
 10
2899.99997000226
 20
863.7099754424426
 30
0.0
 11
-0.0000299977382383
 21
863.7099754424443
 31
0.0
  0
LINE
  5
2968
330
2962
100
AcDbEntity
  8
DEFPOINTS
  6
DASHED
100
AcDbLine
 10
2449.999970002262
 20
1313.709975442443
 30
0.0
 11
449.9999700022599
 21
1313.709975442443
 31
0.0
  0
LINE
  5
2969
330
2962
100
AcDbEntity
  8
DEFPOINTS
  6
DASHED
100
AcDbLine
 10
2899.999970002264
 20
3763.709975442445
 30
0.0
 11
2899.99997000226
 21
863.7099754424426
 31
0.0
  0
LINE
  5
296A
330
2962
100
AcDbEntity
  8
DEFPOINTS
  6
DASHED
100
AcDbLine
 10
2449.999970002264
 20
3313.709975442446
 30
0.0
 11
2449.999970002262
 21
1313.709975442443
 31
0.0
  0
LINE
  5
296B
330
2962
100
AcDbEntity
  8
DEFPOINTS
  6
DASHED
100
AcDbLine
 10
-0.0000299977382383
 20
3763.709975442445
 30
0.0
 11
449.9999700022617
 21
3313.709975442446
 31
0.0
  0
LINE
  5
296C
330
2962
100
AcDbEntity
  8
DEFPOINTS
  6
DASHED
100
AcDbLine
 10
2449.999970002264
 20
3313.709975442446
 30
0.0
 11
2899.999970002264
 21
3763.709975442445
 31
0.0
  0
LINE
  5
296D
330
2962
100
AcDbEntity
  8
DEFPOINTS
  6
DASHED
100
AcDbLine
 10
2449.999970002262
 20
1313.709975442443
 30
0.0
 11
2899.99997000226
 21
863.7099754424426
 31
0.0
  0
LINE
  5
296E
330
2962
100
AcDbEntity
  8
DEFPOINTS
  6
DASHED
100
AcDbLine
 10
449.9999700022599
 20
1313.709975442443
 30
0.0
 11
-0.0000299977382383
 21
863.7099754424443
 31
0.0
  0
CIRCLE
  5
296F
330
2962
100
AcDbEntity
  8
DEFPOINTS
  6
DASHED
100
AcDbCircle
 10
1449.99997000226
 20
2313.709975442446
 30
0.0
 40
600.0
  0
CIRCLE
  5
2970
330
2962
100
AcDbEntity
  8
DEFPOINTS
  6
DASHED
100
AcDbCircle
 10
1449.99997000226
 20
2313.709975442446
 30
0.0
 40
750.0
  0
CIRCLE
  5
2971
330
2962
100
AcDbEntity
  8
DEFPOINTS
  6
DASHED
100
AcDbCircle
 10
1749.99997000226
 20
2313.709975442446
 30
0.0
 40
550.0
  0
CIRCLE
  5
2972
330
2962
100
AcDbEntity
  8
DEFPOINTS
100
AcDbCircle
 10
1749.99997000226
 20
2313.709975442446
 30
0.0
 40
337.0
  0
CIRCLE
  5
2973
330
2962
100
AcDbEntity
  8
DEFPOINTS
100
AcDbCircle
 10
1749.99997000226
 20
2313.709975442446
 30
0.0
 40
480.0
  0
DIMENSION
  5
2974
330
2962
100
AcDbEntity
  8
SUNPOU
100
AcDbDimension
  2
*D37
 10
2899.99997000226
 20
40.00000531651312
 30
0.0
 11
1449.99997000226
 21
140.0000053165131
 31
0.0
 12
-8168.294680189065
 22
-3069.311746145293
 32
0.0
 71
     5
 42
2899.999999999998
  3
STANDARD
100
AcDbAlignedDimension
 13
-0.0000299977382383
 23
863.7099754424443
 33
0.0
 14
2899.99997000226
 24
892.1813068651308
 34
0.0
100
AcDbRotatedDimension
1001
ACAD
1000
DSTYLE
1002
{
1070
   288
1070
     1
1070
   140
1040
3.0
1070
   340
1005
6D
1070
    74
1070
     0
1070
   172
1070
     1
1070
    73
1070
     0
1070
    77
1070
     1
1070
    40
1040
40.0
1070
   147
1040
1.0
1070
    42
1040
1.0
1070
    44
1040
1.0
1070
    43
1040
10.0
1070
   271
1070
     0
1070
   141
1040
0.0
1070
     5
1000
ARROW
1070
    41
1040
2.0
1002
}
  0
DIMENSION
  5
2975
330
2962
100
AcDbEntity
  8
SUNPOU
100
AcDbDimension
  2
*D38
 10
2449.999970002262
 20
324.4568685260092
 30
0.0
 11
1449.99997000226
 21
424.4568685260092
 31
0.0
 12
-8168.294680189065
 22
-3069.311746145293
 32
0.0
  1
2000
 71
     5
 42
2000.000000000002
  3
STANDARD
100
AcDbAlignedDimension
 13
449.9999700022599
 23
863.7099754424438
 33
0.0
 14
2449.999970002262
 24
863.7099754424429
 34
0.0
100
AcDbRotatedDimension
1001
ACAD
1000
DSTYLE
1002
{
1070
   288
1070
     1
1070
   140
1040
3.0
1070
   340
1005
6D
1070
    74
1070
     0
1070
   172
1070
     1
1070
    73
1070
     0
1070
    77
1070
     1
1070
    40
1040
40.0
1070
   147
1040
1.0
1070
    42
1040
1.0
1070
    44
1040
1.0
1070
    43
1040
10.0
1070
   271
1070
     0
1070
   141
1040
0.0
1070
     5
1000
ARROW
1070
    41
1040
2.0
1002
}
  0
DIMENSION
  5
2976
330
2962
100
AcDbEntity
  8
SUNPOU
100
AcDbDimension
  2
*D39
 10
3653.940593916545
 20
863.709975442442
 30
0.0
 11
3553.940593916545
 21
2313.709975442446
 31
0.0
 12
-8168.294680189065
 22
-3069.311746145293
 32
0.0
 71
     5
 42
2900.000000000003
  3
DIA1
100
AcDbAlignedDimension
 13
2899.999970002264
 23
3763.709975442445
 33
0.0
 14
2931.782099801822
 24
863.7099754424426
 34
0.0
 50
90.0
100
AcDbRotatedDimension
  0
DIMENSION
  5
2977
330
2962
100
AcDbEntity
  8
SUNPOU
100
AcDbDimension
  2
*D40
 10
3324.136520496745
 20
1313.709975442443
 30
0.0
 11
3224.136520496742
 21
2313.709975442446
 31
0.0
 12
-8168.294680189065
 22
-3069.311746145293
 32
0.0
 71
     5
 42
2000.000000000002
  3
DIA1
100
AcDbAlignedDimension
 13
2899.999970002264
 23
3313.709975442446
 33
0.0
 14
2899.99997000226
 24
1313.709975442443
 34
0.0
 50
90.0
100
AcDbRotatedDimension
  0
ENDBLK
  5
297B
330
2962
100
AcDbEntity
  8
0
100
AcDbBlockEnd
  0
BLOCK
  5
2B0E
330
2B0D
100
AcDbEntity
  8
0
100
AcDbBlockBegin
  2
*D42
 70
     1
 10
0.0
 20
0.0
 30
0.0
  3
*D42
  1

  0
LINE
  5
2D03
330
2B0D
100
AcDbEntity
  8
SUNPOU
 62
     0
370
    -2
100
AcDbLine
 10
12805.35133335194
 20
3010.839655096608
 30
0.0
 11
12805.35133335194
 21
2290.411241488765
 31
0.0
  0
LINE
  5
2D04
330
2B0D
100
AcDbEntity
  8
SUNPOU
 62
     0
370
    -2
100
AcDbLine
 10
16305.32595052555
 20
3010.839655096608
 30
0.0
 11
16305.32595052555
 21
2290.411241488765
 31
0.0
  0
LINE
  5
2D05
330
2B0D
100
AcDbEntity
  8
SUNPOU
 62
     0
370
    -2
100
AcDbLine
 10
12885.35133335194
 20
2330.411241488765
 30
0.0
 11
16225.32595052555
 21
2330.411241488765
 31
0.0
  0
INSERT
  5
2D06
330
2B0D
100
AcDbEntity
  8
SUNPOU
 62
     0
370
    -2
100
AcDbBlockReference
  2
ARROW
 10
12805.35133335194
 20
2330.411241488765
 30
0.0
 41
80.0
 42
80.0
 43
80.0
 50
180.0
  0
INSERT
  5
2D07
330
2B0D
100
AcDbEntity
  8
SUNPOU
 62
     0
370
    -2
100
AcDbBlockReference
  2
ARROW
 10
16305.32595052555
 20
2330.411241488765
 30
0.0
 41
80.0
 42
80.0
 43
80.0
  0
MTEXT
  5
2D08
330
2B0D
100
AcDbEntity
  8
SUNPOU
 62
     0
100
AcDbMText
 10
14555.33864193874
 20
2430.411241488765
 30
0.0
 40
120.0
 41
0.0
 71
     5
 72
     1
  1
\A1;3500
  7
BIGFONT
 73
     1
 44
1.0
  0
POINT
  5
2D09
330
2B0D
100
AcDbEntity
  8
DEFPOINTS
 62
     0
100
AcDbPoint
 10
12805.35133335194
 20
3050.839655096608
 30
0.0
  0
POINT
  5
2D0A
330
2B0D
100
AcDbEntity
  8
DEFPOINTS
 62
     0
100
AcDbPoint
 10
16305.32595052555
 20
3050.839655096608
 30
0.0
  0
POINT
  5
2D0B
330
2B0D
100
AcDbEntity
  8
DEFPOINTS
 62
     0
100
AcDbPoint
 10
16305.32595052555
 20
2330.411241488765
 30
0.0
  0
ENDBLK
  5
2B0F
330
2B0D
100
AcDbEntity
  8
0
100
AcDbBlockEnd
  0
BLOCK
  5
2B1A
330
2B19
100
AcDbEntity
  8
0
100
AcDbBlockBegin
  2
*D43
 70
     1
 10
0.0
 20
0.0
 30
0.0
  3
*D43
  1

  0
LINE
  5
2D0C
330
2B19
100
AcDbEntity
  8
SUNPOU
 62
     0
370
    -2
100
AcDbLine
 10
13555.33864193875
 20
2948.418984751127
 30
0.0
 11
13555.33864193875
 21
2574.868104698261
 31
0.0
  0
LINE
  5
2D0D
330
2B19
100
AcDbEntity
  8
SUNPOU
 62
     0
370
    -2
100
AcDbLine
 10
15555.33864193875
 20
2948.418984751127
 30
0.0
 11
15555.33864193875
 21
2574.868104698261
 31
0.0
  0
LINE
  5
2D0E
330
2B19
100
AcDbEntity
  8
SUNPOU
 62
     0
370
    -2
100
AcDbLine
 10
13635.33864193875
 20
2614.868104698261
 30
0.0
 11
15475.33864193874
 21
2614.868104698261
 31
0.0
  0
INSERT
  5
2D0F
330
2B19
100
AcDbEntity
  8
SUNPOU
 62
     0
370
    -2
100
AcDbBlockReference
  2
ARROW
 10
13555.33864193875
 20
2614.868104698261
 30
0.0
 41
80.0
 42
80.0
 43
80.0
 50
180.0
  0
INSERT
  5
2D10
330
2B19
100
AcDbEntity
  8
SUNPOU
 62
     0
370
    -2
100
AcDbBlockReference
  2
ARROW
 10
15555.33864193875
 20
2614.868104698261
 30
0.0
 41
80.0
 42
80.0
 43
80.0
  0
MTEXT
  5
2D11
330
2B19
100
AcDbEntity
  8
SUNPOU
 62
     0
100
AcDbMText
 10
14555.33864193874
 20
2714.868104698261
 30
0.0
 40
120.0
 41
0.0
 71
     5
 72
     1
  1
\A1;2000
  7
BIGFONT
 73
     1
 44
1.0
  0
POINT
  5
2D12
330
2B19
100
AcDbEntity
  8
DEFPOINTS
 62
     0
100
AcDbPoint
 10
13555.33864193875
 20
2988.418984751127
 30
0.0
  0
POINT
  5
2D13
330
2B19
100
AcDbEntity
  8
DEFPOINTS
 62
     0
100
AcDbPoint
 10
15555.33864193875
 20
2988.418984751127
 30
0.0
  0
POINT
  5
2D14
330
2B19
100
AcDbEntity
  8
DEFPOINTS
 62
     0
100
AcDbPoint
 10
15555.33864193875
 20
2614.868104698261
 30
0.0
  0
ENDBLK
  5
2B1B
330
2B19
100
AcDbEntity
  8
0
100
AcDbBlockEnd
  0
BLOCK
  5
2B26
330
2B25
100
AcDbEntity
  8
0
100
AcDbBlockBegin
  2
*D44
 70
     1
 10
0.0
 20
0.0
 30
0.0
  3
*D44
  1

  0
LINE
  5
2D15
330
2B25
100
AcDbEntity
  8
SUNPOU
 62
     0
370
    -2
100
AcDbLine
 10
16495.78274088307
 20
6293.230120631903
 30
0.0
 11
17136.62371164092
 21
6293.230120631903
 31
0.0
  0
LINE
  5
2D16
330
2B25
100
AcDbEntity
  8
SUNPOU
 62
     0
370
    -2
100
AcDbLine
 10
16495.78274088307
 20
5693.230120631902
 30
0.0
 11
17136.62371164092
 21
5693.230120631902
 31
0.0
  0
LINE
  5
2D17
330
2B25
100
AcDbEntity
  8
SUNPOU
 62
     0
370
    -2
100
AcDbLine
 10
17096.62371164092
 20
6213.230120631903
 30
0.0
 11
17096.62371164092
 21
5773.230120631901
 31
0.0
  0
INSERT
  5
2D18
330
2B25
100
AcDbEntity
  8
SUNPOU
 62
     0
370
    -2
100
AcDbBlockReference
  2
ARROW
 10
17096.62371164092
 20
6293.230120631903
 30
0.0
 41
80.0
 42
80.0
 43
80.0
 50
90.0
  0
INSERT
  5
2D19
330
2B25
100
AcDbEntity
  8
SUNPOU
 62
     0
370
    -2
100
AcDbBlockReference
  2
ARROW
 10
17096.62371164092
 20
5693.230120631902
 30
0.0
 41
80.0
 42
80.0
 43
80.0
 50
270.0
  0
MTEXT
  5
2D1A
330
2B25
100
AcDbEntity
  8
SUNPOU
 62
     0
100
AcDbMText
 10
16996.62371164092
 20
5993.230120631905
 30
0.0
 40
120.0
 41
0.0
 71
     5
 72
     1
  1
\A1;600
  7
BIGFONT
 11
0.0000000000000001
 21
1.0
 31
0.0
 73
     1
 44
1.0
  0
POINT
  5
2D1B
330
2B25
100
AcDbEntity
  8
DEFPOINTS
 62
     0
100
AcDbPoint
 10
16455.78274088307
 20
6293.230120631903
 30
0.0
  0
POINT
  5
2D1C
330
2B25
100
AcDbEntity
  8
DEFPOINTS
 62
     0
100
AcDbPoint
 10
16455.78274088307
 20
5693.230120631902
 30
0.0
  0
POINT
  5
2D1D
330
2B25
100
AcDbEntity
  8
DEFPOINTS
 62
     0
100
AcDbPoint
 10
17096.62371164092
 20
5693.230120631902
 30
0.0
  0
ENDBLK
  5
2B27
330
2B25
100
AcDbEntity
  8
0
100
AcDbBlockEnd
  0
BLOCK
  5
2B32
330
2B31
100
AcDbEntity
  8
0
100
AcDbBlockBegin
  2
*D45
 70
     1
 10
0.0
 20
0.0
 30
0.0
  3
*D45
  1

  0
LINE
  5
2D1E
330
2B31
100
AcDbEntity
  8
SUNPOU
 62
     0
370
    -2
100
AcDbLine
 10
16535.78274088307
 20
5693.230120631902
 30
0.0
 11
17136.62371164092
 21
5693.230120631902
 31
0.0
  0
LINE
  5
2D1F
330
2B31
100
AcDbEntity
  8
SUNPOU
 62
     0
370
    -2
100
AcDbLine
 10
16495.78274088307
 20
3693.230120631903
 30
0.0
 11
17136.62371164092
 21
3693.230120631903
 31
0.0
  0
LINE
  5
2D20
330
2B31
100
AcDbEntity
  8
SUNPOU
 62
     0
370
    -2
100
AcDbLine
 10
17096.62371164092
 20
5613.230120631902
 30
0.0
 11
17096.62371164092
 21
3773.230120631903
 31
0.0
  0
INSERT
  5
2D21
330
2B31
100
AcDbEntity
  8
SUNPOU
 62
     0
370
    -2
100
AcDbBlockReference
  2
ARROW
 10
17096.62371164092
 20
5693.230120631902
 30
0.0
 41
80.0
 42
80.0
 43
80.0
 50
90.0
  0
INSERT
  5
2D22
330
2B31
100
AcDbEntity
  8
SUNPOU
 62
     0
370
    -2
100
AcDbBlockReference
  2
ARROW
 10
17096.62371164092
 20
3693.230120631903
 30
0.0
 41
80.0
 42
80.0
 43
80.0
 50
270.0
  0
MTEXT
  5
2D23
330
2B31
100
AcDbEntity
  8
SUNPOU
 62
     0
100
AcDbMText
 10
16965.19514021235
 20
4693.230120631905
 30
0.0
 40
120.0
 41
0.0
 71
     5
 72
     1
  1
\A1;2000(@1000×2)
  7
BIGFONT
 11
0.0000000000000001
 21
1.0
 31
0.0
 73
     1
 44
1.0
  0
POINT
  5
2D24
330
2B31
100
AcDbEntity
  8
DEFPOINTS
 62
     0
100
AcDbPoint
 10
16495.78274088307
 20
5693.230120631902
 30
0.0
  0
POINT
  5
2D25
330
2B31
100
AcDbEntity
  8
DEFPOINTS
 62
     0
100
AcDbPoint
 10
16455.78274088307
 20
3693.230120631903
 30
0.0
  0
POINT
  5
2D26
330
2B31
100
AcDbEntity
  8
DEFPOINTS
 62
     0
100
AcDbPoint
 10
17096.62371164092
 20
3693.230120631903
 30
0.0
  0
ENDBLK
  5
2B33
330
2B31
100
AcDbEntity
  8
0
100
AcDbBlockEnd
  0
BLOCK
  5
2B3E
330
2B3D
100
AcDbEntity
  8
0
100
AcDbBlockBegin
  2
*D46
 70
     1
 10
0.0
 20
0.0
 30
0.0
  3
*D46
  1

  0
LINE
  5
2D27
330
2B3D
100
AcDbEntity
  8
SUNPOU
 62
     0
370
    -2
100
AcDbLine
 10
16495.78274088307
 20
3193.272425342553
 30
0.0
 11
17456.62371164092
 21
3193.272425342553
 31
0.0
  0
LINE
  5
2D28
330
2B3D
100
AcDbEntity
  8
SUNPOU
 62
     0
370
    -2
100
AcDbLine
 10
17416.62371164092
 20
5613.230120631902
 30
0.0
 11
17416.62371164092
 21
3273.272425342553
 31
0.0
  0
INSERT
  5
2D29
330
2B3D
100
AcDbEntity
  8
SUNPOU
 62
     0
370
    -2
100
AcDbBlockReference
  2
ARROW
 10
17416.62371164092
 20
5693.230120631902
 30
0.0
 41
80.0
 42
80.0
 43
80.0
 50
90.0
  0
INSERT
  5
2D2A
330
2B3D
100
AcDbEntity
  8
SUNPOU
 62
     0
370
    -2
100
AcDbBlockReference
  2
ARROW
 10
17416.62371164092
 20
3193.272425342553
 30
0.0
 41
80.0
 42
80.0
 43
80.0
 50
270.0
  0
MTEXT
  5
2D2B
330
2B3D
100
AcDbEntity
  8
SUNPOU
 62
     0
100
AcDbMText
 10
17316.62371164092
 20
4443.25127298723
 30
0.0
 40
120.0
 41
0.0
 71
     5
 72
     1
  1
\A1;2500
  7
BIGFONT
 11
0.0000000000000001
 21
1.0
 31
0.0
 73
     1
 44
1.0
  0
POINT
  5
2D2C
330
2B3D
100
AcDbEntity
  8
DEFPOINTS
 62
     0
100
AcDbPoint
 10
16495.78274088307
 20
5693.230120631902
 30
0.0
  0
POINT
  5
2D2D
330
2B3D
100
AcDbEntity
  8
DEFPOINTS
 62
     0
100
AcDbPoint
 10
16455.78274088307
 20
3193.272425342553
 30
0.0
  0
POINT
  5
2D2E
330
2B3D
100
AcDbEntity
  8
DEFPOINTS
 62
     0
100
AcDbPoint
 10
17416.62371164092
 20
3193.272425342553
 30
0.0
  0
ENDBLK
  5
2B3F
330
2B3D
100
AcDbEntity
  8
0
100
AcDbBlockEnd
  0
BLOCK
  5
2B49
330
2B48
100
AcDbEntity
  8
0
100
AcDbBlockBegin
  2
*D47
 70
     1
 10
0.0
 20
0.0
 30
0.0
  3
*D47
  1

  0
LINE
  5
2D2F
330
2B48
100
AcDbEntity
  8
SUNPOU
 62
     0
370
    -2
100
AcDbLine
 10
16495.78274088307
 20
6443.230120631901
 30
0.0
 11
17136.62371164092
 21
6443.230120631901
 31
0.0
  0
LINE
  5
2D30
330
2B48
100
AcDbEntity
  8
SUNPOU
 62
     0
370
    -2
100
AcDbLine
 10
17096.62371164092
 20
6213.230120631903
 30
0.0
 11
17096.62371164092
 21
6133.230120631903
 31
0.0
  0
LINE
  5
2D31
330
2B48
100
AcDbEntity
  8
SUNPOU
 62
     0
370
    -2
100
AcDbLine
 10
17096.62371164092
 20
6523.230120631902
 30
0.0
 11
17096.62371164092
 21
6603.230120631902
 31
0.0
  0
MTEXT
  5
2D32
330
2B48
100
AcDbEntity
  8
SUNPOU
 62
     0
100
AcDbMText
 10
16992.01421737813
 20
6443.230120631901
 30
0.0
 40
120.0
 41
0.0
 71
     5
 72
     1
  1
\A1;150
  7
BIGFONT
 11
0.0000000000000001
 21
1.0
 31
0.0
 73
     1
 44
1.0
  0
LINE
  5
2D33
330
2B48
100
AcDbEntity
  8
SUNPOU
 62
     0
370
    -2
100
AcDbLine
 10
17096.62371164092
 20
6293.230120631903
 30
0.0
 11
17096.62371164092
 21
6443.230120631901
 31
0.0
  0
INSERT
  5
2D34
330
2B48
100
AcDbEntity
  8
SUNPOU
 62
     0
370
    -2
100
AcDbBlockReference
  2
ARROW
 10
17096.62371164092
 20
6293.230120631903
 30
0.0
 41
80.0
 42
80.0
 43
80.0
 50
90.0
  0
INSERT
  5
2D35
330
2B48
100
AcDbEntity
  8
SUNPOU
 62
     0
370
    -2
100
AcDbBlockReference
  2
ARROW
 10
17096.62371164092
 20
6443.230120631901
 30
0.0
 41
80.0
 42
80.0
 43
80.0
 50
270.0
  0
POINT
  5
2D36
330
2B48
100
AcDbEntity
  8
DEFPOINTS
 62
     0
100
AcDbPoint
 10
16455.78274088307
 20
6293.230120631903
 30
0.0
  0
POINT
  5
2D37
330
2B48
100
AcDbEntity
  8
DEFPOINTS
 62
     0
100
AcDbPoint
 10
16455.78274088307
 20
6443.230120631901
 30
0.0
  0
POINT
  5
2D38
330
2B48
100
AcDbEntity
  8
DEFPOINTS
 62
     0
100
AcDbPoint
 10
17096.62371164092
 20
6443.230120631901
 30
0.0
  0
ENDBLK
  5
2B4A
330
2B48
100
AcDbEntity
  8
0
100
AcDbBlockEnd
  0
BLOCK
  5
2B56
330
2B55
100
AcDbEntity
  8
0
100
AcDbBlockBegin
  2
*D48
 70
     1
 10
0.0
 20
0.0
 30
0.0
  3
*D48
  1

  0
LINE
  5
2D39
330
2B55
100
AcDbEntity
  8
SUNPOU
 62
     0
370
    -2
100
AcDbLine
 10
16495.78274088307
 20
6443.230120631901
 30
0.0
 11
17456.62371164092
 21
6443.230120631901
 31
0.0
  0
LINE
  5
2D3A
330
2B55
100
AcDbEntity
  8
SUNPOU
 62
     0
370
    -2
100
AcDbLine
 10
16495.78274088307
 20
5693.230120631902
 30
0.0
 11
17456.62371164092
 21
5693.230120631902
 31
0.0
  0
LINE
  5
2D3B
330
2B55
100
AcDbEntity
  8
SUNPOU
 62
     0
370
    -2
100
AcDbLine
 10
17416.62371164092
 20
6363.2301206319
 30
0.0
 11
17416.62371164092
 21
5773.230120631901
 31
0.0
  0
INSERT
  5
2D3C
330
2B55
100
AcDbEntity
  8
SUNPOU
 62
     0
370
    -2
100
AcDbBlockReference
  2
ARROW
 10
17416.62371164092
 20
6443.230120631901
 30
0.0
 41
80.0
 42
80.0
 43
80.0
 50
90.0
  0
INSERT
  5
2D3D
330
2B55
100
AcDbEntity
  8
SUNPOU
 62
     0
370
    -2
100
AcDbBlockReference
  2
ARROW
 10
17416.62371164092
 20
5693.230120631902
 30
0.0
 41
80.0
 42
80.0
 43
80.0
 50
270.0
  0
MTEXT
  5
2D3E
330
2B55
100
AcDbEntity
  8
SUNPOU
 62
     0
100
AcDbMText
 10
17316.62371164092
 20
6068.230120631904
 30
0.0
 40
120.0
 41
0.0
 71
     5
 72
     1
  1
\A1;750
  7
BIGFONT
 11
0.0000000000000001
 21
1.0
 31
0.0
 73
     1
 44
1.0
  0
POINT
  5
2D3F
330
2B55
100
AcDbEntity
  8
DEFPOINTS
 62
     0
100
AcDbPoint
 10
16455.78274088307
 20
6443.230120631901
 30
0.0
  0
POINT
  5
2D40
330
2B55
100
AcDbEntity
  8
DEFPOINTS
 62
     0
100
AcDbPoint
 10
16455.78274088307
 20
5693.230120631902
 30
0.0
  0
POINT
  5
2D41
330
2B55
100
AcDbEntity
  8
DEFPOINTS
 62
     0
100
AcDbPoint
 10
17416.62371164092
 20
5693.230120631902
 30
0.0
  0
ENDBLK
  5
2B57
330
2B55
100
AcDbEntity
  8
0
100
AcDbBlockEnd
  0
BLOCK
  5
2B62
330
2B61
100
AcDbEntity
  8
0
100
AcDbBlockBegin
  2
*D49
 70
     1
 10
0.0
 20
0.0
 30
0.0
  3
*D49
  1

  0
LINE
  5
2D42
330
2B61
100
AcDbEntity
  8
SUNPOU
 62
     0
370
    -2
100
AcDbLine
 10
16495.78274088307
 20
3693.230120631903
 30
0.0
 11
17136.62371164092
 21
3693.230120631903
 31
0.0
  0
LINE
  5
2D43
330
2B61
100
AcDbEntity
  8
SUNPOU
 62
     0
370
    -2
100
AcDbLine
 10
16495.78274088307
 20
3193.272425342553
 30
0.0
 11
17136.62371164092
 21
3193.272425342553
 31
0.0
  0
LINE
  5
2D44
330
2B61
100
AcDbEntity
  8
SUNPOU
 62
     0
370
    -2
100
AcDbLine
 10
17096.62371164092
 20
3613.230120631903
 30
0.0
 11
17096.62371164092
 21
3273.272425342553
 31
0.0
  0
INSERT
  5
2D45
330
2B61
100
AcDbEntity
  8
SUNPOU
 62
     0
370
    -2
100
AcDbBlockReference
  2
ARROW
 10
17096.62371164092
 20
3693.230120631903
 30
0.0
 41
80.0
 42
80.0
 43
80.0
 50
90.0
  0
INSERT
  5
2D46
330
2B61
100
AcDbEntity
  8
SUNPOU
 62
     0
370
    -2
100
AcDbBlockReference
  2
ARROW
 10
17096.62371164092
 20
3193.272425342553
 30
0.0
 41
80.0
 42
80.0
 43
80.0
 50
270.0
  0
MTEXT
  5
2D47
330
2B61
100
AcDbEntity
  8
SUNPOU
 62
     0
100
AcDbMText
 10
16996.62371164092
 20
3443.251272987231
 30
0.0
 40
120.0
 41
0.0
 71
     5
 72
     1
  1
\A1;500
  7
BIGFONT
 11
0.0000000000000001
 21
1.0
 31
0.0
 73
     1
 44
1.0
  0
POINT
  5
2D48
330
2B61
100
AcDbEntity
  8
DEFPOINTS
 62
     0
100
AcDbPoint
 10
16455.78274088307
 20
3693.230120631903
 30
0.0
  0
POINT
  5
2D49
330
2B61
100
AcDbEntity
  8
DEFPOINTS
 62
     0
100
AcDbPoint
 10
16455.78274088307
 20
3193.272425342553
 30
0.0
  0
POINT
  5
2D4A
330
2B61
100
AcDbEntity
  8
DEFPOINTS
 62
     0
100
AcDbPoint
 10
17096.62371164092
 20
3193.272425342553
 30
0.0
  0
ENDBLK
  5
2B63
330
2B61
100
AcDbEntity
  8
0
100
AcDbBlockEnd
  0
BLOCK
  5
2B6E
330
2B6D
100
AcDbEntity
  8
0
100
AcDbBlockBegin
  2
*D50
 70
     1
 10
0.0
 20
0.0
 30
0.0
  3
*D50
  1

  0
LINE
  5
2D4B
330
2B6D
100
AcDbEntity
  8
SUNPOU
 62
     0
370
    -2
100
AcDbLine
 10
13955.33864193874
 20
4329.547063217058
 30
0.0
 11
13955.33864193874
 21
4357.734998483878
 31
0.0
  0
LINE
  5
2D4C
330
2B6D
100
AcDbEntity
  8
SUNPOU
 62
     0
370
    -2
100
AcDbLine
 10
15155.33864193874
 20
4315.453105362534
 30
0.0
 11
15155.33864193874
 21
4357.734998483878
 31
0.0
  0
LINE
  5
2D4D
330
2B6D
100
AcDbEntity
  8
SUNPOU
 62
     0
370
    -2
100
AcDbLine
 10
14035.33864193874
 20
4317.734998483878
 30
0.0
 11
15075.33864193874
 21
4317.734998483878
 31
0.0
  0
INSERT
  5
2D4E
330
2B6D
100
AcDbEntity
  8
SUNPOU
 62
     0
370
    -2
100
AcDbBlockReference
  2
ARROW
 10
13955.33864193874
 20
4317.734998483878
 30
0.0
 41
80.0
 42
80.0
 43
80.0
 50
180.0
  0
INSERT
  5
2D4F
330
2B6D
100
AcDbEntity
  8
SUNPOU
 62
     0
370
    -2
100
AcDbBlockReference
  2
ARROW
 10
15155.33864193874
 20
4317.734998483878
 30
0.0
 41
80.0
 42
80.0
 43
80.0
  0
MTEXT
  5
2D50
330
2B6D
100
AcDbEntity
  8
SUNPOU
 62
     0
100
AcDbMText
 10
14555.33864193874
 20
4417.734998483878
 30
0.0
 40
120.0
 41
0.0
 71
     5
 72
     1
  1
\A1;φ1200
  7
BIGFONT
 73
     1
 44
1.0
  0
POINT
  5
2D51
330
2B6D
100
AcDbEntity
  8
DEFPOINTS
 62
     0
100
AcDbPoint
 10
13955.33864193874
 20
4289.547063217058
 30
0.0
  0
POINT
  5
2D52
330
2B6D
100
AcDbEntity
  8
DEFPOINTS
 62
     0
100
AcDbPoint
 10
15155.33864193874
 20
4275.453105362534
 30
0.0
  0
POINT
  5
2D53
330
2B6D
100
AcDbEntity
  8
DEFPOINTS
 62
     0
100
AcDbPoint
 10
15155.33864193874
 20
4317.734998483878
 30
0.0
  0
ENDBLK
  5
2B6F
330
2B6D
100
AcDbEntity
  8
0
100
AcDbBlockEnd
  0
BLOCK
  5
2B7A
330
2B79
100
AcDbEntity
  8
0
100
AcDbBlockBegin
  2
*D51
 70
     1
 10
0.0
 20
0.0
 30
0.0
  3
*D51
  1

  0
LINE
  5
2D54
330
2B79
100
AcDbEntity
  8
SUNPOU
 62
     0
370
    -2
100
AcDbLine
 10
16495.78274088307
 20
6443.230120631901
 30
0.0
 11
17768.22067675268
 21
6443.230120631901
 31
0.0
  0
LINE
  5
2D55
330
2B79
100
AcDbEntity
  8
SUNPOU
 62
     0
370
    -2
100
AcDbLine
 10
16535.78274088307
 20
3193.272425342553
 30
0.0
 11
17768.22067675268
 21
3193.272425342553
 31
0.0
  0
LINE
  5
2D56
330
2B79
100
AcDbEntity
  8
SUNPOU
 62
     0
370
    -2
100
AcDbLine
 10
17728.22067675268
 20
6363.230120631902
 30
0.0
 11
17728.22067675268
 21
3273.272425342553
 31
0.0
  0
INSERT
  5
2D57
330
2B79
100
AcDbEntity
  8
SUNPOU
 62
     0
370
    -2
100
AcDbBlockReference
  2
ARROW
 10
17728.22067675268
 20
6443.230120631901
 30
0.0
 41
80.0
 42
80.0
 43
80.0
 50
90.0
  0
INSERT
  5
2D58
330
2B79
100
AcDbEntity
  8
SUNPOU
 62
     0
370
    -2
100
AcDbBlockReference
  2
ARROW
 10
17728.22067675268
 20
3193.272425342553
 30
0.0
 41
80.0
 42
80.0
 43
80.0
 50
270.0
  0
MTEXT
  5
2D59
330
2B79
100
AcDbEntity
  8
SUNPOU
 62
     0
100
AcDbMText
 10
17628.22067675268
 20
4818.25127298723
 30
0.0
 40
120.0
 41
0.0
 71
     5
 72
     1
  1
\A1;3250
  7
BIGFONT
 11
0.0000000000000001
 21
1.0
 31
0.0
 73
     1
 44
1.0
  0
POINT
  5
2D5A
330
2B79
100
AcDbEntity
  8
DEFPOINTS
 62
     0
100
AcDbPoint
 10
16455.78274088307
 20
6443.230120631901
 30
0.0
  0
POINT
  5
2D5B
330
2B79
100
AcDbEntity
  8
DEFPOINTS
 62
     0
100
AcDbPoint
 10
16495.78274088307
 20
3193.272425342553
 30
0.0
  0
POINT
  5
2D5C
330
2B79
100
AcDbEntity
  8
DEFPOINTS
 62
     0
100
AcDbPoint
 10
17728.22067675268
 20
3193.272425342553
 30
0.0
  0
ENDBLK
  5
2B7B
330
2B79
100
AcDbEntity
  8
0
100
AcDbBlockEnd
  0
BLOCK
  5
2B86
330
2B85
100
AcDbEntity
  8
0
100
AcDbBlockBegin
  2
*D52
 70
     1
 10
0.0
 20
0.0
 30
0.0
  3
*D52
  1

  0
LINE
  5
2D5D
330
2B85
100
AcDbEntity
  8
SUNPOU
 62
     0
370
    -2
100
AcDbLine
 10
18108.74608988081
 20
3056.044554179063
 30
0.0
 11
18108.74608988081
 21
2232.334584053133
 31
0.0
  0
LINE
  5
2D5E
330
2B85
100
AcDbEntity
  8
SUNPOU
 62
     0
370
    -2
100
AcDbLine
 10
21608.7460898808
 20
3056.04455417906
 30
0.0
 11
21608.7460898808
 21
2232.334584053133
 31
0.0
  0
LINE
  5
2D5F
330
2B85
100
AcDbEntity
  8
SUNPOU
 62
     0
370
    -2
100
AcDbLine
 10
18188.7460898808
 20
2272.334584053133
 30
0.0
 11
21528.7460898808
 21
2272.334584053133
 31
0.0
  0
INSERT
  5
2D60
330
2B85
100
AcDbEntity
  8
SUNPOU
 62
     0
370
    -2
100
AcDbBlockReference
  2
ARROW
 10
18108.74608988081
 20
2272.334584053133
 30
0.0
 41
80.0
 42
80.0
 43
80.0
 50
180.0
  0
INSERT
  5
2D61
330
2B85
100
AcDbEntity
  8
SUNPOU
 62
     0
370
    -2
100
AcDbBlockReference
  2
ARROW
 10
21608.7460898808
 20
2272.334584053133
 30
0.0
 41
80.0
 42
80.0
 43
80.0
  0
MTEXT
  5
2D62
330
2B85
100
AcDbEntity
  8
SUNPOU
 62
     0
100
AcDbMText
 10
19858.74608988081
 20
2372.334584053133
 30
0.0
 40
120.0
 41
0.0
 71
     5
 72
     1
  1
\A1;3500
  7
BIGFONT
 73
     1
 44
1.0
  0
POINT
  5
2D63
330
2B85
100
AcDbEntity
  8
DEFPOINTS
 62
     0
100
AcDbPoint
 10
18108.74608988081
 20
3096.044554179063
 30
0.0
  0
POINT
  5
2D64
330
2B85
100
AcDbEntity
  8
DEFPOINTS
 62
     0
100
AcDbPoint
 10
21608.7460898808
 20
3096.04455417906
 30
0.0
  0
POINT
  5
2D65
330
2B85
100
AcDbEntity
  8
DEFPOINTS
 62
     0
100
AcDbPoint
 10
21608.7460898808
 20
2272.334584053133
 30
0.0
  0
ENDBLK
  5
2B87
330
2B85
100
AcDbEntity
  8
0
100
AcDbBlockEnd
  0
BLOCK
  5
2B92
330
2B91
100
AcDbEntity
  8
0
100
AcDbBlockBegin
  2
*D53
 70
     1
 10
0.0
 20
0.0
 30
0.0
  3
*D53
  1

  0
LINE
  5
2D66
330
2B91
100
AcDbEntity
  8
SUNPOU
 62
     0
370
    -2
100
AcDbLine
 10
18858.7460898808
 20
3056.044554179064
 30
0.0
 11
18858.7460898808
 21
2516.791447262629
 31
0.0
  0
LINE
  5
2D67
330
2B91
100
AcDbEntity
  8
SUNPOU
 62
     0
370
    -2
100
AcDbLine
 10
20858.74608988081
 20
3056.044554179063
 30
0.0
 11
20858.74608988081
 21
2516.791447262629
 31
0.0
  0
LINE
  5
2D68
330
2B91
100
AcDbEntity
  8
SUNPOU
 62
     0
370
    -2
100
AcDbLine
 10
18938.7460898808
 20
2556.791447262629
 30
0.0
 11
20778.74608988081
 21
2556.791447262629
 31
0.0
  0
INSERT
  5
2D69
330
2B91
100
AcDbEntity
  8
SUNPOU
 62
     0
370
    -2
100
AcDbBlockReference
  2
ARROW
 10
18858.7460898808
 20
2556.791447262629
 30
0.0
 41
80.0
 42
80.0
 43
80.0
 50
180.0
  0
INSERT
  5
2D6A
330
2B91
100
AcDbEntity
  8
SUNPOU
 62
     0
370
    -2
100
AcDbBlockReference
  2
ARROW
 10
20858.74608988081
 20
2556.791447262629
 30
0.0
 41
80.0
 42
80.0
 43
80.0
  0
MTEXT
  5
2D6B
330
2B91
100
AcDbEntity
  8
SUNPOU
 62
     0
100
AcDbMText
 10
19858.74608988081
 20
2656.791447262629
 30
0.0
 40
120.0
 41
0.0
 71
     5
 72
     1
  1
\A1;2000
  7
BIGFONT
 73
     1
 44
1.0
  0
POINT
  5
2D6C
330
2B91
100
AcDbEntity
  8
DEFPOINTS
 62
     0
100
AcDbPoint
 10
18858.7460898808
 20
3096.044554179064
 30
0.0
  0
POINT
  5
2D6D
330
2B91
100
AcDbEntity
  8
DEFPOINTS
 62
     0
100
AcDbPoint
 10
20858.74608988081
 20
3096.044554179063
 30
0.0
  0
POINT
  5
2D6E
330
2B91
100
AcDbEntity
  8
DEFPOINTS
 62
     0
100
AcDbPoint
 10
20858.74608988081
 20
2556.791447262629
 30
0.0
  0
ENDBLK
  5
2B93
330
2B91
100
AcDbEntity
  8
0
100
AcDbBlockEnd
  0
BLOCK
  5
2B9E
330
2B9D
100
AcDbEntity
  8
0
100
AcDbBlockBegin
  2
*D54
 70
     1
 10
0.0
 20
0.0
 30
0.0
  3
*D54
  1

  0
LINE
  5
2D6F
330
2B9D
100
AcDbEntity
  8
SUNPOU
 62
     0
370
    -2
100
AcDbLine
 10
21648.74608988081
 20
6596.044554179065
 30
0.0
 11
22402.68671379509
 21
6596.044554179065
 31
0.0
  0
LINE
  5
2D70
330
2B9D
100
AcDbEntity
  8
SUNPOU
 62
     0
370
    -2
100
AcDbLine
 10
21648.7460898808
 20
3096.04455417906
 30
0.0
 11
22402.68671379509
 21
3096.04455417906
 31
0.0
  0
LINE
  5
2D71
330
2B9D
100
AcDbEntity
  8
SUNPOU
 62
     0
370
    -2
100
AcDbLine
 10
22362.68671379509
 20
6516.044554179065
 30
0.0
 11
22362.68671379509
 21
3176.04455417906
 31
0.0
  0
INSERT
  5
2D72
330
2B9D
100
AcDbEntity
  8
SUNPOU
 62
     0
370
    -2
100
AcDbBlockReference
  2
ARROW
 10
22362.68671379509
 20
6596.044554179065
 30
0.0
 41
80.0
 42
80.0
 43
80.0
 50
90.0
  0
INSERT
  5
2D73
330
2B9D
100
AcDbEntity
  8
SUNPOU
 62
     0
370
    -2
100
AcDbBlockReference
  2
ARROW
 10
22362.68671379509
 20
3096.04455417906
 30
0.0
 41
80.0
 42
80.0
 43
80.0
 50
270.0
  0
MTEXT
  5
2D74
330
2B9D
100
AcDbEntity
  8
SUNPOU
 62
     0
100
AcDbMText
 10
22262.68671379509
 20
4846.044554179066
 30
0.0
 40
120.0
 41
0.0
 71
     5
 72
     1
  1
\A1;3500
  7
BIGFONT
 11
0.0000000000000001
 21
1.0
 31
0.0
 73
     1
 44
1.0
  0
POINT
  5
2D75
330
2B9D
100
AcDbEntity
  8
DEFPOINTS
 62
     0
100
AcDbPoint
 10
21608.74608988081
 20
6596.044554179065
 30
0.0
  0
POINT
  5
2D76
330
2B9D
100
AcDbEntity
  8
DEFPOINTS
 62
     0
100
AcDbPoint
 10
21608.7460898808
 20
3096.04455417906
 30
0.0
  0
POINT
  5
2D77
330
2B9D
100
AcDbEntity
  8
DEFPOINTS
 62
     0
100
AcDbPoint
 10
22362.68671379509
 20
3096.04455417906
 30
0.0
  0
ENDBLK
  5
2B9F
330
2B9D
100
AcDbEntity
  8
0
100
AcDbBlockEnd
  0
BLOCK
  5
2BAA
330
2BA9
100
AcDbEntity
  8
0
100
AcDbBlockBegin
  2
*D55
 70
     1
 10
0.0
 20
0.0
 30
0.0
  3
*D55
  1

  0
LINE
  5
2D78
330
2BA9
100
AcDbEntity
  8
SUNPOU
 62
     0
370
    -2
100
AcDbLine
 10
21648.74608988081
 20
5846.044554179065
 30
0.0
 11
22072.88264037529
 21
5846.044554179065
 31
0.0
  0
LINE
  5
2D79
330
2BA9
100
AcDbEntity
  8
SUNPOU
 62
     0
370
    -2
100
AcDbLine
 10
21648.7460898808
 20
3846.044554179064
 30
0.0
 11
22072.88264037529
 21
3846.044554179064
 31
0.0
  0
LINE
  5
2D7A
330
2BA9
100
AcDbEntity
  8
SUNPOU
 62
     0
370
    -2
100
AcDbLine
 10
22032.88264037529
 20
5766.044554179065
 30
0.0
 11
22032.88264037529
 21
3926.044554179063
 31
0.0
  0
INSERT
  5
2D7B
330
2BA9
100
AcDbEntity
  8
SUNPOU
 62
     0
370
    -2
100
AcDbBlockReference
  2
ARROW
 10
22032.88264037529
 20
5846.044554179065
 30
0.0
 41
80.0
 42
80.0
 43
80.0
 50
90.0
  0
INSERT
  5
2D7C
330
2BA9
100
AcDbEntity
  8
SUNPOU
 62
     0
370
    -2
100
AcDbBlockReference
  2
ARROW
 10
22032.88264037529
 20
3846.044554179064
 30
0.0
 41
80.0
 42
80.0
 43
80.0
 50
270.0
  0
MTEXT
  5
2D7D
330
2BA9
100
AcDbEntity
  8
SUNPOU
 62
     0
100
AcDbMText
 10
21932.88264037529
 20
4846.044554179067
 30
0.0
 40
120.0
 41
0.0
 71
     5
 72
     1
  1
\A1;2000
  7
BIGFONT
 11
0.0000000000000001
 21
1.0
 31
0.0
 73
     1
 44
1.0
  0
POINT
  5
2D7E
330
2BA9
100
AcDbEntity
  8
DEFPOINTS
 62
     0
100
AcDbPoint
 10
21608.74608988081
 20
5846.044554179065
 30
0.0
  0
POINT
  5
2D7F
330
2BA9
100
AcDbEntity
  8
DEFPOINTS
 62
     0
100
AcDbPoint
 10
21608.7460898808
 20
3846.044554179064
 30
0.0
  0
POINT
  5
2D80
330
2BA9
100
AcDbEntity
  8
DEFPOINTS
 62
     0
100
AcDbPoint
 10
22032.88264037529
 20
3846.044554179064
 30
0.0
  0
ENDBLK
  5
2BAB
330
2BA9
100
AcDbEntity
  8
0
100
AcDbBlockEnd
  0
BLOCK
  5
2C7D
330
2C7C
100
AcDbEntity
  8
0
100
AcDbBlockBegin
  2
*D56
 70
     1
 10
0.0
 20
0.0
 30
0.0
  3
*D56
  1

  0
LINE
  5
2D81
330
2C7C
100
AcDbEntity
  8
DEFPOINTS
 62
     0
370
    -2
100
AcDbLine
 10
14638.62028766276
 20
5393.050797275069
 30
0.0
 11
14472.05699621473
 21
5193.409443988732
 31
0.0
  0
MTEXT
  5
2D82
102
{ACAD_XDICTIONARY
360
2DB2
102
}
330
2C7C
100
AcDbEntity
  8
DEFPOINTS
 62
     0
100
AcDbMText
 10
14319.96799963935
 20
5488.750885965679
 30
0.0
 40
120.0
 41
0.0
 71
     5
 72
     1
  1
\A1;\U+2205420
  7
BIGFONT
 11
0.6406280440308797
 21
0.7678513587935944
 31
0.0
 73
     1
 44
1.0
  0
INSERT
  5
2D83
330
2C7C
100
AcDbEntity
  8
DEFPOINTS
 62
     0
370
    -2
100
AcDbBlockReference
  2
ARROW
 10
14689.87053118523
 20
5454.478905978557
 30
0.0
 41
80.0
 42
80.0
 43
80.0
 50
50.16133288290188
  0
INSERT
  5
2D84
330
2C7C
100
AcDbEntity
  8
DEFPOINTS
 62
     0
370
    -2
100
AcDbBlockReference
  2
ARROW
 10
14420.80675269226
 20
5131.981335285246
 30
0.0
 41
80.0
 42
80.0
 43
80.0
 50
230.1613328829019
  0
POINT
  5
2D85
330
2C7C
100
AcDbEntity
  8
DEFPOINTS
 62
     0
100
AcDbPoint
 10
14420.80675269226
 20
5131.981335285246
 30
0.0
  0
POINT
  5
2D86
330
2C7C
100
AcDbEntity
  8
DEFPOINTS
 62
     0
100
AcDbPoint
 10
14689.87053118523
 20
5454.478905978557
 30
0.0
  0
ENDBLK
  5
2C7E
330
2C7C
100
AcDbEntity
  8
0
100
AcDbBlockEnd
  0
ENDSEC
  0
SECTION
  2
ENTITIES
  0
INSERT
  5
1908
330
18
100
AcDbEntity
  8
0
100
AcDbBlockReference
  2
YA_N
 10
6.0
 20
5.0
 30
0.0
  0
LINE
  5
1C2B
330
18
100
AcDbEntity
  8
KL
100
AcDbLine
 10
2638.338641938745
 20
6383.230120631901
 30
0.0
 11
2975.338641938746
 21
6383.230120631901
 31
0.0
  0
LINE
  5
1C2C
330
18
100
AcDbEntity
  8
KL
100
AcDbLine
 10
2648.338641938746
 20
6393.230120631901
 30
0.0
 11
2975.338641938746
 21
6393.230120631901
 31
0.0
  0
LINE
  5
1C2D
330
18
100
AcDbEntity
  8
0
100
AcDbLine
 10
3445.338641938746
 20
6443.230120631901
 30
0.0
 11
2505.338641938746
 21
6443.230120631901
 31
0.0
  0
TEXT
  5
1C31
330
18
100
AcDbEntity
  8
SUNPOU
100
AcDbText
 10
2391.027345547074
 20
7018.887293035906
 30
0.0
 40
120.0
  1
片斜壁６００Ｄ
  7
BIGFONT
 11
2391.027345547074
 21
7078.887293035904
 31
0.0
100
AcDbText
 73
     2
  0
LWPOLYLINE
  5
1C32
330
18
100
AcDbEntity
  8
SUNPOU
100
AcDbPolyline
 90
        3
 70
     0
 43
0.0
 10
2291.027345547075
 20
5958.162995515412
 10
2291.027345547075
 20
6978.887293035905
 10
3267.69557470404
 20
6978.887293035905
  0
DIMENSION
  5
1C38
330
18
100
AcDbEntity
  8
SUNPOU
100
AcDbDimension
  2
*D8
 10
4425.325950525548
 20
2330.411241488765
 30
0.0
 11
2675.338641938744
 21
2430.411241488765
 31
0.0
 70
    32
 71
     5
 42
3499.974617173608
  3
STANDARD
100
AcDbAlignedDimension
 13
925.3513333519403
 23
3050.839655096608
 33
0.0
 14
4425.325950525548
 24
3050.839655096608
 34
0.0
100
AcDbRotatedDimension
1001
ACAD
1000
DSTYLE
1002
{
1070
   288
1070
     1
1070
   140
1040
3.0
1070
   340
1005
6D
1070
    74
1070
     0
1070
   172
1070
     1
1070
    73
1070
     0
1070
    77
1070
     1
1070
    40
1040
40.0
1070
   147
1040
1.0
1070
    42
1040
1.0
1070
    44
1040
1.0
1070
    43
1040
10.0
1070
   271
1070
     0
1070
   141
1040
0.0
1070
     5
1000
ARROW
1070
    41
1040
2.0
1002
}
  0
DIMENSION
  5
1C39
330
18
100
AcDbEntity
  8
SUNPOU
100
AcDbDimension
  2
*D9
 10
3675.338641938746
 20
2614.868104698261
 30
0.0
 11
2675.338641938746
 21
2714.868104698261
 31
0.0
 70
    32
 71
     5
 42
2000.000000000001
  3
STANDARD
100
AcDbAlignedDimension
 13
1675.338641938745
 23
2988.418984751127
 33
0.0
 14
3675.338641938746
 24
2988.418984751127
 34
0.0
100
AcDbRotatedDimension
1001
ACAD
1000
DSTYLE
1002
{
1070
   288
1070
     1
1070
   140
1040
3.0
1070
   340
1005
6D
1070
    74
1070
     0
1070
   172
1070
     1
1070
    73
1070
     0
1070
    77
1070
     1
1070
    40
1040
40.0
1070
   147
1040
1.0
1070
    42
1040
1.0
1070
    44
1040
1.0
1070
    43
1040
10.0
1070
   271
1070
     0
1070
   141
1040
0.0
1070
     5
1000
ARROW
1070
    41
1040
2.0
1002
}
  0
LINE
  5
1C3C
330
18
100
AcDbEntity
  8
0
100
AcDbLine
 10
1925.338641938745
 20
5693.230120631902
 30
0.0
 11
3425.338641938746
 21
5693.230120631902
 31
0.0
  0
LINE
  5
1C3D
330
18
100
AcDbEntity
  8
KL
100
AcDbLine
 10
3275.338641938746
 20
3723.230120631904
 30
0.0
 11
2075.338641938742
 21
3723.230120631904
 31
0.0
  0
LINE
  5
1C3E
330
18
100
AcDbEntity
  8
0
100
AcDbLine
 10
2675.338641938746
 20
3563.230120631903
 30
0.0
 11
3150.338641938746
 21
3563.230120631903
 31
0.0
  0
LINE
  5
1C3F
330
18
100
AcDbEntity
  8
0
100
AcDbLine
 10
1925.338641938745
 20
3693.230120631903
 30
0.0
 11
3125.338641938748
 21
3693.230120631903
 31
0.0
  0
LINE
  5
1C40
330
18
100
AcDbEntity
  8
0
100
AcDbLine
 10
2675.338641938746
 20
3563.230120631903
 30
0.0
 11
3450.338641938748
 21
3563.230120631903
 31
0.0
  0
LINE
  5
1C41
330
18
100
AcDbEntity
  8
0
100
AcDbLine
 10
3425.338641938746
 20
3693.230120631903
 30
0.0
 11
1925.338641938745
 21
3693.230120631903
 31
0.0
  0
LINE
  5
1C42
330
18
100
AcDbEntity
  8
0
100
AcDbLine
 10
1925.338641938745
 20
3693.230120631903
 30
0.0
 11
3425.338641938746
 21
3693.230120631903
 31
0.0
  0
LWPOLYLINE
  5
1C43
330
18
100
AcDbEntity
  8
SUNPOU
100
AcDbPolyline
 90
        4
 70
     0
 43
0.0
 10
1359.233412552648
 20
5732.659630727496
 10
1359.233412552648
 20
5944.069037660889
 10
978.4479106907237
 20
5944.069037660889
 10
199.037947372517
 20
5944.069037660889
  0
INSERT
  5
1C49
330
18
100
AcDbEntity
  8
SUNPOU
100
AcDbBlockReference
  2
ARROW
 10
1359.233412552648
 20
5732.659630727496
 30
0.0
 41
80.0
 42
80.0
 43
80.0
 50
270.0
  0
LWPOLYLINE
  5
1C4C
330
18
100
AcDbEntity
  8
SUNPOU
100
AcDbPolyline
 90
        3
 70
     0
 43
0.0
 10
1984.860822755188
 20
4530.76697499397
 10
800.1947636032255
 20
4530.76697499397
 10
48.91557342853047
 20
4530.939558611602
  0
LWPOLYLINE
  5
1C51
330
18
100
AcDbEntity
  8
SUNPOU
100
AcDbPolyline
 90
        3
 70
     0
 43
0.0
 10
2048.067159783728
 20
3631.659636594739
 10
849.2979161097046
 20
3631.659636594739
 10
73.91557342853047
 20
3631.000000000002
  0
LWPOLYLINE
  5
1C56
330
18
100
AcDbEntity
  8
SUNPOU
100
AcDbPolyline
 90
        3
 70
     0
 43
0.0
 10
1605.392939522233
 20
5080.878634334425
 10
1196.401100631768
 20
5080.878634334425
 10
107.9613527716815
 20
5080.878634334425
  0
TEXT
  5
1C5B
330
18
100
AcDbEntity
  8
SUNPOU
100
AcDbText
 10
145.9155734285304
 20
3671.000000000002
 30
0.0
 40
120.0
  1
ＲＬ－１２００
  7
BIGFONT
 72
     2
 11
1097.91557342853
 21
3731.000000000002
 31
0.0
100
AcDbText
 73
     2
  0
TEXT
  5
1C5C
330
18
100
AcDbEntity
  8
SUNPOU
100
AcDbText
 10
140.9155734285304
 20
4570.939558611602
 30
0.0
 40
120.0
  1
ＥＷ－１２００
  7
BIGFONT
 72
     2
 11
1092.91557342853
 21
4630.939558611602
 31
0.0
100
AcDbText
 73
     2
  0
TEXT
  5
1C5D
330
18
100
AcDbEntity
  8
SUNPOU
100
AcDbText
 10
178.7334207750598
 20
5138.183403897242
 30
0.0
 40
120.0
  1
単粒度砕石
  7
BIGFONT
 72
     2
 11
866.7334207750601
 21
5198.183403897242
 31
0.0
100
AcDbText
 73
     2
  0
LINE
  5
1C63
330
18
100
AcDbEntity
  8
0
100
AcDbLine
 10
2675.338641938746
 20
3563.230120631903
 30
0.0
 11
1900.338641938745
 21
3563.230120631903
 31
0.0
  0
LINE
  5
1C64
330
18
100
AcDbEntity
  8
0
100
AcDbLine
 10
2075.338641938742
 20
3563.230120631903
 30
0.0
 11
2550.338641938744
 21
3563.230120631903
 31
0.0
  0
LINE
  5
1C65
330
18
100
AcDbEntity
  8
0
100
AcDbLine
 10
2675.338641938746
 20
3563.230120631903
 30
0.0
 11
2200.338641938746
 21
3563.230120631903
 31
0.0
  0
LINE
  5
1C66
330
18
100
AcDbEntity
  8
0
100
AcDbLine
 10
2675.338641938746
 20
3563.230120631903
 30
0.0
 11
1900.338641938745
 21
3563.230120631902
 31
0.0
  0
LINE
  5
1C67
330
18
100
AcDbEntity
  8
0
100
AcDbLine
 10
2075.338641938742
 20
3563.230120631903
 30
0.0
 11
1900.338641938745
 21
3563.230120631903
 31
0.0
  0
LINE
  5
1C68
330
18
100
AcDbEntity
  8
0
100
AcDbLine
 10
1900.338641938745
 20
3693.230120631903
 30
0.0
 11
2075.338641938742
 21
3693.230120631903
 31
0.0
  0
INSERT
  5
1C69
330
18
100
AcDbEntity
  8
SUNPOU
100
AcDbBlockReference
  2
ARROW
 10
2023.067159783728
 20
3632.659636594738
 30
0.0
 41
80.0
 42
80.0
 43
80.0
  0
LINE
  5
1C6A
330
18
100
AcDbEntity
  8
0
100
AcDbLine
 10
1900.338641938745
 20
3563.230120631903
 30
0.0
 11
1900.338641938745
 21
3693.230120631903
 31
0.0
  0
LINE
  5
1C6B
330
18
100
AcDbEntity
  8
KL
100
AcDbLine
 10
2200.338641938746
 20
3723.230120631904
 30
0.0
 11
2200.338641938746
 21
3563.230120631903
 31
0.0
  0
LINE
  5
1C6C
330
18
100
AcDbEntity
  8
KL
100
AcDbLine
 10
2075.338641938742
 20
3693.230120631903
 30
0.0
 11
2075.338641938742
 21
3723.230120631904
 31
0.0
  0
LINE
  5
1C6D
330
18
100
AcDbEntity
  8
0
100
AcDbLine
 10
2075.338641938742
 20
3723.230120631904
 30
0.0
 11
2075.338641938742
 21
3693.230120631903
 31
0.0
  0
INSERT
  5
1C6E
330
18
100
AcDbEntity
  8
SUNPOU
100
AcDbBlockReference
  2
ARROW
 10
1984.860822755188
 20
4530.76697499397
 30
0.0
 41
80.0
 42
80.0
 43
80.0
  0
LINE
  5
1C6F
330
18
100
AcDbEntity
  8
0
100
AcDbLine
 10
1925.338641938742
 20
5693.230120631902
 30
0.0
 11
925.3513333519403
 21
5693.230120631902
 31
0.0
  0
LINE
  5
1C70
330
18
100
AcDbEntity
  8
KL
100
AcDbLine
 10
1925.338641938742
 20
5723.230120631903
 30
0.0
 11
885.0304138252049
 21
5723.2301206319
 31
0.0
  0
INSERT
  5
1C72
330
18
100
AcDbEntity
  8
SUNPOU
100
AcDbBlockReference
  2
ARROW
 10
1605.392939522233
 20
5080.878634334425
 30
0.0
 41
80.0
 42
80.0
 43
80.0
  0
LINE
  5
1C73
330
18
100
AcDbEntity
  8
KL
100
AcDbLine
 10
2075.338641938746
 20
3693.230120631903
 30
0.0
 11
2075.338641938746
 21
4693.230120631903
 31
0.0
  0
LINE
  5
1C74
330
18
100
AcDbEntity
  8
0
100
AcDbLine
 10
1925.338641938745
 20
3693.230120631903
 30
0.0
 11
1925.338641938742
 21
5693.230120631902
 31
0.0
  0
LINE
  5
1C75
330
18
100
AcDbEntity
  8
0
100
AcDbLine
 10
-103.2956243327321
 20
6254.136149575944
 30
0.0
 11
36.89539214404249
 21
6394.327166052718
 31
0.0
  0
LINE
  5
1C76
330
18
100
AcDbEntity
  8
0
100
AcDbLine
 10
388.0846969876111
 20
6250.541724065705
 30
0.0
 11
484.3827655593322
 21
6346.839792637426
 31
0.0
  0
LINE
  5
1C77
330
18
100
AcDbEntity
  8
0
100
AcDbLine
 10
391.6791224978488
 20
6254.136149575944
 30
0.0
 11
540.7730935538084
 21
6403.230120631903
 31
0.0
  0
LINE
  5
1C78
330
18
100
AcDbEntity
  8
0
100
AcDbLine
 10
291.980858101284
 20
6260.503902357361
 30
0.0
 11
434.7070763758265
 21
6403.230120631903
 31
0.0
  0
LINE
  5
1C79
330
18
100
AcDbEntity
  8
0
100
AcDbLine
 10
282.0186798096301
 20
6250.541724065705
 30
0.0
 11
431.3497569703413
 21
6399.872801226418
 31
0.0
  0
LINE
  5
1C7A
330
18
100
AcDbEntity
  8
0
100
AcDbLine
 10
285.6131053198678
 20
6254.136149575944
 30
0.0
 11
431.3497569703413
 21
6399.872801226418
 31
0.0
  0
TEXT
  5
1C7B
330
18
100
AcDbEntity
  8
SUNPOU
100
AcDbText
 10
214.4479106907238
 20
5984.069037660889
 30
0.0
 40
120.0
  1
透水シート
  7
BIGFONT
 72
     2
 11
878.4479106907237
 21
6044.069037660889
 31
0.0
100
AcDbText
 73
     2
  0
LINE
  5
1C7C
330
18
100
AcDbEntity
  8
0
100
AcDbLine
 10
150.5595018639742
 20
6295.85924141669
 30
0.0
 11
192.2825937047209
 21
6254.136149575944
 31
0.0
  0
LINE
  5
1C7D
330
18
100
AcDbEntity
  8
0
100
AcDbLine
 10
142.9614093220234
 20
6288.261148874738
 30
0.0
 11
257.9303810791898
 21
6403.230120631903
 31
0.0
  0
LINE
  5
1C7E
330
18
100
AcDbEntity
  8
0
100
AcDbLine
 10
2.770392845247442
 20
6254.136149575944
 30
0.0
 11
89.92840073303387
 21
6341.294157463728
 31
0.0
  0
LINE
  5
1C7F
330
18
100
AcDbEntity
  8
0
100
AcDbLine
 10
36.89539214404249
 20
6394.327166052718
 30
0.0
 11
45.79834672322522
 21
6403.230120631903
 31
0.0
  0
LINE
  5
1C80
330
18
100
AcDbEntity
  8
0
100
AcDbLine
 10
108.8364100232302
 20
6254.136149575944
 30
0.0
 11
142.9614093220234
 21
6288.261148874738
 31
0.0
  0
LINE
  5
1C81
330
18
100
AcDbEntity
  8
0
100
AcDbLine
 10
89.92840073303387
 20
6341.294157463728
 30
0.0
 11
151.8643639012075
 21
6403.230120631903
 31
0.0
  0
LINE
  5
1C82
330
18
100
AcDbEntity
  8
0
100
AcDbLine
 10
255.3206570047259
 20
6403.230120631903
 30
0.0
 11
345.0138666902767
 21
6313.536910946353
 31
0.0
  0
LINE
  5
1C83
330
18
100
AcDbEntity
  8
0
100
AcDbLine
 10
203.592510452967
 20
6348.892250005679
 30
0.0
 11
291.980858101284
 21
6260.503902357361
 31
0.0
  0
LINE
  5
1C84
330
18
100
AcDbEntity
  8
0
100
AcDbLine
 10
361.3866741827078
 20
6403.230120631903
 30
0.0
 11
398.0468752792676
 21
6366.569919535343
 31
0.0
  0
LINE
  5
1C85
330
18
100
AcDbEntity
  8
0
100
AcDbLine
 10
610.1789096352304
 20
6366.569919535343
 30
0.0
 11
722.6126795946302
 21
6254.136149575944
 31
0.0
  0
LINE
  5
1C86
330
18
100
AcDbEntity
  8
0
100
AcDbLine
 10
497.7451396758315
 20
6254.136149575944
 30
0.0
 11
646.8391107317902
 21
6403.230120631903
 31
0.0
  0
LINE
  5
1C87
330
18
100
AcDbEntity
  8
0
100
AcDbLine
 10
494.150714165592
 20
6250.541724065705
 30
0.0
 11
537.4157741483231
 21
6293.806784048436
 31
0.0
  0
LINE
  5
1C88
330
18
100
AcDbEntity
  8
0
100
AcDbLine
 10
504.1128924572485
 20
6260.503902357361
 30
0.0
 11
510.4806452386656
 21
6254.136149575944
 31
0.0
  0
LINE
  5
1C89
330
18
100
AcDbEntity
  8
0
100
AcDbLine
 10
467.4526913606896
 20
6403.230120631903
 30
0.0
 11
504.1128924572485
 21
6366.569919535343
 31
0.0
  0
LINE
  5
1C8A
330
18
100
AcDbEntity
  8
0
100
AcDbLine
 10
557.1459010462395
 20
6313.536910946353
 30
0.0
 11
616.5466624166465
 21
6254.136149575944
 31
0.0
  0
LINE
  5
1C8B
330
18
100
AcDbEntity
  8
0
100
AcDbLine
 10
679.5847257166514
 20
6403.230120631903
 30
0.0
 11
828.6786967726138
 21
6254.136149575944
 31
0.0
  0
INSERT
  5
1C8D
330
18
100
AcDbEntity
  8
SUNPOU
100
AcDbBlockReference
  2
ARROW
 10
2291.027345547075
 20
5958.162995515412
 30
0.0
 41
80.0
 42
80.0
 43
80.0
 50
270.0
  0
ARC
  5
1C8E
330
18
100
AcDbEntity
  8
0
100
AcDbCircle
 10
2505.338641938746
 20
6433.230120631903
 30
0.0
 40
10.0
100
AcDbArc
 50
90.0
 51
180.0
  0
LINE
  5
1C90
330
18
100
AcDbEntity
  8
0
100
AcDbLine
 10
2495.338641938745
 20
6433.230120631903
 30
0.0
 11
2495.338641938745
 21
6293.230120631903
 31
0.0
  0
LINE
  5
1C92
330
18
100
AcDbEntity
  8
0
100
AcDbLine
 10
2505.338641938746
 20
6443.230120631901
 30
0.0
 11
2638.338641938745
 21
6443.230120631901
 31
0.0
  0
LINE
  5
1C93
330
18
100
AcDbEntity
  8
0
100
AcDbLine
 10
2505.338641938746
 20
6443.230120631901
 30
0.0
 11
2649.338641938745
 21
6443.230120631901
 31
0.0
  0
LINE
  5
1C94
330
18
100
AcDbEntity
  8
KL
100
AcDbLine
 10
2648.338641938746
 20
6393.230120631901
 30
0.0
 11
2648.338641938746
 21
6443.230120631901
 31
0.0
  0
LINE
  5
1C95
330
18
100
AcDbEntity
  8
KL
100
AcDbLine
 10
2638.338641938745
 20
6393.230120631901
 30
0.0
 11
2648.338641938746
 21
6393.230120631901
 31
0.0
  0
LINE
  5
1C96
330
18
100
AcDbEntity
  8
KL
100
AcDbLine
 10
2638.338641938745
 20
6383.230120631901
 30
0.0
 11
2638.338641938745
 21
6443.230120631901
 31
0.0
  0
LINE
  5
1C97
330
18
100
AcDbEntity
  8
KL
100
AcDbLine
 10
2675.338641938746
 20
6393.230120631901
 30
0.0
 11
2675.338641938746
 21
6333.230120631903
 31
0.0
  0
LINE
  5
1C98
330
18
100
AcDbEntity
  8
KL
100
AcDbLine
 10
2648.338641938746
 20
6393.230120631901
 30
0.0
 11
2638.338641938745
 21
6393.230120631901
 31
0.0
  0
LINE
  5
1C99
330
18
100
AcDbEntity
  8
0
100
AcDbLine
 10
2638.338641938745
 20
6443.230120631901
 30
0.0
 11
2648.338641938746
 21
6443.230120631901
 31
0.0
  0
LINE
  5
1C9A
330
18
100
AcDbEntity
  8
0
100
AcDbLine
 10
2291.027345547075
 20
6978.887293035905
 30
0.0
 11
2291.027345547075
 21
6978.887293035905
 31
0.0
  0
DIMENSION
  5
1C9B
330
18
100
AcDbEntity
  8
SUNPOU
100
AcDbDimension
  2
*D10
 10
5216.623711640921
 20
5693.230120631902
 30
0.0
 11
5116.623711640921
 21
5993.230120631904
 31
0.0
 70
    32
 71
     5
 42
600.0000000000018
  3
DIA1
100
AcDbAlignedDimension
 13
4575.78274088307
 23
6293.230120631903
 33
0.0
 14
4575.78274088307
 24
5693.230120631902
 34
0.0
 50
90.0
100
AcDbRotatedDimension
1001
ACAD
1000
DSTYLE
1002
{
1002
}
  0
LINE
  5
1CA5
330
18
100
AcDbEntity
  8
0
100
AcDbLine
 10
3275.338641938746
 20
3563.230120631903
 30
0.0
 11
2800.338641938746
 21
3563.230120631903
 31
0.0
  0
LINE
  5
1CA6
330
18
100
AcDbEntity
  8
0
100
AcDbLine
 10
3125.338641938748
 20
3693.230120631903
 30
0.0
 11
3425.338641938746
 21
3693.230120631903
 31
0.0
  0
LINE
  5
1CA7
330
18
100
AcDbEntity
  8
KL
100
AcDbLine
 10
3150.338641938746
 20
3723.230120631904
 30
0.0
 11
3150.338641938746
 21
3563.230120631903
 31
0.0
  0
LINE
  5
1CA8
330
18
100
AcDbEntity
  8
0
100
AcDbLine
 10
3450.338641938748
 20
3693.230120631903
 30
0.0
 11
3275.338641938746
 21
3693.230120631903
 31
0.0
  0
LINE
  5
1CA9
330
18
100
AcDbEntity
  8
0
100
AcDbLine
 10
3275.338641938746
 20
3563.230120631903
 30
0.0
 11
3450.338641938748
 21
3563.230120631903
 31
0.0
  0
LINE
  5
1CAA
330
18
100
AcDbEntity
  8
KL
100
AcDbLine
 10
3275.338641938746
 20
3723.230120631904
 30
0.0
 11
3275.338641938746
 21
3693.230120631903
 31
0.0
  0
LINE
  5
1CAB
330
18
100
AcDbEntity
  8
0
100
AcDbLine
 10
3275.338641938746
 20
3723.230120631904
 30
0.0
 11
3275.338641938746
 21
3693.230120631903
 31
0.0
  0
LINE
  5
1CAC
330
18
100
AcDbEntity
  8
0
100
AcDbLine
 10
3450.338641938748
 20
3563.230120631903
 30
0.0
 11
3450.338641938748
 21
3693.230120631903
 31
0.0
  0
LINE
  5
1CAF
330
18
100
AcDbEntity
  8
KL
100
AcDbLine
 10
3425.338641938746
 20
5723.2301206319
 30
0.0
 11
4465.646870052284
 21
5723.230120631903
 31
0.0
  0
LINE
  5
1CB0
330
18
100
AcDbEntity
  8
0
100
AcDbLine
 10
3425.338641938746
 20
5693.230120631902
 30
0.0
 11
4425.325950525548
 21
5693.230120631902
 31
0.0
  0
LINE
  5
1CB1
330
18
100
AcDbEntity
  8
0
100
AcDbLine
 10
3425.338641938746
 20
4693.230120631901
 30
0.0
 11
3425.338641938746
 21
3693.230120631903
 31
0.0
  0
LINE
  5
1CB2
330
18
100
AcDbEntity
  8
KL
100
AcDbLine
 10
3275.338641938746
 20
4693.230120631903
 30
0.0
 11
3275.338641938746
 21
3693.230120631903
 31
0.0
  0
LINE
  5
1CB4
330
18
100
AcDbEntity
  8
KL
100
AcDbLine
 10
3275.338641938746
 20
3860.230120631905
 30
0.0
 11
3125.338641938748
 21
3860.230120631905
 31
0.0
  0
LINE
  5
1CB5
330
18
100
AcDbEntity
  8
KL
100
AcDbLine
 10
3275.338641938746
 20
4526.230120631903
 30
0.0
 11
3125.338641938748
 21
4526.230120631903
 31
0.0
  0
LINE
  5
1CB6
330
18
100
AcDbEntity
  8
KL
100
AcDbLine
 10
3275.338641938746
 20
4193.230120631903
 30
0.0
 11
3125.338641938748
 21
4193.230120631903
 31
0.0
  0
DIMENSION
  5
1CB7
330
18
100
AcDbEntity
  8
SUNPOU
100
AcDbDimension
  2
*D11
 10
5216.623711640921
 20
3693.230120631902
 30
0.0
 11
5085.195140212348
 21
4693.230120631903
 31
0.0
 70
    32
  1
<>(@1000×2)
 71
     5
 42
1999.999999999998
  3
STANDARD
100
AcDbAlignedDimension
 13
4615.78274088307
 23
5693.230120631902
 33
0.0
 14
4575.78274088307
 24
3693.230120631903
 34
0.0
 50
90.0
100
AcDbRotatedDimension
1001
ACAD
1000
DSTYLE
1002
{
1070
   288
1070
     1
1070
   140
1040
3.0
1070
   340
1005
6D
1070
    74
1070
     0
1070
   172
1070
     1
1070
    73
1070
     0
1070
    77
1070
     1
1070
    40
1040
40.0
1070
   147
1040
1.0
1070
    42
1040
1.0
1070
    44
1040
1.0
1070
    43
1040
10.0
1070
   271
1070
     0
1070
   141
1040
0.0
1070
     5
1000
ARROW
1070
    41
1040
2.0
1002
}
  0
TEXT
  5
1CB9
330
18
100
AcDbEntity
  8
SUNPOU
100
AcDbText
 10
3180.80471831506
 20
6773.330775303044
 30
0.0
 40
120.0
  1
口環上・蓋
  7
BIGFONT
 11
3180.80471831506
 21
6833.330775303044
 31
0.0
100
AcDbText
 73
     2
  0
LWPOLYLINE
  5
1CBA
330
18
100
AcDbEntity
  8
SUNPOU
100
AcDbPolyline
 90
        3
 70
     0
 43
0.0
 10
3080.732010562293
 20
6393.230120631901
 10
3080.80471831506
 20
6733.330775303044
 10
3894.560802638538
 20
6733.330775303044
  0
INSERT
  5
1CBF
330
18
100
AcDbEntity
  8
SUNPOU
100
AcDbBlockReference
  2
ARROW
 10
3080.80471831506
 20
6392.793874115377
 30
0.0
 41
80.0
 42
80.0
 43
80.0
 50
270.0
  0
LINE
  5
1CC0
330
18
100
AcDbEntity
  8
KL
100
AcDbLine
 10
3302.338641938745
 20
6393.230120631901
 30
0.0
 11
2975.338641938746
 21
6393.230120631901
 31
0.0
  0
LINE
  5
1CC1
330
18
100
AcDbEntity
  8
KL
100
AcDbLine
 10
3312.338641938745
 20
6383.230120631901
 30
0.0
 11
2975.338641938746
 21
6383.230120631901
 31
0.0
  0
LINE
  5
1CC2
330
18
100
AcDbEntity
  8
KL
100
AcDbLine
 10
3302.338641938745
 20
6393.230120631901
 30
0.0
 11
3312.338641938745
 21
6393.230120631901
 31
0.0
  0
LINE
  5
1CC3
330
18
100
AcDbEntity
  8
KL
100
AcDbLine
 10
3312.338641938745
 20
6383.230120631901
 30
0.0
 11
3312.338641938745
 21
6443.230120631901
 31
0.0
  0
LINE
  5
1CC4
330
18
100
AcDbEntity
  8
KL
100
AcDbLine
 10
3302.338641938745
 20
6393.230120631901
 30
0.0
 11
3302.338641938745
 21
6443.230120631901
 31
0.0
  0
LINE
  5
1CC5
330
18
100
AcDbEntity
  8
KL
100
AcDbLine
 10
3312.338641938745
 20
6393.230120631901
 30
0.0
 11
3302.338641938745
 21
6393.230120631901
 31
0.0
  0
LINE
  5
1CC6
330
18
100
AcDbEntity
  8
KL
100
AcDbLine
 10
3275.338641938745
 20
6393.230120631901
 30
0.0
 11
3275.338641938746
 21
5693.230120631902
 31
0.0
  0
LINE
  5
1CC7
330
18
100
AcDbEntity
  8
0
100
AcDbLine
 10
3312.338641938745
 20
6443.230120631901
 30
0.0
 11
3302.338641938745
 21
6443.230120631901
 31
0.0
  0
ARC
  5
1CC8
330
18
100
AcDbEntity
  8
0
100
AcDbCircle
 10
3445.338641938746
 20
6433.230120631903
 30
0.0
 40
10.0
100
AcDbArc
 50
0.0
 51
90.0
  0
LINE
  5
1CC9
330
18
100
AcDbEntity
  8
0
100
AcDbLine
 10
3455.338641938747
 20
6293.230120631903
 30
0.0
 11
3455.338641938745
 21
6433.230120631903
 31
0.0
  0
LINE
  5
1CCA
330
18
100
AcDbEntity
  8
0
100
AcDbLine
 10
3080.80471831506
 20
6733.330775303044
 30
0.0
 11
3080.80471831506
 21
6733.330775303044
 31
0.0
  0
LINE
  5
1DF2
330
18
100
AcDbEntity
  8
0
100
AcDbLine
 10
925.3513333519403
 20
5693.230120631902
 30
0.0
 11
1675.338641938745
 21
3193.272425342553
 31
0.0
  0
LINE
  5
1DF3
330
18
100
AcDbEntity
  8
KL
100
AcDbLine
 10
885.0304138252049
 20
5723.2301206319
 30
0.0
 11
1644.017722412013
 21
3193.272425342553
 31
0.0
  0
LINE
  5
1DF4
330
18
100
AcDbEntity
  8
KL
100
AcDbLine
 10
4465.646870052284
 20
5723.230120631903
 30
0.0
 11
3706.659561465477
 21
3193.272425342553
 31
0.0
  0
LINE
  5
1DF5
330
18
100
AcDbEntity
  8
0
100
AcDbLine
 10
4425.325950525548
 20
5693.230120631902
 30
0.0
 11
3675.338641938746
 21
3193.272425342553
 31
0.0
  0
DIMENSION
  5
1E0D
330
18
100
AcDbEntity
  8
SUNPOU
100
AcDbDimension
  2
*D12
 10
5536.62371164092
 20
3193.272425342553
 30
0.0
 11
5436.62371164092
 21
4443.251272987228
 31
0.0
 70
    32
 71
     5
 42
2499.957695289348
  3
DIA1
100
AcDbAlignedDimension
 13
4615.78274088307
 23
5693.230120631902
 33
0.0
 14
4575.78274088307
 24
3193.272425342553
 34
0.0
 50
90.0
100
AcDbRotatedDimension
1001
ACAD
1000
DSTYLE
1002
{
1070
    75
1070
     1
1002
}
  0
LINE
  5
1E0E
330
18
100
AcDbEntity
  8
0
100
AcDbLine
 10
-299.4299498051114
 20
6443.230120631901
 30
0.0
 11
6060.35292218993
 21
6443.230120631901
 31
0.0
  0
DIMENSION
  5
1E21
330
18
100
AcDbEntity
  8
SUNPOU
100
AcDbDimension
  2
*D13
 10
5216.623711640921
 20
6443.230120631901
 30
0.0
 11
5112.014217378135
 21
6443.230120631901
 31
0.0
 70
   160
 71
     5
 42
149.9999999999982
  3
DIA1
100
AcDbAlignedDimension
 13
4575.78274088307
 23
6293.230120631903
 33
0.0
 14
4575.78274088307
 24
6443.230120631901
 34
0.0
 50
90.0
100
AcDbRotatedDimension
1001
ACAD
1000
DSTYLE
1002
{
1070
    75
1070
     1
1002
}
  0
DIMENSION
  5
1E4A
330
18
100
AcDbEntity
  8
SUNPOU
100
AcDbDimension
  2
*D14
 10
5536.62371164092
 20
5693.230120631902
 30
0.0
 11
5436.62371164092
 21
6068.230120631902
 31
0.0
 70
    32
 71
     5
 42
749.9999999999991
  3
DIA1
100
AcDbAlignedDimension
 13
4575.78274088307
 23
6443.230120631901
 33
0.0
 14
4575.78274088307
 24
5693.230120631902
 34
0.0
 50
90.0
100
AcDbRotatedDimension
  0
DIMENSION
  5
1FC0
330
18
100
AcDbEntity
  8
SUNPOU
100
AcDbDimension
  2
*D15
 10
5216.623711640921
 20
3193.272425342553
 30
0.0
 11
5116.623711640921
 21
3443.251272987229
 31
0.0
 70
    32
 71
     5
 42
499.9576952893498
  3
DIA1
100
AcDbAlignedDimension
 13
4575.78274088307
 23
3693.230120631903
 33
0.0
 14
4575.78274088307
 24
3193.272425342553
 34
0.0
 50
90.0
100
AcDbRotatedDimension
  0
LINE
  5
22DB
330
18
100
AcDbEntity
  8
0
100
AcDbLine
 10
3675.338641938746
 20
3193.272425342553
 30
0.0
 11
1675.338641938745
 21
3193.272425342553
 31
0.0
  0
LINE
  5
2431
330
18
100
AcDbEntity
  8
0
100
AcDbLine
 10
3425.338641938746
 20
5693.230120631902
 30
0.0
 11
3425.338641938746
 21
4693.230120631903
 31
0.0
  0
LINE
  5
2432
330
18
100
AcDbEntity
  8
KL
100
AcDbLine
 10
3275.338641938746
 20
5693.230120631905
 30
0.0
 11
3275.338641938746
 21
4693.230120631903
 31
0.0
  0
LINE
  5
2433
330
18
100
AcDbEntity
  8
KL
100
AcDbLine
 10
3275.338641938746
 20
5193.230120631905
 30
0.0
 11
3125.338641938748
 21
5193.230120631905
 31
0.0
  0
LINE
  5
2434
330
18
100
AcDbEntity
  8
KL
100
AcDbLine
 10
3275.338641938746
 20
5526.230120631904
 30
0.0
 11
3125.338641938748
 21
5526.230120631904
 31
0.0
  0
LINE
  5
2435
330
18
100
AcDbEntity
  8
KL
100
AcDbLine
 10
2075.338641938746
 20
4693.230120631903
 30
0.0
 11
2075.338641938746
 21
5693.230120631905
 31
0.0
  0
LINE
  5
2436
330
18
100
AcDbEntity
  8
KL
100
AcDbLine
 10
3275.338641938746
 20
4860.230120631904
 30
0.0
 11
3125.338641938748
 21
4860.230120631904
 31
0.0
  0
LINE
  5
2437
330
18
100
AcDbEntity
  8
0
100
AcDbLine
 10
1925.338641938745
 20
4693.230120631903
 30
0.0
 11
3125.338641938748
 21
4693.230120631903
 31
0.0
  0
LINE
  5
2438
330
18
100
AcDbEntity
  8
0
100
AcDbLine
 10
3425.338641938746
 20
4693.230120631903
 30
0.0
 11
1925.338641938745
 21
4693.230120631903
 31
0.0
  0
LINE
  5
2439
330
18
100
AcDbEntity
  8
0
100
AcDbLine
 10
1925.338641938745
 20
4693.230120631903
 30
0.0
 11
3425.338641938746
 21
4693.230120631903
 31
0.0
  0
HATCH
  5
2506
330
18
100
AcDbEntity
  8
NAZORI
100
AcDbHatch
 10
0.0
 20
0.0
 30
0.0
210
0.0
220
0.0
230
1.0
  2
HONEY
 70
     0
 71
     0
 91
        2
 92
        7
 72
     0
 73
     1
 93
        5
 10
1925.338641938744
 20
5693.230120631902
 10
925.3513333519412
 20
5693.230120631902
 10
1274.09027704332
 20
4530.76697499397
 10
1402.34500799495
 20
4530.766974993972
 10
1925.338641938742
 20
4844.847881275193
 97
        0
 92
        7
 72
     0
 73
     1
 93
        3
 10
1402.34500799495
 20
4530.76697499397
 10
1274.090277043319
 20
4530.766974993972
 10
1293.669599881381
 20
4465.502565533761
 97
        0
 75
     0
 76
     1
 52
10.0
 41
400.0
 77
     0
 78
     3
 53
10.0
 43
-3932.08442657147
 44
0.0
 45
66.34139484975188
 46
55.66703973629469
 79
     2
 49
49.99999999999999
 49
-99.99999999999998
 53
130.0
 43
-3932.08442657147
 44
0.0
 45
-81.37976798998492
 46
29.61981339423191
 79
     2
 49
50.0
 49
-100.0
 53
70.0
 43
-3932.08442657147
 44
0.0
 45
-15.03837314023306
 46
85.2868531305266
 79
     2
 49
-99.99999999999998
 49
49.99999999999999
 47
7.559194063995767
 98
        2
 10
1701.201510949621
 20
5046.46688883858
 10
1330.480681956789
 20
4509.764103094594
  0
HATCH
  5
254F
330
18
100
AcDbEntity
  8
NAZORI
100
AcDbHatch
 10
0.0
 20
0.0
 30
0.0
210
0.0
220
0.0
230
1.0
  2
HONEY
 70
     0
 71
     0
 91
        2
 92
        7
 72
     0
 73
     1
 93
       10
 10
4036.83493119913
 20
4398.260056210495
 10
3425.338641938746
 20
4260.711449298076
 10
3425.338641938746
 20
3693.230120631903
 10
3450.338641938748
 20
3693.230120631903
 10
3450.338641938748
 20
3563.230120631903
 10
3275.338641938746
 20
3563.230120631903
 10
2800.338641938746
 20
3563.230120631903
 10
2675.338641938746
 20
3563.230120631903
 10
2675.338641938746
 20
3193.272425342553
 10
3675.338641938746
 20
3193.272425342553
 97
        0
 92
        7
 72
     0
 73
     1
 93
        4
 10
2675.338641938746
 20
3563.230120631903
 10
2660.024439111742
 20
3563.230120631903
 10
2386.775915201778
 20
3193.272425342553
 10
2675.338641938746
 20
3193.272425342553
 97
        0
 75
     0
 76
     1
 52
10.0
 41
400.0
 77
     0
 78
     3
 53
10.0
 43
-3932.08442657147
 44
0.0
 45
66.34139484975188
 46
55.66703973629469
 79
     2
 49
49.99999999999999
 49
-99.99999999999998
 53
130.0
 43
-3932.08442657147
 44
0.0
 45
-81.37976798998492
 46
29.61981339423191
 79
     2
 49
50.0
 49
-100.0
 53
70.0
 43
-3932.08442657147
 44
0.0
 45
-15.03837314023306
 46
85.2868531305266
 79
     2
 49
-99.99999999999998
 49
49.99999999999999
 47
7.559194063995767
 98
        2
 10
3630.463164046509
 20
3889.910191964673
 10
2609.089372063609
 20
3292.733860485461
  0
DIMENSION
  5
2550
330
18
100
AcDbEntity
  8
SUNPOU
100
AcDbDimension
  2
*D16
 10
3275.338641938745
 20
4317.734998483878
 30
0.0
 11
2675.338641938744
 21
4417.734998483878
 31
0.0
 70
    32
  1
φ1200
 71
     5
 42
1200.0
  3
STANDARD
100
AcDbAlignedDimension
 13
2075.338641938744
 23
4289.547063217058
 33
0.0
 14
3275.338641938745
 24
4275.453105362534
 34
0.0
100
AcDbRotatedDimension
1001
ACAD
1000
DSTYLE
1002
{
1070
   288
1070
     1
1070
   140
1040
3.0
1070
   340
1005
6D
1070
    74
1070
     0
1070
   172
1070
     1
1070
    73
1070
     0
1070
    77
1070
     1
1070
    40
1040
40.0
1070
   147
1040
1.0
1070
    42
1040
1.0
1070
    44
1040
1.0
1070
    43
1040
10.0
1070
   271
1070
     0
1070
   141
1040
0.0
1070
     5
1000
ARROW
1070
    41
1040
2.0
1002
}
  0
DIMENSION
  5
259C
330
18
100
AcDbEntity
  8
SUNPOU
100
AcDbDimension
  2
*D17
 10
5848.220676752682
 20
3193.272425342553
 30
0.0
 11
5748.220676752681
 21
4818.251272987229
 31
0.0
 70
    32
 71
     5
 42
3249.957695289348
  3
DIA1
100
AcDbAlignedDimension
 13
4575.78274088307
 23
6443.230120631901
 33
0.0
 14
4615.78274088307
 24
3193.272425342553
 34
0.0
 50
90.0
100
AcDbRotatedDimension
  0
TEXT
  5
25D7
330
18
100
AcDbEntity
  8
0
100
AcDbText
 10
3718.282799617438
 20
8196.89263563473
 30
0.0
 40
200.0
  1
浸透井戸 EW-1200（２段積）
  7
BIGFONT
100
AcDbText
  0
TEXT
  5
25D8
330
18
100
AcDbEntity
  8
0
100
AcDbText
 10
7625.363375934487
 20
8223.310674134028
 30
0.0
 40
140.0
  1
Ｓ＝１／４０
  7
BIGFONT
100
AcDbText
  0
INSERT
  5
25DA
330
18
100
AcDbEntity
  8
0
100
AcDbBlockReference
  2
YA_N
 10
3701.426681903189
 20
4468.532140384701
 30
0.0
  0
LINE
  5
25DB
330
18
100
AcDbEntity
  8
0
100
AcDbLine
 10
2975.338641938746
 20
6293.230120631903
 30
0.0
 11
3525.338641938746
 21
6293.230120631903
 31
0.0
  0
LINE
  5
25DC
330
18
100
AcDbEntity
  8
0
100
AcDbLine
 10
3525.338641938746
 20
6293.230120631903
 30
0.0
 11
3525.338641938746
 21
6233.230120631905
 31
0.0
  0
LINE
  5
25DD
330
18
100
AcDbEntity
  8
0
100
AcDbLine
 10
3345.338641938746
 20
6129.30707217777
 30
0.0
 11
3525.338641938746
 21
6233.230120631905
 31
0.0
  0
LINE
  5
25DE
330
18
100
AcDbEntity
  8
0
100
AcDbLine
 10
2975.338641938746
 20
6293.230120631903
 30
0.0
 11
3275.338641938746
 21
6293.230120631903
 31
0.0
  0
LINE
  5
25DF
330
18
100
AcDbEntity
  8
0
100
AcDbLine
 10
2975.338641938746
 20
5693.230120631905
 30
0.0
 11
2225.338641938745
 21
5693.230120631905
 31
0.0
  0
LINE
  5
25E0
330
18
100
AcDbEntity
  8
0
100
AcDbLine
 10
2975.338641938746
 20
6293.230120631903
 30
0.0
 11
2675.338641938746
 21
6293.230120631903
 31
0.0
  0
LINE
  5
25E1
330
18
100
AcDbEntity
  8
0
100
AcDbLine
 10
2975.338641938746
 20
6293.230120631903
 30
0.0
 11
2425.338641938746
 21
6293.230120631903
 31
0.0
  0
LINE
  5
25E2
330
18
100
AcDbEntity
  8
0
100
AcDbLine
 10
2425.338641938746
 20
6293.230120631903
 30
0.0
 11
2425.338641938746
 21
6233.230120631905
 31
0.0
  0
LINE
  5
25E4
330
18
100
AcDbEntity
  8
KL
100
AcDbLine
 10
3275.338641938746
 20
6293.230120631903
 30
0.0
 11
3275.338641938746
 21
6253.230120631902
 31
0.0
  0
LINE
  5
25E5
330
18
100
AcDbEntity
  8
KL
100
AcDbLine
 10
3275.338641938746
 20
6253.230120631904
 30
0.0
 11
2975.338641938746
 21
6253.230120631902
 31
0.0
  0
LINE
  5
25E6
330
18
100
AcDbEntity
  8
KL
100
AcDbLine
 10
2675.338641938746
 20
6253.230120631904
 30
0.0
 11
2975.338641938746
 21
6253.230120631902
 31
0.0
  0
LINE
  5
25E7
330
18
100
AcDbEntity
  8
KL
100
AcDbLine
 10
2675.338641938746
 20
6293.230120631903
 30
0.0
 11
2675.338641938746
 21
6253.230120631902
 31
0.0
  0
LINE
  5
25EA
330
18
100
AcDbEntity
  8
0
100
AcDbLine
 10
2425.338641938746
 20
6293.230120631903
 30
0.0
 11
3525.338641938746
 21
6293.230120631903
 31
0.0
  0
LINE
  5
25EB
330
18
100
AcDbEntity
  8
0
100
AcDbLine
 10
3525.338641938746
 20
6293.230120631903
 30
0.0
 11
3525.338641938746
 21
6233.230120631905
 31
0.0
  0
LINE
  5
25EC
330
18
100
AcDbEntity
  8
KL
100
AcDbLine
 10
3275.338641938746
 20
6253.230120631904
 30
0.0
 11
3275.338641938746
 21
5693.230120631905
 31
0.0
  0
LINE
  5
25ED
330
18
100
AcDbEntity
  8
0
100
AcDbLine
 10
3275.338641938746
 20
5693.230120631905
 30
0.0
 11
3425.338641938746
 21
5693.230120631905
 31
0.0
  0
LINE
  5
25EE
330
18
100
AcDbEntity
  8
0
100
AcDbLine
 10
3425.338641938746
 20
5693.230120631905
 30
0.0
 11
3425.338641938746
 21
5743.230120631904
 31
0.0
  0
LINE
  5
25EF
330
18
100
AcDbEntity
  8
0
100
AcDbLine
 10
3345.338641938746
 20
5789.418142167073
 30
0.0
 11
3425.338641938746
 21
5743.230120631904
 31
0.0
  0
LINE
  5
25F0
330
18
100
AcDbEntity
  8
0
100
AcDbLine
 10
3275.338641938746
 20
5693.230120631905
 30
0.0
 11
3345.338641938746
 21
5693.230120631905
 31
0.0
  0
LINE
  5
25F1
330
18
100
AcDbEntity
  8
0
100
AcDbLine
 10
3345.338641938746
 20
5789.418142167073
 30
0.0
 11
3345.338641938746
 21
6129.30707217777
 31
0.0
  0
LINE
  5
25F2
330
18
100
AcDbEntity
  8
0
100
AcDbLine
 10
3425.338641938746
 20
5693.230120631905
 30
0.0
 11
1925.338641938745
 21
5693.230120631905
 31
0.0
  0
LINE
  5
25F3
330
18
100
AcDbEntity
  8
0
100
AcDbLine
 10
1925.338641938745
 20
5693.230120631905
 30
0.0
 11
1925.338641938745
 21
5743.230120631904
 31
0.0
  0
LINE
  5
25F4
330
18
100
AcDbEntity
  8
KL
100
AcDbLine
 10
2675.338641938746
 20
6253.230120631904
 30
0.0
 11
2075.338641938746
 21
5693.230120631905
 31
0.0
  0
LINE
  5
25F5
330
18
100
AcDbEntity
  8
0
100
AcDbLine
 10
2439.972524523046
 20
6129.30707217777
 30
0.0
 11
2075.338641938746
 21
5788.98211509909
 31
0.0
  0
LINE
  5
25F6
330
18
100
AcDbEntity
  8
0
100
AcDbLine
 10
2075.338641938746
 20
5788.98211509909
 30
0.0
 11
1925.338641938745
 21
5743.230120631904
 31
0.0
  0
LINE
  5
25F8
330
18
100
AcDbEntity
  8
KL
100
AcDbLine
 10
3125.338641938748
 20
6143.230120631905
 30
0.0
 11
3275.338641938746
 21
6143.230120631905
 31
0.0
  0
LINE
  5
25F9
330
18
100
AcDbEntity
  8
KL
100
AcDbLine
 10
3125.338641938748
 20
5843.230120631904
 30
0.0
 11
3275.338641938746
 21
5843.230120631904
 31
0.0
  0
LINE
  5
25FB
330
18
100
AcDbEntity
  8
0
100
AcDbLine
 10
2439.972524523046
 20
6129.30707217777
 30
0.0
 11
2425.338641938746
 21
6233.230120631905
 31
0.0
  0
HATCH
  5
2688
330
18
100
AcDbEntity
  8
NAZORI
100
AcDbHatch
 10
0.0
 20
0.0
 30
0.0
210
0.0
220
0.0
230
1.0
  2
HONEY
 70
     0
 71
     0
 91
        2
 92
        5
 93
        4
 72
     4
 94
        3
 73
     0
 74
     0
 95
        8
 96
        4
 40
354.9740048087472
 40
354.9740048087472
 40
354.9740048087472
 40
354.9740048087472
 40
508.431346713677
 40
508.431346713677
 40
508.431346713677
 40
508.431346713677
 10
2075.338632720409
 20
3830.311934689851
 10
2023.712812814976
 20
3828.689437255729
 10
1974.104367932411
 20
3824.630563584228
 10
1925.338632720408
 20
3819.753839582109
 72
     1
 10
1925.338632720408
 20
3819.753839582109
 11
1925.338632720408
 21
4256.061611403496
 72
     4
 94
        3
 73
     0
 74
     0
 95
        8
 96
        4
 40
1548.326200012602
 40
1548.326200012602
 40
1548.326200012602
 40
1548.326200012602
 40
1665.06015669063
 40
1665.06015669063
 40
1665.06015669063
 40
1665.06015669063
 10
1925.338632720409
 20
4256.061611403495
 10
1973.447639638511
 20
4246.508197603913
 10
2024.001016635712
 20
4230.962090248825
 10
2075.338632720411
 20
4209.947326515501
 72
     1
 10
2075.338632720409
 20
4209.947326515501
 11
2075.338632720409
 21
3830.311934689851
 97
        0
 92
        5
 93
        2
 72
     4
 94
        3
 73
     0
 74
     0
 95
       11
 96
        7
 40
508.4313467136769
 40
508.4313467136769
 40
508.4313467136769
 40
508.4313467136769
 40
564.6836043408916
 40
1107.034966466958
 40
1324.364209782256
 40
1548.326200012602
 40
1548.326200012602
 40
1548.326200012602
 40
1548.326200012602
 10
2075.338632720411
 20
4209.947326515501
 10
2100.077422427749
 20
4199.820642411383
 10
2365.271059976572
 20
4078.54496639337
 10
2726.181404234794
 20
3726.279265681227
 10
2307.608462326539
 20
3827.120501385726
 10
2150.683489015763
 20
3832.679874535405
 10
2075.338632720409
 20
3830.311934689851
 72
     1
 10
2075.338632720411
 20
3830.311934689851
 11
2075.338632720409
 21
4209.947326515501
 97
        0
 75
     0
 76
     1
 52
10.0
 41
250.0
 77
     0
 78
     3
 53
350.0
 43
-3932.084435789807
 44
7311.816243416171
 45
41.46337178109493
 46
-34.79189983518419
 79
     2
 49
31.24999999999998
 49
-62.49999999999996
 53
230.0
 43
-3932.084435789807
 44
7311.816243416171
 45
-50.86235499374059
 46
-18.51238337139495
 79
     2
 49
31.25
 49
-62.5
 53
290.0
 43
-3932.084435789807
 44
7311.816243416171
 45
-9.398983212645662
 46
-53.30428320657914
 79
     2
 49
-62.49999999999996
 49
31.24999999999998
 47
8.181333333333332
 98
        2
 10
2048.915564210193
 20
3946.816243416171
 10
2245.915564210193
 20
3971.816243416171
  0
HATCH
  5
2692
330
18
100
AcDbEntity
  8
NAZORI
100
AcDbHatch
 10
0.0
 20
0.0
 30
0.0
210
0.0
220
0.0
230
1.0
  2
HONEY
 70
     0
 71
     0
 91
        2
 92
        5
 93
        4
 72
     4
 94
        3
 73
     0
 74
     0
 95
        8
 96
        4
 40
354.9740048087472
 40
354.9740048087472
 40
354.9740048087472
 40
354.9740048087472
 40
508.431346713677
 40
508.431346713677
 40
508.431346713677
 40
508.431346713677
 10
3275.338651157085
 20
5536.006140861566
 10
3326.964471062517
 20
5537.628638295689
 10
3376.572915945082
 20
5541.68751196719
 10
3425.338651157086
 20
5546.564235969309
 72
     1
 10
3425.338651157086
 20
5546.564235969309
 11
3425.338651157086
 21
5110.25646414792
 72
     4
 94
        3
 73
     0
 74
     0
 95
        8
 96
        4
 40
1548.326200012602
 40
1548.326200012602
 40
1548.326200012602
 40
1548.326200012602
 40
1665.06015669063
 40
1665.06015669063
 40
1665.06015669063
 40
1665.06015669063
 10
3425.338651157085
 20
5110.256464147921
 10
3377.229644238982
 20
5119.809877947504
 10
3326.676267241782
 20
5135.355985302592
 10
3275.338651157083
 20
5156.370749035915
 72
     1
 10
3275.338651157085
 20
5156.370749035915
 11
3275.338651157085
 21
5536.006140861566
 97
        0
 92
        5
 93
        2
 72
     4
 94
        3
 73
     0
 74
     0
 95
       11
 96
        7
 40
508.4313467136769
 40
508.4313467136769
 40
508.4313467136769
 40
508.4313467136769
 40
564.6836043408916
 40
1107.034966466958
 40
1324.364209782256
 40
1548.326200012602
 40
1548.326200012602
 40
1548.326200012602
 40
1548.326200012602
 10
3275.338651157083
 20
5156.370749035915
 10
3250.599861449745
 20
5166.497433140033
 10
2985.406223900922
 20
5287.773109158046
 10
2624.4958796427
 20
5640.038809870191
 10
3043.068821550955
 20
5539.197574165691
 10
3199.99379486173
 20
5533.638201016012
 10
3275.338651157085
 20
5536.006140861566
 72
     1
 10
3275.338651157083
 20
5536.006140861566
 11
3275.338651157085
 21
5156.370749035915
 97
        0
 75
     0
 76
     1
 52
10.0
 41
250.0
 77
     0
 78
     3
 53
170.0
 43
9282.7617196673
 44
2054.501832135246
 45
-41.46337178109493
 46
34.79189983518419
 79
     2
 49
31.24999999999998
 49
-62.49999999999996
 53
50.0
 43
9282.7617196673
 44
2054.501832135246
 45
50.86235499374059
 46
18.51238337139495
 79
     2
 49
31.25
 49
-62.5
 53
110.0
 43
9282.7617196673
 44
2054.501832135246
 45
9.398983212645662
 46
53.30428320657914
 79
     2
 49
-62.49999999999996
 49
31.24999999999998
 47
8.181333333333332
 98
        2
 10
3301.7617196673
 20
5419.501832135246
 10
3104.7617196673
 20
5394.501832135246
  0
LWPOLYLINE
  5
26A5
330
18
100
AcDbEntity
  8
0
100
AcDbPolyline
 90
        4
 70
     1
 43
0.0
 10
-774.0752999481419
 20
1139.260830420458
 10
-774.0752999481419
 20
9539.260830420458
 10
11105.92470005186
 20
9539.260830420458
 10
11105.92470005186
 20
1139.260830420458
  0
LINE
  5
28CA
330
18
100
AcDbEntity
  8
0
  6
DASHED
100
AcDbLine
 10
6978.746089880804
 20
5846.044554179065
 30
0.0
 11
8978.746089880806
 21
5846.044554179065
 31
0.0
  0
LINE
  5
28CC
330
18
100
AcDbEntity
  8
0
  6
DASHED
100
AcDbLine
 10
6978.746089880802
 20
3846.044554179064
 30
0.0
 11
6978.746089880804
 21
5846.044554179065
 31
0.0
  0
LINE
  5
28CE
330
18
100
AcDbEntity
  8
0
  6
DASHED
100
AcDbLine
 10
8978.746089880804
 20
3846.044554179064
 30
0.0
 11
6978.746089880802
 21
3846.044554179064
 31
0.0
  0
LINE
  5
28D0
330
18
100
AcDbEntity
  8
0
  6
DASHED
100
AcDbLine
 10
8978.746089880806
 20
5846.044554179065
 30
0.0
 11
8978.746089880804
 21
3846.044554179064
 31
0.0
  0
LINE
  5
28D1
330
18
100
AcDbEntity
  8
0
  6
DASHED
100
AcDbLine
 10
6528.746089880804
 20
6296.044554179065
 30
0.0
 11
6978.746089880804
 21
5846.044554179065
 31
0.0
  0
LINE
  5
28D2
330
18
100
AcDbEntity
  8
0
  6
DASHED
100
AcDbLine
 10
6228.746089880804
 20
3096.044554179063
 30
0.0
 11
6978.746089880804
 21
3846.044554179063
 31
0.0
  0
LINE
  5
28D3
330
18
100
AcDbEntity
  8
0
  6
DASHED
100
AcDbLine
 10
6228.746089880804
 20
6596.044554179079
 30
0.0
 11
6978.746089880812
 21
5846.044554179065
 31
0.0
  0
LINE
  5
28D4
330
18
100
AcDbEntity
  8
0
  6
DASHED
100
AcDbLine
 10
6978.746089880802
 20
3846.044554179064
 30
0.0
 11
6528.746089880804
 21
3396.044554179064
 31
0.0
  0
CIRCLE
  5
28D5
330
18
100
AcDbEntity
  8
0
  6
DASHED
100
AcDbCircle
 10
7978.746089880802
 20
4846.044554179065
 30
0.0
 40
600.0
  0
CIRCLE
  5
28D6
330
18
100
AcDbEntity
  8
0
  6
DASHED
100
AcDbCircle
 10
7978.746089880802
 20
4846.044554179065
 30
0.0
 40
750.0
  0
CIRCLE
  5
28D7
330
18
100
AcDbEntity
  8
0
  6
DASHED
100
AcDbCircle
 10
8278.746089880803
 20
4846.044554179065
 30
0.0
 40
550.0
  0
CIRCLE
  5
28D8
330
18
100
AcDbEntity
  8
0
100
AcDbCircle
 10
8278.746089880803
 20
4846.044554179065
 30
0.0
 40
337.0
  0
CIRCLE
  5
28D9
330
18
100
AcDbEntity
  8
0
100
AcDbCircle
 10
8278.746089880803
 20
4846.044554179065
 30
0.0
 40
480.0
  0
DIMENSION
  5
28DA
330
18
100
AcDbEntity
  8
SUNPOU
100
AcDbDimension
  2
*D33
 10
9728.746089880802
 20
2272.334584053133
 30
0.0
 11
7978.746089880804
 21
2372.334584053133
 31
0.0
 70
    32
 71
     5
 42
3499.999999999999
  3
STANDARD
100
AcDbAlignedDimension
 13
6228.746089880804
 23
3096.044554179063
 33
0.0
 14
9728.746089880802
 24
3096.04455417906
 34
0.0
100
AcDbRotatedDimension
1001
ACAD
1000
DSTYLE
1002
{
1070
   288
1070
     1
1070
   140
1040
3.0
1070
   340
1005
6D
1070
    74
1070
     0
1070
   172
1070
     1
1070
    73
1070
     0
1070
    77
1070
     1
1070
    40
1040
40.0
1070
   147
1040
1.0
1070
    42
1040
1.0
1070
    44
1040
1.0
1070
    43
1040
10.0
1070
   271
1070
     0
1070
   141
1040
0.0
1070
     5
1000
ARROW
1070
    41
1040
2.0
1002
}
  0
DIMENSION
  5
28DB
330
18
100
AcDbEntity
  8
SUNPOU
100
AcDbDimension
  2
*D34
 10
8978.746089880804
 20
2556.791447262629
 30
0.0
 11
7978.746089880804
 21
2656.791447262629
 31
0.0
 70
    32
 71
     5
 42
2000.000000000002
  3
STANDARD
100
AcDbAlignedDimension
 13
6978.746089880802
 23
3096.044554179064
 33
0.0
 14
8978.746089880804
 24
3096.044554179063
 34
0.0
100
AcDbRotatedDimension
1001
ACAD
1000
DSTYLE
1002
{
1070
   288
1070
     1
1070
   140
1040
3.0
1070
   340
1005
6D
1070
    74
1070
     0
1070
   172
1070
     1
1070
    73
1070
     0
1070
    77
1070
     1
1070
    40
1040
40.0
1070
   147
1040
1.0
1070
    42
1040
1.0
1070
    44
1040
1.0
1070
    43
1040
10.0
1070
   271
1070
     0
1070
   141
1040
0.0
1070
     5
1000
ARROW
1070
    41
1040
2.0
1002
}
  0
DIMENSION
  5
28DC
330
18
100
AcDbEntity
  8
SUNPOU
100
AcDbDimension
  2
*D35
 10
10482.68671379508
 20
3096.04455417906
 30
0.0
 11
10382.68671379508
 21
4846.044554179064
 31
0.0
 70
    32
 71
     5
 42
3500.000000000005
  3
DIA1
100
AcDbAlignedDimension
 13
9728.746089880807
 23
6596.044554179065
 33
0.0
 14
9728.746089880802
 24
3096.04455417906
 34
0.0
 50
90.0
100
AcDbRotatedDimension
  0
DIMENSION
  5
28DD
330
18
100
AcDbEntity
  8
SUNPOU
100
AcDbDimension
  2
*D36
 10
10152.88264037528
 20
3846.044554179064
 30
0.0
 11
10052.88264037528
 21
4846.044554179065
 31
0.0
 70
    32
 71
     5
 42
2000.000000000001
  3
DIA1
100
AcDbAlignedDimension
 13
9728.746089880807
 23
5846.044554179065
 33
0.0
 14
9728.746089880802
 24
3846.044554179064
 34
0.0
 50
90.0
100
AcDbRotatedDimension
  0
LINE
  5
297F
330
18
100
AcDbEntity
  8
0
  6
DASHED
100
AcDbLine
 10
6228.746089880804
 20
6596.044554179065
 30
0.0
 11
9728.746089880807
 21
6596.044554179065
 31
0.0
  0
LINE
  5
2982
330
18
100
AcDbEntity
  8
0
  6
DASHED
100
AcDbLine
 10
6228.746089880805
 20
3096.044554179065
 30
0.0
 11
6228.746089880804
 21
6596.044554179065
 31
0.0
  0
LINE
  5
2983
330
18
100
AcDbEntity
  8
0
  6
DASHED
100
AcDbLine
 10
9728.746089880802
 20
3096.044554179063
 30
0.0
 11
6228.746089880805
 21
3096.044554179065
 31
0.0
  0
LINE
  5
2984
330
18
100
AcDbEntity
  8
0
  6
DASHED
100
AcDbLine
 10
9728.746089880807
 20
6596.044554179065
 30
0.0
 11
9728.746089880802
 21
3096.044554179063
 31
0.0
  0
LINE
  5
29CD
330
18
100
AcDbEntity
  8
0
  6
DASHED
100
AcDbLine
 10
8978.746089880802
 20
3846.044554179064
 30
0.0
 11
9728.746089880802
 21
3096.04455417906
 31
0.0
  0
LINE
  5
29CE
330
18
100
AcDbEntity
  8
0
  6
DASHED
100
AcDbLine
 10
8978.746089880804
 20
5846.044554179064
 30
0.0
 11
9728.746089880807
 21
6596.044554179067
 31
0.0
  0
LINE
  5
2A53
330
18
100
AcDbEntity
  8
KL
100
AcDbLine
 10
14518.33864193874
 20
6383.230120631901
 30
0.0
 11
14855.33864193874
 21
6383.230120631901
 31
0.0
  0
LINE
  5
2A54
330
18
100
AcDbEntity
  8
KL
100
AcDbLine
 10
14528.33864193874
 20
6393.230120631901
 30
0.0
 11
14855.33864193874
 21
6393.230120631901
 31
0.0
  0
LINE
  5
2A55
330
18
100
AcDbEntity
  8
0
100
AcDbLine
 10
15325.33864193874
 20
6443.230120631901
 30
0.0
 11
14385.33864193875
 21
6443.230120631901
 31
0.0
  0
TEXT
  5
2A56
330
18
100
AcDbEntity
  8
SUNPOU
100
AcDbText
 10
14271.02734554707
 20
7018.887293035906
 30
0.0
 40
120.0
  1
片斜壁６００Ｄ
  7
BIGFONT
 11
14271.02734554707
 21
7078.887293035904
 31
0.0
100
AcDbText
 73
     2
  0
LWPOLYLINE
  5
2A57
330
18
100
AcDbEntity
  8
SUNPOU
100
AcDbPolyline
 90
        3
 70
     0
 43
0.0
 10
14171.02734554707
 20
5958.162995515412
 10
14171.02734554707
 20
6978.887293035905
 10
15147.69557470404
 20
6978.887293035905
  0
DIMENSION
  5
2A58
330
18
100
AcDbEntity
  8
SUNPOU
100
AcDbDimension
  2
*D42
 10
16305.32595052555
 20
2330.411241488765
 30
0.0
 11
14555.33864193874
 21
2430.411241488765
 31
0.0
 70
    32
 71
     5
 42
3499.974617173608
  3
STANDARD
100
AcDbAlignedDimension
 13
12805.35133335194
 23
3050.839655096608
 33
0.0
 14
16305.32595052555
 24
3050.839655096608
 34
0.0
100
AcDbRotatedDimension
1001
ACAD
1000
DSTYLE
1002
{
1070
   288
1070
     1
1070
   140
1040
3.0
1070
   340
1005
6D
1070
    74
1070
     0
1070
   172
1070
     1
1070
    73
1070
     0
1070
    77
1070
     1
1070
    40
1040
40.0
1070
   147
1040
1.0
1070
    42
1040
1.0
1070
    44
1040
1.0
1070
    43
1040
10.0
1070
   271
1070
     0
1070
   141
1040
0.0
1070
     5
1000
ARROW
1070
    41
1040
2.0
1002
}
  0
DIMENSION
  5
2A59
330
18
100
AcDbEntity
  8
SUNPOU
100
AcDbDimension
  2
*D43
 10
15555.33864193875
 20
2614.868104698261
 30
0.0
 11
14555.33864193874
 21
2714.868104698261
 31
0.0
 70
    32
 71
     5
 42
2000.0
  3
STANDARD
100
AcDbAlignedDimension
 13
13555.33864193875
 23
2988.418984751127
 33
0.0
 14
15555.33864193875
 24
2988.418984751127
 34
0.0
100
AcDbRotatedDimension
1001
ACAD
1000
DSTYLE
1002
{
1070
   288
1070
     1
1070
   140
1040
3.0
1070
   340
1005
6D
1070
    74
1070
     0
1070
   172
1070
     1
1070
    73
1070
     0
1070
    77
1070
     1
1070
    40
1040
40.0
1070
   147
1040
1.0
1070
    42
1040
1.0
1070
    44
1040
1.0
1070
    43
1040
10.0
1070
   271
1070
     0
1070
   141
1040
0.0
1070
     5
1000
ARROW
1070
    41
1040
2.0
1002
}
  0
LINE
  5
2A5A
330
18
100
AcDbEntity
  8
0
100
AcDbLine
 10
13805.33864193874
 20
5693.230120631902
 30
0.0
 11
15305.33864193874
 21
5693.230120631902
 31
0.0
  0
LINE
  5
2A5B
330
18
100
AcDbEntity
  8
KL
100
AcDbLine
 10
15155.33864193874
 20
3723.230120631904
 30
0.0
 11
13955.33864193874
 21
3723.230120631904
 31
0.0
  0
LINE
  5
2A5C
330
18
100
AcDbEntity
  8
0
100
AcDbLine
 10
14555.33864193874
 20
3563.230120631903
 30
0.0
 11
15030.33864193874
 21
3563.230120631903
 31
0.0
  0
LINE
  5
2A5D
330
18
100
AcDbEntity
  8
0
100
AcDbLine
 10
13805.33864193874
 20
3693.230120631903
 30
0.0
 11
15005.33864193874
 21
3693.230120631903
 31
0.0
  0
LINE
  5
2A5E
330
18
100
AcDbEntity
  8
0
100
AcDbLine
 10
14555.33864193874
 20
3563.230120631903
 30
0.0
 11
15330.33864193875
 21
3563.230120631903
 31
0.0
  0
LINE
  5
2A5F
330
18
100
AcDbEntity
  8
0
100
AcDbLine
 10
15305.33864193874
 20
3693.230120631903
 30
0.0
 11
13805.33864193874
 21
3693.230120631903
 31
0.0
  0
LINE
  5
2A60
330
18
100
AcDbEntity
  8
0
100
AcDbLine
 10
13805.33864193874
 20
3693.230120631903
 30
0.0
 11
15305.33864193874
 21
3693.230120631903
 31
0.0
  0
LWPOLYLINE
  5
2A61
330
18
100
AcDbEntity
  8
SUNPOU
100
AcDbPolyline
 90
        4
 70
     0
 43
0.0
 10
13239.23341255265
 20
5732.659630727496
 10
13239.23341255265
 20
5944.069037660889
 10
12858.44791069072
 20
5944.069037660889
 10
12079.03794737251
 20
5944.069037660889
  0
INSERT
  5
2A62
330
18
100
AcDbEntity
  8
SUNPOU
100
AcDbBlockReference
  2
ARROW
 10
13239.23341255265
 20
5732.659630727496
 30
0.0
 41
80.0
 42
80.0
 43
80.0
 50
270.0
  0
LWPOLYLINE
  5
2A63
330
18
100
AcDbEntity
  8
SUNPOU
100
AcDbPolyline
 90
        3
 70
     0
 43
0.0
 10
13864.86082275519
 20
4530.76697499397
 10
12680.19476360322
 20
4530.76697499397
 10
11928.91557342853
 20
4530.939558611602
  0
LWPOLYLINE
  5
2A64
330
18
100
AcDbEntity
  8
SUNPOU
100
AcDbPolyline
 90
        3
 70
     0
 43
0.0
 10
13928.06715978373
 20
3631.659636594739
 10
12729.2979161097
 20
3631.659636594739
 10
11953.91557342853
 20
3631.000000000002
  0
LWPOLYLINE
  5
2A65
330
18
100
AcDbEntity
  8
SUNPOU
100
AcDbPolyline
 90
        3
 70
     0
 43
0.0
 10
13485.39293952223
 20
5080.878634334425
 10
13076.40110063176
 20
5080.878634334425
 10
11987.96135277168
 20
5080.878634334425
  0
TEXT
  5
2A66
330
18
100
AcDbEntity
  8
SUNPOU
100
AcDbText
 10
12025.91557342853
 20
3671.000000000002
 30
0.0
 40
120.0
  1
ＲＬ－１２００
  7
BIGFONT
 72
     2
 11
12977.91557342853
 21
3731.000000000002
 31
0.0
100
AcDbText
 73
     2
  0
TEXT
  5
2A67
330
18
100
AcDbEntity
  8
SUNPOU
100
AcDbText
 10
12020.91557342853
 20
4570.939558611602
 30
0.0
 40
120.0
  1
ＥＷ－１２００
  7
BIGFONT
 72
     2
 11
12972.91557342853
 21
4630.939558611602
 31
0.0
100
AcDbText
 73
     2
  0
TEXT
  5
2A68
330
18
100
AcDbEntity
  8
SUNPOU
100
AcDbText
 10
12058.73342077506
 20
5138.183403897242
 30
0.0
 40
120.0
  1
単粒度砕石
  7
BIGFONT
 72
     2
 11
12746.73342077506
 21
5198.183403897242
 31
0.0
100
AcDbText
 73
     2
  0
LINE
  5
2A69
330
18
100
AcDbEntity
  8
0
100
AcDbLine
 10
14555.33864193874
 20
3563.230120631903
 30
0.0
 11
13780.33864193874
 21
3563.230120631903
 31
0.0
  0
LINE
  5
2A6A
330
18
100
AcDbEntity
  8
0
100
AcDbLine
 10
13955.33864193874
 20
3563.230120631903
 30
0.0
 11
14430.33864193874
 21
3563.230120631903
 31
0.0
  0
LINE
  5
2A6B
330
18
100
AcDbEntity
  8
0
100
AcDbLine
 10
14555.33864193874
 20
3563.230120631903
 30
0.0
 11
14080.33864193875
 21
3563.230120631903
 31
0.0
  0
LINE
  5
2A6C
330
18
100
AcDbEntity
  8
0
100
AcDbLine
 10
14555.33864193874
 20
3563.230120631903
 30
0.0
 11
13780.33864193874
 21
3563.230120631902
 31
0.0
  0
LINE
  5
2A6D
330
18
100
AcDbEntity
  8
0
100
AcDbLine
 10
13955.33864193874
 20
3563.230120631903
 30
0.0
 11
13780.33864193874
 21
3563.230120631903
 31
0.0
  0
LINE
  5
2A6E
330
18
100
AcDbEntity
  8
0
100
AcDbLine
 10
13780.33864193874
 20
3693.230120631903
 30
0.0
 11
13955.33864193874
 21
3693.230120631903
 31
0.0
  0
INSERT
  5
2A6F
330
18
100
AcDbEntity
  8
SUNPOU
100
AcDbBlockReference
  2
ARROW
 10
13903.06715978373
 20
3632.659636594738
 30
0.0
 41
80.0
 42
80.0
 43
80.0
  0
LINE
  5
2A70
330
18
100
AcDbEntity
  8
0
100
AcDbLine
 10
13780.33864193874
 20
3563.230120631903
 30
0.0
 11
13780.33864193874
 21
3693.230120631903
 31
0.0
  0
LINE
  5
2A71
330
18
100
AcDbEntity
  8
KL
100
AcDbLine
 10
14080.33864193875
 20
3723.230120631904
 30
0.0
 11
14080.33864193875
 21
3563.230120631903
 31
0.0
  0
LINE
  5
2A72
330
18
100
AcDbEntity
  8
KL
100
AcDbLine
 10
13955.33864193874
 20
3693.230120631903
 30
0.0
 11
13955.33864193874
 21
3723.230120631904
 31
0.0
  0
LINE
  5
2A73
330
18
100
AcDbEntity
  8
0
100
AcDbLine
 10
13955.33864193874
 20
3723.230120631904
 30
0.0
 11
13955.33864193874
 21
3693.230120631903
 31
0.0
  0
INSERT
  5
2A74
330
18
100
AcDbEntity
  8
SUNPOU
100
AcDbBlockReference
  2
ARROW
 10
13864.86082275519
 20
4530.76697499397
 30
0.0
 41
80.0
 42
80.0
 43
80.0
  0
LINE
  5
2A75
330
18
100
AcDbEntity
  8
0
100
AcDbLine
 10
13805.33864193874
 20
5693.230120631902
 30
0.0
 11
12805.35133335194
 21
5693.230120631902
 31
0.0
  0
LINE
  5
2A76
330
18
100
AcDbEntity
  8
KL
100
AcDbLine
 10
13805.33864193874
 20
5723.230120631903
 30
0.0
 11
12765.0304138252
 21
5723.2301206319
 31
0.0
  0
INSERT
  5
2A77
330
18
100
AcDbEntity
  8
SUNPOU
100
AcDbBlockReference
  2
ARROW
 10
13485.39293952223
 20
5080.878634334425
 30
0.0
 41
80.0
 42
80.0
 43
80.0
  0
LINE
  5
2A78
330
18
100
AcDbEntity
  8
KL
100
AcDbLine
 10
13955.33864193874
 20
3693.230120631903
 30
0.0
 11
13955.33864193874
 21
4693.230120631903
 31
0.0
  0
LINE
  5
2A79
330
18
100
AcDbEntity
  8
0
100
AcDbLine
 10
13805.33864193874
 20
3693.230120631903
 30
0.0
 11
13805.33864193874
 21
5693.230120631902
 31
0.0
  0
LINE
  5
2A7A
330
18
100
AcDbEntity
  8
0
100
AcDbLine
 10
11776.70437566727
 20
6254.136149575944
 30
0.0
 11
11916.89539214404
 21
6394.327166052718
 31
0.0
  0
LINE
  5
2A7B
330
18
100
AcDbEntity
  8
0
100
AcDbLine
 10
12268.08469698761
 20
6250.541724065705
 30
0.0
 11
12364.38276555933
 21
6346.839792637426
 31
0.0
  0
LINE
  5
2A7C
330
18
100
AcDbEntity
  8
0
100
AcDbLine
 10
12271.67912249785
 20
6254.136149575944
 30
0.0
 11
12420.77309355381
 21
6403.230120631903
 31
0.0
  0
LINE
  5
2A7D
330
18
100
AcDbEntity
  8
0
100
AcDbLine
 10
12171.98085810128
 20
6260.503902357361
 30
0.0
 11
12314.70707637583
 21
6403.230120631903
 31
0.0
  0
LINE
  5
2A7E
330
18
100
AcDbEntity
  8
0
100
AcDbLine
 10
12162.01867980963
 20
6250.541724065705
 30
0.0
 11
12311.34975697034
 21
6399.872801226418
 31
0.0
  0
LINE
  5
2A7F
330
18
100
AcDbEntity
  8
0
100
AcDbLine
 10
12165.61310531987
 20
6254.136149575944
 30
0.0
 11
12311.34975697034
 21
6399.872801226418
 31
0.0
  0
TEXT
  5
2A80
330
18
100
AcDbEntity
  8
SUNPOU
100
AcDbText
 10
12094.44791069072
 20
5984.069037660889
 30
0.0
 40
120.0
  1
透水シート
  7
BIGFONT
 72
     2
 11
12758.44791069072
 21
6044.069037660889
 31
0.0
100
AcDbText
 73
     2
  0
LINE
  5
2A81
330
18
100
AcDbEntity
  8
0
100
AcDbLine
 10
12030.55950186397
 20
6295.85924141669
 30
0.0
 11
12072.28259370472
 21
6254.136149575944
 31
0.0
  0
LINE
  5
2A82
330
18
100
AcDbEntity
  8
0
100
AcDbLine
 10
12022.96140932202
 20
6288.261148874738
 30
0.0
 11
12137.93038107919
 21
6403.230120631903
 31
0.0
  0
LINE
  5
2A83
330
18
100
AcDbEntity
  8
0
100
AcDbLine
 10
11882.77039284525
 20
6254.136149575944
 30
0.0
 11
11969.92840073303
 21
6341.294157463728
 31
0.0
  0
LINE
  5
2A84
330
18
100
AcDbEntity
  8
0
100
AcDbLine
 10
11916.89539214404
 20
6394.327166052718
 30
0.0
 11
11925.79834672322
 21
6403.230120631903
 31
0.0
  0
LINE
  5
2A85
330
18
100
AcDbEntity
  8
0
100
AcDbLine
 10
11988.83641002323
 20
6254.136149575944
 30
0.0
 11
12022.96140932202
 21
6288.261148874738
 31
0.0
  0
LINE
  5
2A86
330
18
100
AcDbEntity
  8
0
100
AcDbLine
 10
11969.92840073303
 20
6341.294157463728
 30
0.0
 11
12031.86436390121
 21
6403.230120631903
 31
0.0
  0
LINE
  5
2A87
330
18
100
AcDbEntity
  8
0
100
AcDbLine
 10
12135.32065700472
 20
6403.230120631903
 30
0.0
 11
12225.01386669027
 21
6313.536910946353
 31
0.0
  0
LINE
  5
2A88
330
18
100
AcDbEntity
  8
0
100
AcDbLine
 10
12083.59251045296
 20
6348.892250005679
 30
0.0
 11
12171.98085810128
 21
6260.503902357361
 31
0.0
  0
LINE
  5
2A89
330
18
100
AcDbEntity
  8
0
100
AcDbLine
 10
12241.38667418271
 20
6403.230120631903
 30
0.0
 11
12278.04687527927
 21
6366.569919535343
 31
0.0
  0
LINE
  5
2A8A
330
18
100
AcDbEntity
  8
0
100
AcDbLine
 10
12490.17890963523
 20
6366.569919535343
 30
0.0
 11
12602.61267959463
 21
6254.136149575944
 31
0.0
  0
LINE
  5
2A8B
330
18
100
AcDbEntity
  8
0
100
AcDbLine
 10
12377.74513967583
 20
6254.136149575944
 30
0.0
 11
12526.83911073179
 21
6403.230120631903
 31
0.0
  0
LINE
  5
2A8C
330
18
100
AcDbEntity
  8
0
100
AcDbLine
 10
12374.15071416559
 20
6250.541724065705
 30
0.0
 11
12417.41577414832
 21
6293.806784048436
 31
0.0
  0
LINE
  5
2A8D
330
18
100
AcDbEntity
  8
0
100
AcDbLine
 10
12384.11289245725
 20
6260.503902357361
 30
0.0
 11
12390.48064523866
 21
6254.136149575944
 31
0.0
  0
LINE
  5
2A8E
330
18
100
AcDbEntity
  8
0
100
AcDbLine
 10
12347.45269136069
 20
6403.230120631903
 30
0.0
 11
12384.11289245725
 21
6366.569919535343
 31
0.0
  0
LINE
  5
2A8F
330
18
100
AcDbEntity
  8
0
100
AcDbLine
 10
12437.14590104624
 20
6313.536910946353
 30
0.0
 11
12496.54666241664
 21
6254.136149575944
 31
0.0
  0
LINE
  5
2A90
330
18
100
AcDbEntity
  8
0
100
AcDbLine
 10
12559.58472571665
 20
6403.230120631903
 30
0.0
 11
12708.67869677261
 21
6254.136149575944
 31
0.0
  0
INSERT
  5
2A91
330
18
100
AcDbEntity
  8
SUNPOU
100
AcDbBlockReference
  2
ARROW
 10
14171.02734554707
 20
5958.162995515412
 30
0.0
 41
80.0
 42
80.0
 43
80.0
 50
270.0
  0
ARC
  5
2A92
330
18
100
AcDbEntity
  8
0
100
AcDbCircle
 10
14385.33864193875
 20
6433.230120631903
 30
0.0
 40
10.0
100
AcDbArc
 50
90.0
 51
180.0
  0
LINE
  5
2A93
330
18
100
AcDbEntity
  8
0
100
AcDbLine
 10
14375.33864193874
 20
6433.230120631903
 30
0.0
 11
14375.33864193874
 21
6293.230120631903
 31
0.0
  0
LINE
  5
2A94
330
18
100
AcDbEntity
  8
0
100
AcDbLine
 10
14385.33864193875
 20
6443.230120631901
 30
0.0
 11
14518.33864193874
 21
6443.230120631901
 31
0.0
  0
LINE
  5
2A95
330
18
100
AcDbEntity
  8
0
100
AcDbLine
 10
14385.33864193875
 20
6443.230120631901
 30
0.0
 11
14529.33864193874
 21
6443.230120631901
 31
0.0
  0
LINE
  5
2A96
330
18
100
AcDbEntity
  8
KL
100
AcDbLine
 10
14528.33864193874
 20
6393.230120631901
 30
0.0
 11
14528.33864193874
 21
6443.230120631901
 31
0.0
  0
LINE
  5
2A97
330
18
100
AcDbEntity
  8
KL
100
AcDbLine
 10
14518.33864193874
 20
6393.230120631901
 30
0.0
 11
14528.33864193874
 21
6393.230120631901
 31
0.0
  0
LINE
  5
2A98
330
18
100
AcDbEntity
  8
KL
100
AcDbLine
 10
14518.33864193874
 20
6383.230120631901
 30
0.0
 11
14518.33864193874
 21
6443.230120631901
 31
0.0
  0
LINE
  5
2A99
330
18
100
AcDbEntity
  8
KL
100
AcDbLine
 10
14555.33864193874
 20
6393.230120631901
 30
0.0
 11
14555.33864193874
 21
6333.230120631903
 31
0.0
  0
LINE
  5
2A9A
330
18
100
AcDbEntity
  8
KL
100
AcDbLine
 10
14528.33864193874
 20
6393.230120631901
 30
0.0
 11
14518.33864193874
 21
6393.230120631901
 31
0.0
  0
LINE
  5
2A9B
330
18
100
AcDbEntity
  8
0
100
AcDbLine
 10
14518.33864193874
 20
6443.230120631901
 30
0.0
 11
14528.33864193874
 21
6443.230120631901
 31
0.0
  0
LINE
  5
2A9C
330
18
100
AcDbEntity
  8
0
100
AcDbLine
 10
14171.02734554707
 20
6978.887293035905
 30
0.0
 11
14171.02734554707
 21
6978.887293035905
 31
0.0
  0
DIMENSION
  5
2A9D
330
18
100
AcDbEntity
  8
SUNPOU
100
AcDbDimension
  2
*D44
 10
17096.62371164092
 20
5693.230120631902
 30
0.0
 11
16996.62371164092
 21
5993.230120631905
 31
0.0
 70
    32
 71
     5
 42
600.0000000000018
  3
DIA1
100
AcDbAlignedDimension
 13
16455.78274088307
 23
6293.230120631903
 33
0.0
 14
16455.78274088307
 24
5693.230120631902
 34
0.0
 50
90.0
100
AcDbRotatedDimension
1001
ACAD
1000
DSTYLE
1002
{
1002
}
  0
LINE
  5
2A9E
330
18
100
AcDbEntity
  8
0
100
AcDbLine
 10
15155.33864193874
 20
3563.230120631903
 30
0.0
 11
14680.33864193874
 21
3563.230120631903
 31
0.0
  0
LINE
  5
2A9F
330
18
100
AcDbEntity
  8
0
100
AcDbLine
 10
15005.33864193874
 20
3693.230120631903
 30
0.0
 11
15305.33864193874
 21
3693.230120631903
 31
0.0
  0
LINE
  5
2AA0
330
18
100
AcDbEntity
  8
KL
100
AcDbLine
 10
15030.33864193874
 20
3723.230120631904
 30
0.0
 11
15030.33864193874
 21
3563.230120631903
 31
0.0
  0
LINE
  5
2AA1
330
18
100
AcDbEntity
  8
0
100
AcDbLine
 10
15330.33864193875
 20
3693.230120631903
 30
0.0
 11
15155.33864193874
 21
3693.230120631903
 31
0.0
  0
LINE
  5
2AA2
330
18
100
AcDbEntity
  8
0
100
AcDbLine
 10
15155.33864193874
 20
3563.230120631903
 30
0.0
 11
15330.33864193875
 21
3563.230120631903
 31
0.0
  0
LINE
  5
2AA3
330
18
100
AcDbEntity
  8
KL
100
AcDbLine
 10
15155.33864193874
 20
3723.230120631904
 30
0.0
 11
15155.33864193874
 21
3693.230120631903
 31
0.0
  0
LINE
  5
2AA4
330
18
100
AcDbEntity
  8
0
100
AcDbLine
 10
15155.33864193874
 20
3723.230120631904
 30
0.0
 11
15155.33864193874
 21
3693.230120631903
 31
0.0
  0
LINE
  5
2AA5
330
18
100
AcDbEntity
  8
0
100
AcDbLine
 10
15330.33864193875
 20
3563.230120631903
 30
0.0
 11
15330.33864193875
 21
3693.230120631903
 31
0.0
  0
LINE
  5
2AA6
330
18
100
AcDbEntity
  8
KL
100
AcDbLine
 10
15305.33864193874
 20
5723.2301206319
 30
0.0
 11
16345.64687005228
 21
5723.230120631903
 31
0.0
  0
LINE
  5
2AA7
330
18
100
AcDbEntity
  8
0
100
AcDbLine
 10
15305.33864193874
 20
5693.230120631902
 30
0.0
 11
16305.32595052555
 21
5693.230120631902
 31
0.0
  0
LINE
  5
2AA8
330
18
100
AcDbEntity
  8
0
100
AcDbLine
 10
15305.33864193874
 20
4693.230120631901
 30
0.0
 11
15305.33864193874
 21
3693.230120631903
 31
0.0
  0
LINE
  5
2AA9
330
18
100
AcDbEntity
  8
KL
100
AcDbLine
 10
15155.33864193874
 20
4693.230120631903
 30
0.0
 11
15155.33864193874
 21
3693.230120631903
 31
0.0
  0
LINE
  5
2AAA
330
18
100
AcDbEntity
  8
KL
100
AcDbLine
 10
15155.33864193874
 20
3860.230120631905
 30
0.0
 11
15005.33864193874
 21
3860.230120631905
 31
0.0
  0
LINE
  5
2AAB
330
18
100
AcDbEntity
  8
KL
100
AcDbLine
 10
15155.33864193874
 20
4526.230120631903
 30
0.0
 11
15005.33864193874
 21
4526.230120631903
 31
0.0
  0
LINE
  5
2AAC
330
18
100
AcDbEntity
  8
KL
100
AcDbLine
 10
15155.33864193874
 20
4193.230120631903
 30
0.0
 11
15005.33864193874
 21
4193.230120631903
 31
0.0
  0
DIMENSION
  5
2AAD
330
18
100
AcDbEntity
  8
SUNPOU
100
AcDbDimension
  2
*D45
 10
17096.62371164092
 20
3693.230120631903
 30
0.0
 11
16965.19514021235
 21
4693.230120631905
 31
0.0
 70
    32
  1
<>(@1000×2)
 71
     5
 42
1999.999999999998
  3
STANDARD
100
AcDbAlignedDimension
 13
16495.78274088307
 23
5693.230120631902
 33
0.0
 14
16455.78274088307
 24
3693.230120631903
 34
0.0
 50
90.0
100
AcDbRotatedDimension
1001
ACAD
1000
DSTYLE
1002
{
1070
   288
1070
     1
1070
   140
1040
3.0
1070
   340
1005
6D
1070
    74
1070
     0
1070
   172
1070
     1
1070
    73
1070
     0
1070
    77
1070
     1
1070
    40
1040
40.0
1070
   147
1040
1.0
1070
    42
1040
1.0
1070
    44
1040
1.0
1070
    43
1040
10.0
1070
   271
1070
     0
1070
   141
1040
0.0
1070
     5
1000
ARROW
1070
    41
1040
2.0
1002
}
  0
TEXT
  5
2AAE
330
18
100
AcDbEntity
  8
SUNPOU
100
AcDbText
 10
15060.80471831506
 20
6773.330775303044
 30
0.0
 40
120.0
  1
口環上・蓋
  7
BIGFONT
 11
15060.80471831506
 21
6833.330775303044
 31
0.0
100
AcDbText
 73
     2
  0
LWPOLYLINE
  5
2AAF
330
18
100
AcDbEntity
  8
SUNPOU
100
AcDbPolyline
 90
        3
 70
     0
 43
0.0
 10
14960.73201056229
 20
6393.230120631901
 10
14960.80471831506
 20
6733.330775303044
 10
15774.56080263854
 20
6733.330775303044
  0
INSERT
  5
2AB0
330
18
100
AcDbEntity
  8
SUNPOU
100
AcDbBlockReference
  2
ARROW
 10
14960.80471831506
 20
6392.793874115377
 30
0.0
 41
80.0
 42
80.0
 43
80.0
 50
270.0
  0
LINE
  5
2AB1
330
18
100
AcDbEntity
  8
KL
100
AcDbLine
 10
15182.33864193874
 20
6393.230120631901
 30
0.0
 11
14855.33864193874
 21
6393.230120631901
 31
0.0
  0
LINE
  5
2AB2
330
18
100
AcDbEntity
  8
KL
100
AcDbLine
 10
15192.33864193874
 20
6383.230120631901
 30
0.0
 11
14855.33864193874
 21
6383.230120631901
 31
0.0
  0
LINE
  5
2AB3
330
18
100
AcDbEntity
  8
KL
100
AcDbLine
 10
15182.33864193874
 20
6393.230120631901
 30
0.0
 11
15192.33864193874
 21
6393.230120631901
 31
0.0
  0
LINE
  5
2AB4
330
18
100
AcDbEntity
  8
KL
100
AcDbLine
 10
15192.33864193874
 20
6383.230120631901
 30
0.0
 11
15192.33864193874
 21
6443.230120631901
 31
0.0
  0
LINE
  5
2AB5
330
18
100
AcDbEntity
  8
KL
100
AcDbLine
 10
15182.33864193874
 20
6393.230120631901
 30
0.0
 11
15182.33864193874
 21
6443.230120631901
 31
0.0
  0
LINE
  5
2AB6
330
18
100
AcDbEntity
  8
KL
100
AcDbLine
 10
15192.33864193874
 20
6393.230120631901
 30
0.0
 11
15182.33864193874
 21
6393.230120631901
 31
0.0
  0
LINE
  5
2AB7
330
18
100
AcDbEntity
  8
KL
100
AcDbLine
 10
15155.33864193874
 20
6393.230120631901
 30
0.0
 11
15155.33864193874
 21
5693.230120631902
 31
0.0
  0
LINE
  5
2AB8
330
18
100
AcDbEntity
  8
0
100
AcDbLine
 10
15192.33864193874
 20
6443.230120631901
 30
0.0
 11
15182.33864193874
 21
6443.230120631901
 31
0.0
  0
ARC
  5
2AB9
330
18
100
AcDbEntity
  8
0
100
AcDbCircle
 10
15325.33864193874
 20
6433.230120631903
 30
0.0
 40
10.0
100
AcDbArc
 50
0.0
 51
90.0
  0
LINE
  5
2ABA
330
18
100
AcDbEntity
  8
0
100
AcDbLine
 10
15335.33864193874
 20
6293.230120631903
 30
0.0
 11
15335.33864193874
 21
6433.230120631903
 31
0.0
  0
LINE
  5
2ABB
330
18
100
AcDbEntity
  8
0
100
AcDbLine
 10
14960.80471831506
 20
6733.330775303044
 30
0.0
 11
14960.80471831506
 21
6733.330775303044
 31
0.0
  0
LINE
  5
2ABC
330
18
100
AcDbEntity
  8
0
100
AcDbLine
 10
12805.35133335194
 20
5693.230120631902
 30
0.0
 11
13555.33864193875
 21
3193.272425342553
 31
0.0
  0
LINE
  5
2ABD
330
18
100
AcDbEntity
  8
KL
100
AcDbLine
 10
12765.0304138252
 20
5723.2301206319
 30
0.0
 11
13524.01772241201
 21
3193.272425342553
 31
0.0
  0
LINE
  5
2ABE
330
18
100
AcDbEntity
  8
KL
100
AcDbLine
 10
16345.64687005228
 20
5723.230120631903
 30
0.0
 11
15586.65956146547
 21
3193.272425342553
 31
0.0
  0
LINE
  5
2ABF
330
18
100
AcDbEntity
  8
0
100
AcDbLine
 10
16305.32595052555
 20
5693.230120631902
 30
0.0
 11
15555.33864193875
 21
3193.272425342553
 31
0.0
  0
DIMENSION
  5
2AC0
330
18
100
AcDbEntity
  8
SUNPOU
100
AcDbDimension
  2
*D46
 10
17416.62371164092
 20
3193.272425342553
 30
0.0
 11
17316.62371164092
 21
4443.25127298723
 31
0.0
 70
    32
 71
     5
 42
2499.957695289348
  3
DIA1
100
AcDbAlignedDimension
 13
16495.78274088307
 23
5693.230120631902
 33
0.0
 14
16455.78274088307
 24
3193.272425342553
 34
0.0
 50
90.0
100
AcDbRotatedDimension
1001
ACAD
1000
DSTYLE
1002
{
1070
    75
1070
     1
1002
}
  0
LINE
  5
2AC1
330
18
100
AcDbEntity
  8
0
100
AcDbLine
 10
11580.57005019489
 20
6443.230120631901
 30
0.0
 11
17940.35292218993
 21
6443.230120631901
 31
0.0
  0
DIMENSION
  5
2AC2
330
18
100
AcDbEntity
  8
SUNPOU
100
AcDbDimension
  2
*D47
 10
17096.62371164092
 20
6443.230120631901
 30
0.0
 11
16992.01421737813
 21
6443.230120631901
 31
0.0
 70
   160
 71
     5
 42
149.9999999999982
  3
DIA1
100
AcDbAlignedDimension
 13
16455.78274088307
 23
6293.230120631903
 33
0.0
 14
16455.78274088307
 24
6443.230120631901
 34
0.0
 50
90.0
100
AcDbRotatedDimension
1001
ACAD
1000
DSTYLE
1002
{
1070
    75
1070
     1
1002
}
  0
DIMENSION
  5
2AC3
330
18
100
AcDbEntity
  8
SUNPOU
100
AcDbDimension
  2
*D48
 10
17416.62371164092
 20
5693.230120631902
 30
0.0
 11
17316.62371164092
 21
6068.230120631904
 31
0.0
 70
    32
 71
     5
 42
749.9999999999991
  3
DIA1
100
AcDbAlignedDimension
 13
16455.78274088307
 23
6443.230120631901
 33
0.0
 14
16455.78274088307
 24
5693.230120631902
 34
0.0
 50
90.0
100
AcDbRotatedDimension
  0
DIMENSION
  5
2AC4
330
18
100
AcDbEntity
  8
SUNPOU
100
AcDbDimension
  2
*D49
 10
17096.62371164092
 20
3193.272425342553
 30
0.0
 11
16996.62371164092
 21
3443.251272987231
 31
0.0
 70
    32
 71
     5
 42
499.9576952893498
  3
DIA1
100
AcDbAlignedDimension
 13
16455.78274088307
 23
3693.230120631903
 33
0.0
 14
16455.78274088307
 24
3193.272425342553
 34
0.0
 50
90.0
100
AcDbRotatedDimension
  0
LINE
  5
2AC5
330
18
100
AcDbEntity
  8
0
100
AcDbLine
 10
15555.33864193875
 20
3193.272425342553
 30
0.0
 11
13555.33864193875
 21
3193.272425342553
 31
0.0
  0
LINE
  5
2AC6
330
18
100
AcDbEntity
  8
0
100
AcDbLine
 10
15305.33864193874
 20
5693.230120631902
 30
0.0
 11
15305.33864193874
 21
4693.230120631903
 31
0.0
  0
LINE
  5
2AC7
330
18
100
AcDbEntity
  8
KL
100
AcDbLine
 10
15155.33864193874
 20
5693.230120631905
 30
0.0
 11
15155.33864193874
 21
4693.230120631903
 31
0.0
  0
LINE
  5
2AC8
330
18
100
AcDbEntity
  8
KL
100
AcDbLine
 10
15155.33864193874
 20
5193.230120631905
 30
0.0
 11
15005.33864193874
 21
5193.230120631905
 31
0.0
  0
LINE
  5
2AC9
330
18
100
AcDbEntity
  8
KL
100
AcDbLine
 10
15155.33864193874
 20
5526.230120631904
 30
0.0
 11
15005.33864193874
 21
5526.230120631904
 31
0.0
  0
LINE
  5
2ACA
330
18
100
AcDbEntity
  8
KL
100
AcDbLine
 10
13955.33864193874
 20
4693.230120631903
 30
0.0
 11
13955.33864193874
 21
5693.230120631905
 31
0.0
  0
LINE
  5
2ACB
330
18
100
AcDbEntity
  8
KL
100
AcDbLine
 10
15155.33864193874
 20
4860.230120631904
 30
0.0
 11
15005.33864193874
 21
4860.230120631904
 31
0.0
  0
LINE
  5
2ACC
330
18
100
AcDbEntity
  8
0
100
AcDbLine
 10
13805.33864193874
 20
4693.230120631903
 30
0.0
 11
15005.33864193874
 21
4693.230120631903
 31
0.0
  0
LINE
  5
2ACD
330
18
100
AcDbEntity
  8
0
100
AcDbLine
 10
15305.33864193874
 20
4693.230120631903
 30
0.0
 11
13805.33864193874
 21
4693.230120631903
 31
0.0
  0
LINE
  5
2ACE
330
18
100
AcDbEntity
  8
0
100
AcDbLine
 10
13805.33864193874
 20
4693.230120631903
 30
0.0
 11
15305.33864193874
 21
4693.230120631903
 31
0.0
  0
HATCH
  5
2ACF
330
18
100
AcDbEntity
  8
NAZORI
100
AcDbHatch
 10
0.0
 20
0.0
 30
0.0
210
0.0
220
0.0
230
1.0
  2
HONEY
 70
     0
 71
     0
 91
        2
 92
        7
 72
     0
 73
     1
 93
        5
 10
13805.33864193874
 20
5693.230120631902
 10
12805.35133335194
 20
5693.230120631902
 10
13154.09027704332
 20
4530.76697499397
 10
13282.34500799495
 20
4530.766974993972
 10
13805.33864193874
 20
4844.847881275193
 97
        0
 92
        7
 72
     0
 73
     1
 93
        3
 10
13282.34500799495
 20
4530.76697499397
 10
13154.09027704332
 20
4530.766974993972
 10
13173.66959988138
 20
4465.502565533761
 97
        0
 75
     0
 76
     1
 52
10.0
 41
400.0
 77
     0
 78
     3
 53
10.0
 43
7947.91557342853
 44
0.0
 45
66.34139484975188
 46
55.66703973629469
 79
     2
 49
49.99999999999998
 49
-99.99999999999996
 53
130.0
 43
7947.91557342853
 44
0.0
 45
-81.37976798998492
 46
29.61981339423191
 79
     2
 49
50.0
 49
-100.0
 53
70.0
 43
7947.91557342853
 44
0.0
 45
-15.03837314023306
 46
85.2868531305266
 79
     2
 49
-99.99999999999996
 49
49.99999999999998
 47
7.559194063995767
 98
        2
 10
13581.20151094962
 20
5046.46688883858
 10
13210.48068195679
 20
4509.764103094594
  0
HATCH
  5
2AD0
330
18
100
AcDbEntity
  8
NAZORI
100
AcDbHatch
 10
0.0
 20
0.0
 30
0.0
210
0.0
220
0.0
230
1.0
  2
HONEY
 70
     0
 71
     0
 91
        2
 92
        7
 72
     0
 73
     1
 93
       10
 10
15916.83493119913
 20
4398.260056210495
 10
15305.33864193874
 20
4260.711449298076
 10
15305.33864193874
 20
3693.230120631903
 10
15330.33864193875
 20
3693.230120631903
 10
15330.33864193875
 20
3563.230120631903
 10
15155.33864193874
 20
3563.230120631903
 10
14680.33864193874
 20
3563.230120631903
 10
14555.33864193874
 20
3563.230120631903
 10
14555.33864193874
 20
3193.272425342553
 10
15555.33864193875
 20
3193.272425342553
 97
        0
 92
        7
 72
     0
 73
     1
 93
        4
 10
14555.33864193874
 20
3563.230120631903
 10
14540.02443911174
 20
3563.230120631903
 10
14266.77591520178
 20
3193.272425342553
 10
14555.33864193874
 20
3193.272425342553
 97
        0
 75
     0
 76
     1
 52
10.0
 41
400.0
 77
     0
 78
     3
 53
10.0
 43
7947.91557342853
 44
0.0
 45
66.34139484975188
 46
55.66703973629469
 79
     2
 49
49.99999999999998
 49
-99.99999999999996
 53
130.0
 43
7947.91557342853
 44
0.0
 45
-81.37976798998492
 46
29.61981339423191
 79
     2
 49
50.0
 49
-100.0
 53
70.0
 43
7947.91557342853
 44
0.0
 45
-15.03837314023306
 46
85.2868531305266
 79
     2
 49
-99.99999999999996
 49
49.99999999999998
 47
7.559194063995767
 98
        2
 10
15510.46316404651
 20
3889.910191964673
 10
14489.08937206361
 20
3292.733860485461
  0
DIMENSION
  5
2AD1
330
18
100
AcDbEntity
  8
SUNPOU
100
AcDbDimension
  2
*D50
 10
15155.33864193874
 20
4317.734998483878
 30
0.0
 11
14555.33864193874
 21
4417.734998483878
 31
0.0
 70
    32
  1
φ1200
 71
     5
 42
1200.000000000002
  3
STANDARD
100
AcDbAlignedDimension
 13
13955.33864193874
 23
4289.547063217058
 33
0.0
 14
15155.33864193874
 24
4275.453105362534
 34
0.0
100
AcDbRotatedDimension
1001
ACAD
1000
DSTYLE
1002
{
1070
   288
1070
     1
1070
   140
1040
3.0
1070
   340
1005
6D
1070
    74
1070
     0
1070
   172
1070
     1
1070
    73
1070
     0
1070
    77
1070
     1
1070
    40
1040
40.0
1070
   147
1040
1.0
1070
    42
1040
1.0
1070
    44
1040
1.0
1070
    43
1040
10.0
1070
   271
1070
     0
1070
   141
1040
0.0
1070
     5
1000
ARROW
1070
    41
1040
2.0
1002
}
  0
DIMENSION
  5
2AD2
330
18
100
AcDbEntity
  8
SUNPOU
100
AcDbDimension
  2
*D51
 10
17728.22067675268
 20
3193.272425342553
 30
0.0
 11
17628.22067675268
 21
4818.25127298723
 31
0.0
 70
    32
 71
     5
 42
3249.957695289348
  3
DIA1
100
AcDbAlignedDimension
 13
16455.78274088307
 23
6443.230120631901
 33
0.0
 14
16495.78274088307
 24
3193.272425342553
 34
0.0
 50
90.0
100
AcDbRotatedDimension
  0
TEXT
  5
2AD3
330
18
100
AcDbEntity
  8
0
100
AcDbText
 10
15598.28279961744
 20
8196.89263563473
 30
0.0
 40
200.0
  1
浸透井戸 EW-1200（２段積）
  7
BIGFONT
100
AcDbText
  0
TEXT
  5
2AD4
330
18
100
AcDbEntity
  8
0
100
AcDbText
 10
19505.36337593449
 20
8223.310674134028
 30
0.0
 40
140.0
  1
Ｓ＝１／４０
  7
BIGFONT
100
AcDbText
  0
LINE
  5
2AD5
330
18
100
AcDbEntity
  8
0
100
AcDbLine
 10
14855.33864193874
 20
6293.230120631903
 30
0.0
 11
15405.33864193874
 21
6293.230120631903
 31
0.0
  0
LINE
  5
2AD6
330
18
100
AcDbEntity
  8
0
100
AcDbLine
 10
15405.33864193874
 20
6293.230120631903
 30
0.0
 11
15405.33864193874
 21
6233.230120631905
 31
0.0
  0
LINE
  5
2AD7
330
18
100
AcDbEntity
  8
0
100
AcDbLine
 10
15225.33864193874
 20
6129.30707217777
 30
0.0
 11
15405.33864193874
 21
6233.230120631905
 31
0.0
  0
LINE
  5
2AD8
330
18
100
AcDbEntity
  8
0
100
AcDbLine
 10
14855.33864193874
 20
6293.230120631903
 30
0.0
 11
15155.33864193874
 21
6293.230120631903
 31
0.0
  0
LINE
  5
2AD9
330
18
100
AcDbEntity
  8
0
100
AcDbLine
 10
14855.33864193874
 20
5693.230120631905
 30
0.0
 11
14105.33864193874
 21
5693.230120631905
 31
0.0
  0
LINE
  5
2ADA
330
18
100
AcDbEntity
  8
0
100
AcDbLine
 10
14855.33864193874
 20
6293.230120631903
 30
0.0
 11
14555.33864193874
 21
6293.230120631903
 31
0.0
  0
LINE
  5
2ADB
330
18
100
AcDbEntity
  8
0
100
AcDbLine
 10
14855.33864193874
 20
6293.230120631903
 30
0.0
 11
14305.33864193875
 21
6293.230120631903
 31
0.0
  0
LINE
  5
2ADC
330
18
100
AcDbEntity
  8
0
100
AcDbLine
 10
14305.33864193875
 20
6293.230120631903
 30
0.0
 11
14305.33864193875
 21
6233.230120631905
 31
0.0
  0
LINE
  5
2ADD
330
18
100
AcDbEntity
  8
KL
100
AcDbLine
 10
15155.33864193874
 20
6293.230120631903
 30
0.0
 11
15155.33864193874
 21
6253.230120631902
 31
0.0
  0
LINE
  5
2ADE
330
18
100
AcDbEntity
  8
KL
100
AcDbLine
 10
15155.33864193874
 20
6253.230120631904
 30
0.0
 11
14855.33864193874
 21
6253.230120631902
 31
0.0
  0
LINE
  5
2ADF
330
18
100
AcDbEntity
  8
KL
100
AcDbLine
 10
14555.33864193874
 20
6253.230120631904
 30
0.0
 11
14855.33864193874
 21
6253.230120631902
 31
0.0
  0
LINE
  5
2AE0
330
18
100
AcDbEntity
  8
KL
100
AcDbLine
 10
14555.33864193874
 20
6293.230120631903
 30
0.0
 11
14555.33864193874
 21
6253.230120631902
 31
0.0
  0
LINE
  5
2AE1
330
18
100
AcDbEntity
  8
0
100
AcDbLine
 10
14305.33864193875
 20
6293.230120631903
 30
0.0
 11
15405.33864193874
 21
6293.230120631903
 31
0.0
  0
LINE
  5
2AE2
330
18
100
AcDbEntity
  8
0
100
AcDbLine
 10
15405.33864193874
 20
6293.230120631903
 30
0.0
 11
15405.33864193874
 21
6233.230120631905
 31
0.0
  0
LINE
  5
2AE3
330
18
100
AcDbEntity
  8
KL
100
AcDbLine
 10
15155.33864193874
 20
6253.230120631904
 30
0.0
 11
15155.33864193874
 21
5693.230120631905
 31
0.0
  0
LINE
  5
2AE4
330
18
100
AcDbEntity
  8
0
100
AcDbLine
 10
15155.33864193874
 20
5693.230120631905
 30
0.0
 11
15305.33864193874
 21
5693.230120631905
 31
0.0
  0
LINE
  5
2AE5
330
18
100
AcDbEntity
  8
0
100
AcDbLine
 10
15305.33864193874
 20
5693.230120631905
 30
0.0
 11
15305.33864193874
 21
5743.230120631904
 31
0.0
  0
LINE
  5
2AE6
330
18
100
AcDbEntity
  8
0
100
AcDbLine
 10
15225.33864193874
 20
5789.418142167073
 30
0.0
 11
15305.33864193874
 21
5743.230120631904
 31
0.0
  0
LINE
  5
2AE7
330
18
100
AcDbEntity
  8
0
100
AcDbLine
 10
15155.33864193874
 20
5693.230120631905
 30
0.0
 11
15225.33864193874
 21
5693.230120631905
 31
0.0
  0
LINE
  5
2AE8
330
18
100
AcDbEntity
  8
0
100
AcDbLine
 10
15225.33864193874
 20
5789.418142167073
 30
0.0
 11
15225.33864193874
 21
6129.30707217777
 31
0.0
  0
LINE
  5
2AE9
330
18
100
AcDbEntity
  8
0
100
AcDbLine
 10
15305.33864193874
 20
5693.230120631905
 30
0.0
 11
13805.33864193874
 21
5693.230120631905
 31
0.0
  0
LINE
  5
2AEA
330
18
100
AcDbEntity
  8
0
100
AcDbLine
 10
13805.33864193874
 20
5693.230120631905
 30
0.0
 11
13805.33864193874
 21
5743.230120631904
 31
0.0
  0
LINE
  5
2AEB
330
18
100
AcDbEntity
  8
KL
100
AcDbLine
 10
14555.33864193874
 20
6253.230120631904
 30
0.0
 11
13955.33864193874
 21
5693.230120631905
 31
0.0
  0
LINE
  5
2AEC
330
18
100
AcDbEntity
  8
0
100
AcDbLine
 10
14319.97252452304
 20
6129.30707217777
 30
0.0
 11
13955.33864193874
 21
5788.98211509909
 31
0.0
  0
LINE
  5
2AED
330
18
100
AcDbEntity
  8
0
100
AcDbLine
 10
13955.33864193874
 20
5788.98211509909
 30
0.0
 11
13805.33864193874
 21
5743.230120631904
 31
0.0
  0
LINE
  5
2AEE
330
18
100
AcDbEntity
  8
KL
100
AcDbLine
 10
15005.33864193874
 20
6143.230120631905
 30
0.0
 11
15155.33864193874
 21
6143.230120631905
 31
0.0
  0
LINE
  5
2AEF
330
18
100
AcDbEntity
  8
KL
100
AcDbLine
 10
15005.33864193874
 20
5843.230120631904
 30
0.0
 11
15155.33864193874
 21
5843.230120631904
 31
0.0
  0
LINE
  5
2AF0
330
18
100
AcDbEntity
  8
0
100
AcDbLine
 10
14319.97252452304
 20
6129.30707217777
 30
0.0
 11
14305.33864193875
 21
6233.230120631905
 31
0.0
  0
LWPOLYLINE
  5
2AF5
330
18
100
AcDbEntity
  8
0
100
AcDbPolyline
 90
        4
 70
     1
 43
0.0
 10
11105.92470005186
 20
1139.260830420458
 10
11105.92470005186
 20
9539.260830420458
 10
22985.92470005186
 20
9539.260830420458
 10
22985.92470005186
 20
1139.260830420458
  0
LINE
  5
2AF6
330
18
100
AcDbEntity
  8
0
  6
DASHED
100
AcDbLine
 10
18108.74608988081
 20
6596.044554179065
 30
0.0
 11
21608.74608988081
 21
6596.044554179065
 31
0.0
  0
LINE
  5
2AF7
330
18
100
AcDbEntity
  8
0
  6
DASHED
100
AcDbLine
 10
18858.7460898808
 20
5846.044554179065
 30
0.0
 11
20858.74608988081
 21
5846.044554179065
 31
0.0
  0
LINE
  5
2AF8
330
18
100
AcDbEntity
  8
0
  6
DASHED
100
AcDbLine
 10
18108.74608988081
 20
3096.044554179065
 30
0.0
 11
18108.74608988081
 21
6596.044554179065
 31
0.0
  0
LINE
  5
2AF9
330
18
100
AcDbEntity
  8
0
  6
DASHED
100
AcDbLine
 10
18858.7460898808
 20
3846.044554179064
 30
0.0
 11
18858.7460898808
 21
5846.044554179065
 31
0.0
  0
LINE
  5
2AFA
330
18
100
AcDbEntity
  8
0
  6
DASHED
100
AcDbLine
 10
21608.7460898808
 20
3096.044554179063
 30
0.0
 11
18108.74608988081
 21
3096.044554179065
 31
0.0
  0
LINE
  5
2AFB
330
18
100
AcDbEntity
  8
0
  6
DASHED
100
AcDbLine
 10
20858.74608988081
 20
3846.044554179064
 30
0.0
 11
18858.7460898808
 21
3846.044554179064
 31
0.0
  0
LINE
  5
2AFC
330
18
100
AcDbEntity
  8
0
  6
DASHED
100
AcDbLine
 10
21608.74608988081
 20
6596.044554179065
 30
0.0
 11
21608.7460898808
 21
3096.044554179063
 31
0.0
  0
LINE
  5
2AFD
330
18
100
AcDbEntity
  8
0
  6
DASHED
100
AcDbLine
 10
20858.74608988081
 20
5846.044554179065
 30
0.0
 11
20858.74608988081
 21
3846.044554179064
 31
0.0
  0
LINE
  5
2AFE
330
18
100
AcDbEntity
  8
0
  6
DASHED
100
AcDbLine
 10
18408.7460898808
 20
6296.044554179065
 30
0.0
 11
18858.7460898808
 21
5846.044554179065
 31
0.0
  0
LINE
  5
2AFF
330
18
100
AcDbEntity
  8
0
  6
DASHED
100
AcDbLine
 10
18108.74608988081
 20
3096.044554179063
 30
0.0
 11
18858.7460898808
 21
3846.044554179063
 31
0.0
  0
LINE
  5
2B00
330
18
100
AcDbEntity
  8
0
  6
DASHED
100
AcDbLine
 10
20858.74608988081
 20
5846.044554179064
 30
0.0
 11
21608.74608988081
 21
6596.044554179067
 31
0.0
  0
LINE
  5
2B01
330
18
100
AcDbEntity
  8
0
  6
DASHED
100
AcDbLine
 10
18108.7460898808
 20
6596.044554179079
 30
0.0
 11
18858.74608988081
 21
5846.044554179065
 31
0.0
  0
LINE
  5
2B02
330
18
100
AcDbEntity
  8
0
  6
DASHED
100
AcDbLine
 10
20858.7460898808
 20
3846.044554179064
 30
0.0
 11
21608.7460898808
 21
3096.04455417906
 31
0.0
  0
LINE
  5
2B03
330
18
100
AcDbEntity
  8
0
  6
DASHED
100
AcDbLine
 10
18858.7460898808
 20
3846.044554179064
 30
0.0
 11
18408.7460898808
 21
3396.044554179064
 31
0.0
  0
CIRCLE
  5
2B04
330
18
100
AcDbEntity
  8
0
  6
DASHED
100
AcDbCircle
 10
19858.7460898808
 20
4846.044554179065
 30
0.0
 40
600.0
  0
CIRCLE
  5
2B05
330
18
100
AcDbEntity
  8
0
  6
DASHED
100
AcDbCircle
 10
19858.7460898808
 20
4846.044554179065
 30
0.0
 40
750.0
  0
CIRCLE
  5
2B06
330
18
100
AcDbEntity
  8
0
  6
DASHED
100
AcDbCircle
 10
20158.7460898808
 20
4846.044554179065
 30
0.0
 40
550.0
  0
CIRCLE
  5
2B07
330
18
100
AcDbEntity
  8
0
100
AcDbCircle
 10
20158.7460898808
 20
4846.044554179065
 30
0.0
 40
337.0
  0
CIRCLE
  5
2B08
330
18
100
AcDbEntity
  8
0
100
AcDbCircle
 10
20158.7460898808
 20
4846.044554179065
 30
0.0
 40
480.0
  0
DIMENSION
  5
2B09
330
18
100
AcDbEntity
  8
SUNPOU
100
AcDbDimension
  2
*D52
 10
21608.7460898808
 20
2272.334584053133
 30
0.0
 11
19858.74608988081
 21
2372.334584053133
 31
0.0
 70
    32
 71
     5
 42
3499.999999999996
  3
STANDARD
100
AcDbAlignedDimension
 13
18108.74608988081
 23
3096.044554179063
 33
0.0
 14
21608.7460898808
 24
3096.04455417906
 34
0.0
100
AcDbRotatedDimension
1001
ACAD
1000
DSTYLE
1002
{
1070
   288
1070
     1
1070
   140
1040
3.0
1070
   340
1005
6D
1070
    74
1070
     0
1070
   172
1070
     1
1070
    73
1070
     0
1070
    77
1070
     1
1070
    40
1040
40.0
1070
   147
1040
1.0
1070
    42
1040
1.0
1070
    44
1040
1.0
1070
    43
1040
10.0
1070
   271
1070
     0
1070
   141
1040
0.0
1070
     5
1000
ARROW
1070
    41
1040
2.0
1002
}
  0
DIMENSION
  5
2B0A
330
18
100
AcDbEntity
  8
SUNPOU
100
AcDbDimension
  2
*D53
 10
20858.74608988081
 20
2556.791447262629
 30
0.0
 11
19858.74608988081
 21
2656.791447262629
 31
0.0
 70
    32
 71
     5
 42
2000.000000000003
  3
STANDARD
100
AcDbAlignedDimension
 13
18858.7460898808
 23
3096.044554179064
 33
0.0
 14
20858.74608988081
 24
3096.044554179063
 34
0.0
100
AcDbRotatedDimension
1001
ACAD
1000
DSTYLE
1002
{
1070
   288
1070
     1
1070
   140
1040
3.0
1070
   340
1005
6D
1070
    74
1070
     0
1070
   172
1070
     1
1070
    73
1070
     0
1070
    77
1070
     1
1070
    40
1040
40.0
1070
   147
1040
1.0
1070
    42
1040
1.0
1070
    44
1040
1.0
1070
    43
1040
10.0
1070
   271
1070
     0
1070
   141
1040
0.0
1070
     5
1000
ARROW
1070
    41
1040
2.0
1002
}
  0
DIMENSION
  5
2B0B
330
18
100
AcDbEntity
  8
SUNPOU
100
AcDbDimension
  2
*D54
 10
22362.68671379509
 20
3096.04455417906
 30
0.0
 11
22262.68671379509
 21
4846.044554179066
 31
0.0
 70
    32
 71
     5
 42
3500.000000000005
  3
DIA1
100
AcDbAlignedDimension
 13
21608.74608988081
 23
6596.044554179065
 33
0.0
 14
21608.7460898808
 24
3096.04455417906
 34
0.0
 50
90.0
100
AcDbRotatedDimension
  0
DIMENSION
  5
2B0C
330
18
100
AcDbEntity
  8
SUNPOU
100
AcDbDimension
  2
*D55
 10
22032.88264037529
 20
3846.044554179064
 30
0.0
 11
21932.88264037529
 21
4846.044554179067
 31
0.0
 70
    32
 71
     5
 42
2000.000000000001
  3
DIA1
100
AcDbAlignedDimension
 13
21608.74608988081
 23
5846.044554179065
 33
0.0
 14
21608.7460898808
 24
3846.044554179064
 34
0.0
 50
90.0
100
AcDbRotatedDimension
  0
HATCH
  5
2C33
330
18
100
AcDbEntity
  8
NAZORI
100
AcDbHatch
 10
0.0
 20
0.0
 30
0.0
210
0.0
220
0.0
230
1.0
  2
HONEY
 70
     0
 71
     0
 91
        2
 92
        5
 93
        4
 72
     4
 94
        3
 73
     0
 74
     0
 95
        8
 96
        4
 40
354.9740048087472
 40
354.9740048087472
 40
354.9740048087472
 40
354.9740048087472
 40
508.431346713677
 40
508.431346713677
 40
508.431346713677
 40
508.431346713677
 10
13955.33863272041
 20
3830.311934689851
 10
13903.71281281497
 20
3828.689437255729
 10
13854.10436793241
 20
3824.630563584228
 10
13805.33863272041
 20
3819.753839582109
 72
     1
 10
13805.33863272041
 20
3819.753839582109
 11
13805.33863272041
 21
4256.061611403496
 72
     4
 94
        3
 73
     0
 74
     0
 95
        8
 96
        4
 40
1548.326200012602
 40
1548.326200012602
 40
1548.326200012602
 40
1548.326200012602
 40
1665.06015669063
 40
1665.06015669063
 40
1665.06015669063
 40
1665.06015669063
 10
13805.33863272041
 20
4256.061611403495
 10
13853.44763963851
 20
4246.508197603913
 10
13904.00101663571
 20
4230.962090248825
 10
13955.33863272041
 20
4209.947326515501
 72
     1
 10
13955.33863272041
 20
4209.947326515501
 11
13955.33863272041
 21
3830.311934689851
 97
        0
 92
        5
 93
        2
 72
     4
 94
        3
 73
     0
 74
     0
 95
       11
 96
        7
 40
508.4313467136769
 40
508.4313467136769
 40
508.4313467136769
 40
508.4313467136769
 40
564.6836043408916
 40
1107.034966466958
 40
1324.364209782256
 40
1548.326200012602
 40
1548.326200012602
 40
1548.326200012602
 40
1548.326200012602
 10
13955.33863272041
 20
4209.947326515501
 10
13980.07742242775
 20
4199.820642411383
 10
14245.27105997657
 20
4078.54496639337
 10
14606.18140423479
 20
3726.279265681227
 10
14187.60846232653
 20
3827.120501385726
 10
14030.68348901576
 20
3832.679874535405
 10
13955.33863272041
 20
3830.311934689851
 72
     1
 10
13955.33863272041
 20
3830.311934689851
 11
13955.33863272041
 21
4209.947326515501
 97
        0
 75
     0
 76
     1
 52
10.0
 41
250.0
 77
     0
 78
     3
 53
350.0
 43
7947.915564210195
 44
7311.816243416171
 45
41.46337178109493
 46
-34.79189983518419
 79
     2
 49
31.24999999999998
 49
-62.49999999999996
 53
230.0
 43
7947.915564210195
 44
7311.816243416171
 45
-50.86235499374059
 46
-18.51238337139495
 79
     2
 49
31.25
 49
-62.5
 53
290.0
 43
7947.915564210195
 44
7311.816243416171
 45
-9.398983212645662
 46
-53.30428320657914
 79
     2
 49
-62.49999999999996
 49
31.24999999999998
 47
8.181333333333332
 98
        2
 10
13928.91556421019
 20
3946.816243416171
 10
14125.91556421019
 20
3971.816243416171
  0
HATCH
  5
2C34
330
18
100
AcDbEntity
  8
NAZORI
100
AcDbHatch
 10
0.0
 20
0.0
 30
0.0
210
0.0
220
0.0
230
1.0
  2
HONEY
 70
     0
 71
     0
 91
        2
 92
        5
 93
        4
 72
     4
 94
        3
 73
     0
 74
     0
 95
        8
 96
        4
 40
354.9740048087472
 40
354.9740048087472
 40
354.9740048087472
 40
354.9740048087472
 40
508.431346713677
 40
508.431346713677
 40
508.431346713677
 40
508.431346713677
 10
15155.33865115708
 20
5536.006140861566
 10
15206.96447106252
 20
5537.628638295689
 10
15256.57291594508
 20
5541.68751196719
 10
15305.33865115708
 20
5546.564235969309
 72
     1
 10
15305.33865115708
 20
5546.564235969309
 11
15305.33865115708
 21
5110.25646414792
 72
     4
 94
        3
 73
     0
 74
     0
 95
        8
 96
        4
 40
1548.326200012602
 40
1548.326200012602
 40
1548.326200012602
 40
1548.326200012602
 40
1665.06015669063
 40
1665.06015669063
 40
1665.06015669063
 40
1665.06015669063
 10
15305.33865115708
 20
5110.256464147921
 10
15257.22964423898
 20
5119.809877947504
 10
15206.67626724178
 20
5135.355985302592
 10
15155.33865115708
 20
5156.370749035915
 72
     1
 10
15155.33865115708
 20
5156.370749035915
 11
15155.33865115708
 21
5536.006140861566
 97
        0
 92
        5
 93
        2
 72
     4
 94
        3
 73
     0
 74
     0
 95
       11
 96
        7
 40
508.4313467136769
 40
508.4313467136769
 40
508.4313467136769
 40
508.4313467136769
 40
564.6836043408916
 40
1107.034966466958
 40
1324.364209782256
 40
1548.326200012602
 40
1548.326200012602
 40
1548.326200012602
 40
1548.326200012602
 10
15155.33865115708
 20
5156.370749035915
 10
15130.59986144974
 20
5166.497433140033
 10
14865.40622390092
 20
5287.773109158046
 10
14504.4958796427
 20
5640.038809870191
 10
14923.06882155095
 20
5539.197574165691
 10
15079.99379486173
 20
5533.638201016012
 10
15155.33865115708
 20
5536.006140861566
 72
     1
 10
15155.33865115708
 20
5536.006140861566
 11
15155.33865115708
 21
5156.370749035915
 97
        0
 75
     0
 76
     1
 52
10.0
 41
250.0
 77
     0
 78
     3
 53
170.0
 43
21162.7617196673
 44
2054.501832135246
 45
-41.46337178109493
 46
34.79189983518419
 79
     2
 49
31.24999999999998
 49
-62.49999999999995
 53
50.0
 43
21162.7617196673
 44
2054.501832135246
 45
50.86235499374059
 46
18.51238337139495
 79
     2
 49
31.25
 49
-62.5
 53
109.9999999999999
 43
21162.7617196673
 44
2054.501832135246
 45
9.398983212645662
 46
53.30428320657914
 79
     2
 49
-62.49999999999996
 49
31.24999999999998
 47
8.181333333333332
 98
        2
 10
15181.7617196673
 20
5419.501832135246
 10
14984.7617196673
 20
5394.501832135246
  0
LINE
  5
2C72
330
18
100
AcDbEntity
  8
KL
100
AcDbLine
 10
13805.33864193874
 20
5503.230120631902
 30
0.0
 11
13905.33864193874
 21
5475.230120631902
 31
0.0
  0
CIRCLE
  5
2C74
330
18
100
AcDbEntity
  8
DEFPOINTS
100
AcDbCircle
 10
14555.33864193874
 20
5293.230120631902
 30
0.0
 40
210.0
  0
CIRCLE
  5
2C75
330
18
100
AcDbEntity
  8
DEFPOINTS
100
AcDbCircle
 10
14555.33864193874
 20
5293.230120631902
 30
0.0
 40
182.0
  0
LINE
  5
2C76
330
18
100
AcDbEntity
  8
KL
100
AcDbLine
 10
13805.33864193874
 20
5083.230120631902
 30
0.0
 11
13905.33864193874
 21
5111.230120631901
 31
0.0
  0
LINE
  5
2C79
330
18
100
AcDbEntity
  8
KL
100
AcDbLine
 10
13905.33864193874
 20
5111.230120631901
 30
0.0
 11
13905.33864193874
 21
5475.230120631901
 31
0.0
  0
DIMENSION
  5
2C7B
330
18
100
AcDbEntity
  8
DEFPOINTS
100
AcDbDimension
  2
*D56
 10
14689.87053118523
 20
5454.478905978557
 30
0.0
 11
14319.96799963935
 21
5488.750885965679
 31
0.0
 70
   163
 71
     5
 42
420.0000000000036
  3
DIA1
100
AcDbDiametricDimension
 15
14420.80675269226
 25
5131.981335285246
 35
0.0
 40
0.0
1001
ACAD_DSTYLE_DIMRADIAL_EXTENSION
1070
   387
1070
     1
1070
   388
1040
0.0
1070
   390
1040
0.0
  0
ARC
  5
2D98
330
18
100
AcDbEntity
  8
0
  6
DASHED
100
AcDbCircle
 10
19858.7460898808
 20
4846.044554179065
 30
0.0
 40
650.0
100
AcDbArc
 50
73.73979529168804
 51
106.2602047083119
  0
LINE
  5
2D99
330
18
100
AcDbEntity
  8
DEFPOINTS
  6
DASHED
100
AcDbLine
 10
19676.7460898808
 20
5470.044554179064
 30
0.0
 11
19648.7460898808
 21
5566.044554179065
 31
0.0
  0
LINE
  5
2D9A
330
18
100
AcDbEntity
  8
DEFPOINTS
  6
DASHED
100
AcDbLine
 10
20040.7460898808
 20
5470.044554179064
 30
0.0
 11
20068.7460898808
 21
5566.044554179065
 31
0.0
  0
ARC
  5
2D9B
330
18
100
AcDbEntity
  8
0
  6
DASHED
100
AcDbCircle
 10
19858.7460898808
 20
4846.044554179065
 30
0.0
 40
650.0
100
AcDbArc
 50
163.739795291638
 51
196.260204708362
  0
LINE
  5
2D9C
330
18
100
AcDbEntity
  8
DEFPOINTS
  6
DASHED
100
AcDbLine
 10
19234.7460898808
 20
5028.044554179064
 30
0.0
 11
19138.7460898808
 21
5056.044554179065
 31
0.0
  0
LINE
  5
2D9D
330
18
100
AcDbEntity
  8
DEFPOINTS
  6
DASHED
100
AcDbLine
 10
19234.7460898808
 20
4664.044554179064
 30
0.0
 11
19138.7460898808
 21
4636.044554179065
 31
0.0
  0
ARC
  5
2D9E
330
18
100
AcDbEntity
  8
0
  6
DASHED
100
AcDbCircle
 10
19858.74608988081
 20
4846.044554179065
 30
0.0
 40
650.0
100
AcDbArc
 50
253.739795291738
 51
286.2602047082619
  0
LINE
  5
2D9F
330
18
100
AcDbEntity
  8
DEFPOINTS
  6
DASHED
100
AcDbLine
 10
19676.7460898808
 20
4222.044554179065
 30
0.0
 11
19648.7460898808
 21
4126.044554179066
 31
0.0
  0
LINE
  5
2DA0
330
18
100
AcDbEntity
  8
DEFPOINTS
  6
DASHED
100
AcDbLine
 10
20040.7460898808
 20
4222.044554179065
 30
0.0
 11
20068.74608988081
 21
4126.044554179065
 31
0.0
  0
ENDSEC
  0
SECTION
  2
OBJECTS
  0
DICTIONARY
  5
C
330
0
100
AcDbDictionary
281
     1
  3
ACAD_COLOR
350
2632
  3
ACAD_GROUP
350
D
  3
ACAD_LAYOUT
350
2224
  3
ACAD_MATERIAL
350
2608
  3
ACAD_MLEADERSTYLE
350
2657
  3
ACAD_MLINESTYLE
350
E
  3
ACAD_PLOTSETTINGS
350
2225
  3
ACAD_PLOTSTYLENAME
350
2222
  3
ACAD_SCALELIST
350
2635
  3
ACAD_TABLESTYLE
350
2633
  3
ACAD_VISUALSTYLE
350
2621
  3
ACDB_RECOMPOSE_DATA
350
2676
  3
ACDBVARIABLEDICTIONARY
350
1E51
  0
DICTIONARY
  5
297C
330
2
100
AcDbDictionary
280
     1
281
     1
  3
ACAD_LAYERFILTERS
360
297E
  3
ACLYDICTIONARY
360
297D
  0
DICTIONARY
  5
2663
330
F
100
AcDbDictionary
280
     1
281
     1
  3
ADSK_XREC_LAYER_RECONCILED
360
2664
  0
DICTIONARY
  5
2665
330
89
100
AcDbDictionary
280
     1
281
     1
  3
ADSK_XREC_LAYER_RECONCILED
360
2666
  0
DICTIONARY
  5
2667
330
8A
100
AcDbDictionary
280
     1
281
     1
  3
ADSK_XREC_LAYER_RECONCILED
360
2668
  0
DICTIONARY
  5
2669
330
8B
100
AcDbDictionary
280
     1
281
     1
  3
ADSK_XREC_LAYER_RECONCILED
360
266A
  0
DICTIONARY
  5
266B
330
8D
100
AcDbDictionary
280
     1
281
     1
  3
ADSK_XREC_LAYER_RECONCILED
360
266C
  0
DICTIONARY
  5
266D
330
8E
100
AcDbDictionary
280
     1
281
     1
  3
ADSK_XREC_LAYER_RECONCILED
360
266E
  0
DICTIONARY
  5
266F
330
8F
100
AcDbDictionary
280
     1
281
     1
  3
ADSK_XREC_LAYER_RECONCILED
360
2670
  0
DICTIONARY
  5
2980
330
18
100
AcDbDictionary
280
     1
281
     1
  3
ACAD_SORTENTS
360
2981
  0
DICTIONARY
  5
28C4
330
28AE
100
AcDbDictionary
280
     1
281
     1
  3
ACAD_SORTENTS
360
28C5
  0
DICTIONARY
  5
2978
330
2962
100
AcDbDictionary
280
     1
281
     1
  3
ACAD_SORTENTS
360
2979
  0
DICTIONARY
  5
2DB2
330
2D82
100
AcDbDictionary
280
     1
281
     1
  3
ACAD_MTEXT_2008_RT
360
2DB3
  0
DICTIONARY
  5
2632
102
{ACAD_REACTORS
330
C
102
}
330
C
100
AcDbDictionary
281
     1
  0
DICTIONARY
  5
D
102
{ACAD_REACTORS
330
C
102
}
330
C
100
AcDbDictionary
281
     1
  0
DICTIONARY
  5
2224
102
{ACAD_REACTORS
330
C
102
}
330
C
100
AcDbDictionary
281
     1
  3
Model
350
2226
  3
ﾚｲｱｳﾄ1
350
2227
  0
DICTIONARY
  5
2608
102
{ACAD_REACTORS
330
C
102
}
330
C
100
AcDbDictionary
281
     1
  3
ByBlock
350
2611
  3
ByLayer
350
2609
  3
Global
350
2619
  0
DICTIONARY
  5
2657
102
{ACAD_REACTORS
330
C
102
}
330
C
100
AcDbDictionary
281
     1
  3
Standard
350
2658
  0
DICTIONARY
  5
E
102
{ACAD_REACTORS
330
C
102
}
330
C
100
AcDbDictionary
281
     1
  3
STANDARD
350
1B
  0
DICTIONARY
  5
2225
102
{ACAD_REACTORS
330
C
102
}
330
C
100
AcDbDictionary
281
     1
  0
ACDBDICTIONARYWDFLT
  5
2222
102
{ACAD_REACTORS
330
C
102
}
330
C
100
AcDbDictionary
281
     1
  3
Normal
350
2223
100
AcDbDictionaryWithDefault
340
2223
  0
DICTIONARY
  5
2635
102
{ACAD_REACTORS
330
C
102
}
330
C
100
AcDbDictionary
281
     1
  3
A0
350
2636
  3
A1
350
2637
  3
A2
350
2638
  3
A3
350
2639
  3
A4
350
263A
  3
A5
350
263B
  3
A6
350
263C
  3
A7
350
263D
  3
A8
350
263E
  3
A9
350
263F
  3
B0
350
2640
  3
B1
350
2641
  3
B2
350
2642
  3
B3
350
2643
  3
B4
350
2644
  3
B5
350
2645
  3
B6
350
2646
  3
B7
350
2647
  3
B8
350
2648
  3
B9
350
2649
  3
C0
350
264A
  3
C1
350
264B
  3
C2
350
264C
  3
C3
350
264D
  3
C4
350
264E
  3
C5
350
264F
  3
C6
350
2650
  3
C7
350
2651
  3
C8
350
2652
  3
C9
350
2653
  3
D0
350
2654
  3
D1
350
2655
  3
D2
350
2656
  0
DICTIONARY
  5
2633
102
{ACAD_REACTORS
330
C
102
}
330
C
100
AcDbDictionary
281
     1
  3
Standard
350
2634
  0
DICTIONARY
  5
2621
102
{ACAD_REACTORS
330
C
102
}
330
C
100
AcDbDictionary
281
     1
  3
2dWireframe
350
2627
  3
3D Hidden
350
2629
  3
3dWireframe
350
2628
  3
Basic
350
2626
  3
Brighten
350
262D
  3
ColorChange
350
2631
  3
Conceptual
350
262A
  3
Dim
350
262C
  3
Facepattern
350
2630
  3
Flat
350
2622
  3
FlatWithEdges
350
2623
  3
Gouraud
350
2624
  3
GouraudWithEdges
350
2625
  3
Linepattern
350
262F
  3
Realistic
350
262B
  3
Thicken
350
262E
  0
XRECORD
  5
2676
102
{ACAD_REACTORS
330
C
102
}
330
C
100
AcDbXrecord
280
     1
 90
        1
330
2634
  0
DICTIONARY
  5
1E51
102
{ACAD_REACTORS
330
C
102
}
330
C
100
AcDbDictionary
281
     1
  3
CANNOSCALE
350
2673
  3
CMLEADERSTYLE
350
2672
  3
CTABLESTYLE
350
2671
  3
DIMASSOC
350
2D8D
  3
INDEXCTL
350
2D8C
  3
LIGHTINGUNITS
350
2698
  3
MSLTSCALE
350
2697
  3
SORTENTS
350
1E52
  0
DICTIONARY
  5
297E
102
{ACAD_REACTORS
330
297C
102
}
330
297C
100
AcDbDictionary
281
     1
  0
DICTIONARY
  5
297D
102
{ACAD_REACTORS
330
297C
102
}
330
297C
100
AcDbDictionary
281
     1
1001
ACAD
1000
<All
  0
XRECORD
  5
2664
102
{ACAD_REACTORS
330
2663
102
}
330
2663
100
AcDbXrecord
280
     1
290
     1
  0
XRECORD
  5
2666
102
{ACAD_REACTORS
330
2665
102
}
330
2665
100
AcDbXrecord
280
     1
290
     1
  0
XRECORD
  5
2668
102
{ACAD_REACTORS
330
2667
102
}
330
2667
100
AcDbXrecord
280
     1
290
     1
  0
XRECORD
  5
266A
102
{ACAD_REACTORS
330
2669
102
}
330
2669
100
AcDbXrecord
280
     1
290
     1
  0
XRECORD
  5
266C
102
{ACAD_REACTORS
330
266B
102
}
330
266B
100
AcDbXrecord
280
     1
290
     1
  0
XRECORD
  5
266E
102
{ACAD_REACTORS
330
266D
102
}
330
266D
100
AcDbXrecord
280
     1
290
     1
  0
XRECORD
  5
2670
102
{ACAD_REACTORS
330
266F
102
}
330
266F
100
AcDbXrecord
280
     1
290
     1
  0
SORTENTSTABLE
  5
2981
102
{ACAD_REACTORS
330
2980
102
}
330
2980
100
AcDbSortentsTable
330
18
331
1CCA
  5
1CCA
331
1C93
  5
1C93
331
25DD
  5
25DD
331
1C9B
  5
1C9B
331
1C5C
  5
1C5C
331
2692
  5
2692
331
2A91
  5
2A93
331
2AC8
  5
2ACA
331
28D5
  5
28DB
331
25E5
  5
25E5
331
2506
  5
2506
331
1C64
  5
1C64
331
1C2D
  5
1C2D
331
1E21
  5
1E21
331
2C75
  5
2C77
331
2A5A
  5
2A5A
331
2A99
  5
2A9B
331
2AD0
  5
2AD3
331
28DD
  5
29CE
331
25ED
  5
25ED
331
1C6C
  5
1C6C
331
2A62
  5
2A64
331
2AA1
  5
2AA3
331
2AD8
  5
2ADB
331
2983
  5
28D0
331
2A6A
  5
2A6C
331
2AE0
  5
2AE3
331
1C74
  5
1C74
331
1CAB
  5
1CAB
331
1C3D
  5
1C3D
331
1C7C
  5
1C7C
331
25F5
  5
25F5
331
2AE8
  5
2AEB
331
2A72
  5
2A74
331
2AA9
  5
2AAB
331
1FC0
  5
1FC0
331
1DF2
  5
1DF2
331
1C84
  5
1C84
331
2AF0
  5
2AF7
331
2A7A
  5
2A7C
331
2AB1
  5
2AB3
331
1CC3
  5
1CC3
331
2AF8
  5
2AFB
331
2A82
  5
2A84
331
2AB9
  5
2ABB
331
2437
  5
2437
331
2B00
  5
2B03
331
2A8A
  5
2A8C
331
2AC1
  5
2AC3
331
28CE
  5
28D1
331
2D99
  5
2D9A
331
1C94
  5
1C94
331
1C5D
  5
1C5D
331
25DE
  5
25DE
331
2A53
  5
2A53
331
2A92
  5
2A94
331
2AC9
  5
2ACB
331
2B08
  5
2B0C
331
28D6
  5
28DC
331
25E6
  5
25E6
331
1C65
  5
1C65
331
2A5B
  5
2A5D
331
2A9A
  5
2A9C
331
2AD1
  5
2AD4
331
25EE
  5
25EE
331
1C6D
  5
1C6D
331
254F
  5
254F
331
2C76
  5
2C7B
331
2A63
  5
2A65
331
2AA2
  5
2AA4
331
2AD9
  5
2ADC
331
2984
  5
28D3
331
2A6B
  5
2A6D
331
2AE1
  5
2AE4
331
1C75
  5
1C75
331
1CAC
  5
1CAC
331
25F6
  5
25F6
331
1C7D
  5
1C7D
331
1C3E
  5
1C3E
331
1CB4
  5
1CB4
331
1E4A
  5
1E4A
331
2AE9
  5
2AEC
331
2A73
  5
2A75
331
2AAA
  5
2AAC
331
1DF3
  5
1DF3
331
1C85
  5
1C85
331
2A7B
  5
2A7D
331
2AB2
  5
2AB4
331
1CC4
  5
1CC4
331
1C8D
  5
1C8D
331
2AF9
  5
2AFC
331
2A83
  5
2A85
331
2ABA
  5
2ABC
331
25D7
  5
25D7
331
2B01
  5
2B04
331
2A8B
  5
2A8D
331
2AC2
  5
2AC4
331
2D9A
  5
2D99
331
1C56
  5
1C56
331
1C95
  5
1C95
331
2438
  5
2438
331
25DF
  5
25DF
331
2A54
  5
2A54
331
2A93
  5
2A95
331
2ACA
  5
2ACC
331
2B09
  5
2C33
331
28D7
  5
28DD
331
1C66
  5
1C66
331
1CA5
  5
1CA5
331
25E7
  5
25E7
331
2A5C
  5
2A5E
331
2A9B
  5
2A9D
331
2AD2
  5
2AD5
331
25EF
  5
25EF
331
1C6E
  5
1C6E
331
2550
  5
2550
331
2A64
  5
2A66
331
2AA3
  5
2AA5
331
2ADA
  5
2ADD
331
2A6C
  5
2A6E
331
2AE2
  5
2AE5
331
1C76
  5
1C76
331
1CB5
  5
1CB5
331
1C3F
  5
1C3F
331
1C7E
  5
1C7E
331
2AAB
  5
2AAD
331
29CD
  5
28D9
331
1DF4
  5
1DF4
331
1C86
  5
1C86
331
2A74
  5
2A76
331
2AEA
  5
2AED
331
2431
  5
2431
331
1C8E
  5
1C8E
331
1CC5
  5
1CC5
331
2A7C
  5
2A7E
331
2AB3
  5
2AB5
331
2AFA
  5
2AFD
331
2A84
  5
2A86
331
2ABB
  5
2ABD
331
2B02
  5
2B05
331
2A8C
  5
2A8E
331
2AC3
  5
2AC5
331
1C96
  5
1C96
331
1908
  5
1908
331
2439
  5
2439
331
25D8
  5
25D8
331
28D0
  5
28D4
331
25E0
  5
25E0
331
28D8
  5
297F
331
1C67
  5
1C67
331
1CA6
  5
1CA6
331
2A55
  5
2A55
331
2A94
  5
2A96
331
2ACB
  5
2ACE
331
2B0A
  5
2C34
331
1C6F
  5
1C6F
331
26A5
  5
26A5
331
2A5D
  5
2A5F
331
2A9C
  5
2A9E
331
2AD3
  5
2AD6
331
2A65
  5
2A67
331
2AA4
  5
2AA6
331
2ADB
  5
2ADE
331
2A6D
  5
2A6F
331
2AE3
  5
2AE6
331
1C77
  5
1C77
331
1C38
  5
1C38
331
25F0
  5
25F0
331
25F8
  5
25F8
331
1C7F
  5
1C7F
331
1C40
  5
1C40
331
1CB6
  5
1CB6
331
2AEB
  5
2AEE
331
29CE
  5
28D7
331
1C87
  5
1C87
331
1DF5
  5
1DF5
331
2A75
  5
2A77
331
2AAC
  5
2AAE
331
1CC6
  5
1CC6
331
2432
  5
2432
331
2A7D
  5
2A7F
331
2AB4
  5
2AB6
331
2AFB
  5
2AFE
331
2A85
  5
2A87
331
2ABC
  5
2ABE
331
2B03
  5
2B06
331
2A8D
  5
2A8F
331
2AC4
  5
2AC6
331
1C97
  5
1C97
331
1E0D
  5
1E0D
331
25E1
  5
25E1
331
28D1
  5
28D5
331
2A56
  5
2A56
331
2A95
  5
2A97
331
2ACC
  5
2ACF
331
2B0B
  5
2C71
331
1C68
  5
1C68
331
1CA7
  5
1CA7
331
28D9
  5
2982
331
2C79
  5
2ACD
331
2A5E
  5
2A60
331
2A9D
  5
2A9F
331
2AD4
  5
2AD7
331
297F
  5
28CA
331
2A66
  5
2A68
331
2AA5
  5
2AA7
331
2ADC
  5
2ADF
331
2A6E
  5
2A70
331
2AE4
  5
2AE7
331
1C31
  5
1C31
331
1C70
  5
1C70
331
1C39
  5
1C39
331
1C78
  5
1C78
331
1CAF
  5
1CAF
331
25F1
  5
25F1
331
1CB7
  5
1CB7
331
1C41
  5
1C41
331
1C80
  5
1C80
331
25F9
  5
25F9
331
2AEC
  5
2AEF
331
22DB
  5
22DB
331
1C88
  5
1C88
331
1C49
  5
1C49
331
1CBF
  5
1CBF
331
2A76
  5
2A78
331
2AAD
  5
2AAF
331
2433
  5
2433
331
1CC7
  5
1CC7
331
2A7E
  5
2A80
331
2AB5
  5
2AB7
331
2AFC
  5
2AFF
331
2A86
  5
2A88
331
2ABD
  5
2ABF
331
28CA
  5
28CB
331
2B04
  5
2B07
331
2A8E
  5
2A90
331
2AC5
  5
2AC7
331
1C90
  5
1C90
331
1C51
  5
1C51
331
1C98
  5
1C98
331
1E0E
  5
1E0E
331
25DA
  5
25DA
331
25E2
  5
25E2
331
28D2
  5
28D6
331
2C72
  5
2A5B
331
2A57
  5
2A57
331
2A96
  5
2A98
331
2ACD
  5
2AD0
331
2B0C
  5
2C72
331
1C69
  5
1C69
331
25EA
  5
25EA
331
28DA
  5
2983
331
2A5F
  5
2A61
331
2A9E
  5
2AA0
331
2AD5
  5
2AD8
331
2A67
  5
2A69
331
2AA6
  5
2AA8
331
2ADD
  5
2AE0
331
2A6F
  5
2A71
331
2AE5
  5
2AE8
331
1CA8
  5
1CA8
331
1C32
  5
1C32
331
1C79
  5
1C79
331
1CB0
  5
1CB0
331
25F2
  5
25F2
331
1C81
  5
1C81
331
1C42
  5
1C42
331
2AED
  5
2AF0
331
1C89
  5
1C89
331
1CC0
  5
1CC0
331
2A77
  5
2A79
331
2AAE
  5
2AB0
331
2AF5
  5
2AF8
331
2434
  5
2434
331
2688
  5
2688
331
2A7F
  5
2A81
331
2AB6
  5
2AB8
331
2AFD
  5
2B00
331
2A87
  5
2A89
331
2ABE
  5
2AC0
331
2C33
  5
2C73
331
2B05
  5
2B09
331
2A8F
  5
2A91
331
2AC6
  5
2AC8
331
1CC8
  5
1CC8
331
1C99
  5
1C99
331
25DB
  5
25DB
331
1C2B
  5
1C2B
331
28D3
  5
28D8
331
2A58
  5
2A58
331
2A97
  5
2A99
331
2ACE
  5
2AD1
331
1C6A
  5
1C6A
331
25EB
  5
25EB
331
28DB
  5
2984
331
2C7B
  5
2D97
331
2A60
  5
2A62
331
2A9F
  5
2AA1
331
2AD6
  5
2AD9
331
2A68
  5
2A6A
331
2AA7
  5
2AA9
331
2ADE
  5
2AE1
331
2AE6
  5
2AE9
331
1C72
  5
1C72
331
1CA9
  5
1CA9
331
25F3
  5
25F3
331
1CB1
  5
1CB1
331
1C7A
  5
1C7A
331
25FB
  5
25FB
331
259C
  5
259C
331
1CB9
  5
1CB9
331
1C43
  5
1C43
331
1C82
  5
1C82
331
2A70
  5
2A72
331
2AEE
  5
2AF5
331
1CC1
  5
1CC1
331
1C8A
  5
1C8A
331
2A78
  5
2A7A
331
2AAF
  5
2AB1
331
2AF6
  5
2AF9
331
2435
  5
2435
331
2A80
  5
2A82
331
2AB7
  5
2AB9
331
2AFE
  5
2B01
331
2A88
  5
2A8A
331
2ABF
  5
2AC1
331
28CC
  5
28CE
331
2C34
  5
2C75
331
2B06
  5
2B0A
331
2AC7
  5
2AC9
331
1C92
  5
1C92
331
1CC9
  5
1CC9
331
25DC
  5
25DC
331
1C5B
  5
1C5B
331
1C9A
  5
1C9A
331
2A90
  5
2A92
331
25E4
  5
25E4
331
1C2C
  5
1C2C
331
1C63
  5
1C63
331
28D4
  5
28DA
331
2C74
  5
2C76
331
2A59
  5
2A59
331
2A98
  5
2A9A
331
2ACF
  5
2AD2
331
25EC
  5
25EC
331
1C6B
  5
1C6B
331
28DC
  5
29CD
331
2A61
  5
2A63
331
2AA0
  5
2AA2
331
2AD7
  5
2ADA
331
2982
  5
28CD
331
2A69
  5
2A6B
331
2ADF
  5
2AE2
331
2AE7
  5
2AEA
331
1CAA
  5
1CAA
331
1C73
  5
1C73
331
25F4
  5
25F4
331
1C7B
  5
1C7B
331
1C3C
  5
1C3C
331
1CB2
  5
1CB2
331
1CBA
  5
1CBA
331
1C83
  5
1C83
331
2A71
  5
2A73
331
2AA8
  5
2AAA
331
2AEF
  5
2AF6
331
1CC2
  5
1CC2
331
1C4C
  5
1C4C
331
1C8B
  5
1C8B
331
2A79
  5
2A7B
331
2AB0
  5
2AB2
331
2AF7
  5
2AFA
331
2436
  5
2436
331
2A81
  5
2A83
331
2AB8
  5
2ABA
331
2AFF
  5
2B02
331
2A89
  5
2A8B
331
2AC0
  5
2AC2
331
2D98
  5
2B08
331
2B07
  5
2B0B
  0
SORTENTSTABLE
  5
28C5
102
{ACAD_REACTORS
330
28C4
102
}
330
28C4
100
AcDbSortentsTable
330
28AE
  0
SORTENTSTABLE
  5
2979
102
{ACAD_REACTORS
330
2978
102
}
330
2978
100
AcDbSortentsTable
330
2962
  0
XRECORD
  5
2DB3
102
{ACAD_REACTORS
330
2DB2
102
}
330
2DB2
100
AcDbXrecord
280
     1
 40
5735.0
  1
\A1;\U+2205420
  0
LAYOUT
  5
2226
102
{ACAD_REACTORS
330
2224
102
}
330
2224
100
AcDbPlotSettings
  1

  2
Canon BJC-620JW
  4

  6

 40
0.0
 41
0.0
 42
0.0
 43
0.0
 44
0.0
 45
0.0
 46
0.0
 47
0.0
 48
0.0
 49
0.0
140
0.0
141
0.0
142
1.0
143
1.0
 70
  1712
 72
     0
 73
     0
 74
     0
  7

 75
     0
147
1.0
 76
     0
 77
     2
 78
   300
148
0.0
149
0.0
100
AcDbLayout
  1
Model
 70
     1
 71
     0
 10
0.0
 20
0.0
 11
12.0
 21
9.0
 12
0.0
 22
0.0
 32
0.0
 14
0.0
 24
0.0
 34
0.0
 15
0.0
 25
0.0
 35
0.0
146
0.0
 13
0.0
 23
0.0
 33
0.0
 16
1.0
 26
0.0
 36
0.0
 17
0.0
 27
1.0
 37
0.0
 76
     0
330
18
331
2606
  0
LAYOUT
  5
2227
102
{ACAD_REACTORS
330
2224
102
}
330
2224
100
AcDbPlotSettings
  1

  2
Canon BJC-620JW
  4

  6

 40
0.0
 41
0.0
 42
0.0
 43
0.0
 44
0.0
 45
0.0
 46
0.0
 47
0.0
 48
0.0
 49
0.0
140
0.0
141
0.0
142
1.0
143
1.0
 70
   688
 72
     0
 73
     0
 74
     5
  7

 75
    16
147
1.0
 76
     0
 77
     2
 78
   300
148
0.0
149
0.0
100
AcDbLayout
  1
ﾚｲｱｳﾄ1
 70
     1
 71
     1
 10
0.0
 20
0.0
 11
12.0
 21
9.0
 12
0.0
 22
0.0
 32
0.0
 14
1.000000000000000E+20
 24
1.000000000000000E+20
 34
1.000000000000000E+20
 15
-1.000000000000000E+20
 25
-1.000000000000000E+20
 35
-1.000000000000000E+20
146
0.0
 13
0.0
 23
0.0
 33
0.0
 16
1.0
 26
0.0
 36
0.0
 17
0.0
 27
1.0
 37
0.0
 76
     0
330
15
  0
MATERIAL
  5
2611
102
{ACAD_XDICTIONARY
360
2612
102
}
102
{ACAD_REACTORS
330
2608
102
}
330
2608
100
AcDbMaterial
  1
ByBlock
 72
     0
 43
0.0208333333333333
 43
0.0
 43
0.0
 43
0.0
 43
0.0
 43
0.0208333333333333
 43
0.0
 43
0.0
 43
0.0
 43
0.0
 43
1.0
 43
0.0
 43
0.0
 43
0.0
 43
0.0
 43
1.0
 77
     0
 47
0.0208333333333333
 47
0.0
 47
0.0
 47
0.0
 47
0.0
 47
0.0208333333333333
 47
0.0
 47
0.0
 47
0.0
 47
0.0
 47
1.0
 47
0.0
 47
0.0
 47
0.0
 47
0.0
 47
1.0
171
     0
 49
0.0208333333333333
 49
0.0
 49
0.0
 49
0.0
 49
0.0
 49
0.0208333333333333
 49
0.0
 49
0.0
 49
0.0
 49
0.0
 49
1.0
 49
0.0
 49
0.0
 49
0.0
 49
0.0
 49
1.0
175
     0
142
0.0208333333333333
142
0.0
142
0.0
142
0.0
142
0.0
142
0.0208333333333333
142
0.0
142
0.0
142
0.0
142
0.0
142
1.0
142
0.0
142
0.0
142
0.0
142
0.0
142
1.0
179
     0
144
0.0208333333333333
144
0.0
144
0.0
144
0.0
144
0.0
144
0.0208333333333333
144
0.0
144
0.0
144
0.0
144
0.0
144
1.0
144
0.0
144
0.0
144
0.0
144
0.0
144
1.0
147
0.0208333333333333
147
0.0
147
0.0
147
0.0
147
0.0
147
0.0208333333333333
147
0.0
147
0.0
147
0.0
147
0.0
147
1.0
147
0.0
147
0.0
147
0.0
147
0.0
147
1.0
  0
MATERIAL
  5
2609
102
{ACAD_XDICTIONARY
360
260A
102
}
102
{ACAD_REACTORS
330
2608
102
}
330
2608
100
AcDbMaterial
  1
ByLayer
 72
     0
 43
0.0208333333333333
 43
0.0
 43
0.0
 43
0.0
 43
0.0
 43
0.0208333333333333
 43
0.0
 43
0.0
 43
0.0
 43
0.0
 43
1.0
 43
0.0
 43
0.0
 43
0.0
 43
0.0
 43
1.0
 77
     0
 47
0.0208333333333333
 47
0.0
 47
0.0
 47
0.0
 47
0.0
 47
0.0208333333333333
 47
0.0
 47
0.0
 47
0.0
 47
0.0
 47
1.0
 47
0.0
 47
0.0
 47
0.0
 47
0.0
 47
1.0
171
     0
 49
0.0208333333333333
 49
0.0
 49
0.0
 49
0.0
 49
0.0
 49
0.0208333333333333
 49
0.0
 49
0.0
 49
0.0
 49
0.0
 49
1.0
 49
0.0
 49
0.0
 49
0.0
 49
0.0
 49
1.0
175
     0
142
0.0208333333333333
142
0.0
142
0.0
142
0.0
142
0.0
142
0.0208333333333333
142
0.0
142
0.0
142
0.0
142
0.0
142
1.0
142
0.0
142
0.0
142
0.0
142
0.0
142
1.0
179
     0
144
0.0208333333333333
144
0.0
144
0.0
144
0.0
144
0.0
144
0.0208333333333333
144
0.0
144
0.0
144
0.0
144
0.0
144
1.0
144
0.0
144
0.0
144
0.0
144
0.0
144
1.0
147
0.0208333333333333
147
0.0
147
0.0
147
0.0
147
0.0
147
0.0208333333333333
147
0.0
147
0.0
147
0.0
147
0.0
147
1.0
147
0.0
147
0.0
147
0.0
147
0.0
147
1.0
  0
MATERIAL
  5
2619
102
{ACAD_XDICTIONARY
360
261A
102
}
102
{ACAD_REACTORS
330
2608
102
}
330
2608
100
AcDbMaterial
  1
Global
 72
     0
 43
0.0208333333333333
 43
0.0
 43
0.0
 43
0.0
 43
0.0
 43
0.0208333333333333
 43
0.0
 43
0.0
 43
0.0
 43
0.0
 43
1.0
 43
0.0
 43
0.0
 43
0.0
 43
0.0
 43
1.0
 77
     0
 47
0.0208333333333333
 47
0.0
 47
0.0
 47
0.0
 47
0.0
 47
0.0208333333333333
 47
0.0
 47
0.0
 47
0.0
 47
0.0
 47
1.0
 47
0.0
 47
0.0
 47
0.0
 47
0.0
 47
1.0
171
     0
 49
0.0208333333333333
 49
0.0
 49
0.0
 49
0.0
 49
0.0
 49
0.0208333333333333
 49
0.0
 49
0.0
 49
0.0
 49
0.0
 49
1.0
 49
0.0
 49
0.0
 49
0.0
 49
0.0
 49
1.0
175
     0
142
0.0208333333333333
142
0.0
142
0.0
142
0.0
142
0.0
142
0.0208333333333333
142
0.0
142
0.0
142
0.0
142
0.0
142
1.0
142
0.0
142
0.0
142
0.0
142
0.0
142
1.0
179
     0
144
0.0208333333333333
144
0.0
144
0.0
144
0.0
144
0.0
144
0.0208333333333333
144
0.0
144
0.0
144
0.0
144
0.0
144
1.0
144
0.0
144
0.0
144
0.0
144
0.0
144
1.0
147
0.0208333333333333
147
0.0
147
0.0
147
0.0
147
0.0
147
0.0208333333333333
147
0.0
147
0.0
147
0.0
147
0.0
147
1.0
147
0.0
147
0.0
147
0.0
147
0.0
147
1.0
  0
MLEADERSTYLE
  5
2658
102
{ACAD_REACTORS
330
2657
102
}
330
2657
100
AcDbMLeaderStyle
170
     2
171
     1
172
     0
 90
        2
 40
0.0
 41
0.0
173
     1
 91
-1056964608
340
12
 92
       -2
290
     1
 42
0.09
291
     1
 43
0.36
  3
Standard
 44
0.18
300

342
10
174
     1
178
     6
175
     1
176
     0
 93
-1056964608
 45
0.18
292
     0
297
     0
 46
0.18
 94
-1056964608
 47
1.0
 49
1.0
140
1.0
293
     1
141
0.0
294
     1
177
     0
142
1.0
295
     0
296
     0
143
0.125
1001
ACAD_MLEADERVER
1070
     2
  0
MLINESTYLE
  5
1B
102
{ACAD_REACTORS
330
E
102
}
330
E
100
AcDbMlineStyle
  2
STANDARD
 70
     0
  3

 62
     0
 51
90.0
 52
90.0
 71
     2
 49
0.5
 62
   256
  6
BYLAYER
 49
-0.5
 62
   256
  6
BYLAYER
  0
ACDBPLACEHOLDER
  5
2223
102
{ACAD_REACTORS
330
2222
102
}
330
2222
  0
SCALE
  5
2636
102
{ACAD_REACTORS
330
2635
102
}
330
2635
100
AcDbScale
 70
     0
300
1:1
140
1.0
141
1.0
290
     1
  0
SCALE
  5
2637
102
{ACAD_REACTORS
330
2635
102
}
330
2635
100
AcDbScale
 70
     0
300
1:2
140
1.0
141
2.0
290
     0
  0
SCALE
  5
2638
102
{ACAD_REACTORS
330
2635
102
}
330
2635
100
AcDbScale
 70
     0
300
1:4
140
1.0
141
4.0
290
     0
  0
SCALE
  5
2639
102
{ACAD_REACTORS
330
2635
102
}
330
2635
100
AcDbScale
 70
     0
300
1:5
140
1.0
141
5.0
290
     0
  0
SCALE
  5
263A
102
{ACAD_REACTORS
330
2635
102
}
330
2635
100
AcDbScale
 70
     0
300
1:8
140
1.0
141
8.0
290
     0
  0
SCALE
  5
263B
102
{ACAD_REACTORS
330
2635
102
}
330
2635
100
AcDbScale
 70
     0
300
1:10
140
1.0
141
10.0
290
     0
  0
SCALE
  5
263C
102
{ACAD_REACTORS
330
2635
102
}
330
2635
100
AcDbScale
 70
     0
300
1:16
140
1.0
141
16.0
290
     0
  0
SCALE
  5
263D
102
{ACAD_REACTORS
330
2635
102
}
330
2635
100
AcDbScale
 70
     0
300
1:20
140
1.0
141
20.0
290
     0
  0
SCALE
  5
263E
102
{ACAD_REACTORS
330
2635
102
}
330
2635
100
AcDbScale
 70
     0
300
1:30
140
1.0
141
30.0
290
     0
  0
SCALE
  5
263F
102
{ACAD_REACTORS
330
2635
102
}
330
2635
100
AcDbScale
 70
     0
300
1:40
140
1.0
141
40.0
290
     0
  0
SCALE
  5
2640
102
{ACAD_REACTORS
330
2635
102
}
330
2635
100
AcDbScale
 70
     0
300
1:50
140
1.0
141
50.0
290
     0
  0
SCALE
  5
2641
102
{ACAD_REACTORS
330
2635
102
}
330
2635
100
AcDbScale
 70
     0
300
1:100
140
1.0
141
100.0
290
     0
  0
SCALE
  5
2642
102
{ACAD_REACTORS
330
2635
102
}
330
2635
100
AcDbScale
 70
     0
300
2:1
140
2.0
141
1.0
290
     0
  0
SCALE
  5
2643
102
{ACAD_REACTORS
330
2635
102
}
330
2635
100
AcDbScale
 70
     0
300
4:1
140
4.0
141
1.0
290
     0
  0
SCALE
  5
2644
102
{ACAD_REACTORS
330
2635
102
}
330
2635
100
AcDbScale
 70
     0
300
8:1
140
8.0
141
1.0
290
     0
  0
SCALE
  5
2645
102
{ACAD_REACTORS
330
2635
102
}
330
2635
100
AcDbScale
 70
     0
300
10:1
140
10.0
141
1.0
290
     0
  0
SCALE
  5
2646
102
{ACAD_REACTORS
330
2635
102
}
330
2635
100
AcDbScale
 70
     0
300
100:1
140
100.0
141
1.0
290
     0
  0
SCALE
  5
2647
102
{ACAD_REACTORS
330
2635
102
}
330
2635
100
AcDbScale
 70
     0
300
1/128" = 1'-0"
140
0.0078125
141
12.0
290
     0
  0
SCALE
  5
2648
102
{ACAD_REACTORS
330
2635
102
}
330
2635
100
AcDbScale
 70
     0
300
1/64" = 1'-0"
140
0.015625
141
12.0
290
     0
  0
SCALE
  5
2649
102
{ACAD_REACTORS
330
2635
102
}
330
2635
100
AcDbScale
 70
     0
300
1/32" = 1'-0"
140
0.03125
141
12.0
290
     0
  0
SCALE
  5
264A
102
{ACAD_REACTORS
330
2635
102
}
330
2635
100
AcDbScale
 70
     0
300
1/16" = 1'-0"
140
0.0625
141
12.0
290
     0
  0
SCALE
  5
264B
102
{ACAD_REACTORS
330
2635
102
}
330
2635
100
AcDbScale
 70
     0
300
3/32" = 1'-0"
140
0.09375
141
12.0
290
     0
  0
SCALE
  5
264C
102
{ACAD_REACTORS
330
2635
102
}
330
2635
100
AcDbScale
 70
     0
300
1/8" = 1'-0"
140
0.125
141
12.0
290
     0
  0
SCALE
  5
264D
102
{ACAD_REACTORS
330
2635
102
}
330
2635
100
AcDbScale
 70
     0
300
3/16" = 1'-0"
140
0.1875
141
12.0
290
     0
  0
SCALE
  5
264E
102
{ACAD_REACTORS
330
2635
102
}
330
2635
100
AcDbScale
 70
     0
300
1/4" = 1'-0"
140
0.25
141
12.0
290
     0
  0
SCALE
  5
264F
102
{ACAD_REACTORS
330
2635
102
}
330
2635
100
AcDbScale
 70
     0
300
3/8" = 1'-0"
140
0.375
141
12.0
290
     0
  0
SCALE
  5
2650
102
{ACAD_REACTORS
330
2635
102
}
330
2635
100
AcDbScale
 70
     0
300
1/2" = 1'-0"
140
0.5
141
12.0
290
     0
  0
SCALE
  5
2651
102
{ACAD_REACTORS
330
2635
102
}
330
2635
100
AcDbScale
 70
     0
300
3/4" = 1'-0"
140
0.75
141
12.0
290
     0
  0
SCALE
  5
2652
102
{ACAD_REACTORS
330
2635
102
}
330
2635
100
AcDbScale
 70
     0
300
1" = 1'-0"
140
1.0
141
12.0
290
     0
  0
SCALE
  5
2653
102
{ACAD_REACTORS
330
2635
102
}
330
2635
100
AcDbScale
 70
     0
300
1-1/2" = 1'-0"
140
1.5
141
12.0
290
     0
  0
SCALE
  5
2654
102
{ACAD_REACTORS
330
2635
102
}
330
2635
100
AcDbScale
 70
     0
300
3" = 1'-0"
140
3.0
141
12.0
290
     0
  0
SCALE
  5
2655
102
{ACAD_REACTORS
330
2635
102
}
330
2635
100
AcDbScale
 70
     0
300
6" = 1'-0"
140
6.0
141
12.0
290
     0
  0
SCALE
  5
2656
102
{ACAD_REACTORS
330
2635
102
}
330
2635
100
AcDbScale
 70
     0
300
1'-0" = 1'-0"
140
12.0
141
12.0
290
     0
  0
TABLESTYLE
  5
2634
102
{ACAD_XDICTIONARY
360
2674
102
}
102
{ACAD_REACTORS
330
2633
102
}
330
2633
100
AcDbTableStyle
  3
Standard
 70
     0
 71
     0
 40
0.06
 41
0.06
280
     0
281
     0
  7
STANDARD
140
0.18
170
     2
 62
     0
 63
     7
283
     0
274
    -2
284
     1
 64
     0
275
    -2
285
     1
 65
     0
276
    -2
286
     1
 66
     0
277
    -2
287
     1
 67
     0
278
    -2
288
     1
 68
     0
279
    -2
289
     1
 69
     0
  7
STANDARD
140
0.25
170
     5
 62
     0
 63
     7
283
     0
274
    -2
284
     1
 64
     0
275
    -2
285
     1
 65
     0
276
    -2
286
     1
 66
     0
277
    -2
287
     1
 67
     0
278
    -2
288
     1
 68
     0
279
    -2
289
     1
 69
     0
  7
STANDARD
140
0.18
170
     5
 62
     0
 63
     7
283
     0
274
    -2
284
     1
 64
     0
275
    -2
285
     1
 65
     0
276
    -2
286
     1
 66
     0
277
    -2
287
     1
 67
     0
278
    -2
288
     1
 68
     0
279
    -2
289
     1
 69
     0
  0
VISUALSTYLE
  5
2627
102
{ACAD_REACTORS
330
2621
102
}
330
2621
100
AcDbVisualStyle
  2
2dWireframe
 70
     4
 71
     0
 72
     2
 73
     0
 90
        0
 40
-0.6
 41
-30.0
 62
     5
 63
     7
421
 16777215
 74
     1
 91
        4
 64
     7
 65
   257
 75
     1
175
     1
 42
1.0
 92
        0
 66
   257
 43
1.0
 76
     1
 77
     6
 78
     2
 67
     7
 79
     5
170
     0
171
     0
290
     0
174
     0
 93
        1
 44
0.0
173
     0
291
     0
 45
0.0
1001
ACAD
1000
AcDbSavedByObjectVersion
1070
     0
  0
VISUALSTYLE
  5
2629
102
{ACAD_REACTORS
330
2621
102
}
330
2621
100
AcDbVisualStyle
  2
3D Hidden
 70
     6
 71
     1
 72
     2
 73
     2
 90
        0
 40
-0.6
 41
-30.0
 62
     5
 63
     7
421
 16777215
 74
     2
 91
        2
 64
     7
 65
   257
 75
     2
175
     1
 42
40.0
 92
        0
 66
   257
 43
1.0
 76
     1
 77
     6
 78
     2
 67
     7
 79
     3
170
     0
171
     0
290
     0
174
     0
 93
        1
 44
0.0
173
     0
291
     0
 45
0.0
1001
ACAD
1000
AcDbSavedByObjectVersion
1070
     0
  0
VISUALSTYLE
  5
2628
102
{ACAD_REACTORS
330
2621
102
}
330
2621
100
AcDbVisualStyle
  2
3dWireframe
 70
     5
 71
     0
 72
     2
 73
     0
 90
        0
 40
-0.6
 41
-30.0
 62
     5
 63
     7
421
 16777215
 74
     1
 91
        4
 64
     7
 65
   257
 75
     1
175
     1
 42
1.0
 92
        0
 66
   257
 43
1.0
 76
     1
 77
     6
 78
     2
 67
     7
 79
     5
170
     0
171
     0
290
     0
174
     0
 93
        1
 44
0.0
173
     0
291
     0
 45
0.0
1001
ACAD
1000
AcDbSavedByObjectVersion
1070
     0
  0
VISUALSTYLE
  5
2626
102
{ACAD_REACTORS
330
2621
102
}
330
2621
100
AcDbVisualStyle
  2
Basic
 70
     7
 71
     1
 72
     0
 73
     1
 90
        0
 40
-0.6
 41
-30.0
 62
     5
 63
     7
421
 16777215
 74
     0
 91
        4
 64
     7
 65
   257
 75
     1
175
     1
 42
1.0
 92
        8
 66
     7
 43
1.0
 76
     1
 77
     6
 78
     2
 67
     7
 79
     5
170
     0
171
     0
290
     0
174
     0
 93
        1
 44
0.0
173
     0
291
     1
 45
0.0
1001
ACAD
1000
AcDbSavedByObjectVersion
1070
     0
  0
VISUALSTYLE
  5
262D
102
{ACAD_REACTORS
330
2621
102
}
330
2621
100
AcDbVisualStyle
  2
Brighten
 70
    12
 71
     2
 72
     2
 73
     0
 90
        0
 40
-0.6
 41
-30.0
 62
     5
 63
     7
421
 16777215
 74
     1
 91
        4
 64
     7
 65
   257
 75
     1
175
     1
 42
1.0
 92
        8
 66
     7
 43
1.0
 76
     1
 77
     6
 78
     2
 67
     7
 79
     5
170
     0
171
     0
290
     0
174
     0
 93
        1
 44
50.0
173
     0
291
     1
 45
0.0
1001
ACAD
1000
AcDbSavedByObjectVersion
1070
     0
  0
VISUALSTYLE
  5
2631
102
{ACAD_REACTORS
330
2621
102
}
330
2621
100
AcDbVisualStyle
  2
ColorChange
 70
    16
 71
     2
 72
     2
 73
     3
 90
        0
 40
-0.6
 41
-30.0
 62
     5
 63
     8
421
  8421504
 74
     1
 91
        4
 64
     7
 65
   257
 75
     1
175
     1
 42
1.0
 92
        8
 66
     8
424
  8421504
 43
1.0
 76
     1
 77
     6
 78
     2
 67
     7
 79
     5
170
     0
171
     0
290
     0
174
     0
 93
        1
 44
0.0
173
     0
291
     1
 45
0.0
1001
ACAD
1000
AcDbSavedByObjectVersion
1070
     0
  0
VISUALSTYLE
  5
262A
102
{ACAD_REACTORS
330
2621
102
}
330
2621
100
AcDbVisualStyle
  2
Conceptual
 70
     9
 71
     3
 72
     2
 73
     0
 90
        0
 40
-0.6
 41
-30.0
 62
     5
 63
     7
421
 16777215
 74
     2
 91
        2
 64
     7
 65
   257
 75
     1
175
     1
 42
40.0
 92
        8
 66
     7
 43
1.0
 76
     1
 77
     6
 78
     2
 67
     7
 79
     3
170
     0
171
     0
290
     0
174
     0
 93
        1
 44
0.0
173
     0
291
     0
 45
0.0
1001
ACAD
1000
AcDbSavedByObjectVersion
1070
     0
  0
VISUALSTYLE
  5
262C
102
{ACAD_REACTORS
330
2621
102
}
330
2621
100
AcDbVisualStyle
  2
Dim
 70
    11
 71
     2
 72
     2
 73
     0
 90
        0
 40
-0.6
 41
-30.0
 62
     5
 63
     7
421
 16777215
 74
     1
 91
        4
 64
     7
 65
   257
 75
     1
175
     1
 42
1.0
 92
        8
 66
     7
 43
1.0
 76
     1
 77
     6
 78
     2
 67
     7
 79
     5
170
     0
171
     0
290
     0
174
     0
 93
        1
 44
-50.0
173
     0
291
     1
 45
0.0
1001
ACAD
1000
AcDbSavedByObjectVersion
1070
     0
  0
VISUALSTYLE
  5
2630
102
{ACAD_REACTORS
330
2621
102
}
330
2621
100
AcDbVisualStyle
  2
Facepattern
 70
    15
 71
     2
 72
     2
 73
     0
 90
        0
 40
-0.6
 41
-30.0
 62
     5
 63
     7
421
 16777215
 74
     1
 91
        4
 64
     7
 65
   257
 75
     1
175
     1
 42
1.0
 92
        8
 66
     7
 43
1.0
 76
     1
 77
     6
 78
     2
 67
     7
 79
     5
170
     0
171
     0
290
     0
174
     0
 93
        1
 44
0.0
173
     0
291
     1
 45
0.0
1001
ACAD
1000
AcDbSavedByObjectVersion
1070
     0
  0
VISUALSTYLE
  5
2622
102
{ACAD_REACTORS
330
2621
102
}
330
2621
100
AcDbVisualStyle
  2
Flat
 70
     0
 71
     2
 72
     1
 73
     1
 90
        2
 40
-0.6
 41
30.0
 62
     5
 63
     7
421
 16777215
 74
     0
 91
        4
 64
     7
 65
   257
 75
     1
175
     1
 42
1.0
 92
        8
 66
     7
 43
1.0
 76
     1
 77
     6
 78
     2
 67
     7
 79
     5
170
     0
171
     0
290
     0
174
     0
 93
       13
 44
0.0
173
     0
291
     1
 45
0.0
1001
ACAD
1000
AcDbSavedByObjectVersion
1070
     0
  0
VISUALSTYLE
  5
2623
102
{ACAD_REACTORS
330
2621
102
}
330
2621
100
AcDbVisualStyle
  2
FlatWithEdges
 70
     1
 71
     2
 72
     1
 73
     1
 90
        2
 40
-0.6
 41
30.0
 62
     5
 63
     7
421
 16777215
 74
     1
 91
        4
 64
     7
 65
   257
 75
     1
175
     1
 42
1.0
 92
        0
 66
   257
 43
1.0
 76
     1
 77
     6
 78
     2
 67
     7
 79
     5
170
     0
171
     0
290
     0
174
     0
 93
       13
 44
0.0
173
     0
291
     1
 45
0.0
1001
ACAD
1000
AcDbSavedByObjectVersion
1070
     0
  0
VISUALSTYLE
  5
2624
102
{ACAD_REACTORS
330
2621
102
}
330
2621
100
AcDbVisualStyle
  2
Gouraud
 70
     2
 71
     2
 72
     2
 73
     1
 90
        2
 40
-0.6
 41
30.0
 62
     5
 63
     7
421
 16777215
 74
     0
 91
        4
 64
     7
 65
   257
 75
     1
175
     1
 42
1.0
 92
        0
 66
     7
 43
1.0
 76
     1
 77
     6
 78
     2
 67
     7
 79
     5
170
     0
171
     0
290
     0
174
     0
 93
       13
 44
0.0
173
     0
291
     1
 45
0.0
1001
ACAD
1000
AcDbSavedByObjectVersion
1070
     0
  0
VISUALSTYLE
  5
2625
102
{ACAD_REACTORS
330
2621
102
}
330
2621
100
AcDbVisualStyle
  2
GouraudWithEdges
 70
     3
 71
     2
 72
     2
 73
     1
 90
        2
 40
-0.6
 41
30.0
 62
     5
 63
     7
421
 16777215
 74
     1
 91
        4
 64
     7
 65
   257
 75
     1
175
     1
 42
1.0
 92
        0
 66
   257
 43
1.0
 76
     1
 77
     6
 78
     2
 67
     7
 79
     5
170
     0
171
     0
290
     0
174
     0
 93
       13
 44
0.0
173
     0
291
     1
 45
0.0
1001
ACAD
1000
AcDbSavedByObjectVersion
1070
     0
  0
VISUALSTYLE
  5
262F
102
{ACAD_REACTORS
330
2621
102
}
330
2621
100
AcDbVisualStyle
  2
Linepattern
 70
    14
 71
     2
 72
     2
 73
     0
 90
        0
 40
-0.6
 41
-30.0
 62
     5
 63
     7
421
 16777215
 74
     1
 91
        4
 64
     7
 65
   257
 75
     7
175
     7
 42
1.0
 92
        8
 66
     7
 43
1.0
 76
     1
 77
     6
 78
     2
 67
     7
 79
     5
170
     0
171
     0
290
     0
174
     0
 93
        1
 44
0.0
173
     0
291
     1
 45
0.0
1001
ACAD
1000
AcDbSavedByObjectVersion
1070
     0
  0
VISUALSTYLE
  5
262B
102
{ACAD_REACTORS
330
2621
102
}
330
2621
100
AcDbVisualStyle
  2
Realistic
 70
     8
 71
     2
 72
     2
 73
     0
 90
        0
 40
-0.6
 41
-30.0
 62
     5
 63
     7
421
 16777215
 74
     1
 91
        0
 64
     7
 65
   257
 75
     1
175
     1
 42
1.0
 92
        8
 66
     8
424
  7895160
 43
1.0
 76
     1
 77
     6
 78
     2
 67
     7
 79
     5
170
     0
171
     0
290
     0
174
     0
 93
       13
 44
0.0
173
     0
291
     0
 45
0.0
1001
ACAD
1000
AcDbSavedByObjectVersion
1070
     0
  0
VISUALSTYLE
  5
262E
102
{ACAD_REACTORS
330
2621
102
}
330
2621
100
AcDbVisualStyle
  2
Thicken
 70
    13
 71
     2
 72
     2
 73
     0
 90
        0
 40
-0.6
 41
-30.0
 62
     5
 63
     7
421
 16777215
 74
     1
 91
        4
 64
     7
 65
   257
 75
     1
175
     1
 42
1.0
 92
       12
 66
     7
 43
1.0
 76
     1
 77
     6
 78
     2
 67
     7
 79
     5
170
     0
171
     0
290
     0
174
     0
 93
        1
 44
0.0
173
     0
291
     1
 45
0.0
1001
ACAD
1000
AcDbSavedByObjectVersion
1070
     0
  0
DICTIONARYVAR
  5
2673
102
{ACAD_REACTORS
330
1E51
102
}
330
1E51
100
DictionaryVariables
280
     0
  1
1:1
  0
DICTIONARYVAR
  5
2672
102
{ACAD_REACTORS
330
1E51
102
}
330
1E51
100
DictionaryVariables
280
     0
  1
STANDARD
  0
DICTIONARYVAR
  5
2671
102
{ACAD_REACTORS
330
1E51
102
}
330
1E51
100
DictionaryVariables
280
     0
  1
STANDARD
  0
DICTIONARYVAR
  5
2D8D
102
{ACAD_REACTORS
330
1E51
102
}
330
1E51
100
DictionaryVariables
280
     0
  1
1
  0
DICTIONARYVAR
  5
2D8C
102
{ACAD_REACTORS
330
1E51
102
}
330
1E51
100
DictionaryVariables
280
     0
  1
0
  0
DICTIONARYVAR
  5
2698
102
{ACAD_REACTORS
330
1E51
102
}
330
1E51
100
DictionaryVariables
280
     0
  1
0
  0
DICTIONARYVAR
  5
2697
102
{ACAD_REACTORS
330
1E51
102
}
330
1E51
100
DictionaryVariables
280
     0
  1
0
  0
DICTIONARYVAR
  5
1E52
102
{ACAD_REACTORS
330
1E51
102
}
330
1E51
100
DictionaryVariables
280
     0
  1
96
  0
DICTIONARY
  5
2612
330
2611
100
AcDbDictionary
280
     1
281
     1
  3
ACAD_XREC_ROUNDTRIP
360
2678
  3
BUMPTILE
360
2614
  3
DIFFUSETILE
360
2613
  3
OPACITYTILE
360
2617
  3
REFLECTIONTILE
360
2616
  3
REFRACTIONTILE
360
2618
  3
SPECULARTILE
360
2615
  0
DICTIONARY
  5
260A
330
2609
100
AcDbDictionary
280
     1
281
     1
  3
ACAD_XREC_ROUNDTRIP
360
2677
  3
BUMPTILE
360
260C
  3
DIFFUSETILE
360
260B
  3
OPACITYTILE
360
260F
  3
REFLECTIONTILE
360
260E
  3
REFRACTIONTILE
360
2610
  3
SPECULARTILE
360
260D
  0
DICTIONARY
  5
261A
330
2619
100
AcDbDictionary
280
     1
281
     1
  3
ACAD_XREC_ROUNDTRIP
360
2679
  3
BUMPTILE
360
261C
  3
DIFFUSETILE
360
261B
  3
OPACITYTILE
360
261F
  3
REFLECTIONTILE
360
261E
  3
REFRACTIONTILE
360
2620
  3
SPECULARTILE
360
261D
  0
DICTIONARY
  5
2674
330
2634
100
AcDbDictionary
280
     1
281
     1
  3
ACAD_ROUNDTRIP_2008_TABLESTYLE_CELLSTYLEMAP
360
2DB0
  3
ACAD_XREC_ROUNDTRIP
360
2DB1
  0
XRECORD
  5
2678
102
{ACAD_REACTORS
330
2612
102
}
330
2612
100
AcDbXrecord
280
     1
102
MATERIAL
148
0.0
149
0.0
149
0.0
 93
        0
 94
      127
282
     0
 72
     0
 77
     0
171
     0
175
     0
179
     0
273
     0
  0
XRECORD
  5
2614
102
{ACAD_REACTORS
330
2612
102
}
330
2612
100
AcDbXrecord
280
     1
270
     1
271
     1
  0
XRECORD
  5
2613
102
{ACAD_REACTORS
330
2612
102
}
330
2612
100
AcDbXrecord
280
     1
270
     1
271
     1
  0
XRECORD
  5
2617
102
{ACAD_REACTORS
330
2612
102
}
330
2612
100
AcDbXrecord
280
     1
270
     1
271
     1
  0
XRECORD
  5
2616
102
{ACAD_REACTORS
330
2612
102
}
330
2612
100
AcDbXrecord
280
     1
270
     1
271
     1
  0
XRECORD
  5
2618
102
{ACAD_REACTORS
330
2612
102
}
330
2612
100
AcDbXrecord
280
     1
270
     1
271
     1
  0
XRECORD
  5
2615
102
{ACAD_REACTORS
330
2612
102
}
330
2612
100
AcDbXrecord
280
     1
270
     1
271
     1
  0
XRECORD
  5
2677
102
{ACAD_REACTORS
330
260A
102
}
330
260A
100
AcDbXrecord
280
     1
102
MATERIAL
148
0.0
149
0.0
149
0.0
 93
        0
 94
      127
282
     0
 72
     0
 77
     0
171
     0
175
     0
179
     0
273
     0
  0
XRECORD
  5
260C
102
{ACAD_REACTORS
330
260A
102
}
330
260A
100
AcDbXrecord
280
     1
270
     1
271
     1
  0
XRECORD
  5
260B
102
{ACAD_REACTORS
330
260A
102
}
330
260A
100
AcDbXrecord
280
     1
270
     1
271
     1
  0
XRECORD
  5
260F
102
{ACAD_REACTORS
330
260A
102
}
330
260A
100
AcDbXrecord
280
     1
270
     1
271
     1
  0
XRECORD
  5
260E
102
{ACAD_REACTORS
330
260A
102
}
330
260A
100
AcDbXrecord
280
     1
270
     1
271
     1
  0
XRECORD
  5
2610
102
{ACAD_REACTORS
330
260A
102
}
330
260A
100
AcDbXrecord
280
     1
270
     1
271
     1
  0
XRECORD
  5
260D
102
{ACAD_REACTORS
330
260A
102
}
330
260A
100
AcDbXrecord
280
     1
270
     1
271
     1
  0
XRECORD
  5
2679
102
{ACAD_REACTORS
330
261A
102
}
330
261A
100
AcDbXrecord
280
     1
102
MATERIAL
148
0.0
149
0.0
149
0.0
 93
        0
 94
      127
282
     0
 72
     0
 77
     0
171
     0
175
     0
179
     0
273
     0
  0
XRECORD
  5
261C
102
{ACAD_REACTORS
330
261A
102
}
330
261A
100
AcDbXrecord
280
     1
270
     1
271
     1
  0
XRECORD
  5
261B
102
{ACAD_REACTORS
330
261A
102
}
330
261A
100
AcDbXrecord
280
     1
270
     1
271
     1
  0
XRECORD
  5
261F
102
{ACAD_REACTORS
330
261A
102
}
330
261A
100
AcDbXrecord
280
     1
270
     1
271
     1
  0
XRECORD
  5
261E
102
{ACAD_REACTORS
330
261A
102
}
330
261A
100
AcDbXrecord
280
     1
270
     1
271
     1
  0
XRECORD
  5
2620
102
{ACAD_REACTORS
330
261A
102
}
330
261A
100
AcDbXrecord
280
     1
270
     1
271
     1
  0
XRECORD
  5
261D
102
{ACAD_REACTORS
330
261A
102
}
330
261A
100
AcDbXrecord
280
     1
270
     1
271
     1
  0
CELLSTYLEMAP
  5
2DB0
102
{ACAD_REACTORS
330
2674
102
}
330
2674
100
AcDbCellStyleMap
 90
        3
300
CELLSTYLE
  1
TABLEFORMAT_BEGIN
 90
        5
170
     1
 91
        0
 92
    32768
 62
   257
 93
        1
300
CONTENTFORMAT
  1
CONTENTFORMAT_BEGIN
 90
        0
 91
        0
 92
      512
 93
        0
300

 40
0.0
140
1.0
 94
        5
 62
     0
340
10
144
0.25
309
CONTENTFORMAT_END
171
     1
301
MARGIN
  1
CELLMARGIN_BEGIN
 40
0.06
 40
0.06
 40
0.06
 40
0.06
 40
0.18
 40
0.18
309
CELLMARGIN_END
 94
        6
 95
        1
302
GRIDFORMAT
  1
GRIDFORMAT_BEGIN
 90
        0
 91
        1
 62
     0
 92
       -2
340
0
 93
        0
 40
0.045
309
GRIDFORMAT_END
 95
        2
302
GRIDFORMAT
  1
GRIDFORMAT_BEGIN
 90
        0
 91
        1
 62
     0
 92
       -2
340
0
 93
        0
 40
0.045
309
GRIDFORMAT_END
 95
        4
302
GRIDFORMAT
  1
GRIDFORMAT_BEGIN
 90
        0
 91
        1
 62
     0
 92
       -2
340
0
 93
        0
 40
0.045
309
GRIDFORMAT_END
 95
        8
302
GRIDFORMAT
  1
GRIDFORMAT_BEGIN
 90
        0
 91
        1
 62
     0
 92
       -2
340
0
 93
        0
 40
0.045
309
GRIDFORMAT_END
 95
       16
302
GRIDFORMAT
  1
GRIDFORMAT_BEGIN
 90
        0
 91
        1
 62
     0
 92
       -2
340
0
 93
        0
 40
0.045
309
GRIDFORMAT_END
 95
       32
302
GRIDFORMAT
  1
GRIDFORMAT_BEGIN
 90
        0
 91
        1
 62
     0
 92
       -2
340
0
 93
        0
 40
0.045
309
GRIDFORMAT_END
309
TABLEFORMAT_END
  1
CELLSTYLE_BEGIN
 90
        1
 91
        1
300
_TITLE
309
CELLSTYLE_END
300
CELLSTYLE
  1
TABLEFORMAT_BEGIN
 90
        5
170
     1
 91
        0
 92
        0
 62
   257
 93
        1
300
CONTENTFORMAT
  1
CONTENTFORMAT_BEGIN
 90
        0
 91
        0
 92
      512
 93
        0
300

 40
0.0
140
1.0
 94
        5
 62
     0
340
10
144
0.18
309
CONTENTFORMAT_END
171
     1
301
MARGIN
  1
CELLMARGIN_BEGIN
 40
0.06
 40
0.06
 40
0.06
 40
0.06
 40
0.18
 40
0.18
309
CELLMARGIN_END
 94
        6
 95
        1
302
GRIDFORMAT
  1
GRIDFORMAT_BEGIN
 90
        0
 91
        1
 62
     0
 92
       -2
340
0
 93
        0
 40
0.045
309
GRIDFORMAT_END
 95
        2
302
GRIDFORMAT
  1
GRIDFORMAT_BEGIN
 90
        0
 91
        1
 62
     0
 92
       -2
340
0
 93
        0
 40
0.045
309
GRIDFORMAT_END
 95
        4
302
GRIDFORMAT
  1
GRIDFORMAT_BEGIN
 90
        0
 91
        1
 62
     0
 92
       -2
340
0
 93
        0
 40
0.045
309
GRIDFORMAT_END
 95
        8
302
GRIDFORMAT
  1
GRIDFORMAT_BEGIN
 90
        0
 91
        1
 62
     0
 92
       -2
340
0
 93
        0
 40
0.045
309
GRIDFORMAT_END
 95
       16
302
GRIDFORMAT
  1
GRIDFORMAT_BEGIN
 90
        0
 91
        1
 62
     0
 92
       -2
340
0
 93
        0
 40
0.045
309
GRIDFORMAT_END
 95
       32
302
GRIDFORMAT
  1
GRIDFORMAT_BEGIN
 90
        0
 91
        1
 62
     0
 92
       -2
340
0
 93
        0
 40
0.045
309
GRIDFORMAT_END
309
TABLEFORMAT_END
  1
CELLSTYLE_BEGIN
 90
        2
 91
        1
300
_HEADER
309
CELLSTYLE_END
300
CELLSTYLE
  1
TABLEFORMAT_BEGIN
 90
        5
170
     1
 91
        0
 92
        0
 62
   257
 93
        1
300
CONTENTFORMAT
  1
CONTENTFORMAT_BEGIN
 90
        0
 91
        0
 92
      512
 93
        0
300

 40
0.0
140
1.0
 94
        2
 62
     0
340
10
144
0.18
309
CONTENTFORMAT_END
171
     1
301
MARGIN
  1
CELLMARGIN_BEGIN
 40
0.06
 40
0.06
 40
0.06
 40
0.06
 40
0.18
 40
0.18
309
CELLMARGIN_END
 94
        6
 95
        1
302
GRIDFORMAT
  1
GRIDFORMAT_BEGIN
 90
        0
 91
        1
 62
     0
 92
       -2
340
0
 93
        0
 40
0.045
309
GRIDFORMAT_END
 95
        2
302
GRIDFORMAT
  1
GRIDFORMAT_BEGIN
 90
        0
 91
        1
 62
     0
 92
       -2
340
0
 93
        0
 40
0.045
309
GRIDFORMAT_END
 95
        4
302
GRIDFORMAT
  1
GRIDFORMAT_BEGIN
 90
        0
 91
        1
 62
     0
 92
       -2
340
0
 93
        0
 40
0.045
309
GRIDFORMAT_END
 95
        8
302
GRIDFORMAT
  1
GRIDFORMAT_BEGIN
 90
        0
 91
        1
 62
     0
 92
       -2
340
0
 93
        0
 40
0.045
309
GRIDFORMAT_END
 95
       16
302
GRIDFORMAT
  1
GRIDFORMAT_BEGIN
 90
        0
 91
        1
 62
     0
 92
       -2
340
0
 93
        0
 40
0.045
309
GRIDFORMAT_END
 95
       32
302
GRIDFORMAT
  1
GRIDFORMAT_BEGIN
 90
        0
 91
        1
 62
     0
 92
       -2
340
0
 93
        0
 40
0.045
309
GRIDFORMAT_END
309
TABLEFORMAT_END
  1
CELLSTYLE_BEGIN
 90
        3
 91
        2
300
_DATA
309
CELLSTYLE_END
  0
XRECORD
  5
2DB1
102
{ACAD_REACTORS
330
2674
102
}
330
2674
100
AcDbXrecord
280
     1
102
ACAD_ROUNDTRIP_PRE2007_TABLESTYLE
 90
      512
 91
        0
  1

 92
      512
 93
        0
  2

 94
      512
 95
        0
  3

  0
ENDSEC
  0
EOF
