  0
SECTION
  2
HEADER
  9
$ACADVER
  1
AC1018
  9
$ACADMAINTVER
 70
   104
  9
$DWGCODEPAGE
  3
ANSI_932
  9
$LASTSAVEDBY
  1
poracon
  9
$INSBASE
 10
0.0
 20
0.0
 30
0.0
  9
$EXTMIN
 10
-392.6542677791031
 20
-899.4438618300019
 30
-0.0015258207003583
  9
$EXTMAX
 10
4647.65685873663
 20
2664.710551424676
 30
0.0000000349246037
  9
$LIMMIN
 10
0.0
 20
0.0
  9
$LIMMAX
 10
12.0
 20
9.0
  9
$ORTHOMODE
 70
     1
  9
$REGENMODE
 70
     1
  9
$FILLMODE
 70
     1
  9
$QTEXTMODE
 70
     0
  9
$MIRRTEXT
 70
     1
  9
$LTSCALE
 40
100.0
  9
$ATTMODE
 70
     1
  9
$TEXTSIZE
 40
163.3571023374541
  9
$TRACEWID
 40
0.05
  9
$TEXTSTYLE
  7
BIGFONT
  9
$CLAYER
  8
NAZORI
  9
$CELTYPE
  6
BYLAYER
  9
$CECOLOR
 62
   256
  9
$CELTSCALE
 40
1.0
  9
$DISPSILH
 70
     0
  9
$DIMSCALE
 40
10.0
  9
$DIMASZ
 40
2.0
  9
$DIMEXO
 40
1.0
  9
$DIMDLI
 40
2.0
  9
$DIMRND
 40
0.0
  9
$DIMDLE
 40
0.0
  9
$DIMEXE
 40
0.0
  9
$DIMTP
 40
0.0
  9
$DIMTM
 40
0.0
  9
$DIMTXT
 40
2.5
  9
$DIMCEN
 40
0.0
  9
$DIMTSZ
 40
0.0
  9
$DIMTOL
 70
     0
  9
$DIMLIM
 70
     0
  9
$DIMTIH
 70
     0
  9
$DIMTOH
 70
     0
  9
$DIMSE1
 70
     0
  9
$DIMSE2
 70
     0
  9
$DIMTAD
 70
     1
  9
$DIMZIN
 70
     0
  9
$DIMBLK
  1

  9
$DIMASO
 70
     1
  9
$DIMSHO
 70
     1
  9
$DIMPOST
  1

  9
$DIMAPOST
  1

  9
$DIMALT
 70
     0
  9
$DIMALTD
 70
     2
  9
$DIMALTF
 40
25.4
  9
$DIMLFAC
 40
1.0
  9
$DIMTOFL
 70
     1
  9
$DIMTVP
 40
0.0
  9
$DIMTIX
 70
     0
  9
$DIMSOXD
 70
     0
  9
$DIMSAH
 70
     0
  9
$DIMBLK1
  1

  9
$DIMBLK2
  1

  9
$DIMSTYLE
  2
DIM1
  9
$DIMCLRD
 70
     0
  9
$DIMCLRE
 70
     0
  9
$DIMCLRT
 70
     0
  9
$DIMTFAC
 40
1.0
  9
$DIMGAP
 40
1.0
  9
$DIMJUST
 70
     0
  9
$DIMSD1
 70
     0
  9
$DIMSD2
 70
     0
  9
$DIMTOLJ
 70
     1
  9
$DIMTZIN
 70
     0
  9
$DIMALTZ
 70
     0
  9
$DIMALTTZ
 70
     0
  9
$DIMUPT
 70
     1
  9
$DIMDEC
 70
     0
  9
$DIMTDEC
 70
     4
  9
$DIMALTU
 70
     2
  9
$DIMALTTD
 70
     2
  9
$DIMTXSTY
  7
BIGFONT
  9
$DIMAUNIT
 70
     0
  9
$DIMADEC
 70
     0
  9
$DIMALTRND
 40
0.0
  9
$DIMAZIN
 70
     0
  9
$DIMDSEP
 70
    46
  9
$DIMATFIT
 70
     3
  9
$DIMFRAC
 70
     0
  9
$DIMLDRBLK
  1

  9
$DIMLUNIT
 70
     2
  9
$DIMLWD
 70
    -2
  9
$DIMLWE
 70
    -2
  9
$DIMTMOVE
 70
     2
  9
$LUNITS
 70
     2
  9
$LUPREC
 70
     0
  9
$SKETCHINC
 40
0.1
  9
$FILLETRAD
 40
0.0
  9
$AUNITS
 70
     1
  9
$AUPREC
 70
     2
  9
$MENU
  1
BCAD
  9
$ELEVATION
 40
0.0
  9
$PELEVATION
 40
0.0
  9
$THICKNESS
 40
0.0
  9
$LIMCHECK
 70
     0
  9
$CHAMFERA
 40
0.0
  9
$CHAMFERB
 40
0.0
  9
$CHAMFERC
 40
0.0
  9
$CHAMFERD
 40
0.0
  9
$SKPOLY
 70
     0
  9
$TDCREATE
 40
2449540.465300926
  9
$TDUCREATE
 40
2449540.090300926
  9
$TDUPDATE
 40
2456937.371270787
  9
$TDUUPDATE
 40
2456936.996270787
  9
$TDINDWG
 40
0.0936421991
  9
$TDUSRTIMER
 40
0.0936421991
  9
$USRTIMER
 70
     1
  9
$ANGBASE
 50
0.0
  9
$ANGDIR
 70
     0
  9
$PDMODE
 70
    33
  9
$PDSIZE
 40
-0.2
  9
$PLINEWID
 40
0.0
  9
$SPLFRAME
 70
     0
  9
$SPLINETYPE
 70
     6
  9
$SPLINESEGS
 70
     8
  9
$HANDSEED
  5
1496
  9
$SURFTAB1
 70
     6
  9
$SURFTAB2
 70
     6
  9
$SURFTYPE
 70
     6
  9
$SURFU
 70
     6
  9
$SURFV
 70
     6
  9
$UCSBASE
  2

  9
$UCSNAME
  2

  9
$UCSORG
 10
0.0
 20
0.0
 30
0.0
  9
$UCSXDIR
 10
1.0
 20
0.0
 30
0.0
  9
$UCSYDIR
 10
0.0
 20
1.0
 30
0.0
  9
$UCSORTHOREF
  2

  9
$UCSORTHOVIEW
 70
     0
  9
$UCSORGTOP
 10
0.0
 20
0.0
 30
0.0
  9
$UCSORGBOTTOM
 10
0.0
 20
0.0
 30
0.0
  9
$UCSORGLEFT
 10
0.0
 20
0.0
 30
0.0
  9
$UCSORGRIGHT
 10
0.0
 20
0.0
 30
0.0
  9
$UCSORGFRONT
 10
0.0
 20
0.0
 30
0.0
  9
$UCSORGBACK
 10
0.0
 20
0.0
 30
0.0
  9
$PUCSBASE
  2

  9
$PUCSNAME
  2

  9
$PUCSORG
 10
0.0
 20
0.0
 30
0.0
  9
$PUCSXDIR
 10
1.0
 20
0.0
 30
0.0
  9
$PUCSYDIR
 10
0.0
 20
1.0
 30
0.0
  9
$PUCSORTHOREF
  2

  9
$PUCSORTHOVIEW
 70
     0
  9
$PUCSORGTOP
 10
0.0
 20
0.0
 30
0.0
  9
$PUCSORGBOTTOM
 10
0.0
 20
0.0
 30
0.0
  9
$PUCSORGLEFT
 10
0.0
 20
0.0
 30
0.0
  9
$PUCSORGRIGHT
 10
0.0
 20
0.0
 30
0.0
  9
$PUCSORGFRONT
 10
0.0
 20
0.0
 30
0.0
  9
$PUCSORGBACK
 10
0.0
 20
0.0
 30
0.0
  9
$USERI1
 70
     0
  9
$USERI2
 70
     0
  9
$USERI3
 70
     0
  9
$USERI4
 70
     0
  9
$USERI5
 70
     0
  9
$USERR1
 40
0.0
  9
$USERR2
 40
0.0
  9
$USERR3
 40
0.0
  9
$USERR4
 40
0.0
  9
$USERR5
 40
0.0
  9
$WORLDVIEW
 70
     1
  9
$SHADEDGE
 70
     3
  9
$SHADEDIF
 70
    70
  9
$TILEMODE
 70
     1
  9
$MAXACTVP
 70
    16
  9
$PINSBASE
 10
0.0
 20
0.0
 30
0.0
  9
$PLIMCHECK
 70
     0
  9
$PEXTMIN
 10
1.000000000000000E+20
 20
1.000000000000000E+20
 30
1.000000000000000E+20
  9
$PEXTMAX
 10
-1.000000000000000E+20
 20
-1.000000000000000E+20
 30
-1.000000000000000E+20
  9
$PLIMMIN
 10
0.0
 20
0.0
  9
$PLIMMAX
 10
12.0
 20
9.0
  9
$UNITMODE
 70
     0
  9
$VISRETAIN
 70
     0
  9
$PLINEGEN
 70
     0
  9
$PSLTSCALE
 70
     1
  9
$TREEDEPTH
 70
  3020
  9
$CMLSTYLE
  2
STANDARD
  9
$CMLJUST
 70
     0
  9
$CMLSCALE
 40
1.0
  9
$PROXYGRAPHICS
 70
     1
  9
$MEASUREMENT
 70
     0
  9
$CELWEIGHT
370
    -1
  9
$ENDCAPS
280
     0
  9
$JOINSTYLE
280
     0
  9
$LWDISPLAY
290
     0
  9
$INSUNITS
 70
     0
  9
$HYPERLINKBASE
  1

  9
$STYLESHEET
  1

  9
$XEDIT
290
     1
  9
$CEPSNTYPE
380
     0
  9
$PSTYLEMODE
290
     1
  9
$FINGERPRINTGUID
  2
{62F6C1E0-2066-11D6-B1D9-B12CB9472D74}
  9
$VERSIONGUID
  2
{753D9B99-424B-4CDA-8D13-EAC36DF0C974}
  9
$EXTNAMES
290
     1
  9
$PSVPSCALE
 40
0.0
  9
$OLESTARTUP
290
     0
  9
$SORTENTS
280
    96
  9
$INDEXCTL
280
     0
  9
$HIDETEXT
280
     0
  9
$XCLIPFRAME
290
     0
  9
$HALOGAP
280
     0
  9
$OBSCOLOR
 70
   257
  9
$OBSLTYPE
280
     0
  9
$INTERSECTIONDISPLAY
280
     0
  9
$INTERSECTIONCOLOR
 70
   257
  9
$DIMASSOC
280
     1
  9
$PROJECTNAME
  1

  0
ENDSEC
  0
SECTION
  2
CLASSES
  0
CLASS
  1
DICTIONARYVAR
  2
AcDbDictionaryVar
  3
ObjectDBX Classes
 90
        0
 91
        6
280
     0
281
     0
  0
CLASS
  1
ACDBDICTIONARYWDFLT
  2
AcDbDictionaryWithDefault
  3
ObjectDBX Classes
 90
        0
 91
        1
280
     0
281
     0
  0
CLASS
  1
MATERIAL
  2
AcDbMaterial
  3
ObjectDBX Classes
 90
     1153
 91
        3
280
     0
281
     0
  0
CLASS
  1
VISUALSTYLE
  2
AcDbVisualStyle
  3
ObjectDBX Classes
 90
     4095
 91
       16
280
     0
281
     0
  0
CLASS
  1
TABLESTYLE
  2
AcDbTableStyle
  3
ObjectDBX Classes
 90
     4095
 91
        1
280
     0
281
     0
  0
CLASS
  1
SCALE
  2
AcDbScale
  3
ObjectDBX Classes
 90
     1153
 91
       33
280
     0
281
     0
  0
CLASS
  1
MLEADERSTYLE
  2
AcDbMLeaderStyle
  3
ACDB_MLEADERSTYLE_CLASS
 90
     4095
 91
        1
280
     0
281
     0
  0
CLASS
  1
SORTENTSTABLE
  2
AcDbSortentsTable
  3
ObjectDBX Classes
 90
        0
 91
        2
280
     0
281
     0
  0
CLASS
  1
CELLSTYLEMAP
  2
AcDbCellStyleMap
  3
ObjectDBX Classes
 90
     1152
 91
        3
280
     0
281
     0
  0
ENDSEC
  0
SECTION
  2
TABLES
  0
TABLE
  2
VPORT
  5
8
330
0
100
AcDbSymbolTable
 70
     1
  0
VPORT
  5
F9C
330
8
100
AcDbSymbolTableRecord
100
AcDbViewportTableRecord
  2
*Active
 70
     0
 10
0.0
 20
0.0
 11
1.0
 21
1.0
 12
2127.501295478764
 22
882.6333447973373
 13
0.0
 23
0.0
 14
1.0
 24
1.0
 15
0.0
 25
0.0
 16
0.0
 26
0.0
 36
1.0
 17
0.0
 27
0.0
 37
0.0
 40
3592.478819187828
 41
1.669761273209549
 42
50.0
 43
0.0
 44
0.0
 50
0.0
 51
0.0
 71
     0
 72
   100
 73
     1
 74
     1
 75
     0
 76
     0
 77
     0
 78
     0
281
     0
 65
     1
110
0.0
120
0.0
130
0.0
111
1.0
121
0.0
131
0.0
112
0.0
122
1.0
132
0.0
 79
     0
146
0.0
  0
ENDTAB
  0
TABLE
  2
LTYPE
  5
5
330
0
100
AcDbSymbolTable
 70
    26
  0
LTYPE
  5
12
330
5
100
AcDbSymbolTableRecord
100
AcDbLinetypeTableRecord
  2
BYBLOCK
 70
     0
  3

 72
    65
 73
     0
 40
0.0
  0
LTYPE
  5
13
330
5
100
AcDbSymbolTableRecord
100
AcDbLinetypeTableRecord
  2
BYLAYER
 70
     0
  3

 72
    65
 73
     0
 40
0.0
  0
LTYPE
  5
14
330
5
100
AcDbSymbolTableRecord
100
AcDbLinetypeTableRecord
  2
CONTINUOUS
 70
     0
  3
Solid line
 72
    65
 73
     0
 40
0.0
  0
LTYPE
  5
4B
330
5
100
AcDbSymbolTableRecord
100
AcDbLinetypeTableRecord
  2
BORDER
 70
     0
  3
__ __ . __ __ . __ __ . __ __ . __ __ . __ __ .
 72
    65
 73
     6
 40
1.75
 49
0.5
 74
     0
 49
-0.25
 74
     0
 49
0.5
 74
     0
 49
-0.25
 74
     0
 49
0.0
 74
     0
 49
-0.25
 74
     0
  0
LTYPE
  5
4C
330
5
100
AcDbSymbolTableRecord
100
AcDbLinetypeTableRecord
  2
BORDER2
 70
     0
  3
__.__.__.__.__.__.__.__.__.__.__.__.__.__.__.__
 72
    65
 73
     6
 40
0.875
 49
0.25
 74
     0
 49
-0.125
 74
     0
 49
0.25
 74
     0
 49
-0.125
 74
     0
 49
0.0
 74
     0
 49
-0.125
 74
     0
  0
LTYPE
  5
4D
330
5
100
AcDbSymbolTableRecord
100
AcDbLinetypeTableRecord
  2
BORDERX2
 70
     0
  3
____  ____  .  ____  ____  .  ____  ____  .  __
 72
    65
 73
     6
 40
3.5
 49
1.0
 74
     0
 49
-0.5
 74
     0
 49
1.0
 74
     0
 49
-0.5
 74
     0
 49
0.0
 74
     0
 49
-0.5
 74
     0
  0
LTYPE
  5
4E
330
5
100
AcDbSymbolTableRecord
100
AcDbLinetypeTableRecord
  2
CENTER
 70
     0
  3
____ _ ____ _ ____ _ ____ _ ____ _ ____ _ ____ 
 72
    65
 73
     4
 40
2.0
 49
1.25
 74
     0
 49
-0.25
 74
     0
 49
0.25
 74
     0
 49
-0.25
 74
     0
  0
LTYPE
  5
4F
330
5
100
AcDbSymbolTableRecord
100
AcDbLinetypeTableRecord
  2
CENTER2
 70
     0
  3
___ _ ___ _ ___ _ ___ _ ___ _ ___ _ ___ _ ___ _
 72
    65
 73
     4
 40
1.125
 49
0.75
 74
     0
 49
-0.125
 74
     0
 49
0.125
 74
     0
 49
-0.125
 74
     0
  0
LTYPE
  5
50
330
5
100
AcDbSymbolTableRecord
100
AcDbLinetypeTableRecord
  2
CENTERX2
 70
     0
  3
________  __  ________  __  ________  __  _____
 72
    65
 73
     4
 40
4.0
 49
2.5
 74
     0
 49
-0.5
 74
     0
 49
0.5
 74
     0
 49
-0.5
 74
     0
  0
LTYPE
  5
51
330
5
100
AcDbSymbolTableRecord
100
AcDbLinetypeTableRecord
  2
DASHDOT
 70
     0
  3
__ . __ . __ . __ . __ . __ . __ . __ . __ . __
 72
    65
 73
     4
 40
1.0
 49
0.5
 74
     0
 49
-0.25
 74
     0
 49
0.0
 74
     0
 49
-0.25
 74
     0
  0
LTYPE
  5
52
330
5
100
AcDbSymbolTableRecord
100
AcDbLinetypeTableRecord
  2
DASHDOT2
 70
     0
  3
_._._._._._._._._._._._._._._._._._._._._._._._
 72
    65
 73
     4
 40
0.5
 49
0.25
 74
     0
 49
-0.125
 74
     0
 49
0.0
 74
     0
 49
-0.125
 74
     0
  0
LTYPE
  5
53
330
5
100
AcDbSymbolTableRecord
100
AcDbLinetypeTableRecord
  2
DASHDOTX2
 70
     0
  3
____  .  ____  .  ____  .  ____  .  ____  .  __
 72
    65
 73
     4
 40
2.0
 49
1.0
 74
     0
 49
-0.5
 74
     0
 49
0.0
 74
     0
 49
-0.5
 74
     0
  0
LTYPE
  5
54
330
5
100
AcDbSymbolTableRecord
100
AcDbLinetypeTableRecord
  2
DASHED
 70
     0
  3
__ __ __ __ __ __ __ __ __ __ __ __ __ __ __ __
 72
    65
 73
     2
 40
0.75
 49
0.5
 74
     0
 49
-0.25
 74
     0
  0
LTYPE
  5
55
330
5
100
AcDbSymbolTableRecord
100
AcDbLinetypeTableRecord
  2
DASHED2
 70
     0
  3
_ _ _ _ _ _ _ _ _ _ _ _ _ _ _ _ _ _ _ _ _ _ _ _
 72
    65
 73
     2
 40
0.375
 49
0.25
 74
     0
 49
-0.125
 74
     0
  0
LTYPE
  5
56
330
5
100
AcDbSymbolTableRecord
100
AcDbLinetypeTableRecord
  2
DASHEDX2
 70
     0
  3
____  ____  ____  ____  ____  ____  ____  ____ 
 72
    65
 73
     2
 40
1.5
 49
1.0
 74
     0
 49
-0.5
 74
     0
  0
LTYPE
  5
57
330
5
100
AcDbSymbolTableRecord
100
AcDbLinetypeTableRecord
  2
DIVIDE
 70
     0
  3
____ . . ____ . . ____ . . ____ . . ____ . . __
 72
    65
 73
     6
 40
1.25
 49
0.5
 74
     0
 49
-0.25
 74
     0
 49
0.0
 74
     0
 49
-0.25
 74
     0
 49
0.0
 74
     0
 49
-0.25
 74
     0
  0
LTYPE
  5
58
330
5
100
AcDbSymbolTableRecord
100
AcDbLinetypeTableRecord
  2
DIVIDE2
 70
     0
  3
__..__..__..__..__..__..__..__..__..__..__..__.
 72
    65
 73
     6
 40
0.625
 49
0.25
 74
     0
 49
-0.125
 74
     0
 49
0.0
 74
     0
 49
-0.125
 74
     0
 49
0.0
 74
     0
 49
-0.125
 74
     0
  0
LTYPE
  5
59
330
5
100
AcDbSymbolTableRecord
100
AcDbLinetypeTableRecord
  2
DIVIDEX2
 70
     0
  3
________  .  .  ________  .  .  ________  .  . 
 72
    65
 73
     6
 40
2.5
 49
1.0
 74
     0
 49
-0.5
 74
     0
 49
0.0
 74
     0
 49
-0.5
 74
     0
 49
0.0
 74
     0
 49
-0.5
 74
     0
  0
LTYPE
  5
5A
330
5
100
AcDbSymbolTableRecord
100
AcDbLinetypeTableRecord
  2
DOT
 70
     0
  3
. . . . . . . . . . . . . . . . . . . . . . . .
 72
    65
 73
     2
 40
0.25
 49
0.0
 74
     0
 49
-0.25
 74
     0
  0
LTYPE
  5
5B
330
5
100
AcDbSymbolTableRecord
100
AcDbLinetypeTableRecord
  2
DOT2
 70
     0
  3
...............................................
 72
    65
 73
     2
 40
0.125
 49
0.0
 74
     0
 49
-0.125
 74
     0
  0
LTYPE
  5
5C
330
5
100
AcDbSymbolTableRecord
100
AcDbLinetypeTableRecord
  2
DOTX2
 70
     0
  3
.  .  .  .  .  .  .  .  .  .  .  .  .  .  .  . 
 72
    65
 73
     2
 40
0.5
 49
0.0
 74
     0
 49
-0.5
 74
     0
  0
LTYPE
  5
5D
330
5
100
AcDbSymbolTableRecord
100
AcDbLinetypeTableRecord
  2
HIDDEN
 70
     0
  3
__ __ __ __ __ __ __ __ __ __ __ __ __ __ __ __
 72
    65
 73
     2
 40
0.375
 49
0.25
 74
     0
 49
-0.125
 74
     0
  0
LTYPE
  5
5E
330
5
100
AcDbSymbolTableRecord
100
AcDbLinetypeTableRecord
  2
HIDDEN2
 70
     0
  3
_ _ _ _ _ _ _ _ _ _ _ _ _ _ _ _ _ _ _ _ _ _ _ _
 72
    65
 73
     2
 40
0.1875
 49
0.125
 74
     0
 49
-0.0625
 74
     0
  0
LTYPE
  5
5F
330
5
100
AcDbSymbolTableRecord
100
AcDbLinetypeTableRecord
  2
HIDDENX2
 70
     0
  3
____ ____ ____ ____ ____ ____ ____ ____ ____ __
 72
    65
 73
     2
 40
0.75
 49
0.5
 74
     0
 49
-0.25
 74
     0
  0
LTYPE
  5
60
330
5
100
AcDbSymbolTableRecord
100
AcDbLinetypeTableRecord
  2
PHANTOM
 70
     0
  3
______  __  __  ______  __  __  ______  __  __ 
 72
    65
 73
     6
 40
2.5
 49
1.25
 74
     0
 49
-0.25
 74
     0
 49
0.25
 74
     0
 49
-0.25
 74
     0
 49
0.25
 74
     0
 49
-0.25
 74
     0
  0
LTYPE
  5
61
330
5
100
AcDbSymbolTableRecord
100
AcDbLinetypeTableRecord
  2
PHANTOM2
 70
     0
  3
___ _ _ ___ _ _ ___ _ _ ___ _ _ ___ _ _ ___ _ _
 72
    65
 73
     6
 40
1.25
 49
0.625
 74
     0
 49
-0.125
 74
     0
 49
0.125
 74
     0
 49
-0.125
 74
     0
 49
0.125
 74
     0
 49
-0.125
 74
     0
  0
LTYPE
  5
62
330
5
100
AcDbSymbolTableRecord
100
AcDbLinetypeTableRecord
  2
PHANTOMX2
 70
     0
  3
____________    ____    ____    ____________   
 72
    65
 73
     6
 40
5.0
 49
2.5
 74
     0
 49
-0.5
 74
     0
 49
0.5
 74
     0
 49
-0.5
 74
     0
 49
0.5
 74
     0
 49
-0.5
 74
     0
  0
ENDTAB
  0
TABLE
  2
LAYER
  5
2
330
0
100
AcDbSymbolTable
 70
     7
  0
LAYER
  5
F
102
{ACAD_XDICTIONARY
360
134C
102
}
330
2
100
AcDbSymbolTableRecord
100
AcDbLayerTableRecord
  2
0
 70
     0
 62
   250
  6
CONTINUOUS
370
    -3
390
AFE
  0
LAYER
  5
66
102
{ACAD_XDICTIONARY
360
134E
102
}
330
2
100
AcDbSymbolTableRecord
100
AcDbLayerTableRecord
  2
HL
 70
     0
 62
     6
  6
CONTINUOUS
370
    -3
390
AFE
  0
LAYER
  5
67
102
{ACAD_XDICTIONARY
360
1350
102
}
330
2
100
AcDbSymbolTableRecord
100
AcDbLayerTableRecord
  2
SUNPOU
 70
     0
 62
     3
  6
CONTINUOUS
370
    -3
390
AFE
  0
LAYER
  5
69
102
{ACAD_XDICTIONARY
360
1352
102
}
330
2
100
AcDbSymbolTableRecord
100
AcDbLayerTableRecord
  2
CT1
 70
     0
 62
     1
  6
CENTER2
370
    -3
390
AFE
  0
LAYER
  5
6C
102
{ACAD_XDICTIONARY
360
1354
102
}
330
2
100
AcDbSymbolTableRecord
100
AcDbLayerTableRecord
  2
KL
 70
     0
 62
     5
  6
HIDDEN
370
    -3
390
AFE
  0
LAYER
  5
6D
102
{ACAD_XDICTIONARY
360
1356
102
}
330
2
100
AcDbSymbolTableRecord
100
AcDbLayerTableRecord
  2
NAZORI
 70
     0
 62
     4
  6
CONTINUOUS
370
    -3
390
AFE
  0
LAYER
  5
6E
330
2
100
AcDbSymbolTableRecord
100
AcDbLayerTableRecord
  2
DEFPOINTS
 70
     0
 62
     7
  6
CONTINUOUS
290
     0
370
    -3
390
AFE
  0
ENDTAB
  0
TABLE
  2
STYLE
  5
3
330
0
100
AcDbSymbolTable
 70
     2
  0
STYLE
  5
10
330
3
100
AcDbSymbolTableRecord
100
AcDbTextStyleTableRecord
  2
STANDARD
 70
     0
 40
0.0
 41
1.0
 50
0.0
 71
     0
 42
0.2
  3
txt
  4

  0
STYLE
  5
4A
330
3
100
AcDbSymbolTableRecord
100
AcDbTextStyleTableRecord
  2
BIGFONT
 70
     0
 40
0.0
 41
1.0
 50
0.0
 71
     0
 42
163.3571023374541
  3
simplex
  4
bigfont
  0
ENDTAB
  0
TABLE
  2
VIEW
  5
6
330
0
100
AcDbSymbolTable
 70
     0
  0
ENDTAB
  0
TABLE
  2
UCS
  5
7
330
0
100
AcDbSymbolTable
 70
     0
  0
ENDTAB
  0
TABLE
  2
APPID
  5
9
330
0
100
AcDbSymbolTable
 70
     4
  0
APPID
  5
11
330
9
100
AcDbSymbolTableRecord
100
AcDbRegAppTableRecord
  2
ACAD
 70
     0
  0
APPID
  5
FEF
330
9
100
AcDbSymbolTableRecord
100
AcDbRegAppTableRecord
  2
ACAD_MLEADERVER
 70
     0
  0
APPID
  5
1365
330
9
100
AcDbSymbolTableRecord
100
AcDbRegAppTableRecord
  2
ACAD_PSEXT
 70
     0
  0
APPID
  5
13F8
330
9
100
AcDbSymbolTableRecord
100
AcDbRegAppTableRecord
  2
ACAD_EXEMPT_FROM_CAD_STANDARDS
 70
     0
  0
ENDTAB
  0
TABLE
  2
DIMSTYLE
  5
A
330
0
100
AcDbSymbolTable
 70
     4
100
AcDbDimStyleTable
 71
     1
340
65
  0
DIMSTYLE
105
65
102
{ACAD_REACTORS
330
6B7
330
6C3
330
6F7
330
93B
330
4FE
330
516
330
536
330
5C9
330
5E1
330
5FB
330
60A
330
60B
330
C36
330
D00
330
D31
330
DEE
330
DED
330
E2E
330
E25
330
E0F
330
DF6
330
DF5
330
E1D
330
E1C
330
DFC
330
E12
330
E04
330
E11
330
DF2
330
DEA
102
}
330
A
100
AcDbSymbolTableRecord
100
AcDbDimStyleTableRecord
  2
DIM1
 70
     0
 40
10.0
 41
2.0
 42
1.0
 43
2.0
 44
0.0
 73
     0
 74
     0
 77
     1
140
2.5
141
0.0
147
1.0
172
     1
271
     0
279
     2
288
     1
340
4A
  0
DIMSTYLE
105
F93
330
A
100
AcDbSymbolTableRecord
100
AcDbDimStyleTableRecord
  2
STANDARD
 70
     0
271
     0
272
     0
275
     1
279
     2
340
4A
  0
DIMSTYLE
105
F94
330
A
100
AcDbSymbolTableRecord
100
AcDbDimStyleTableRecord
  2
P1
 70
     0
 40
10.0
 41
2.0
 42
1.0
 43
10.0
 44
1.0
 73
     0
 74
     0
 77
     2
140
3.0
141
0.0
147
1.0
172
     1
173
     1
271
     0
272
     0
279
     2
288
     1
340
4A
341
21
343
21
344
21
  0
ENDTAB
  0
TABLE
  2
BLOCK_RECORD
  5
1
330
0
100
AcDbSymbolTable
 70
    49
  0
BLOCK_RECORD
  5
18
102
{ACAD_XDICTIONARY
360
FF4
102
}
330
1
100
AcDbSymbolTableRecord
100
AcDbBlockTableRecord
  2
*MODEL_SPACE
340
B01
  0
BLOCK_RECORD
  5
15
330
1
100
AcDbSymbolTableRecord
100
AcDbBlockTableRecord
  2
*PAPER_SPACE
340
B02
  0
BLOCK_RECORD
  5
1C
330
1
100
AcDbSymbolTableRecord
100
AcDbBlockTableRecord
  2
MASTERS
340
0
102
{BLKREFS
331
4DB
102
}
  0
BLOCK_RECORD
  5
1D
330
1
100
AcDbSymbolTableRecord
100
AcDbBlockTableRecord
  2
SYASEN
340
0
  0
BLOCK_RECORD
  5
1E
330
1
100
AcDbSymbolTableRecord
100
AcDbBlockTableRecord
  2
YA2
340
0
  0
BLOCK_RECORD
  5
1F
330
1
100
AcDbSymbolTableRecord
100
AcDbBlockTableRecord
  2
YA_N
340
0
102
{BLKREFS
331
74
102
}
  0
BLOCK_RECORD
  5
20
330
1
100
AcDbSymbolTableRecord
100
AcDbBlockTableRecord
  2
DOT
340
0
  0
BLOCK_RECORD
  5
21
330
1
100
AcDbSymbolTableRecord
100
AcDbBlockTableRecord
  2
ARROW
340
0
  0
BLOCK_RECORD
  5
22
330
1
100
AcDbSymbolTableRecord
100
AcDbBlockTableRecord
  2
YA3
340
0
  0
BLOCK_RECORD
  5
23
330
1
100
AcDbSymbolTableRecord
100
AcDbBlockTableRecord
  2
BORDER
340
0
  0
BLOCK_RECORD
  5
597
330
1
100
AcDbSymbolTableRecord
100
AcDbBlockTableRecord
  2
*D8
340
0
  0
BLOCK_RECORD
  5
5A3
330
1
100
AcDbSymbolTableRecord
100
AcDbBlockTableRecord
  2
*D9
340
0
  0
BLOCK_RECORD
  5
5AF
330
1
100
AcDbSymbolTableRecord
100
AcDbBlockTableRecord
  2
*D10
340
0
  0
BLOCK_RECORD
  5
5BD
330
1
100
AcDbSymbolTableRecord
100
AcDbBlockTableRecord
  2
*D11
340
0
  0
BLOCK_RECORD
  5
5D5
330
1
100
AcDbSymbolTableRecord
100
AcDbBlockTableRecord
  2
*D12
340
0
  0
BLOCK_RECORD
  5
5ED
330
1
100
AcDbSymbolTableRecord
100
AcDbBlockTableRecord
  2
*D13
340
0
  0
BLOCK_RECORD
  5
5FC
330
1
100
AcDbSymbolTableRecord
100
AcDbBlockTableRecord
  2
*D14
340
0
  0
BLOCK_RECORD
  5
60C
330
1
100
AcDbSymbolTableRecord
100
AcDbBlockTableRecord
  2
*D15
340
0
  0
BLOCK_RECORD
  5
6AB
330
1
100
AcDbSymbolTableRecord
100
AcDbBlockTableRecord
  2
*D16
340
0
  0
BLOCK_RECORD
  5
6B8
330
1
100
AcDbSymbolTableRecord
100
AcDbBlockTableRecord
  2
*D17
340
0
  0
BLOCK_RECORD
  5
6EB
330
1
100
AcDbSymbolTableRecord
100
AcDbBlockTableRecord
  2
*D18
340
0
  0
BLOCK_RECORD
  5
92F
330
1
100
AcDbSymbolTableRecord
100
AcDbBlockTableRecord
  2
*D19
340
0
  0
BLOCK_RECORD
  5
948
330
1
100
AcDbSymbolTableRecord
100
AcDbBlockTableRecord
  2
A$C72BA1FAD
340
0
102
{BLKREFS
331
95B
102
}
  0
BLOCK_RECORD
  5
95A
330
1
100
AcDbSymbolTableRecord
100
AcDbBlockTableRecord
  2
A$C25B74F18
340
0
102
{BLKREFS
331
961
102
}
  0
BLOCK_RECORD
  5
960
330
1
100
AcDbSymbolTableRecord
100
AcDbBlockTableRecord
  2
A$C105B5721
340
0
102
{BLKREFS
331
965
102
}
  0
BLOCK_RECORD
  5
964
330
1
100
AcDbSymbolTableRecord
100
AcDbBlockTableRecord
  2
A$C0E9223DF
340
0
102
{BLKREFS
331
969
102
}
  0
BLOCK_RECORD
  5
968
330
1
100
AcDbSymbolTableRecord
100
AcDbBlockTableRecord
  2
A$C38392A7F
340
0
102
{BLKREFS
331
96D
102
}
  0
BLOCK_RECORD
  5
96C
330
1
100
AcDbSymbolTableRecord
100
AcDbBlockTableRecord
  2
A$C67384017
340
0
102
{BLKREFS
331
970
102
}
  0
BLOCK_RECORD
  5
C37
330
1
100
AcDbSymbolTableRecord
100
AcDbBlockTableRecord
  2
*D26
340
0
  0
BLOCK_RECORD
  5
D01
330
1
100
AcDbSymbolTableRecord
100
AcDbBlockTableRecord
  2
*D27
340
0
  0
BLOCK_RECORD
  5
D32
330
1
100
AcDbSymbolTableRecord
100
AcDbBlockTableRecord
  2
*D28
340
0
  0
BLOCK_RECORD
  5
E2F
330
1
100
AcDbSymbolTableRecord
100
AcDbBlockTableRecord
  2
*D29
340
0
  0
BLOCK_RECORD
  5
E3B
330
1
100
AcDbSymbolTableRecord
100
AcDbBlockTableRecord
  2
*D30
340
0
  0
BLOCK_RECORD
  5
E47
330
1
100
AcDbSymbolTableRecord
100
AcDbBlockTableRecord
  2
*D31
340
0
  0
BLOCK_RECORD
  5
E53
330
1
100
AcDbSymbolTableRecord
100
AcDbBlockTableRecord
  2
*D32
340
0
  0
BLOCK_RECORD
  5
E5F
330
1
100
AcDbSymbolTableRecord
100
AcDbBlockTableRecord
  2
*D33
340
0
  0
BLOCK_RECORD
  5
E6B
330
1
100
AcDbSymbolTableRecord
100
AcDbBlockTableRecord
  2
*D34
340
0
  0
BLOCK_RECORD
  5
E79
330
1
100
AcDbSymbolTableRecord
100
AcDbBlockTableRecord
  2
*D35
340
0
  0
BLOCK_RECORD
  5
E85
330
1
100
AcDbSymbolTableRecord
100
AcDbBlockTableRecord
  2
*D36
340
0
  0
BLOCK_RECORD
  5
E91
330
1
100
AcDbSymbolTableRecord
100
AcDbBlockTableRecord
  2
*D37
340
0
  0
BLOCK_RECORD
  5
E9D
330
1
100
AcDbSymbolTableRecord
100
AcDbBlockTableRecord
  2
*D38
340
0
  0
BLOCK_RECORD
  5
EA8
330
1
100
AcDbSymbolTableRecord
100
AcDbBlockTableRecord
  2
*D39
340
0
  0
BLOCK_RECORD
  5
EB4
330
1
100
AcDbSymbolTableRecord
100
AcDbBlockTableRecord
  2
*D40
340
0
  0
BLOCK_RECORD
  5
EC0
330
1
100
AcDbSymbolTableRecord
100
AcDbBlockTableRecord
  2
*D41
340
0
  0
BLOCK_RECORD
  5
ECB
330
1
100
AcDbSymbolTableRecord
100
AcDbBlockTableRecord
  2
*D42
340
0
  0
BLOCK_RECORD
  5
ED7
330
1
100
AcDbSymbolTableRecord
100
AcDbBlockTableRecord
  2
*D43
340
0
  0
BLOCK_RECORD
  5
F6B
330
1
100
AcDbSymbolTableRecord
100
AcDbBlockTableRecord
  2
A$C0FE41E00
340
0
102
{BLKREFS
331
F79
102
}
  0
BLOCK_RECORD
  5
F78
330
1
100
AcDbSymbolTableRecord
100
AcDbBlockTableRecord
  2
A$C371162DB
340
0
102
{BLKREFS
331
F7D
102
}
  0
BLOCK_RECORD
  5
F7C
330
1
100
AcDbSymbolTableRecord
100
AcDbBlockTableRecord
  2
A$C57A3340D
340
0
102
{BLKREFS
331
F87
102
}
  0
ENDTAB
  0
ENDSEC
  0
SECTION
  2
BLOCKS
  0
BLOCK
  5
71
330
18
100
AcDbEntity
  8
0
100
AcDbBlockBegin
  2
*MODEL_SPACE
 70
     0
 10
0.0
 20
0.0
 30
0.0
  3
*MODEL_SPACE
  1

  0
ENDBLK
  5
72
330
18
100
AcDbEntity
  8
0
100
AcDbBlockEnd
  0
BLOCK
  5
6F
330
15
100
AcDbEntity
 67
     1
  8
0
100
AcDbBlockBegin
  2
*PAPER_SPACE
 70
     0
 10
0.0
 20
0.0
 30
0.0
  3
*PAPER_SPACE
  1

  0
ENDBLK
  5
70
330
15
100
AcDbEntity
 67
     1
  8
0
100
AcDbBlockEnd
  0
BLOCK
  5
73
330
1C
100
AcDbEntity
  8
0
100
AcDbBlockBegin
  2
MASTERS
 70
     0
 10
0.0
 20
0.0
 30
0.0
  3
MASTERS
  1

  0
INSERT
  5
74
330
1C
100
AcDbEntity
  8
0
100
AcDbBlockReference
  2
YA_N
 10
6.0
 20
5.0
 30
0.0
  0
ENDBLK
  5
75
330
1C
100
AcDbEntity
  8
0
100
AcDbBlockEnd
  0
BLOCK
  5
76
330
1D
100
AcDbEntity
  8
0
100
AcDbBlockBegin
  2
SYASEN
 70
     0
 10
0.0
 20
0.0
 30
0.0
  3
SYASEN
  1

  0
LINE
  5
77
330
1D
100
AcDbEntity
  8
0
100
AcDbLine
 10
0.0
 20
0.0
 30
0.0
 11
-1.0
 21
0.0
 31
0.0
  0
LINE
  5
78
330
1D
100
AcDbEntity
  8
0
100
AcDbLine
 10
0.5
 20
0.5
 30
0.0
 11
-0.5
 21
-0.5
 31
0.0
  0
ENDBLK
  5
79
330
1D
100
AcDbEntity
  8
0
100
AcDbBlockEnd
  0
BLOCK
  5
7A
330
1E
100
AcDbEntity
  8
0
100
AcDbBlockBegin
  2
YA2
 70
     0
 10
0.0
 20
0.0
 30
0.0
  3
YA2
  1

  0
LINE
  5
7B
330
1E
100
AcDbEntity
  8
0
100
AcDbLine
 10
-1.0
 20
0.0
 30
0.0
 11
0.0
 21
0.0
 31
0.0
  0
ENDBLK
  5
7C
330
1E
100
AcDbEntity
  8
0
100
AcDbBlockEnd
  0
BLOCK
  5
7D
330
1F
100
AcDbEntity
  8
0
100
AcDbBlockBegin
  2
YA_N
 70
     0
 10
0.0
 20
0.0
 30
0.0
  3
YA_N
  1

  0
ENDBLK
  5
7E
330
1F
100
AcDbEntity
  8
0
100
AcDbBlockEnd
  0
BLOCK
  5
7F
330
20
100
AcDbEntity
  8
0
100
AcDbBlockBegin
  2
DOT
 70
     0
 10
0.0
 20
0.0
 30
0.0
  3
DOT
  1

  0
LWPOLYLINE
  5
80
330
20
100
AcDbEntity
  8
0
100
AcDbPolyline
 90
        2
 70
     1
 43
0.25
 10
-0.125
 20
0.0
 42
1.0
 10
0.125
 20
0.0
 42
1.0
  0
LINE
  5
84
330
20
100
AcDbEntity
  8
0
100
AcDbLine
 10
-1.0
 20
0.0
 30
0.0
 11
-0.25
 21
0.0
 31
0.0
  0
ENDBLK
  5
85
330
20
100
AcDbEntity
  8
0
100
AcDbBlockEnd
  0
BLOCK
  5
86
330
21
100
AcDbEntity
  8
0
100
AcDbBlockBegin
  2
ARROW
 70
     0
 10
0.0
 20
0.0
 30
0.0
  3
ARROW
  1

  0
LINE
  5
87
330
21
100
AcDbEntity
  8
0
100
AcDbLine
 10
-0.9999999999999991
 20
0.1666666667000003
 30
0.0
 11
0.0
 21
0.0
 31
0.0
  0
LINE
  5
88
330
21
100
AcDbEntity
  8
0
100
AcDbLine
 10
-0.9999999999999991
 20
0.0
 30
0.0
 11
0.0
 21
0.0
 31
0.0
  0
LINE
  5
89
330
21
100
AcDbEntity
  8
0
100
AcDbLine
 10
-0.9999999999999991
 20
-0.1666666667000003
 30
0.0
 11
0.0
 21
0.0
 31
0.0
  0
ENDBLK
  5
8A
330
21
100
AcDbEntity
  8
0
100
AcDbBlockEnd
  0
BLOCK
  5
8B
330
22
100
AcDbEntity
  8
0
100
AcDbBlockBegin
  2
YA3
 70
     0
 10
0.0
 20
0.0
 30
0.0
  3
YA3
  1

  0
SOLID
  5
8C
330
22
100
AcDbEntity
  8
0
100
AcDbTrace
 10
1.0
 20
-0.1666666666666665
 30
0.0
 11
1.0
 21
0.166666666666667
 31
0.0
 12
0.0
 22
0.0
 32
0.0
 13
0.0
 23
0.0
 33
0.0
  0
ENDBLK
  5
8D
330
22
100
AcDbEntity
  8
0
100
AcDbBlockEnd
  0
BLOCK
  5
8E
330
23
100
AcDbEntity
  8
0
100
AcDbBlockBegin
  2
BORDER
 70
     0
 10
0.0
 20
0.0
 30
0.0
  3
BORDER
  1

  0
LINE
  5
8F
330
23
100
AcDbEntity
  8
0
100
AcDbLine
 10
0.0
 20
0.0
 30
0.0
 11
1.00000000000004
 21
0.0
 31
0.0
  0
LINE
  5
90
330
23
100
AcDbEntity
  8
0
100
AcDbLine
 10
1.00000000000004
 20
0.0
 30
0.0
 11
1.00000000000004
 21
1.00000000000004
 31
0.0
  0
LINE
  5
91
330
23
100
AcDbEntity
  8
0
100
AcDbLine
 10
1.00000000000004
 20
1.00000000000004
 30
0.0
 11
0.0
 21
1.00000000000004
 31
0.0
  0
LINE
  5
92
330
23
100
AcDbEntity
  8
0
100
AcDbLine
 10
0.0
 20
1.00000000000004
 30
0.0
 11
0.0
 21
0.0
 31
0.0
  0
ENDBLK
  5
93
330
23
100
AcDbEntity
  8
0
100
AcDbBlockEnd
  0
BLOCK
  5
A5C
330
597
100
AcDbEntity
  8
0
100
AcDbBlockBegin
  2
*D8
 70
     1
 10
0.0
 20
0.0
 30
0.0
  3
*D8
  1

  0
LINE
  5
12E8
330
597
100
AcDbEntity
  8
SUNPOU
 62
     0
370
    -2
100
AcDbLine
 10
567.5737050667783
 20
597.1766590524357
 30
0.0
 11
567.5737050667783
 21
461.8386872283426
 31
0.0
  0
LINE
  5
12E9
330
597
100
AcDbEntity
  8
SUNPOU
 62
     0
370
    -2
100
AcDbLine
 10
1167.573705066778
 20
597.1766590524357
 30
0.0
 11
1167.573705066778
 21
461.8386872283426
 31
0.0
  0
LINE
  5
12EA
330
597
100
AcDbEntity
  8
SUNPOU
 62
     0
370
    -2
100
AcDbLine
 10
587.5737050667782
 20
461.8386872283426
 30
0.0
 11
1147.573705066778
 21
461.8386872283426
 31
0.0
  0
SOLID
  5
12EB
330
597
100
AcDbEntity
  8
SUNPOU
 62
     0
100
AcDbTrace
 10
587.5737050667782
 20
465.172020561676
 30
0.0
 11
587.5737050667782
 21
458.5053538950093
 31
0.0
 12
567.5737050667783
 22
461.8386872283426
 32
0.0
 13
567.5737050667783
 23
461.8386872283426
 33
0.0
  0
SOLID
  5
12EC
330
597
100
AcDbEntity
  8
SUNPOU
 62
     0
100
AcDbTrace
 10
1147.573705066778
 20
465.172020561676
 30
0.0
 11
1147.573705066778
 21
458.5053538950093
 31
0.0
 12
1167.573705066778
 22
461.8386872283426
 32
0.0
 13
1167.573705066778
 23
461.8386872283426
 33
0.0
  0
MTEXT
  5
12ED
330
597
100
AcDbEntity
  8
SUNPOU
 62
     0
100
AcDbMText
 10
867.5737050667782
 20
484.3386872283426
 30
0.0
 40
25.0
 41
0.0
 71
     5
 72
     1
  1
\A1;600
  7
BIGFONT
 73
     1
 44
1.0
  0
POINT
  5
12EE
330
597
100
AcDbEntity
  8
DEFPOINTS
 62
     0
100
AcDbPoint
 10
567.5737050667783
 20
607.1766590524357
 30
0.0
  0
POINT
  5
12EF
330
597
100
AcDbEntity
  8
DEFPOINTS
 62
     0
100
AcDbPoint
 10
1167.573705066778
 20
607.1766590524357
 30
0.0
  0
POINT
  5
12F0
330
597
100
AcDbEntity
  8
DEFPOINTS
 62
     0
100
AcDbPoint
 10
1167.573705066778
 20
461.8386872283426
 30
0.0
  0
ENDBLK
  5
A66
330
597
100
AcDbEntity
  8
0
100
AcDbBlockEnd
  0
BLOCK
  5
AAC
330
5A3
100
AcDbEntity
  8
0
100
AcDbBlockBegin
  2
*D9
 70
     1
 10
0.0
 20
0.0
 30
0.0
  3
*D9
  1

  0
LINE
  5
D73
330
5A3
100
AcDbEntity
  8
SUNPOU
 62
     0
370
    -2
100
AcDbLine
 10
717.5737050667821
 20
1317.176659052435
 30
0.0
 11
717.5737050667821
 21
1357.176659052436
 31
0.0
  0
LINE
  5
D74
330
5A3
100
AcDbEntity
  8
SUNPOU
 62
     0
370
    -2
100
AcDbLine
 10
1017.573705066782
 20
1317.176659052436
 30
0.0
 11
1017.573705066782
 21
1357.176659052436
 31
0.0
  0
LINE
  5
D75
330
5A3
100
AcDbEntity
  8
SUNPOU
 62
     0
370
    -2
100
AcDbLine
 10
737.5737050667821
 20
1357.176659052436
 30
0.0
 11
997.5737050667822
 21
1357.176659052436
 31
0.0
  0
SOLID
  5
D76
330
5A3
100
AcDbEntity
  8
SUNPOU
 62
     0
100
AcDbTrace
 10
737.5737050667821
 20
1360.509992385769
 30
0.0
 11
737.5737050667821
 21
1353.843325719102
 31
0.0
 12
717.5737050667821
 22
1357.176659052436
 32
0.0
 13
717.5737050667821
 23
1357.176659052436
 33
0.0
  0
SOLID
  5
D77
330
5A3
100
AcDbEntity
  8
SUNPOU
 62
     0
100
AcDbTrace
 10
997.5737050667822
 20
1360.509992385769
 30
0.0
 11
997.5737050667822
 21
1353.843325719102
 31
0.0
 12
1017.573705066782
 22
1357.176659052436
 32
0.0
 13
1017.573705066782
 23
1357.176659052436
 33
0.0
  0
MTEXT
  5
D78
330
5A3
100
AcDbEntity
  8
SUNPOU
 62
     0
100
AcDbMText
 10
867.5737050667821
 20
1379.676659052436
 30
0.0
 40
25.0
 41
0.0
 71
     5
 72
     1
  1
\A1;300
  7
BIGFONT
 73
     1
 44
1.0
  0
POINT
  5
D79
330
5A3
100
AcDbEntity
  8
DEFPOINTS
 62
     0
100
AcDbPoint
 10
717.5737050667821
 20
1307.176659052435
 30
0.0
  0
POINT
  5
D7A
330
5A3
100
AcDbEntity
  8
DEFPOINTS
 62
     0
100
AcDbPoint
 10
1017.573705066782
 20
1307.176659052436
 30
0.0
  0
POINT
  5
D7B
330
5A3
100
AcDbEntity
  8
DEFPOINTS
 62
     0
100
AcDbPoint
 10
1017.573705066782
 20
1357.176659052436
 30
0.0
  0
ENDBLK
  5
AB6
330
5A3
100
AcDbEntity
  8
0
100
AcDbBlockEnd
  0
BLOCK
  5
A72
330
5AF
100
AcDbEntity
  8
0
100
AcDbBlockBegin
  2
*D10
 70
     1
 10
0.0
 20
0.0
 30
0.0
  3
*D10
  1

  0
LINE
  5
D6A
330
5AF
100
AcDbEntity
  8
SUNPOU
 62
     0
370
    -2
100
AcDbLine
 10
737.5737050667821
 20
967.1766590524356
 30
0.0
 11
737.5737050667821
 21
1057.176659052436
 31
0.0
  0
LINE
  5
D6B
330
5AF
100
AcDbEntity
  8
SUNPOU
 62
     0
370
    -2
100
AcDbLine
 10
997.5737050667822
 20
967.1766590524356
 30
0.0
 11
997.5737050667822
 21
1057.176659052436
 31
0.0
  0
LINE
  5
D6C
330
5AF
100
AcDbEntity
  8
SUNPOU
 62
     0
370
    -2
100
AcDbLine
 10
757.5737050667822
 20
1057.176659052436
 30
0.0
 11
977.5737050667821
 21
1057.176659052436
 31
0.0
  0
SOLID
  5
D6D
330
5AF
100
AcDbEntity
  8
SUNPOU
 62
     0
100
AcDbTrace
 10
757.5737050667822
 20
1060.509992385769
 30
0.0
 11
757.5737050667822
 21
1053.843325719102
 31
0.0
 12
737.5737050667821
 22
1057.176659052436
 32
0.0
 13
737.5737050667821
 23
1057.176659052436
 33
0.0
  0
SOLID
  5
D6E
330
5AF
100
AcDbEntity
  8
SUNPOU
 62
     0
100
AcDbTrace
 10
977.5737050667821
 20
1060.509992385769
 30
0.0
 11
977.5737050667821
 21
1053.843325719102
 31
0.0
 12
997.5737050667822
 22
1057.176659052436
 32
0.0
 13
997.5737050667822
 23
1057.176659052436
 33
0.0
  0
MTEXT
  5
D6F
330
5AF
100
AcDbEntity
  8
SUNPOU
 62
     0
100
AcDbMText
 10
867.5737050667821
 20
1079.676659052436
 30
0.0
 40
25.0
 41
0.0
 71
     5
 72
     1
  1
\A1;260
  7
BIGFONT
 73
     1
 44
1.0
  0
POINT
  5
D70
330
5AF
100
AcDbEntity
  8
DEFPOINTS
 62
     0
100
AcDbPoint
 10
737.5737050667821
 20
957.1766590524356
 30
0.0
  0
POINT
  5
D71
330
5AF
100
AcDbEntity
  8
DEFPOINTS
 62
     0
100
AcDbPoint
 10
997.5737050667822
 20
957.1766590524356
 30
0.0
  0
POINT
  5
D72
330
5AF
100
AcDbEntity
  8
DEFPOINTS
 62
     0
100
AcDbPoint
 10
997.5737050667822
 20
1057.176659052436
 30
0.0
  0
ENDBLK
  5
A7C
330
5AF
100
AcDbEntity
  8
0
100
AcDbBlockEnd
  0
BLOCK
  5
A93
330
5BD
100
AcDbEntity
  8
0
100
AcDbBlockBegin
  2
*D11
 70
     1
 10
0.0
 20
0.0
 30
0.0
  3
*D11
  1

  0
LINE
  5
D97
330
5BD
100
AcDbEntity
  8
SUNPOU
 62
     0
370
    -2
100
AcDbLine
 10
909.8222874343946
 20
957.1766590524358
 30
0.0
 11
919.8222874343946
 21
957.1766590524358
 31
0.0
  0
LINE
  5
D98
330
5BD
100
AcDbEntity
  8
SUNPOU
 62
     0
370
    -2
100
AcDbLine
 10
909.8222874343946
 20
897.1766590524355
 30
0.0
 11
919.8222874343946
 21
897.1766590524355
 31
0.0
  0
LINE
  5
D99
330
5BD
100
AcDbEntity
  8
SUNPOU
 62
     0
370
    -2
100
AcDbLine
 10
919.8222874343946
 20
937.1766590524357
 30
0.0
 11
919.8222874343946
 21
917.1766590524354
 31
0.0
  0
MTEXT
  5
D9A
330
5BD
100
AcDbEntity
  8
SUNPOU
 62
     0
100
AcDbMText
 10
898.3731438235826
 20
927.1766590524359
 30
0.0
 40
25.0
 41
0.0
 71
     5
 72
     1
  1
\A1;60
  7
BIGFONT
 11
0.0000000000000001
 21
1.0
 31
0.0
 73
     1
 44
1.0
  0
SOLID
  5
D9B
330
5BD
100
AcDbEntity
  8
SUNPOU
 62
     0
100
AcDbTrace
 10
916.4889541010612
 20
937.1766590524357
 30
0.0
 11
923.1556207677281
 21
937.1766590524357
 31
0.0
 12
919.8222874343946
 22
957.1766590524358
 32
0.0
 13
919.8222874343946
 23
957.1766590524358
 33
0.0
  0
SOLID
  5
D9C
330
5BD
100
AcDbEntity
  8
SUNPOU
 62
     0
100
AcDbTrace
 10
916.4889541010612
 20
917.1766590524354
 30
0.0
 11
923.1556207677281
 21
917.1766590524354
 31
0.0
 12
919.8222874343946
 22
897.1766590524355
 32
0.0
 13
919.8222874343946
 23
897.1766590524355
 33
0.0
  0
POINT
  5
D9D
330
5BD
100
AcDbEntity
  8
DEFPOINTS
 62
     0
100
AcDbPoint
 10
919.8222874343946
 20
957.1766590524358
 30
0.0
  0
POINT
  5
D9E
330
5BD
100
AcDbEntity
  8
DEFPOINTS
 62
     0
100
AcDbPoint
 10
919.8222874343946
 20
897.1766590524355
 30
0.0
  0
POINT
  5
D9F
330
5BD
100
AcDbEntity
  8
DEFPOINTS
 62
     0
100
AcDbPoint
 10
919.8222874343946
 20
897.1766590524355
 30
0.0
  0
ENDBLK
  5
A9D
330
5BD
100
AcDbEntity
  8
0
100
AcDbBlockEnd
  0
BLOCK
  5
A7D
330
5D5
100
AcDbEntity
  8
0
100
AcDbBlockBegin
  2
*D12
 70
     1
 10
0.0
 20
0.0
 30
0.0
  3
*D12
  1

  0
LINE
  5
D8E
330
5D5
100
AcDbEntity
  8
SUNPOU
 62
     0
370
    -2
100
AcDbLine
 10
909.8222874343946
 20
957.1766590524356
 30
0.0
 11
919.8222874343946
 21
957.1766590524356
 31
0.0
  0
LINE
  5
D8F
330
5D5
100
AcDbEntity
  8
SUNPOU
 62
     0
370
    -2
100
AcDbLine
 10
909.8222874343946
 20
1257.176659052435
 30
0.0
 11
919.8222874343946
 21
1257.176659052435
 31
0.0
  0
LINE
  5
D90
330
5D5
100
AcDbEntity
  8
SUNPOU
 62
     0
370
    -2
100
AcDbLine
 10
919.8222874343946
 20
977.1766590524356
 30
0.0
 11
919.8222874343946
 21
1237.176659052435
 31
0.0
  0
MTEXT
  5
D91
330
5D5
100
AcDbEntity
  8
SUNPOU
 62
     0
100
AcDbMText
 10
897.3222874343946
 20
1132.83413857514
 30
0.0
 40
25.0
 41
0.0
 71
     5
 72
     1
  1
\A1;300
  7
BIGFONT
 11
0.0000000000000001
 21
1.0
 31
0.0
 73
     1
 44
1.0
  0
SOLID
  5
D92
330
5D5
100
AcDbEntity
  8
SUNPOU
 62
     0
100
AcDbTrace
 10
916.4889541010612
 20
977.1766590524356
 30
0.0
 11
923.1556207677281
 21
977.1766590524356
 31
0.0
 12
919.8222874343946
 22
957.1766590524356
 32
0.0
 13
919.8222874343946
 23
957.1766590524356
 33
0.0
  0
SOLID
  5
D93
330
5D5
100
AcDbEntity
  8
SUNPOU
 62
     0
100
AcDbTrace
 10
916.4889541010612
 20
1237.176659052435
 30
0.0
 11
923.1556207677281
 21
1237.176659052435
 31
0.0
 12
919.8222874343946
 22
1257.176659052435
 32
0.0
 13
919.8222874343946
 23
1257.176659052435
 33
0.0
  0
POINT
  5
D94
330
5D5
100
AcDbEntity
  8
DEFPOINTS
 62
     0
100
AcDbPoint
 10
919.8222874343946
 20
957.1766590524356
 30
0.0
  0
POINT
  5
D95
330
5D5
100
AcDbEntity
  8
DEFPOINTS
 62
     0
100
AcDbPoint
 10
919.8222874343946
 20
1257.176659052435
 30
0.0
  0
POINT
  5
D96
330
5D5
100
AcDbEntity
  8
DEFPOINTS
 62
     0
100
AcDbPoint
 10
919.8222874343946
 20
1257.176659052435
 30
0.0
  0
ENDBLK
  5
A87
330
5D5
100
AcDbEntity
  8
0
100
AcDbBlockEnd
  0
BLOCK
  5
A9E
330
5ED
100
AcDbEntity
  8
0
100
AcDbBlockBegin
  2
*D13
 70
     1
 10
0.0
 20
0.0
 30
0.0
  3
*D13
  1

  0
LINE
  5
DA0
330
5ED
100
AcDbEntity
  8
SUNPOU
 62
     0
370
    -2
100
AcDbLine
 10
909.8222874343946
 20
1257.176659052435
 30
0.0
 11
919.8222874343946
 21
1257.176659052435
 31
0.0
  0
LINE
  5
DA1
330
5ED
100
AcDbEntity
  8
SUNPOU
 62
     0
370
    -2
100
AcDbLine
 10
909.8222874343946
 20
1307.176659052436
 30
0.0
 11
919.8222874343946
 21
1307.176659052436
 31
0.0
  0
LINE
  5
DA2
330
5ED
100
AcDbEntity
  8
SUNPOU
 62
     0
370
    -2
100
AcDbLine
 10
919.8222874343946
 20
1237.176659052435
 30
0.0
 11
919.8222874343946
 21
1217.176659052435
 31
0.0
  0
LINE
  5
DA3
330
5ED
100
AcDbEntity
  8
SUNPOU
 62
     0
370
    -2
100
AcDbLine
 10
919.8222874343946
 20
1327.176659052436
 30
0.0
 11
919.8222874343946
 21
1347.176659052436
 31
0.0
  0
MTEXT
  5
DA4
330
5ED
100
AcDbEntity
  8
SUNPOU
 62
     0
100
AcDbMText
 10
896.8369551874511
 20
1282.176659052436
 30
0.0
 40
25.0
 41
0.0
 71
     5
 72
     1
  1
\A1;50
  7
BIGFONT
 11
0.0000000000000001
 21
1.0
 31
0.0
 73
     1
 44
1.0
  0
LINE
  5
DA5
330
5ED
100
AcDbEntity
  8
SUNPOU
 62
     0
370
    -2
100
AcDbLine
 10
919.8222874343946
 20
1257.176659052435
 30
0.0
 11
919.8222874343946
 21
1307.176659052436
 31
0.0
  0
SOLID
  5
DA6
330
5ED
100
AcDbEntity
  8
SUNPOU
 62
     0
100
AcDbTrace
 10
916.4889541010611
 20
1237.176659052435
 30
0.0
 11
923.1556207677279
 21
1237.176659052435
 31
0.0
 12
919.8222874343946
 22
1257.176659052435
 32
0.0
 13
919.8222874343946
 23
1257.176659052435
 33
0.0
  0
SOLID
  5
DA7
330
5ED
100
AcDbEntity
  8
SUNPOU
 62
     0
100
AcDbTrace
 10
916.4889541010612
 20
1327.176659052436
 30
0.0
 11
923.1556207677281
 21
1327.176659052436
 31
0.0
 12
919.8222874343946
 22
1307.176659052436
 32
0.0
 13
919.8222874343946
 23
1307.176659052436
 33
0.0
  0
POINT
  5
DA8
330
5ED
100
AcDbEntity
  8
DEFPOINTS
 62
     0
100
AcDbPoint
 10
919.8222874343946
 20
1257.176659052435
 30
0.0
  0
POINT
  5
DA9
330
5ED
100
AcDbEntity
  8
DEFPOINTS
 62
     0
100
AcDbPoint
 10
919.8222874343946
 20
1307.176659052436
 30
0.0
  0
POINT
  5
DAA
330
5ED
100
AcDbEntity
  8
DEFPOINTS
 62
     0
100
AcDbPoint
 10
919.8222874343946
 20
1307.176659052436
 30
0.0
  0
ENDBLK
  5
AAB
330
5ED
100
AcDbEntity
  8
0
100
AcDbBlockEnd
  0
BLOCK
  5
A88
330
5FC
100
AcDbEntity
  8
0
100
AcDbBlockBegin
  2
*D14
 70
     1
 10
0.0
 20
0.0
 30
0.0
  3
*D14
  1

  0
LINE
  5
DC4
330
5FC
100
AcDbEntity
  8
SUNPOU
 62
     0
370
    -2
100
AcDbLine
 10
997.5737050667822
 20
967.1766590524356
 30
0.0
 11
997.5737050667822
 21
1057.176659052436
 31
0.0
  0
LINE
  5
DC5
330
5FC
100
AcDbEntity
  8
SUNPOU
 62
     0
370
    -2
100
AcDbLine
 10
1057.573705066782
 20
967.1766590524356
 30
0.0
 11
1057.573705066782
 21
1057.176659052436
 31
0.0
  0
LINE
  5
DC6
330
5FC
100
AcDbEntity
  8
SUNPOU
 62
     0
370
    -2
100
AcDbLine
 10
1017.573705066782
 20
1057.176659052436
 30
0.0
 11
1037.573705066782
 21
1057.176659052436
 31
0.0
  0
MTEXT
  5
DC7
330
5FC
100
AcDbEntity
  8
SUNPOU
 62
     0
100
AcDbMText
 10
1027.573705066782
 20
1084.676659052435
 30
0.0
 40
25.0
 41
0.0
 71
     5
 72
     1
  1
\A1;60
  7
BIGFONT
 73
     1
 44
1.0
  0
SOLID
  5
DC8
330
5FC
100
AcDbEntity
  8
SUNPOU
 62
     0
100
AcDbTrace
 10
1017.573705066782
 20
1060.509992385769
 30
0.0
 11
1017.573705066782
 21
1053.843325719102
 31
0.0
 12
997.5737050667822
 22
1057.176659052436
 32
0.0
 13
997.5737050667822
 23
1057.176659052436
 33
0.0
  0
SOLID
  5
DC9
330
5FC
100
AcDbEntity
  8
SUNPOU
 62
     0
100
AcDbTrace
 10
1037.573705066782
 20
1060.509992385769
 30
0.0
 11
1037.573705066782
 21
1053.843325719102
 31
0.0
 12
1057.573705066782
 22
1057.176659052436
 32
0.0
 13
1057.573705066782
 23
1057.176659052436
 33
0.0
  0
POINT
  5
DCA
330
5FC
100
AcDbEntity
  8
DEFPOINTS
 62
     0
100
AcDbPoint
 10
997.5737050667822
 20
957.1766590524356
 30
0.0
  0
POINT
  5
DCB
330
5FC
100
AcDbEntity
  8
DEFPOINTS
 62
     0
100
AcDbPoint
 10
1057.573705066782
 20
957.1766590524356
 30
0.0
  0
POINT
  5
DCC
330
5FC
100
AcDbEntity
  8
DEFPOINTS
 62
     0
100
AcDbPoint
 10
1057.573705066782
 20
1057.176659052436
 30
0.0
  0
ENDBLK
  5
A92
330
5FC
100
AcDbEntity
  8
0
100
AcDbBlockEnd
  0
BLOCK
  5
A67
330
60C
100
AcDbEntity
  8
0
100
AcDbBlockBegin
  2
*D15
 70
     1
 10
0.0
 20
0.0
 30
0.0
  3
*D15
  1

  0
LINE
  5
D85
330
60C
100
AcDbEntity
  8
SUNPOU
 62
     0
370
    -2
100
AcDbLine
 10
737.5737050667821
 20
967.1766590524356
 30
0.0
 11
737.5737050667821
 21
1057.176659052436
 31
0.0
  0
LINE
  5
D86
330
60C
100
AcDbEntity
  8
SUNPOU
 62
     0
370
    -2
100
AcDbLine
 10
677.5737050667821
 20
967.1766590524356
 30
0.0
 11
677.5737050667821
 21
1057.176659052436
 31
0.0
  0
LINE
  5
D87
330
60C
100
AcDbEntity
  8
SUNPOU
 62
     0
370
    -2
100
AcDbLine
 10
717.5737050667821
 20
1057.176659052436
 30
0.0
 11
697.5737050667821
 21
1057.176659052436
 31
0.0
  0
MTEXT
  5
D88
330
60C
100
AcDbEntity
  8
SUNPOU
 62
     0
100
AcDbMText
 10
707.5737050667822
 20
1084.676659052435
 30
0.0
 40
25.0
 41
0.0
 71
     5
 72
     1
  1
\A1;60
  7
BIGFONT
 73
     1
 44
1.0
  0
SOLID
  5
D89
330
60C
100
AcDbEntity
  8
SUNPOU
 62
     0
100
AcDbTrace
 10
717.5737050667821
 20
1060.509992385769
 30
0.0
 11
717.5737050667821
 21
1053.843325719102
 31
0.0
 12
737.5737050667821
 22
1057.176659052436
 32
0.0
 13
737.5737050667821
 23
1057.176659052436
 33
0.0
  0
SOLID
  5
D8A
330
60C
100
AcDbEntity
  8
SUNPOU
 62
     0
100
AcDbTrace
 10
697.5737050667821
 20
1060.509992385769
 30
0.0
 11
697.5737050667821
 21
1053.843325719102
 31
0.0
 12
677.5737050667821
 22
1057.176659052436
 32
0.0
 13
677.5737050667821
 23
1057.176659052436
 33
0.0
  0
POINT
  5
D8B
330
60C
100
AcDbEntity
  8
DEFPOINTS
 62
     0
100
AcDbPoint
 10
737.5737050667821
 20
957.1766590524356
 30
0.0
  0
POINT
  5
D8C
330
60C
100
AcDbEntity
  8
DEFPOINTS
 62
     0
100
AcDbPoint
 10
677.5737050667821
 20
957.1766590524356
 30
0.0
  0
POINT
  5
D8D
330
60C
100
AcDbEntity
  8
DEFPOINTS
 62
     0
100
AcDbPoint
 10
677.5737050667821
 20
1057.176659052436
 30
0.0
  0
ENDBLK
  5
A71
330
60C
100
AcDbEntity
  8
0
100
AcDbBlockEnd
  0
BLOCK
  5
A1B
330
6AB
100
AcDbEntity
  8
0
100
AcDbBlockBegin
  2
*D16
 70
     1
 10
0.0
 20
0.0
 30
0.0
  3
*D16
  1

  0
LINE
  5
DDF
330
6AB
100
AcDbEntity
  8
SUNPOU
 62
     0
370
    -2
100
AcDbLine
 10
1280.390935874166
 20
1307.176659052436
 30
0.0
 11
1438.778975055245
 21
1307.176659052436
 31
0.0
  0
LINE
  5
DE0
330
6AB
100
AcDbEntity
  8
SUNPOU
 62
     0
370
    -2
100
AcDbLine
 10
1283.420354499172
 20
1157.176659052436
 30
0.0
 11
1438.778975055245
 21
1157.176659052436
 31
0.0
  0
LINE
  5
DE1
330
6AB
100
AcDbEntity
  8
SUNPOU
 62
     0
370
    -2
100
AcDbLine
 10
1438.778975055245
 20
1287.176659052436
 30
0.0
 11
1438.778975055245
 21
1177.176659052435
 31
0.0
  0
SOLID
  5
DE2
330
6AB
100
AcDbEntity
  8
SUNPOU
 62
     0
100
AcDbTrace
 10
1435.445641721912
 20
1287.176659052436
 30
0.0
 11
1442.112308388579
 21
1287.176659052436
 31
0.0
 12
1438.778975055245
 22
1307.176659052436
 32
0.0
 13
1438.778975055245
 23
1307.176659052436
 33
0.0
  0
SOLID
  5
DE3
330
6AB
100
AcDbEntity
  8
SUNPOU
 62
     0
100
AcDbTrace
 10
1435.445641721912
 20
1177.176659052435
 30
0.0
 11
1442.112308388579
 21
1177.176659052435
 31
0.0
 12
1438.778975055245
 22
1157.176659052436
 32
0.0
 13
1438.778975055245
 23
1157.176659052436
 33
0.0
  0
MTEXT
  5
DE4
330
6AB
100
AcDbEntity
  8
SUNPOU
 62
     0
100
AcDbMText
 10
1416.278975055245
 20
1232.176659052436
 30
0.0
 40
25.0
 41
0.0
 71
     5
 72
     1
  1
\A1;150
  7
BIGFONT
 11
0.0000000000000001
 21
1.0
 31
0.0
 73
     1
 44
1.0
  0
POINT
  5
DE5
330
6AB
100
AcDbEntity
  8
DEFPOINTS
 62
     0
100
AcDbPoint
 10
1270.390935874166
 20
1307.176659052436
 30
0.0
  0
POINT
  5
DE6
330
6AB
100
AcDbEntity
  8
DEFPOINTS
 62
     0
100
AcDbPoint
 10
1273.420354499172
 20
1157.176659052436
 30
0.0
  0
POINT
  5
DE7
330
6AB
100
AcDbEntity
  8
DEFPOINTS
 62
     0
100
AcDbPoint
 10
1438.778975055245
 20
1157.176659052436
 30
0.0
  0
ENDBLK
  5
A25
330
6AB
100
AcDbEntity
  8
0
100
AcDbBlockEnd
  0
BLOCK
  5
A26
330
6B8
100
AcDbEntity
  8
0
100
AcDbBlockBegin
  2
*D17
 70
     1
 10
0.0
 20
0.0
 30
0.0
  3
*D17
  1

  0
LINE
  5
DBC
330
6B8
100
AcDbEntity
  8
SUNPOU
 62
     0
370
    -2
100
AcDbLine
 10
1283.420354499172
 20
897.1766590524355
 30
0.0
 11
1361.099664777209
 21
897.1766590524355
 31
0.0
  0
LINE
  5
DBD
330
6B8
100
AcDbEntity
  8
SUNPOU
 62
     0
370
    -2
100
AcDbLine
 10
1361.099664777209
 20
1137.176659052435
 30
0.0
 11
1361.099664777209
 21
917.1766590524354
 31
0.0
  0
SOLID
  5
DBE
330
6B8
100
AcDbEntity
  8
SUNPOU
 62
     0
100
AcDbTrace
 10
1357.766331443875
 20
1137.176659052435
 30
0.0
 11
1364.432998110542
 21
1137.176659052435
 31
0.0
 12
1361.099664777209
 22
1157.176659052436
 32
0.0
 13
1361.099664777209
 23
1157.176659052436
 33
0.0
  0
SOLID
  5
DBF
330
6B8
100
AcDbEntity
  8
SUNPOU
 62
     0
100
AcDbTrace
 10
1357.766331443875
 20
917.1766590524354
 30
0.0
 11
1364.432998110542
 21
917.1766590524354
 31
0.0
 12
1361.099664777209
 22
897.1766590524355
 32
0.0
 13
1361.099664777209
 23
897.1766590524355
 33
0.0
  0
MTEXT
  5
DC0
330
6B8
100
AcDbEntity
  8
SUNPOU
 62
     0
100
AcDbMText
 10
1338.599664777209
 20
1027.176659052436
 30
0.0
 40
25.0
 41
0.0
 71
     5
 72
     1
  1
\A1;260
  7
BIGFONT
 11
0.0000000000000001
 21
1.0
 31
0.0
 73
     1
 44
1.0
  0
POINT
  5
DC1
330
6B8
100
AcDbEntity
  8
DEFPOINTS
 62
     0
100
AcDbPoint
 10
1273.420354499172
 20
1157.176659052436
 30
0.0
  0
POINT
  5
DC2
330
6B8
100
AcDbEntity
  8
DEFPOINTS
 62
     0
100
AcDbPoint
 10
1273.420354499172
 20
897.1766590524357
 30
0.0
  0
POINT
  5
DC3
330
6B8
100
AcDbEntity
  8
DEFPOINTS
 62
     0
100
AcDbPoint
 10
1361.099664777209
 20
897.1766590524355
 30
0.0
  0
ENDBLK
  5
A2F
330
6B8
100
AcDbEntity
  8
0
100
AcDbBlockEnd
  0
BLOCK
  5
A30
330
6EB
100
AcDbEntity
  8
0
100
AcDbBlockBegin
  2
*D18
 70
     1
 10
0.0
 20
0.0
 30
0.0
  3
*D18
  1

  0
LINE
  5
1319
330
6EB
100
AcDbEntity
  8
SUNPOU
 62
     0
370
    -2
100
AcDbLine
 10
1270.390935874166
 20
1307.176659052436
 30
0.0
 11
1501.859175877462
 21
1307.176659052436
 31
0.0
  0
LINE
  5
131A
330
6EB
100
AcDbEntity
  8
SUNPOU
 62
     0
370
    -2
100
AcDbLine
 10
1291.940381063323
 20
607.1766590524354
 30
0.0
 11
1501.859175877462
 21
607.1766590524354
 31
0.0
  0
LINE
  5
131B
330
6EB
100
AcDbEntity
  8
SUNPOU
 62
     0
370
    -2
100
AcDbLine
 10
1501.859175877462
 20
1287.176659052436
 30
0.0
 11
1501.859175877462
 21
627.1766590524355
 31
0.0
  0
SOLID
  5
131C
330
6EB
100
AcDbEntity
  8
SUNPOU
 62
     0
100
AcDbTrace
 10
1498.525842544129
 20
1287.176659052436
 30
0.0
 11
1505.192509210795
 21
1287.176659052436
 31
0.0
 12
1501.859175877462
 22
1307.176659052436
 32
0.0
 13
1501.859175877462
 23
1307.176659052436
 33
0.0
  0
SOLID
  5
131D
330
6EB
100
AcDbEntity
  8
SUNPOU
 62
     0
100
AcDbTrace
 10
1498.525842544129
 20
627.1766590524355
 30
0.0
 11
1505.192509210795
 21
627.1766590524355
 31
0.0
 12
1501.859175877462
 22
607.1766590524354
 32
0.0
 13
1501.859175877462
 23
607.1766590524354
 33
0.0
  0
MTEXT
  5
131E
330
6EB
100
AcDbEntity
  8
SUNPOU
 62
     0
100
AcDbMText
 10
1479.359175877462
 20
957.1766590524358
 30
0.0
 40
25.0
 41
0.0
 71
     5
 72
     1
  1
\A1;700
  7
BIGFONT
 11
0.0000000000000001
 21
1.0
 31
0.0
 73
     1
 44
1.0
  0
POINT
  5
131F
330
6EB
100
AcDbEntity
  8
DEFPOINTS
 62
     0
100
AcDbPoint
 10
1260.390935874166
 20
1307.176659052436
 30
0.0
  0
POINT
  5
1320
330
6EB
100
AcDbEntity
  8
DEFPOINTS
 62
     0
100
AcDbPoint
 10
1281.940381063323
 20
607.1766590524354
 30
0.0
  0
POINT
  5
1321
330
6EB
100
AcDbEntity
  8
DEFPOINTS
 62
     0
100
AcDbPoint
 10
1501.859175877462
 20
607.1766590524354
 30
0.0
  0
ENDBLK
  5
A3A
330
6EB
100
AcDbEntity
  8
0
100
AcDbBlockEnd
  0
BLOCK
  5
AED
330
92F
100
AcDbEntity
  8
0
100
AcDbBlockBegin
  2
*D19
 70
     1
 10
0.0
 20
0.0
 30
0.0
  3
*D19
  1

  0
LINE
  5
D61
330
92F
100
AcDbEntity
  8
SUNPOU
 62
     0
370
    -2
100
AcDbLine
 10
617.5737050667821
 20
1317.176659052436
 30
0.0
 11
617.5737050667821
 21
1459.358807524524
 31
0.0
  0
LINE
  5
D62
330
92F
100
AcDbEntity
  8
SUNPOU
 62
     0
370
    -2
100
AcDbLine
 10
1117.573705066782
 20
1317.176659052436
 30
0.0
 11
1117.573705066782
 21
1459.358807524524
 31
0.0
  0
LINE
  5
D63
330
92F
100
AcDbEntity
  8
SUNPOU
 62
     0
370
    -2
100
AcDbLine
 10
637.5737050667821
 20
1459.358807524524
 30
0.0
 11
1097.573705066782
 21
1459.358807524524
 31
0.0
  0
SOLID
  5
D64
330
92F
100
AcDbEntity
  8
SUNPOU
 62
     0
100
AcDbTrace
 10
637.5737050667821
 20
1462.692140857857
 30
0.0
 11
637.5737050667821
 21
1456.025474191191
 31
0.0
 12
617.5737050667821
 22
1459.358807524524
 32
0.0
 13
617.5737050667821
 23
1459.358807524524
 33
0.0
  0
SOLID
  5
D65
330
92F
100
AcDbEntity
  8
SUNPOU
 62
     0
100
AcDbTrace
 10
1097.573705066782
 20
1462.692140857857
 30
0.0
 11
1097.573705066782
 21
1456.025474191191
 31
0.0
 12
1117.573705066782
 22
1459.358807524524
 32
0.0
 13
1117.573705066782
 23
1459.358807524524
 33
0.0
  0
MTEXT
  5
D66
330
92F
100
AcDbEntity
  8
SUNPOU
 62
     0
100
AcDbMText
 10
867.5737050667821
 20
1481.858807524524
 30
0.0
 40
25.0
 41
0.0
 71
     5
 72
     1
  1
\A1;500
  7
BIGFONT
 73
     1
 44
1.0
  0
POINT
  5
D67
330
92F
100
AcDbEntity
  8
DEFPOINTS
 62
     0
100
AcDbPoint
 10
617.5737050667821
 20
1307.176659052436
 30
0.0
  0
POINT
  5
D68
330
92F
100
AcDbEntity
  8
DEFPOINTS
 62
     0
100
AcDbPoint
 10
1117.573705066782
 20
1307.176659052436
 30
0.0
  0
POINT
  5
D69
330
92F
100
AcDbEntity
  8
DEFPOINTS
 62
     0
100
AcDbPoint
 10
1117.573705066782
 20
1459.358807524524
 30
0.0
  0
ENDBLK
  5
AF7
330
92F
100
AcDbEntity
  8
0
100
AcDbBlockEnd
  0
BLOCK
  5
958
330
948
100
AcDbEntity
  8
0
 62
     5
100
AcDbBlockBegin
  2
A$C72BA1FAD
 70
     0
 10
0.0
 20
0.0
 30
0.0
  3
A$C72BA1FAD
  1

  0
LINE
  5
949
330
948
100
AcDbEntity
  8
HL
100
AcDbLine
 10
200.0000000000057
 20
69.99999677296727
 30
0.0
 11
345.0000000000057
 21
89.99999677296727
 31
0.0
  0
LINE
  5
94A
330
948
100
AcDbEntity
  8
HL
100
AcDbLine
 10
75.00000000000182
 20
-0.0000032270331758
 30
0.0
 11
325.0000000000018
 21
-0.000003227032721
 31
0.0
  0
LINE
  5
94B
330
948
100
AcDbEntity
  8
KL
100
AcDbLine
 10
117.5000000000018
 20
81.37930711779473
 30
0.0
 11
115.0000000000023
 21
-0.0000032270331758
 31
0.0
  0
LINE
  5
94C
330
948
100
AcDbEntity
  8
KL
100
AcDbLine
 10
132.5000000000018
 20
79.31034160055332
 30
0.0
 11
135.0000000000022
 21
-0.0000032270331758
 31
0.0
  0
LINE
  5
94D
330
948
100
AcDbEntity
  8
HL
100
AcDbLine
 10
55.00000000000182
 20
39.99999677296728
 30
0.0
 11
75.00000000000182
 21
-0.000003227032721
 31
0.0
  0
LINE
  5
94E
330
948
100
AcDbEntity
  8
HL
100
AcDbLine
 10
55.0
 20
89.99999677296727
 30
0.0
 11
200.0
 21
69.99999677296727
 31
0.0
  0
LINE
  5
94F
330
948
100
AcDbEntity
  8
HL
100
AcDbLine
 10
0.000000000001819
 20
89.99999677296727
 30
0.0
 11
55.0000000000033
 21
89.99999677296683
 31
0.0
  0
LINE
  5
950
330
948
100
AcDbEntity
  8
HL
100
AcDbLine
 10
0.0000000000017053
 20
39.99999677296728
 30
0.0
 11
55.00000000000182
 21
39.99999677296683
 31
0.0
  0
LINE
  5
951
330
948
100
AcDbEntity
  8
HL
100
AcDbLine
 10
0.0000000000019327
 20
89.99999677296727
 30
0.0
 11
0.0000000000020464
 21
39.99999677296728
 31
0.0
  0
LINE
  5
952
330
948
100
AcDbEntity
  8
KL
100
AcDbLine
 10
282.5000000000018
 20
81.37930711779427
 30
0.0
 11
285.0000000000018
 21
-0.000003227032721
 31
0.0
  0
LINE
  5
953
330
948
100
AcDbEntity
  8
KL
100
AcDbLine
 10
267.5000000000018
 20
79.31034160055287
 30
0.0
 11
265.0000000000018
 21
-0.000003227032721
 31
0.0
  0
LINE
  5
954
330
948
100
AcDbEntity
  8
HL
100
AcDbLine
 10
345.0000000000018
 20
39.99999677296728
 30
0.0
 11
325.0000000000018
 21
-0.000003227032721
 31
0.0
  0
LINE
  5
955
330
948
100
AcDbEntity
  8
HL
100
AcDbLine
 10
400.0000000000018
 20
89.99999677296727
 30
0.0
 11
400.0000000000018
 21
39.99999677296728
 31
0.0
  0
LINE
  5
956
330
948
100
AcDbEntity
  8
HL
100
AcDbLine
 10
345.0000000000018
 20
39.99999677296683
 30
0.0
 11
400.000000000002
 21
39.99999677296728
 31
0.0
  0
LINE
  5
957
330
948
100
AcDbEntity
  8
HL
100
AcDbLine
 10
345.0000000000011
 20
89.99999677296683
 30
0.0
 11
400.000000000002
 21
89.99999677296727
 31
0.0
  0
ENDBLK
  5
959
330
948
100
AcDbEntity
  8
0
 62
     5
100
AcDbBlockEnd
  0
BLOCK
  5
95E
330
95A
100
AcDbEntity
  8
0
 62
     5
100
AcDbBlockBegin
  2
A$C25B74F18
 70
     0
 10
0.0
 20
0.0
 30
0.0
  3
A$C25B74F18
  1

  0
INSERT
  5
95B
330
95A
100
AcDbEntity
  8
0
 62
     5
100
AcDbBlockReference
  2
A$C72BA1FAD
 10
271.3604739058892
 20
0.0000021283044589
 30
0.0
  0
MTEXT
  5
95C
102
{ACAD_REACTORS
330
95D
102
}
330
95A
100
AcDbEntity
  8
SUNPOU
100
AcDbMText
 10
169.0476140476039
 20
163.911205151966
 30
0.0
 40
25.0
 41
0.0
 71
     6
 72
     1
  1
\A1;GSB-300
  7
BIGFONT
 73
     1
 44
1.0
  0
LEADER
  5
95D
330
95A
100
AcDbEntity
  8
SUNPOU
100
AcDbLeader
  3
DIM1
 73
     0
 75
     1
 40
25.00000000000002
 41
169.047619047619
 76
     3
 10
347.2161405900824
 20
67.24519142158715
 30
0.0
 10
199.0476140476039
 20
141.411205151966
 30
0.0
 10
179.0476140476039
 20
141.411205151966
 30
0.0
340
95C
  0
ENDBLK
  5
95F
330
95A
100
AcDbEntity
  8
0
 62
     5
100
AcDbBlockEnd
  0
BLOCK
  5
962
330
960
100
AcDbEntity
  8
0
 62
     5
100
AcDbBlockBegin
  2
A$C105B5721
 70
     0
 10
0.0
 20
0.0
 30
0.0
  3
A$C105B5721
  1

  0
INSERT
  5
961
330
960
100
AcDbEntity
  8
0
 62
     5
100
AcDbBlockReference
  2
A$C25B74F18
 10
0.0000075804819062
 20
-0.0000000000004547
 30
0.0
  0
ENDBLK
  5
963
330
960
100
AcDbEntity
  8
0
 62
     5
100
AcDbBlockEnd
  0
BLOCK
  5
966
330
964
100
AcDbEntity
  8
0
 62
     5
100
AcDbBlockBegin
  2
A$C0E9223DF
 70
     0
 10
0.0
 20
0.0
 30
0.0
  3
A$C0E9223DF
  1

  0
INSERT
  5
965
330
964
100
AcDbEntity
  8
0
 62
     5
100
AcDbBlockReference
  2
A$C105B5721
 10
-0.0000076851840731
 20
0.0000000000004547
 30
0.0
  0
ENDBLK
  5
967
330
964
100
AcDbEntity
  8
0
 62
     5
100
AcDbBlockEnd
  0
BLOCK
  5
96A
330
968
100
AcDbEntity
  8
0
 62
     5
100
AcDbBlockBegin
  2
A$C38392A7F
 70
     0
 10
0.0
 20
0.0
 30
0.0
  3
A$C38392A7F
  1

  0
INSERT
  5
969
330
968
100
AcDbEntity
  8
0
 62
     5
100
AcDbBlockReference
  2
A$C0E9223DF
 10
0.000004156733894
 20
0.0000013989094896
 30
0.0
  0
ENDBLK
  5
96B
330
968
100
AcDbEntity
  8
0
 62
     5
100
AcDbBlockEnd
  0
BLOCK
  5
96E
330
96C
100
AcDbEntity
  8
0
100
AcDbBlockBegin
  2
A$C67384017
 70
     0
 10
0.0
 20
0.0
 30
0.0
  3
A$C67384017
  1

  0
INSERT
  5
96D
330
96C
100
AcDbEntity
  8
0
 62
     5
100
AcDbBlockReference
  2
A$C38392A7F
 10
0.0000000000002274
 20
-0.000001398909717
 30
0.0
  0
ENDBLK
  5
96F
330
96C
100
AcDbEntity
  8
0
100
AcDbBlockEnd
  0
BLOCK
  5
C40
330
C37
100
AcDbEntity
  8
0
100
AcDbBlockBegin
  2
*D26
 70
     1
 10
0.0
 20
0.0
 30
0.0
  3
*D26
  1

  0
LINE
  5
1322
330
C37
100
AcDbEntity
  8
SUNPOU
 62
     0
370
    -2
100
AcDbLine
 10
1291.940381063323
 20
607.1766590524354
 30
0.0
 11
1438.778975055245
 21
607.1766590524354
 31
0.0
  0
LINE
  5
1323
330
C37
100
AcDbEntity
  8
SUNPOU
 62
     0
370
    -2
100
AcDbLine
 10
1438.778975055245
 20
1137.176659052435
 30
0.0
 11
1438.778975055245
 21
627.1766590524355
 31
0.0
  0
SOLID
  5
1324
330
C37
100
AcDbEntity
  8
SUNPOU
 62
     0
100
AcDbTrace
 10
1435.445641721912
 20
1137.176659052435
 30
0.0
 11
1442.112308388579
 21
1137.176659052435
 31
0.0
 12
1438.778975055245
 22
1157.176659052436
 32
0.0
 13
1438.778975055245
 23
1157.176659052436
 33
0.0
  0
SOLID
  5
1325
330
C37
100
AcDbEntity
  8
SUNPOU
 62
     0
100
AcDbTrace
 10
1435.445641721912
 20
627.1766590524355
 30
0.0
 11
1442.112308388579
 21
627.1766590524355
 31
0.0
 12
1438.778975055245
 22
607.1766590524354
 32
0.0
 13
1438.778975055245
 23
607.1766590524354
 33
0.0
  0
MTEXT
  5
1326
330
C37
100
AcDbEntity
  8
SUNPOU
 62
     0
100
AcDbMText
 10
1416.278975055245
 20
882.1766590524358
 30
0.0
 40
25.0
 41
0.0
 71
     5
 72
     1
  1
\A1;550
  7
BIGFONT
 11
0.0000000000000001
 21
1.0
 31
0.0
 73
     1
 44
1.0
  0
POINT
  5
1327
330
C37
100
AcDbEntity
  8
DEFPOINTS
 62
     0
100
AcDbPoint
 10
1273.420354499172
 20
1157.176659052436
 30
0.0
  0
POINT
  5
1328
330
C37
100
AcDbEntity
  8
DEFPOINTS
 62
     0
100
AcDbPoint
 10
1281.940381063323
 20
607.1766590524354
 30
0.0
  0
POINT
  5
1329
330
C37
100
AcDbEntity
  8
DEFPOINTS
 62
     0
100
AcDbPoint
 10
1438.778975055245
 20
607.1766590524354
 30
0.0
  0
ENDBLK
  5
C41
330
C37
100
AcDbEntity
  8
0
100
AcDbBlockEnd
  0
BLOCK
  5
D0B
330
D01
100
AcDbEntity
  8
0
100
AcDbBlockBegin
  2
*D27
 70
     1
 10
0.0
 20
0.0
 30
0.0
  3
*D27
  1

  0
LINE
  5
1310
330
D01
100
AcDbEntity
  8
SUNPOU
 62
     0
370
    -2
100
AcDbLine
 10
1293.420354499172
 20
897.1766590524357
 30
0.0
 11
1361.099664777209
 21
897.1766590524357
 31
0.0
  0
LINE
  5
1311
330
D01
100
AcDbEntity
  8
SUNPOU
 62
     0
370
    -2
100
AcDbLine
 10
1284.336684921993
 20
657.1766590524354
 30
0.0
 11
1361.099664777209
 21
657.1766590524354
 31
0.0
  0
LINE
  5
1312
330
D01
100
AcDbEntity
  8
SUNPOU
 62
     0
370
    -2
100
AcDbLine
 10
1361.099664777209
 20
877.1766590524356
 30
0.0
 11
1361.099664777209
 21
677.1766590524355
 31
0.0
  0
SOLID
  5
1313
330
D01
100
AcDbEntity
  8
SUNPOU
 62
     0
100
AcDbTrace
 10
1357.766331443875
 20
877.1766590524356
 30
0.0
 11
1364.432998110542
 21
877.1766590524356
 31
0.0
 12
1361.099664777209
 22
897.1766590524357
 32
0.0
 13
1361.099664777209
 23
897.1766590524357
 33
0.0
  0
SOLID
  5
1314
330
D01
100
AcDbEntity
  8
SUNPOU
 62
     0
100
AcDbTrace
 10
1357.766331443875
 20
677.1766590524355
 30
0.0
 11
1364.432998110542
 21
677.1766590524355
 31
0.0
 12
1361.099664777209
 22
657.1766590524354
 32
0.0
 13
1361.099664777209
 23
657.1766590524354
 33
0.0
  0
MTEXT
  5
1315
330
D01
100
AcDbEntity
  8
SUNPOU
 62
     0
100
AcDbMText
 10
1338.599664777209
 20
777.1766590524358
 30
0.0
 40
25.0
 41
0.0
 71
     5
 72
     1
  1
\A1;240
  7
BIGFONT
 11
0.0000000000000001
 21
1.0
 31
0.0
 73
     1
 44
1.0
  0
POINT
  5
1316
330
D01
100
AcDbEntity
  8
DEFPOINTS
 62
     0
100
AcDbPoint
 10
1283.420354499172
 20
897.1766590524357
 30
0.0
  0
POINT
  5
1317
330
D01
100
AcDbEntity
  8
DEFPOINTS
 62
     0
100
AcDbPoint
 10
1274.336684921993
 20
657.1766590524356
 30
0.0
  0
POINT
  5
1318
330
D01
100
AcDbEntity
  8
DEFPOINTS
 62
     0
100
AcDbPoint
 10
1361.099664777209
 20
657.1766590524354
 30
0.0
  0
ENDBLK
  5
D0C
330
D01
100
AcDbEntity
  8
0
100
AcDbBlockEnd
  0
BLOCK
  5
D3C
330
D32
100
AcDbEntity
  8
0
100
AcDbBlockBegin
  2
*D28
 70
     1
 10
0.0
 20
0.0
 30
0.0
  3
*D28
  1

  0
LINE
  5
12F1
330
D32
100
AcDbEntity
  8
SUNPOU
 62
     0
370
    -2
100
AcDbLine
 10
1284.336684921994
 20
657.1766590524356
 30
0.0
 11
1361.099664777209
 21
657.1766590524356
 31
0.0
  0
LINE
  5
12F2
330
D32
100
AcDbEntity
  8
SUNPOU
 62
     0
370
    -2
100
AcDbLine
 10
1281.940381063323
 20
607.1766590524354
 30
0.0
 11
1361.099664777209
 21
607.1766590524354
 31
0.0
  0
LINE
  5
12F3
330
D32
100
AcDbEntity
  8
SUNPOU
 62
     0
370
    -2
100
AcDbLine
 10
1361.099664777209
 20
677.1766590524356
 30
0.0
 11
1361.099664777209
 21
697.1766590524356
 31
0.0
  0
LINE
  5
12F4
330
D32
100
AcDbEntity
  8
SUNPOU
 62
     0
370
    -2
100
AcDbLine
 10
1361.099664777209
 20
587.1766590524355
 30
0.0
 11
1361.099664777209
 21
567.1766590524355
 31
0.0
  0
MTEXT
  5
12F5
330
D32
100
AcDbEntity
  8
SUNPOU
 62
     0
100
AcDbMText
 10
1335.038522381624
 20
556.1646144708279
 30
0.0
 40
25.0
 41
0.0
 71
     5
 72
     1
  1
\A1;50
  7
BIGFONT
 11
0.0000000000000001
 21
1.0
 31
0.0
 73
     1
 44
1.0
  0
LINE
  5
12F6
330
D32
100
AcDbEntity
  8
SUNPOU
 62
     0
370
    -2
100
AcDbLine
 10
1361.099664777209
 20
657.1766590524356
 30
0.0
 11
1361.099664777209
 21
607.1766590524354
 31
0.0
  0
SOLID
  5
12F7
330
D32
100
AcDbEntity
  8
SUNPOU
 62
     0
100
AcDbTrace
 10
1357.766331443876
 20
677.1766590524356
 30
0.0
 11
1364.432998110542
 21
677.1766590524356
 31
0.0
 12
1361.099664777209
 22
657.1766590524356
 32
0.0
 13
1361.099664777209
 23
657.1766590524356
 33
0.0
  0
SOLID
  5
12F8
330
D32
100
AcDbEntity
  8
SUNPOU
 62
     0
100
AcDbTrace
 10
1357.766331443876
 20
587.1766590524355
 30
0.0
 11
1364.432998110542
 21
587.1766590524355
 31
0.0
 12
1361.099664777209
 22
607.1766590524354
 32
0.0
 13
1361.099664777209
 23
607.1766590524354
 33
0.0
  0
POINT
  5
12F9
330
D32
100
AcDbEntity
  8
DEFPOINTS
 62
     0
100
AcDbPoint
 10
1274.336684921994
 20
657.1766590524357
 30
0.0
  0
POINT
  5
12FA
330
D32
100
AcDbEntity
  8
DEFPOINTS
 62
     0
100
AcDbPoint
 10
1271.940381063323
 20
607.1766590524356
 30
0.0
  0
POINT
  5
12FB
330
D32
100
AcDbEntity
  8
DEFPOINTS
 62
     0
100
AcDbPoint
 10
1361.099664777209
 20
607.1766590524354
 30
0.0
  0
ENDBLK
  5
D3D
330
D32
100
AcDbEntity
  8
0
100
AcDbBlockEnd
  0
BLOCK
  5
E39
330
E2F
100
AcDbEntity
  8
0
100
AcDbBlockBegin
  2
*D29
 70
     1
 10
0.0
 20
0.0
 30
0.0
  3
*D29
  1

  0
LINE
  5
1444
330
E2F
100
AcDbEntity
  8
SUNPOU
 62
     0
370
    -2
100
AcDbLine
 10
3087.573705066779
 20
597.1766590524357
 30
0.0
 11
3087.573705066779
 21
461.8386872283426
 31
0.0
  0
LINE
  5
1445
330
E2F
100
AcDbEntity
  8
SUNPOU
 62
     0
370
    -2
100
AcDbLine
 10
3687.57370506678
 20
597.1766590524357
 30
0.0
 11
3687.57370506678
 21
461.8386872283426
 31
0.0
  0
LINE
  5
1446
330
E2F
100
AcDbEntity
  8
SUNPOU
 62
     0
370
    -2
100
AcDbLine
 10
3107.573705066779
 20
461.8386872283426
 30
0.0
 11
3667.57370506678
 21
461.8386872283426
 31
0.0
  0
SOLID
  5
1447
330
E2F
100
AcDbEntity
  8
SUNPOU
 62
     0
100
AcDbTrace
 10
3107.573705066779
 20
465.172020561676
 30
0.0
 11
3107.573705066779
 21
458.5053538950093
 31
0.0
 12
3087.573705066779
 22
461.8386872283426
 32
0.0
 13
3087.573705066779
 23
461.8386872283426
 33
0.0
  0
SOLID
  5
1448
330
E2F
100
AcDbEntity
  8
SUNPOU
 62
     0
100
AcDbTrace
 10
3667.57370506678
 20
465.172020561676
 30
0.0
 11
3667.57370506678
 21
458.5053538950093
 31
0.0
 12
3687.57370506678
 22
461.8386872283426
 32
0.0
 13
3687.57370506678
 23
461.8386872283426
 33
0.0
  0
MTEXT
  5
1449
330
E2F
100
AcDbEntity
  8
SUNPOU
 62
     0
100
AcDbMText
 10
3387.57370506678
 20
484.3386872283426
 30
0.0
 40
25.0
 41
0.0
 71
     5
 72
     1
  1
\A1;600
  7
BIGFONT
 73
     1
 44
1.0
  0
POINT
  5
144A
330
E2F
100
AcDbEntity
  8
DEFPOINTS
 62
     0
100
AcDbPoint
 10
3087.573705066779
 20
607.1766590524357
 30
0.0
  0
POINT
  5
144B
330
E2F
100
AcDbEntity
  8
DEFPOINTS
 62
     0
100
AcDbPoint
 10
3687.57370506678
 20
607.1766590524357
 30
0.0
  0
POINT
  5
144C
330
E2F
100
AcDbEntity
  8
DEFPOINTS
 62
     0
100
AcDbPoint
 10
3687.57370506678
 20
461.8386872283426
 30
0.0
  0
ENDBLK
  5
E3A
330
E2F
100
AcDbEntity
  8
0
100
AcDbBlockEnd
  0
BLOCK
  5
E45
330
E3B
100
AcDbEntity
  8
0
100
AcDbBlockBegin
  2
*D30
 70
     1
 10
0.0
 20
0.0
 30
0.0
  3
*D30
  1

  0
LINE
  5
1473
330
E3B
100
AcDbEntity
  8
SUNPOU
 62
     0
370
    -2
100
AcDbLine
 10
3237.573705066783
 20
1317.176659052435
 30
0.0
 11
3237.573705066783
 21
1357.176659052436
 31
0.0
  0
LINE
  5
1474
330
E3B
100
AcDbEntity
  8
SUNPOU
 62
     0
370
    -2
100
AcDbLine
 10
3537.573705066783
 20
1317.176659052436
 30
0.0
 11
3537.573705066783
 21
1357.176659052436
 31
0.0
  0
LINE
  5
1475
330
E3B
100
AcDbEntity
  8
SUNPOU
 62
     0
370
    -2
100
AcDbLine
 10
3257.573705066783
 20
1357.176659052436
 30
0.0
 11
3517.573705066784
 21
1357.176659052436
 31
0.0
  0
SOLID
  5
1476
330
E3B
100
AcDbEntity
  8
SUNPOU
 62
     0
100
AcDbTrace
 10
3257.573705066783
 20
1360.509992385769
 30
0.0
 11
3257.573705066783
 21
1353.843325719102
 31
0.0
 12
3237.573705066783
 22
1357.176659052436
 32
0.0
 13
3237.573705066783
 23
1357.176659052436
 33
0.0
  0
SOLID
  5
1477
330
E3B
100
AcDbEntity
  8
SUNPOU
 62
     0
100
AcDbTrace
 10
3517.573705066784
 20
1360.509992385769
 30
0.0
 11
3517.573705066784
 21
1353.843325719102
 31
0.0
 12
3537.573705066783
 22
1357.176659052436
 32
0.0
 13
3537.573705066783
 23
1357.176659052436
 33
0.0
  0
MTEXT
  5
1478
330
E3B
100
AcDbEntity
  8
SUNPOU
 62
     0
100
AcDbMText
 10
3387.573705066783
 20
1379.676659052436
 30
0.0
 40
25.0
 41
0.0
 71
     5
 72
     1
  1
\A1;300
  7
BIGFONT
 73
     1
 44
1.0
  0
POINT
  5
1479
330
E3B
100
AcDbEntity
  8
DEFPOINTS
 62
     0
100
AcDbPoint
 10
3237.573705066783
 20
1307.176659052435
 30
0.0
  0
POINT
  5
147A
330
E3B
100
AcDbEntity
  8
DEFPOINTS
 62
     0
100
AcDbPoint
 10
3537.573705066783
 20
1307.176659052436
 30
0.0
  0
POINT
  5
147B
330
E3B
100
AcDbEntity
  8
DEFPOINTS
 62
     0
100
AcDbPoint
 10
3537.573705066783
 20
1357.176659052436
 30
0.0
  0
ENDBLK
  5
E46
330
E3B
100
AcDbEntity
  8
0
100
AcDbBlockEnd
  0
BLOCK
  5
E51
330
E47
100
AcDbEntity
  8
0
100
AcDbBlockBegin
  2
*D31
 70
     1
 10
0.0
 20
0.0
 30
0.0
  3
*D31
  1

  0
LINE
  5
143B
330
E47
100
AcDbEntity
  8
SUNPOU
 62
     0
370
    -2
100
AcDbLine
 10
3257.573705066783
 20
967.1766590524356
 30
0.0
 11
3257.573705066783
 21
1057.176659052436
 31
0.0
  0
LINE
  5
143C
330
E47
100
AcDbEntity
  8
SUNPOU
 62
     0
370
    -2
100
AcDbLine
 10
3517.573705066784
 20
967.1766590524356
 30
0.0
 11
3517.573705066784
 21
1057.176659052436
 31
0.0
  0
LINE
  5
143D
330
E47
100
AcDbEntity
  8
SUNPOU
 62
     0
370
    -2
100
AcDbLine
 10
3277.573705066783
 20
1057.176659052436
 30
0.0
 11
3497.573705066783
 21
1057.176659052436
 31
0.0
  0
SOLID
  5
143E
330
E47
100
AcDbEntity
  8
SUNPOU
 62
     0
100
AcDbTrace
 10
3277.573705066783
 20
1060.509992385769
 30
0.0
 11
3277.573705066783
 21
1053.843325719102
 31
0.0
 12
3257.573705066783
 22
1057.176659052436
 32
0.0
 13
3257.573705066783
 23
1057.176659052436
 33
0.0
  0
SOLID
  5
143F
330
E47
100
AcDbEntity
  8
SUNPOU
 62
     0
100
AcDbTrace
 10
3497.573705066783
 20
1060.509992385769
 30
0.0
 11
3497.573705066783
 21
1053.843325719102
 31
0.0
 12
3517.573705066784
 22
1057.176659052436
 32
0.0
 13
3517.573705066784
 23
1057.176659052436
 33
0.0
  0
MTEXT
  5
1440
330
E47
100
AcDbEntity
  8
SUNPOU
 62
     0
100
AcDbMText
 10
3387.573705066783
 20
1079.676659052436
 30
0.0
 40
25.0
 41
0.0
 71
     5
 72
     1
  1
\A1;260
  7
BIGFONT
 73
     1
 44
1.0
  0
POINT
  5
1441
330
E47
100
AcDbEntity
  8
DEFPOINTS
 62
     0
100
AcDbPoint
 10
3257.573705066783
 20
957.1766590524356
 30
0.0
  0
POINT
  5
1442
330
E47
100
AcDbEntity
  8
DEFPOINTS
 62
     0
100
AcDbPoint
 10
3517.573705066784
 20
957.1766590524356
 30
0.0
  0
POINT
  5
1443
330
E47
100
AcDbEntity
  8
DEFPOINTS
 62
     0
100
AcDbPoint
 10
3517.573705066784
 20
1057.176659052436
 30
0.0
  0
ENDBLK
  5
E52
330
E47
100
AcDbEntity
  8
0
100
AcDbBlockEnd
  0
BLOCK
  5
E5D
330
E53
100
AcDbEntity
  8
0
100
AcDbBlockBegin
  2
*D32
 70
     1
 10
0.0
 20
0.0
 30
0.0
  3
*D32
  1

  0
LINE
  5
144D
330
E53
100
AcDbEntity
  8
SUNPOU
 62
     0
370
    -2
100
AcDbLine
 10
3429.822287434396
 20
957.1766590524358
 30
0.0
 11
3439.822287434396
 21
957.1766590524358
 31
0.0
  0
LINE
  5
144E
330
E53
100
AcDbEntity
  8
SUNPOU
 62
     0
370
    -2
100
AcDbLine
 10
3429.822287434396
 20
897.1766590524355
 30
0.0
 11
3439.822287434396
 21
897.1766590524355
 31
0.0
  0
LINE
  5
144F
330
E53
100
AcDbEntity
  8
SUNPOU
 62
     0
370
    -2
100
AcDbLine
 10
3439.822287434396
 20
937.1766590524357
 30
0.0
 11
3439.822287434396
 21
917.1766590524354
 31
0.0
  0
MTEXT
  5
1450
330
E53
100
AcDbEntity
  8
SUNPOU
 62
     0
100
AcDbMText
 10
3418.373143823584
 20
927.1766590524359
 30
0.0
 40
25.0
 41
0.0
 71
     5
 72
     1
  1
\A1;60
  7
BIGFONT
 11
0.0000000000000001
 21
1.0
 31
0.0
 73
     1
 44
1.0
  0
SOLID
  5
1451
330
E53
100
AcDbEntity
  8
SUNPOU
 62
     0
100
AcDbTrace
 10
3436.488954101062
 20
937.1766590524357
 30
0.0
 11
3443.155620767729
 21
937.1766590524357
 31
0.0
 12
3439.822287434396
 22
957.1766590524358
 32
0.0
 13
3439.822287434396
 23
957.1766590524358
 33
0.0
  0
SOLID
  5
1452
330
E53
100
AcDbEntity
  8
SUNPOU
 62
     0
100
AcDbTrace
 10
3436.488954101062
 20
917.1766590524354
 30
0.0
 11
3443.155620767729
 21
917.1766590524354
 31
0.0
 12
3439.822287434396
 22
897.1766590524355
 32
0.0
 13
3439.822287434396
 23
897.1766590524355
 33
0.0
  0
POINT
  5
1453
330
E53
100
AcDbEntity
  8
DEFPOINTS
 62
     0
100
AcDbPoint
 10
3439.822287434396
 20
957.1766590524358
 30
0.0
  0
POINT
  5
1454
330
E53
100
AcDbEntity
  8
DEFPOINTS
 62
     0
100
AcDbPoint
 10
3439.822287434396
 20
897.1766590524355
 30
0.0
  0
POINT
  5
1455
330
E53
100
AcDbEntity
  8
DEFPOINTS
 62
     0
100
AcDbPoint
 10
3439.822287434396
 20
897.1766590524355
 30
0.0
  0
ENDBLK
  5
E5E
330
E53
100
AcDbEntity
  8
0
100
AcDbBlockEnd
  0
BLOCK
  5
E69
330
E5F
100
AcDbEntity
  8
0
100
AcDbBlockBegin
  2
*D33
 70
     1
 10
0.0
 20
0.0
 30
0.0
  3
*D33
  1

  0
LINE
  5
1429
330
E5F
100
AcDbEntity
  8
SUNPOU
 62
     0
370
    -2
100
AcDbLine
 10
3429.822287434396
 20
957.1766590524356
 30
0.0
 11
3439.822287434395
 21
957.1766590524356
 31
0.0
  0
LINE
  5
142A
330
E5F
100
AcDbEntity
  8
SUNPOU
 62
     0
370
    -2
100
AcDbLine
 10
3429.822287434396
 20
1257.176659052435
 30
0.0
 11
3439.822287434396
 21
1257.176659052435
 31
0.0
  0
LINE
  5
142B
330
E5F
100
AcDbEntity
  8
SUNPOU
 62
     0
370
    -2
100
AcDbLine
 10
3439.822287434395
 20
977.1766590524356
 30
0.0
 11
3439.822287434396
 21
1237.176659052435
 31
0.0
  0
MTEXT
  5
142C
330
E5F
100
AcDbEntity
  8
SUNPOU
 62
     0
100
AcDbMText
 10
3417.322287434396
 20
1132.83413857514
 30
0.0
 40
25.0
 41
0.0
 71
     5
 72
     1
  1
\A1;300
  7
BIGFONT
 11
0.0000000000000001
 21
1.0
 31
0.0
 73
     1
 44
1.0
  0
SOLID
  5
142D
330
E5F
100
AcDbEntity
  8
SUNPOU
 62
     0
100
AcDbTrace
 10
3436.488954101062
 20
977.1766590524356
 30
0.0
 11
3443.155620767729
 21
977.1766590524356
 31
0.0
 12
3439.822287434395
 22
957.1766590524356
 32
0.0
 13
3439.822287434395
 23
957.1766590524356
 33
0.0
  0
SOLID
  5
142E
330
E5F
100
AcDbEntity
  8
SUNPOU
 62
     0
100
AcDbTrace
 10
3436.488954101062
 20
1237.176659052435
 30
0.0
 11
3443.155620767729
 21
1237.176659052435
 31
0.0
 12
3439.822287434396
 22
1257.176659052435
 32
0.0
 13
3439.822287434396
 23
1257.176659052435
 33
0.0
  0
POINT
  5
142F
330
E5F
100
AcDbEntity
  8
DEFPOINTS
 62
     0
100
AcDbPoint
 10
3439.822287434396
 20
957.1766590524356
 30
0.0
  0
POINT
  5
1430
330
E5F
100
AcDbEntity
  8
DEFPOINTS
 62
     0
100
AcDbPoint
 10
3439.822287434396
 20
1257.176659052435
 30
0.0
  0
POINT
  5
1431
330
E5F
100
AcDbEntity
  8
DEFPOINTS
 62
     0
100
AcDbPoint
 10
3439.822287434396
 20
1257.176659052435
 30
0.0
  0
ENDBLK
  5
E6A
330
E5F
100
AcDbEntity
  8
0
100
AcDbBlockEnd
  0
BLOCK
  5
E77
330
E6B
100
AcDbEntity
  8
0
100
AcDbBlockBegin
  2
*D34
 70
     1
 10
0.0
 20
0.0
 30
0.0
  3
*D34
  1

  0
LINE
  5
147C
330
E6B
100
AcDbEntity
  8
SUNPOU
 62
     0
370
    -2
100
AcDbLine
 10
3429.822287434396
 20
1257.176659052435
 30
0.0
 11
3439.822287434396
 21
1257.176659052435
 31
0.0
  0
LINE
  5
147D
330
E6B
100
AcDbEntity
  8
SUNPOU
 62
     0
370
    -2
100
AcDbLine
 10
3429.822287434396
 20
1307.176659052436
 30
0.0
 11
3439.822287434396
 21
1307.176659052436
 31
0.0
  0
LINE
  5
147E
330
E6B
100
AcDbEntity
  8
SUNPOU
 62
     0
370
    -2
100
AcDbLine
 10
3439.822287434396
 20
1237.176659052435
 30
0.0
 11
3439.822287434396
 21
1217.176659052435
 31
0.0
  0
LINE
  5
147F
330
E6B
100
AcDbEntity
  8
SUNPOU
 62
     0
370
    -2
100
AcDbLine
 10
3439.822287434396
 20
1327.176659052436
 30
0.0
 11
3439.822287434396
 21
1347.176659052436
 31
0.0
  0
MTEXT
  5
1480
330
E6B
100
AcDbEntity
  8
SUNPOU
 62
     0
100
AcDbMText
 10
3416.836955187452
 20
1282.176659052436
 30
0.0
 40
25.0
 41
0.0
 71
     5
 72
     1
  1
\A1;50
  7
BIGFONT
 11
0.0000000000000001
 21
1.0
 31
0.0
 73
     1
 44
1.0
  0
LINE
  5
1481
330
E6B
100
AcDbEntity
  8
SUNPOU
 62
     0
370
    -2
100
AcDbLine
 10
3439.822287434396
 20
1257.176659052435
 30
0.0
 11
3439.822287434396
 21
1307.176659052436
 31
0.0
  0
SOLID
  5
1482
330
E6B
100
AcDbEntity
  8
SUNPOU
 62
     0
100
AcDbTrace
 10
3436.488954101062
 20
1237.176659052435
 30
0.0
 11
3443.155620767729
 21
1237.176659052435
 31
0.0
 12
3439.822287434396
 22
1257.176659052435
 32
0.0
 13
3439.822287434396
 23
1257.176659052435
 33
0.0
  0
SOLID
  5
1483
330
E6B
100
AcDbEntity
  8
SUNPOU
 62
     0
100
AcDbTrace
 10
3436.488954101062
 20
1327.176659052436
 30
0.0
 11
3443.155620767729
 21
1327.176659052436
 31
0.0
 12
3439.822287434396
 22
1307.176659052436
 32
0.0
 13
3439.822287434396
 23
1307.176659052436
 33
0.0
  0
POINT
  5
1484
330
E6B
100
AcDbEntity
  8
DEFPOINTS
 62
     0
100
AcDbPoint
 10
3439.822287434396
 20
1257.176659052435
 30
0.0
  0
POINT
  5
1485
330
E6B
100
AcDbEntity
  8
DEFPOINTS
 62
     0
100
AcDbPoint
 10
3439.822287434396
 20
1307.176659052436
 30
0.0
  0
POINT
  5
1486
330
E6B
100
AcDbEntity
  8
DEFPOINTS
 62
     0
100
AcDbPoint
 10
3439.822287434396
 20
1307.176659052436
 30
0.0
  0
ENDBLK
  5
E78
330
E6B
100
AcDbEntity
  8
0
100
AcDbBlockEnd
  0
BLOCK
  5
E83
330
E79
100
AcDbEntity
  8
0
100
AcDbBlockBegin
  2
*D35
 70
     1
 10
0.0
 20
0.0
 30
0.0
  3
*D35
  1

  0
LINE
  5
1410
330
E79
100
AcDbEntity
  8
SUNPOU
 62
     0
370
    -2
100
AcDbLine
 10
3517.573705066784
 20
967.1766590524356
 30
0.0
 11
3517.573705066784
 21
1057.176659052436
 31
0.0
  0
LINE
  5
1411
330
E79
100
AcDbEntity
  8
SUNPOU
 62
     0
370
    -2
100
AcDbLine
 10
3577.573705066783
 20
967.1766590524356
 30
0.0
 11
3577.573705066783
 21
1057.176659052436
 31
0.0
  0
LINE
  5
1412
330
E79
100
AcDbEntity
  8
SUNPOU
 62
     0
370
    -2
100
AcDbLine
 10
3537.573705066783
 20
1057.176659052436
 30
0.0
 11
3557.573705066783
 21
1057.176659052436
 31
0.0
  0
MTEXT
  5
1413
330
E79
100
AcDbEntity
  8
SUNPOU
 62
     0
100
AcDbMText
 10
3547.573705066783
 20
1084.676659052435
 30
0.0
 40
25.0
 41
0.0
 71
     5
 72
     1
  1
\A1;60
  7
BIGFONT
 73
     1
 44
1.0
  0
SOLID
  5
1414
330
E79
100
AcDbEntity
  8
SUNPOU
 62
     0
100
AcDbTrace
 10
3537.573705066783
 20
1060.509992385769
 30
0.0
 11
3537.573705066783
 21
1053.843325719102
 31
0.0
 12
3517.573705066784
 22
1057.176659052436
 32
0.0
 13
3517.573705066784
 23
1057.176659052436
 33
0.0
  0
SOLID
  5
1415
330
E79
100
AcDbEntity
  8
SUNPOU
 62
     0
100
AcDbTrace
 10
3557.573705066783
 20
1060.509992385769
 30
0.0
 11
3557.573705066783
 21
1053.843325719102
 31
0.0
 12
3577.573705066783
 22
1057.176659052436
 32
0.0
 13
3577.573705066783
 23
1057.176659052436
 33
0.0
  0
POINT
  5
1416
330
E79
100
AcDbEntity
  8
DEFPOINTS
 62
     0
100
AcDbPoint
 10
3517.573705066784
 20
957.1766590524356
 30
0.0
  0
POINT
  5
1417
330
E79
100
AcDbEntity
  8
DEFPOINTS
 62
     0
100
AcDbPoint
 10
3577.573705066783
 20
957.1766590524356
 30
0.0
  0
POINT
  5
1418
330
E79
100
AcDbEntity
  8
DEFPOINTS
 62
     0
100
AcDbPoint
 10
3577.573705066783
 20
1057.176659052436
 30
0.0
  0
ENDBLK
  5
E84
330
E79
100
AcDbEntity
  8
0
100
AcDbBlockEnd
  0
BLOCK
  5
E8F
330
E85
100
AcDbEntity
  8
0
100
AcDbBlockBegin
  2
*D36
 70
     1
 10
0.0
 20
0.0
 30
0.0
  3
*D36
  1

  0
LINE
  5
1432
330
E85
100
AcDbEntity
  8
SUNPOU
 62
     0
370
    -2
100
AcDbLine
 10
3257.573705066783
 20
967.1766590524356
 30
0.0
 11
3257.573705066783
 21
1057.176659052436
 31
0.0
  0
LINE
  5
1433
330
E85
100
AcDbEntity
  8
SUNPOU
 62
     0
370
    -2
100
AcDbLine
 10
3197.573705066783
 20
967.1766590524356
 30
0.0
 11
3197.573705066783
 21
1057.176659052436
 31
0.0
  0
LINE
  5
1434
330
E85
100
AcDbEntity
  8
SUNPOU
 62
     0
370
    -2
100
AcDbLine
 10
3237.573705066783
 20
1057.176659052436
 30
0.0
 11
3217.573705066783
 21
1057.176659052436
 31
0.0
  0
MTEXT
  5
1435
330
E85
100
AcDbEntity
  8
SUNPOU
 62
     0
100
AcDbMText
 10
3227.573705066783
 20
1084.676659052435
 30
0.0
 40
25.0
 41
0.0
 71
     5
 72
     1
  1
\A1;60
  7
BIGFONT
 73
     1
 44
1.0
  0
SOLID
  5
1436
330
E85
100
AcDbEntity
  8
SUNPOU
 62
     0
100
AcDbTrace
 10
3237.573705066783
 20
1060.509992385769
 30
0.0
 11
3237.573705066783
 21
1053.843325719102
 31
0.0
 12
3257.573705066783
 22
1057.176659052436
 32
0.0
 13
3257.573705066783
 23
1057.176659052436
 33
0.0
  0
SOLID
  5
1437
330
E85
100
AcDbEntity
  8
SUNPOU
 62
     0
100
AcDbTrace
 10
3217.573705066783
 20
1060.509992385769
 30
0.0
 11
3217.573705066783
 21
1053.843325719102
 31
0.0
 12
3197.573705066783
 22
1057.176659052436
 32
0.0
 13
3197.573705066783
 23
1057.176659052436
 33
0.0
  0
POINT
  5
1438
330
E85
100
AcDbEntity
  8
DEFPOINTS
 62
     0
100
AcDbPoint
 10
3257.573705066783
 20
957.1766590524356
 30
0.0
  0
POINT
  5
1439
330
E85
100
AcDbEntity
  8
DEFPOINTS
 62
     0
100
AcDbPoint
 10
3197.573705066783
 20
957.1766590524356
 30
0.0
  0
POINT
  5
143A
330
E85
100
AcDbEntity
  8
DEFPOINTS
 62
     0
100
AcDbPoint
 10
3197.573705066783
 20
1057.176659052436
 30
0.0
  0
ENDBLK
  5
E90
330
E85
100
AcDbEntity
  8
0
100
AcDbBlockEnd
  0
BLOCK
  5
E9B
330
E91
100
AcDbEntity
  8
0
100
AcDbBlockBegin
  2
*D37
 70
     1
 10
0.0
 20
0.0
 30
0.0
  3
*D37
  1

  0
LINE
  5
1487
330
E91
100
AcDbEntity
  8
SUNPOU
 62
     0
370
    -2
100
AcDbLine
 10
3800.390935874168
 20
1307.176659052436
 30
0.0
 11
3958.778975055247
 21
1307.176659052436
 31
0.0
  0
LINE
  5
1488
330
E91
100
AcDbEntity
  8
SUNPOU
 62
     0
370
    -2
100
AcDbLine
 10
3803.420354499174
 20
1157.176659052436
 30
0.0
 11
3958.778975055247
 21
1157.176659052436
 31
0.0
  0
LINE
  5
1489
330
E91
100
AcDbEntity
  8
SUNPOU
 62
     0
370
    -2
100
AcDbLine
 10
3958.778975055247
 20
1287.176659052436
 30
0.0
 11
3958.778975055247
 21
1177.176659052435
 31
0.0
  0
SOLID
  5
148A
330
E91
100
AcDbEntity
  8
SUNPOU
 62
     0
100
AcDbTrace
 10
3955.445641721913
 20
1287.176659052436
 30
0.0
 11
3962.11230838858
 21
1287.176659052436
 31
0.0
 12
3958.778975055247
 22
1307.176659052436
 32
0.0
 13
3958.778975055247
 23
1307.176659052436
 33
0.0
  0
SOLID
  5
148B
330
E91
100
AcDbEntity
  8
SUNPOU
 62
     0
100
AcDbTrace
 10
3955.445641721913
 20
1177.176659052435
 30
0.0
 11
3962.11230838858
 21
1177.176659052435
 31
0.0
 12
3958.778975055247
 22
1157.176659052436
 32
0.0
 13
3958.778975055247
 23
1157.176659052436
 33
0.0
  0
MTEXT
  5
148C
330
E91
100
AcDbEntity
  8
SUNPOU
 62
     0
100
AcDbMText
 10
3936.278975055246
 20
1232.176659052436
 30
0.0
 40
25.0
 41
0.0
 71
     5
 72
     1
  1
\A1;150
  7
BIGFONT
 11
0.0000000000000001
 21
1.0
 31
0.0
 73
     1
 44
1.0
  0
POINT
  5
148D
330
E91
100
AcDbEntity
  8
DEFPOINTS
 62
     0
100
AcDbPoint
 10
3790.390935874168
 20
1307.176659052436
 30
0.0
  0
POINT
  5
148E
330
E91
100
AcDbEntity
  8
DEFPOINTS
 62
     0
100
AcDbPoint
 10
3793.420354499173
 20
1157.176659052436
 30
0.0
  0
POINT
  5
148F
330
E91
100
AcDbEntity
  8
DEFPOINTS
 62
     0
100
AcDbPoint
 10
3958.778975055247
 20
1157.176659052436
 30
0.0
  0
ENDBLK
  5
E9C
330
E91
100
AcDbEntity
  8
0
100
AcDbBlockEnd
  0
BLOCK
  5
EA6
330
E9D
100
AcDbEntity
  8
0
100
AcDbBlockBegin
  2
*D38
 70
     1
 10
0.0
 20
0.0
 30
0.0
  3
*D38
  1

  0
LINE
  5
1419
330
E9D
100
AcDbEntity
  8
SUNPOU
 62
     0
370
    -2
100
AcDbLine
 10
3803.420354499174
 20
897.1766590524357
 30
0.0
 11
3881.09966477721
 21
897.1766590524355
 31
0.0
  0
LINE
  5
141A
330
E9D
100
AcDbEntity
  8
SUNPOU
 62
     0
370
    -2
100
AcDbLine
 10
3881.099664777211
 20
1137.176659052435
 30
0.0
 11
3881.09966477721
 21
917.1766590524354
 31
0.0
  0
SOLID
  5
141B
330
E9D
100
AcDbEntity
  8
SUNPOU
 62
     0
100
AcDbTrace
 10
3877.766331443877
 20
1137.176659052435
 30
0.0
 11
3884.432998110544
 21
1137.176659052435
 31
0.0
 12
3881.099664777211
 22
1157.176659052436
 32
0.0
 13
3881.099664777211
 23
1157.176659052436
 33
0.0
  0
SOLID
  5
141C
330
E9D
100
AcDbEntity
  8
SUNPOU
 62
     0
100
AcDbTrace
 10
3877.766331443876
 20
917.1766590524354
 30
0.0
 11
3884.432998110543
 21
917.1766590524354
 31
0.0
 12
3881.09966477721
 22
897.1766590524355
 32
0.0
 13
3881.09966477721
 23
897.1766590524355
 33
0.0
  0
MTEXT
  5
141D
330
E9D
100
AcDbEntity
  8
SUNPOU
 62
     0
100
AcDbMText
 10
3858.59966477721
 20
1027.176659052436
 30
0.0
 40
25.0
 41
0.0
 71
     5
 72
     1
  1
\A1;260
  7
BIGFONT
 11
0.0000000000000001
 21
1.0
 31
0.0
 73
     1
 44
1.0
  0
POINT
  5
141E
330
E9D
100
AcDbEntity
  8
DEFPOINTS
 62
     0
100
AcDbPoint
 10
3793.420354499173
 20
1157.176659052436
 30
0.0
  0
POINT
  5
141F
330
E9D
100
AcDbEntity
  8
DEFPOINTS
 62
     0
100
AcDbPoint
 10
3793.420354499173
 20
897.1766590524357
 30
0.0
  0
POINT
  5
1420
330
E9D
100
AcDbEntity
  8
DEFPOINTS
 62
     0
100
AcDbPoint
 10
3881.09966477721
 20
897.1766590524355
 30
0.0
  0
ENDBLK
  5
EA7
330
E9D
100
AcDbEntity
  8
0
100
AcDbBlockEnd
  0
BLOCK
  5
EB2
330
EA8
100
AcDbEntity
  8
0
100
AcDbBlockBegin
  2
*D39
 70
     1
 10
0.0
 20
0.0
 30
0.0
  3
*D39
  1

  0
LINE
  5
1407
330
EA8
100
AcDbEntity
  8
SUNPOU
 62
     0
370
    -2
100
AcDbLine
 10
3790.390935874168
 20
1307.176659052436
 30
0.0
 11
4021.859175877463
 21
1307.176659052436
 31
0.0
  0
LINE
  5
1408
330
EA8
100
AcDbEntity
  8
SUNPOU
 62
     0
370
    -2
100
AcDbLine
 10
3811.940381063324
 20
607.1766590524356
 30
0.0
 11
4021.859175877462
 21
607.1766590524354
 31
0.0
  0
LINE
  5
1409
330
EA8
100
AcDbEntity
  8
SUNPOU
 62
     0
370
    -2
100
AcDbLine
 10
4021.859175877463
 20
1287.176659052436
 30
0.0
 11
4021.859175877462
 21
627.1766590524355
 31
0.0
  0
SOLID
  5
140A
330
EA8
100
AcDbEntity
  8
SUNPOU
 62
     0
100
AcDbTrace
 10
4018.525842544129
 20
1287.176659052436
 30
0.0
 11
4025.192509210796
 21
1287.176659052436
 31
0.0
 12
4021.859175877463
 22
1307.176659052436
 32
0.0
 13
4021.859175877463
 23
1307.176659052436
 33
0.0
  0
SOLID
  5
140B
330
EA8
100
AcDbEntity
  8
SUNPOU
 62
     0
100
AcDbTrace
 10
4018.525842544129
 20
627.1766590524355
 30
0.0
 11
4025.192509210795
 21
627.1766590524355
 31
0.0
 12
4021.859175877462
 22
607.1766590524354
 32
0.0
 13
4021.859175877462
 23
607.1766590524354
 33
0.0
  0
MTEXT
  5
140C
330
EA8
100
AcDbEntity
  8
SUNPOU
 62
     0
100
AcDbMText
 10
3999.359175877463
 20
957.1766590524363
 30
0.0
 40
25.0
 41
0.0
 71
     5
 72
     1
  1
\A1;700
  7
BIGFONT
 11
0.0000000000000001
 21
1.0
 31
0.0
 73
     1
 44
1.0
  0
POINT
  5
140D
330
EA8
100
AcDbEntity
  8
DEFPOINTS
 62
     0
100
AcDbPoint
 10
3780.390935874168
 20
1307.176659052436
 30
0.0
  0
POINT
  5
140E
330
EA8
100
AcDbEntity
  8
DEFPOINTS
 62
     0
100
AcDbPoint
 10
3801.940381063324
 20
607.1766590524356
 30
0.0
  0
POINT
  5
140F
330
EA8
100
AcDbEntity
  8
DEFPOINTS
 62
     0
100
AcDbPoint
 10
4021.859175877462
 20
607.1766590524354
 30
0.0
  0
ENDBLK
  5
EB3
330
EA8
100
AcDbEntity
  8
0
100
AcDbBlockEnd
  0
BLOCK
  5
EBE
330
EB4
100
AcDbEntity
  8
0
100
AcDbBlockBegin
  2
*D40
 70
     1
 10
0.0
 20
0.0
 30
0.0
  3
*D40
  1

  0
LINE
  5
146A
330
EB4
100
AcDbEntity
  8
SUNPOU
 62
     0
370
    -2
100
AcDbLine
 10
3137.573705066783
 20
1317.176659052436
 30
0.0
 11
3137.573705066783
 21
1459.358807524524
 31
0.0
  0
LINE
  5
146B
330
EB4
100
AcDbEntity
  8
SUNPOU
 62
     0
370
    -2
100
AcDbLine
 10
3637.573705066783
 20
1317.176659052436
 30
0.0
 11
3637.573705066783
 21
1459.358807524524
 31
0.0
  0
LINE
  5
146C
330
EB4
100
AcDbEntity
  8
SUNPOU
 62
     0
370
    -2
100
AcDbLine
 10
3157.573705066783
 20
1459.358807524524
 30
0.0
 11
3617.573705066784
 21
1459.358807524524
 31
0.0
  0
SOLID
  5
146D
330
EB4
100
AcDbEntity
  8
SUNPOU
 62
     0
100
AcDbTrace
 10
3157.573705066783
 20
1462.692140857857
 30
0.0
 11
3157.573705066783
 21
1456.025474191191
 31
0.0
 12
3137.573705066783
 22
1459.358807524524
 32
0.0
 13
3137.573705066783
 23
1459.358807524524
 33
0.0
  0
SOLID
  5
146E
330
EB4
100
AcDbEntity
  8
SUNPOU
 62
     0
100
AcDbTrace
 10
3617.573705066784
 20
1462.692140857857
 30
0.0
 11
3617.573705066784
 21
1456.025474191191
 31
0.0
 12
3637.573705066783
 22
1459.358807524524
 32
0.0
 13
3637.573705066783
 23
1459.358807524524
 33
0.0
  0
MTEXT
  5
146F
330
EB4
100
AcDbEntity
  8
SUNPOU
 62
     0
100
AcDbMText
 10
3387.573705066783
 20
1481.858807524524
 30
0.0
 40
25.0
 41
0.0
 71
     5
 72
     1
  1
\A1;500
  7
BIGFONT
 73
     1
 44
1.0
  0
POINT
  5
1470
330
EB4
100
AcDbEntity
  8
DEFPOINTS
 62
     0
100
AcDbPoint
 10
3137.573705066783
 20
1307.176659052436
 30
0.0
  0
POINT
  5
1471
330
EB4
100
AcDbEntity
  8
DEFPOINTS
 62
     0
100
AcDbPoint
 10
3637.573705066783
 20
1307.176659052436
 30
0.0
  0
POINT
  5
1472
330
EB4
100
AcDbEntity
  8
DEFPOINTS
 62
     0
100
AcDbPoint
 10
3637.573705066783
 20
1459.358807524524
 30
0.0
  0
ENDBLK
  5
EBF
330
EB4
100
AcDbEntity
  8
0
100
AcDbBlockEnd
  0
BLOCK
  5
EC9
330
EC0
100
AcDbEntity
  8
0
100
AcDbBlockBegin
  2
*D41
 70
     1
 10
0.0
 20
0.0
 30
0.0
  3
*D41
  1

  0
LINE
  5
1421
330
EC0
100
AcDbEntity
  8
SUNPOU
 62
     0
370
    -2
100
AcDbLine
 10
3811.940381063324
 20
607.1766590524356
 30
0.0
 11
3958.778975055247
 21
607.1766590524354
 31
0.0
  0
LINE
  5
1422
330
EC0
100
AcDbEntity
  8
SUNPOU
 62
     0
370
    -2
100
AcDbLine
 10
3958.778975055247
 20
1137.176659052435
 30
0.0
 11
3958.778975055247
 21
627.1766590524355
 31
0.0
  0
SOLID
  5
1423
330
EC0
100
AcDbEntity
  8
SUNPOU
 62
     0
100
AcDbTrace
 10
3955.445641721914
 20
1137.176659052435
 30
0.0
 11
3962.112308388581
 21
1137.176659052435
 31
0.0
 12
3958.778975055247
 22
1157.176659052436
 32
0.0
 13
3958.778975055247
 23
1157.176659052436
 33
0.0
  0
SOLID
  5
1424
330
EC0
100
AcDbEntity
  8
SUNPOU
 62
     0
100
AcDbTrace
 10
3955.445641721913
 20
627.1766590524355
 30
0.0
 11
3962.11230838858
 21
627.1766590524355
 31
0.0
 12
3958.778975055247
 22
607.1766590524354
 32
0.0
 13
3958.778975055247
 23
607.1766590524354
 33
0.0
  0
MTEXT
  5
1425
330
EC0
100
AcDbEntity
  8
SUNPOU
 62
     0
100
AcDbMText
 10
3936.278975055247
 20
882.1766590524363
 30
0.0
 40
25.0
 41
0.0
 71
     5
 72
     1
  1
\A1;550
  7
BIGFONT
 11
0.0000000000000001
 21
1.0
 31
0.0
 73
     1
 44
1.0
  0
POINT
  5
1426
330
EC0
100
AcDbEntity
  8
DEFPOINTS
 62
     0
100
AcDbPoint
 10
3793.420354499173
 20
1157.176659052436
 30
0.0
  0
POINT
  5
1427
330
EC0
100
AcDbEntity
  8
DEFPOINTS
 62
     0
100
AcDbPoint
 10
3801.940381063324
 20
607.1766590524356
 30
0.0
  0
POINT
  5
1428
330
EC0
100
AcDbEntity
  8
DEFPOINTS
 62
     0
100
AcDbPoint
 10
3958.778975055247
 20
607.1766590524354
 30
0.0
  0
ENDBLK
  5
ECA
330
EC0
100
AcDbEntity
  8
0
100
AcDbBlockEnd
  0
BLOCK
  5
ED5
330
ECB
100
AcDbEntity
  8
0
100
AcDbBlockBegin
  2
*D42
 70
     1
 10
0.0
 20
0.0
 30
0.0
  3
*D42
  1

  0
LINE
  5
1456
330
ECB
100
AcDbEntity
  8
SUNPOU
 62
     0
370
    -2
100
AcDbLine
 10
3813.420354499174
 20
897.1766590524357
 30
0.0
 11
3881.09966477721
 21
897.1766590524355
 31
0.0
  0
LINE
  5
1457
330
ECB
100
AcDbEntity
  8
SUNPOU
 62
     0
370
    -2
100
AcDbLine
 10
3804.336684921992
 20
657.1766590524356
 30
0.0
 11
3881.09966477721
 21
657.1766590524354
 31
0.0
  0
LINE
  5
1458
330
ECB
100
AcDbEntity
  8
SUNPOU
 62
     0
370
    -2
100
AcDbLine
 10
3881.09966477721
 20
877.1766590524356
 30
0.0
 11
3881.09966477721
 21
677.1766590524355
 31
0.0
  0
SOLID
  5
1459
330
ECB
100
AcDbEntity
  8
SUNPOU
 62
     0
100
AcDbTrace
 10
3877.766331443876
 20
877.1766590524356
 30
0.0
 11
3884.432998110543
 21
877.1766590524356
 31
0.0
 12
3881.09966477721
 22
897.1766590524355
 32
0.0
 13
3881.09966477721
 23
897.1766590524355
 33
0.0
  0
SOLID
  5
145A
330
ECB
100
AcDbEntity
  8
SUNPOU
 62
     0
100
AcDbTrace
 10
3877.766331443876
 20
677.1766590524355
 30
0.0
 11
3884.432998110543
 21
677.1766590524355
 31
0.0
 12
3881.09966477721
 22
657.1766590524354
 32
0.0
 13
3881.09966477721
 23
657.1766590524354
 33
0.0
  0
MTEXT
  5
145B
330
ECB
100
AcDbEntity
  8
SUNPOU
 62
     0
100
AcDbMText
 10
3858.59966477721
 20
777.1766590524362
 30
0.0
 40
25.0
 41
0.0
 71
     5
 72
     1
  1
\A1;240
  7
BIGFONT
 11
0.0000000000000001
 21
1.0
 31
0.0
 73
     1
 44
1.0
  0
POINT
  5
145C
330
ECB
100
AcDbEntity
  8
DEFPOINTS
 62
     0
100
AcDbPoint
 10
3803.420354499174
 20
897.1766590524357
 30
0.0
  0
POINT
  5
145D
330
ECB
100
AcDbEntity
  8
DEFPOINTS
 62
     0
100
AcDbPoint
 10
3794.336684921993
 20
657.1766590524356
 30
0.0
  0
POINT
  5
145E
330
ECB
100
AcDbEntity
  8
DEFPOINTS
 62
     0
100
AcDbPoint
 10
3881.09966477721
 20
657.1766590524354
 30
0.0
  0
ENDBLK
  5
ED6
330
ECB
100
AcDbEntity
  8
0
100
AcDbBlockEnd
  0
BLOCK
  5
EE1
330
ED7
100
AcDbEntity
  8
0
100
AcDbBlockBegin
  2
*D43
 70
     1
 10
0.0
 20
0.0
 30
0.0
  3
*D43
  1

  0
LINE
  5
145F
330
ED7
100
AcDbEntity
  8
SUNPOU
 62
     0
370
    -2
100
AcDbLine
 10
3804.336684921995
 20
657.1766590524357
 30
0.0
 11
3881.09966477721
 21
657.1766590524356
 31
0.0
  0
LINE
  5
1460
330
ED7
100
AcDbEntity
  8
SUNPOU
 62
     0
370
    -2
100
AcDbLine
 10
3801.940381063324
 20
607.1766590524356
 30
0.0
 11
3881.09966477721
 21
607.1766590524354
 31
0.0
  0
LINE
  5
1461
330
ED7
100
AcDbEntity
  8
SUNPOU
 62
     0
370
    -2
100
AcDbLine
 10
3881.09966477721
 20
677.1766590524356
 30
0.0
 11
3881.09966477721
 21
697.1766590524356
 31
0.0
  0
LINE
  5
1462
330
ED7
100
AcDbEntity
  8
SUNPOU
 62
     0
370
    -2
100
AcDbLine
 10
3881.09966477721
 20
587.1766590524355
 30
0.0
 11
3881.09966477721
 21
567.1766590524355
 31
0.0
  0
MTEXT
  5
1463
330
ED7
100
AcDbEntity
  8
SUNPOU
 62
     0
100
AcDbMText
 10
3855.677255867055
 20
561.1810839088835
 30
0.0
 40
25.0
 41
0.0
 71
     5
 72
     1
  1
\A1;50
  7
BIGFONT
 11
0.0000000000000001
 21
1.0
 31
0.0
 73
     1
 44
1.0
  0
LINE
  5
1464
330
ED7
100
AcDbEntity
  8
SUNPOU
 62
     0
370
    -2
100
AcDbLine
 10
3881.09966477721
 20
657.1766590524356
 30
0.0
 11
3881.09966477721
 21
607.1766590524354
 31
0.0
  0
SOLID
  5
1465
330
ED7
100
AcDbEntity
  8
SUNPOU
 62
     0
100
AcDbTrace
 10
3877.766331443876
 20
677.1766590524356
 30
0.0
 11
3884.432998110543
 21
677.1766590524356
 31
0.0
 12
3881.09966477721
 22
657.1766590524356
 32
0.0
 13
3881.09966477721
 23
657.1766590524356
 33
0.0
  0
SOLID
  5
1466
330
ED7
100
AcDbEntity
  8
SUNPOU
 62
     0
100
AcDbTrace
 10
3877.766331443876
 20
587.1766590524355
 30
0.0
 11
3884.432998110543
 21
587.1766590524355
 31
0.0
 12
3881.09966477721
 22
607.1766590524354
 32
0.0
 13
3881.09966477721
 23
607.1766590524354
 33
0.0
  0
POINT
  5
1467
330
ED7
100
AcDbEntity
  8
DEFPOINTS
 62
     0
100
AcDbPoint
 10
3794.336684921995
 20
657.1766590524357
 30
0.0
  0
POINT
  5
1468
330
ED7
100
AcDbEntity
  8
DEFPOINTS
 62
     0
100
AcDbPoint
 10
3791.940381063324
 20
607.1766590524356
 30
0.0
  0
POINT
  5
1469
330
ED7
100
AcDbEntity
  8
DEFPOINTS
 62
     0
100
AcDbPoint
 10
3881.09966477721
 20
607.1766590524354
 30
0.0
  0
ENDBLK
  5
EE2
330
ED7
100
AcDbEntity
  8
0
100
AcDbBlockEnd
  0
BLOCK
  5
F76
330
F6B
100
AcDbEntity
  8
0
100
AcDbBlockBegin
  2
A$C0FE41E00
 70
     0
 10
0.0
 20
0.0
 30
0.0
  3
A$C0FE41E00
  1

  0
LINE
  5
F6C
330
F6B
100
AcDbEntity
  8
HL
100
AcDbLine
 10
345.0
 20
10.000003
 30
0.0
 11
400.0
 21
10.000003
 31
0.0
  0
LINE
  5
F6D
330
F6B
100
AcDbEntity
  8
HL
100
AcDbLine
 10
0.0
 20
60.00000299999999
 30
0.0
 11
400.0
 21
60.00000299999999
 31
0.0
  0
LINE
  5
F6E
330
F6B
100
AcDbEntity
  8
HL
100
AcDbLine
 10
55.0
 20
10.000003
 30
0.0
 11
65.0
 21
0.000003
 31
0.0
  0
LINE
  5
F6F
330
F6B
100
AcDbEntity
  8
KL
100
AcDbLine
 10
25.0
 20
60.00000299999999
 30
0.0
 11
25.0
 21
10.000003
 31
0.0
  0
LINE
  5
F70
330
F6B
100
AcDbEntity
  8
HL
100
AcDbLine
 10
0.0
 20
60.00000299999999
 30
0.0
 11
0.0
 21
10.000003
 31
0.0
  0
LINE
  5
F71
330
F6B
100
AcDbEntity
  8
HL
100
AcDbLine
 10
0.0
 20
10.000003
 30
0.0
 11
55.0
 21
10.000003
 31
0.0
  0
LINE
  5
F72
330
F6B
100
AcDbEntity
  8
HL
100
AcDbLine
 10
65.0
 20
0.000003
 30
0.0
 11
335.0
 21
0.000003
 31
0.0
  0
LINE
  5
F73
330
F6B
100
AcDbEntity
  8
KL
100
AcDbLine
 10
375.0
 20
60.00000299999999
 30
0.0
 11
375.0
 21
10.000003
 31
0.0
  0
LINE
  5
F74
330
F6B
100
AcDbEntity
  8
HL
100
AcDbLine
 10
345.0
 20
10.000003
 30
0.0
 11
335.0
 21
0.000003
 31
0.0
  0
LINE
  5
F75
330
F6B
100
AcDbEntity
  8
HL
100
AcDbLine
 10
400.0
 20
60.00000299999999
 30
0.0
 11
400.0
 21
10.000003
 31
0.0
  0
ENDBLK
  5
F77
330
F6B
100
AcDbEntity
  8
0
100
AcDbBlockEnd
  0
BLOCK
  5
F7A
330
F78
100
AcDbEntity
  8
0
100
AcDbBlockBegin
  2
A$C371162DB
 70
     0
 10
0.0
 20
0.0
 30
0.0
  3
A$C371162DB
  1

  0
INSERT
  5
F79
330
F78
100
AcDbEntity
  8
HL
100
AcDbBlockReference
  2
A$C0FE41E00
 10
0.0
 20
-0.000005
 30
0.0
  0
ENDBLK
  5
F7B
330
F78
100
AcDbEntity
  8
0
100
AcDbBlockEnd
  0
BLOCK
  5
F7E
330
F7C
100
AcDbEntity
  8
0
100
AcDbBlockBegin
  2
A$C57A3340D
 70
     0
 10
0.0
 20
0.0
 30
0.0
  3
A$C57A3340D
  1

  0
INSERT
  5
F7D
330
F7C
100
AcDbEntity
  8
HL
100
AcDbBlockReference
  2
A$C371162DB
 10
-0.000004
 20
0.000003
 30
0.0
  0
ENDBLK
  5
F7F
330
F7C
100
AcDbEntity
  8
0
100
AcDbBlockEnd
  0
ENDSEC
  0
SECTION
  2
ENTITIES
  0
INSERT
  5
4DB
330
18
100
AcDbEntity
  8
0
100
AcDbBlockReference
  2
MASTERS
 10
0.0
 20
0.0
 30
0.0
  0
TEXT
  5
4DC
330
18
100
AcDbEntity
  8
0
100
AcDbText
 10
382.31724370618
 20
1695.536080799962
 30
0.0
 40
70.0
  1
浸透側溝GEU-300構造図
  7
BIGFONT
 72
     4
 11
911.3172437061797
 21
1730.536080799962
 31
0.0
100
AcDbText
  0
TEXT
  5
4DD
330
18
100
AcDbEntity
  8
0
100
AcDbText
 10
1473.816025063243
 20
1693.06685651101
 30
0.0
 40
50.0
  1
Ｓ＝１／１０
  7
BIGFONT
 72
     4
 11
1645.48269172991
 21
1716.400189844343
 31
0.0
100
AcDbText
  0
POINT
  5
4DE
330
18
100
AcDbEntity
  8
DEFPOINTS
  6
ByBlock
 62
   250
100
AcDbPoint
 10
1075.573705066782
 20
1307.176659052436
 30
0.0
  0
LINE
  5
4E4
330
18
100
AcDbEntity
  8
0
 62
   250
100
AcDbLine
 10
1070.573705066782
 20
1257.176659052436
 30
0.0
 11
1017.573705066782
 21
1257.176659052436
 31
0.0
  0
LINE
  5
4E5
330
18
100
AcDbEntity
  8
0
100
AcDbLine
 10
950.796050472206
 20
957.1766590524358
 30
0.0
 11
784.3513596613584
 21
957.1766590524354
 31
0.0
  0
LINE
  5
4E6
330
18
100
AcDbEntity
  8
0
100
AcDbLine
 10
1037.573705066782
 20
897.1766590524357
 30
0.0
 11
697.5737050667821
 21
897.1766590524357
 31
0.0
  0
LINE
  5
4E9
330
18
100
AcDbEntity
  8
0
100
AcDbLine
 10
664.5737050667821
 20
1257.176659052436
 30
0.0
 11
662.5737050667821
 21
1307.176659052435
 31
0.0
  0
LINE
  5
4EA
330
18
100
AcDbEntity
  8
0
100
AcDbLine
 10
1070.573705066782
 20
1257.176659052436
 30
0.0
 11
1072.573705066782
 21
1307.176659052436
 31
0.0
  0
LINE
  5
4EB
330
18
100
AcDbEntity
  8
0
100
AcDbLine
 10
734.4621017685279
 20
1003.850708526247
 30
0.0
 11
717.5737050667821
 21
1257.176659052436
 31
0.0
  0
LINE
  5
4EC
330
18
100
AcDbEntity
  8
0
100
AcDbLine
 10
1017.573705066782
 20
1257.176659052436
 30
0.0
 11
1000.685308365036
 21
1003.850708526247
 31
0.0
  0
LINE
  5
4ED
330
18
100
AcDbEntity
  8
0
 62
   250
100
AcDbLine
 10
717.5737050667824
 20
1257.176659052436
 30
0.0
 11
664.5737050667819
 21
1257.176659052436
 31
0.0
  0
LINE
  5
4EE
330
18
100
AcDbEntity
  8
0
100
AcDbLine
 10
697.5737050667821
 20
897.1766590524357
 30
0.0
 11
677.5737050667821
 21
917.1766590524358
 31
0.0
  0
LINE
  5
4EF
330
18
100
AcDbEntity
  8
0
100
AcDbLine
 10
1037.573705066782
 20
897.1766590524357
 30
0.0
 11
1057.573705066782
 21
917.1766590524358
 31
0.0
  0
LINE
  5
4F0
330
18
100
AcDbEntity
  8
0
100
AcDbLine
 10
1070.573705066782
 20
1157.176659052436
 30
0.0
 11
1117.573705066782
 21
1207.176659052436
 31
0.0
  0
LINE
  5
4F1
330
18
100
AcDbEntity
  8
0
100
AcDbLine
 10
664.5737050667821
 20
1157.176659052436
 30
0.0
 11
617.5737050667821
 21
1207.176659052435
 31
0.0
  0
LINE
  5
4F2
330
18
100
AcDbEntity
  8
0
100
AcDbLine
 10
677.5737050667821
 20
917.1766590524358
 30
0.0
 11
664.5737050667821
 21
1157.176659052436
 31
0.0
  0
LINE
  5
4F3
330
18
100
AcDbEntity
  8
0
100
AcDbLine
 10
1070.573705066782
 20
1157.176659052436
 30
0.0
 11
1057.573705066782
 21
917.1766590524358
 31
0.0
  0
ARC
  5
4F4
330
18
100
AcDbEntity
  8
0
100
AcDbCircle
 10
950.796050472206
 20
1007.176659052436
 30
0.0
 40
50.0
100
AcDbArc
 50
270.0
 51
356.1859251657097
  0
ARC
  5
4F5
330
18
100
AcDbEntity
  8
0
100
AcDbCircle
 10
784.3513596613584
 20
1007.176659052435
 30
0.0
 40
50.0
100
AcDbArc
 50
183.8140748342904
 51
270.0
  0
LINE
  5
4F6
330
18
100
AcDbEntity
  8
0
100
AcDbLine
 10
1202.573705066782
 20
1307.176659052436
 30
0.0
 11
1072.573705066782
 21
1307.176659052435
 31
0.0
  0
DIMENSION
  5
4FE
330
18
100
AcDbEntity
  8
SUNPOU
100
AcDbDimension
  2
*D8
 10
1167.573705066778
 20
461.8386872283426
 30
0.0
 11
867.5737050667782
 21
484.3386872283426
 31
0.0
 70
    32
 71
     5
 42
600.0
  3
DIM1
100
AcDbAlignedDimension
 13
567.5737050667783
 23
607.1766590524357
 33
0.0
 14
1167.573705066778
 24
607.1766590524357
 34
0.0
100
AcDbRotatedDimension
  0
LINE
  5
50A
330
18
100
AcDbEntity
  8
0
100
AcDbLine
 10
1135.573705066782
 20
1307.176659052436
 30
0.0
 11
1492.573705066782
 21
1307.176659052436
 31
0.0
  0
POINT
  5
512
330
18
100
AcDbEntity
  8
DEFPOINTS
  6
ByBlock
 62
   250
100
AcDbPoint
 10
1120.573705066782
 20
1307.176659052436
 30
0.0
  0
DIMENSION
  5
516
330
18
100
AcDbEntity
  8
SUNPOU
100
AcDbDimension
  2
*D9
 10
1017.573705066782
 20
1357.176659052436
 30
0.0
 11
867.5737050667821
 21
1379.676659052436
 31
0.0
 70
    32
 71
     5
 42
300.0
  3
DIM1
100
AcDbAlignedDimension
 13
717.5737050667821
 23
1307.176659052435
 33
0.0
 14
1017.573705066782
 24
1307.176659052436
 34
0.0
100
AcDbRotatedDimension
  0
DIMENSION
  5
536
330
18
100
AcDbEntity
  8
SUNPOU
100
AcDbDimension
  2
*D10
 10
997.5737050667822
 20
1057.176659052436
 30
0.0
 11
867.5737050667821
 21
1079.676659052436
 31
0.0
 70
    32
 71
     5
 42
260.0
  3
DIM1
100
AcDbAlignedDimension
 13
737.5737050667821
 23
957.1766590524356
 33
0.0
 14
997.5737050667822
 24
957.1766590524356
 34
0.0
100
AcDbRotatedDimension
  0
POINT
  5
54A
330
18
100
AcDbEntity
  8
DEFPOINTS
  6
ByBlock
 62
   250
100
AcDbPoint
 10
1057.573705066782
 20
957.1766590524358
 30
0.0
  0
SOLID
  5
56D
330
18
100
AcDbEntity
  8
SUNPOU
100
AcDbTrace
 10
686.0841358148238
 20
916.1034392286238
 30
0.0
 11
686.0841358148238
 21
911.1034392286237
 31
0.0
 12
701.0841358148239
 22
913.6034392286237
 32
0.0
 13
701.0841358148239
 23
913.6034392286237
 33
0.0
  0
LINE
  5
56E
330
18
100
AcDbEntity
  8
SUNPOU
100
AcDbLine
 10
686.0841358148238
 20
913.6034392286237
 30
0.0
 11
358.4026202250043
 21
913.6034392286237
 31
0.0
  0
TEXT
  5
570
330
18
100
AcDbEntity
  8
SUNPOU
100
AcDbText
 10
349.118685682389
 20
925.442248100574
 30
0.0
 40
25.0
  1
GEU-300
  7
BIGFONT
 72
     2
 11
518.166304730008
 21
937.942248100574
 31
0.0
100
AcDbText
 73
     2
  0
DIMENSION
  5
5C9
330
18
100
AcDbEntity
  8
SUNPOU
100
AcDbDimension
  2
*D11
 10
919.8222874343946
 20
897.1766590524355
 30
0.0
 11
898.3731438235826
 21
927.1766590524359
 31
0.0
 70
   160
 71
     5
 42
60.00000000000023
  3
DIM1
100
AcDbAlignedDimension
 13
919.8222874343946
 23
957.1766590524358
 33
0.0
 14
919.8222874343946
 24
897.1766590524355
 34
0.0
 50
90.0
100
AcDbRotatedDimension
  0
DIMENSION
  5
5E1
330
18
100
AcDbEntity
  8
SUNPOU
100
AcDbDimension
  2
*D12
 10
919.8222874343946
 20
1257.176659052435
 30
0.0
 11
897.3222874343946
 21
1132.83413857514
 31
0.0
 70
   160
 71
     5
 42
299.9999999999999
  3
DIM1
100
AcDbAlignedDimension
 13
919.8222874343946
 23
957.1766590524356
 33
0.0
 14
919.8222874343946
 24
1257.176659052435
 34
0.0
 50
90.0
100
AcDbRotatedDimension
  0
DIMENSION
  5
5FB
330
18
100
AcDbEntity
  8
SUNPOU
100
AcDbDimension
  2
*D13
 10
919.8222874343946
 20
1307.176659052436
 30
0.0
 11
896.8369551874511
 21
1282.176659052436
 31
0.0
 70
   160
 71
     5
 42
50.00000000000023
  3
DIM1
100
AcDbAlignedDimension
 13
919.8222874343946
 23
1257.176659052435
 33
0.0
 14
919.8222874343946
 24
1307.176659052436
 34
0.0
 50
90.0
100
AcDbRotatedDimension
  0
DIMENSION
  5
60A
330
18
100
AcDbEntity
  8
SUNPOU
100
AcDbDimension
  2
*D14
 10
1057.573705066782
 20
1057.176659052436
 30
0.0
 11
1027.573705066782
 21
1084.676659052435
 31
0.0
 70
    32
 71
     5
 42
60.0
  3
DIM1
100
AcDbAlignedDimension
 13
997.5737050667822
 23
957.1766590524356
 33
0.0
 14
1057.573705066782
 24
957.1766590524356
 34
0.0
100
AcDbRotatedDimension
  0
DIMENSION
  5
60B
330
18
100
AcDbEntity
  8
SUNPOU
100
AcDbDimension
  2
*D15
 10
677.5737050667821
 20
1057.176659052436
 30
0.0
 11
707.5737050667822
 21
1084.676659052435
 31
0.0
 70
    32
 71
     5
 42
60.0
  3
DIM1
100
AcDbAlignedDimension
 13
737.5737050667821
 23
957.1766590524356
 33
0.0
 14
677.5737050667821
 24
957.1766590524356
 34
0.0
100
AcDbRotatedDimension
  0
DIMENSION
  5
6B7
330
18
100
AcDbEntity
  8
SUNPOU
100
AcDbDimension
  2
*D16
 10
1438.778975055245
 20
1157.176659052436
 30
0.0
 11
1416.278975055245
 21
1232.176659052436
 31
0.0
 70
    32
 71
     5
 42
150.0
  3
DIM1
100
AcDbAlignedDimension
 13
1270.390935874166
 23
1307.176659052436
 33
0.0
 14
1273.420354499172
 24
1157.176659052436
 34
0.0
 50
90.0
100
AcDbRotatedDimension
  0
DIMENSION
  5
6C3
330
18
100
AcDbEntity
  8
SUNPOU
100
AcDbDimension
  2
*D17
 10
1361.099664777209
 20
897.1766590524355
 30
0.0
 11
1338.599664777209
 21
1027.176659052436
 31
0.0
 70
    32
 71
     5
 42
260.0000000000001
  3
DIM1
100
AcDbAlignedDimension
 13
1273.420354499172
 23
1157.176659052436
 33
0.0
 14
1273.420354499172
 24
897.1766590524357
 34
0.0
 50
90.0
100
AcDbRotatedDimension
1001
ACAD
1000
DSTYLE
1002
{
1070
    75
1070
     1
1002
}
  0
DIMENSION
  5
6F7
330
18
100
AcDbEntity
  8
SUNPOU
100
AcDbDimension
  2
*D18
 10
1501.859175877462
 20
607.1766590524354
 30
0.0
 11
1479.359175877462
 21
957.1766590524358
 31
0.0
 70
    32
 71
     5
 42
700.0
  3
DIM1
100
AcDbAlignedDimension
 13
1260.390935874166
 23
1307.176659052436
 33
0.0
 14
1281.940381063323
 24
607.1766590524354
 34
0.0
 50
90.0
100
AcDbRotatedDimension
  0
HATCH
  5
92D
330
18
100
AcDbEntity
  8
NAZORI
100
AcDbHatch
 10
0.0
 20
0.0
 30
0.0
210
0.0
220
0.0
230
1.0
  2
HONEY
 70
     0
 71
     0
 91
        2
 92
        7
 72
     1
 73
     1
 93
        5
 10
1070.573705066782
 20
1157.176659052436
 42
0.0
 10
1010.907038400115
 20
1157.176659052436
 42
0.0
 10
1000.685308365036
 20
1003.850708526247
 42
-0.033710199725894
 10
999.7858453278695
 20
997.1766590524357
 42
0.0
 10
1061.907038400115
 20
997.1766590524357
 42
0.0
 97
        0
 92
      153
 93
        4
 72
     1
 10
1001.085609828687
 20
1103.426659052435
 11
1054.061800304877
 21
1103.426659052435
 72
     1
 10
1054.061800304877
 20
1103.426659052435
 11
1054.061800304877
 21
1065.926659052435
 72
     1
 10
1054.061800304877
 20
1065.926659052435
 11
1001.085609828687
 21
1065.926659052435
 72
     1
 10
1001.085609828687
 20
1065.926659052435
 11
1001.085609828687
 21
1103.426659052435
 97
        0
 75
     0
 76
     1
 52
10.0
 41
60.0
 77
     0
 78
     3
 53
10.0
 43
-529.3154157936005
 44
0.0
 45
9.951209227462781
 46
8.350055960444205
 79
     2
 49
7.499999999999999
 49
-15.0
 53
130.0
 43
-529.3154157936005
 44
0.0
 45
-12.20696519849774
 46
4.442972009134786
 79
     2
 49
7.5
 49
-15.0
 53
70.0
 43
-529.3154157936005
 44
0.0
 45
-2.255755971034959
 46
12.79302796957899
 79
     2
 49
-15.0
 49
7.499999999999999
 47
2.162163071610333
 98
        1
 10
1054.42471895303
 20
1083.142433173368
  0
DIMENSION
  5
93B
330
18
100
AcDbEntity
  8
SUNPOU
100
AcDbDimension
  2
*D19
 10
1117.573705066782
 20
1459.358807524524
 30
0.0
 11
867.5737050667821
 21
1481.858807524524
 31
0.0
 70
    32
 71
     5
 42
500.0
  3
DIM1
100
AcDbAlignedDimension
 13
617.5737050667821
 23
1307.176659052436
 33
0.0
 14
1117.573705066782
 24
1307.176659052436
 34
0.0
100
AcDbRotatedDimension
  0
INSERT
  5
970
330
18
100
AcDbEntity
  8
0
100
AcDbBlockReference
  2
A$C67384017
 10
396.2132271088553
 20
1217.176660151165
 30
0.0
  0
LINE
  5
ADC
330
18
100
AcDbEntity
  8
0
100
AcDbLine
 10
1117.573705066782
 20
1207.176659052436
 30
0.0
 11
1117.573705066782
 21
1307.176659052436
 31
0.0
  0
LINE
  5
AEA
330
18
100
AcDbEntity
  8
0
100
AcDbLine
 10
617.5737050667821
 20
1307.176659052436
 30
0.0
 11
662.5737050667821
 21
1307.176659052435
 31
0.0
  0
LINE
  5
AEB
330
18
100
AcDbEntity
  8
0
100
AcDbLine
 10
617.5737050667821
 20
1207.176659052435
 30
0.0
 11
617.5737050667821
 21
1307.176659052436
 31
0.0
  0
HATCH
  5
B09
330
18
100
AcDbEntity
  8
NAZORI
100
AcDbHatch
 10
0.0
 20
0.0
 30
0.0
210
0.0
220
0.0
230
1.0
  2
HONEY
 70
     0
 71
     0
 91
        2
 92
        7
 72
     1
 73
     1
 93
        5
 10
664.5737050667744
 20
1157.176659052436
 42
0.0
 10
724.2403717334411
 20
1157.176659052436
 42
0.0
 10
734.4621017685201
 20
1003.850708526247
 42
0.033710199725894
 10
735.361564805687
 20
997.1766590524357
 42
0.0
 10
673.2403717334409
 20
997.1766590524357
 42
0.0
 97
        0
 92
      153
 93
        4
 72
     1
 10
734.0618003048696
 20
1103.426659052435
 11
681.0856098286792
 21
1103.426659052435
 72
     1
 10
681.0856098286792
 20
1103.426659052435
 11
681.0856098286792
 21
1065.926659052435
 72
     1
 10
681.0856098286792
 20
1065.926659052435
 11
734.0618003048696
 21
1065.926659052435
 72
     1
 10
734.0618003048696
 20
1065.926659052435
 11
734.0618003048696
 21
1103.426659052435
 97
        0
 75
     0
 76
     1
 52
10.0
 41
60.0
 77
     0
 78
     3
 53
170.0
 43
2264.462825927157
 44
0.0
 45
-9.951209227462781
 46
8.350055960444205
 79
     2
 49
7.499999999999998
 49
-15.0
 53
50.00000000000003
 43
2264.462825927157
 44
0.0
 45
12.20696519849774
 46
4.442972009134786
 79
     2
 49
7.5
 49
-15.0
 53
110.0
 43
2264.462825927157
 44
0.0
 45
2.255755971034959
 46
12.79302796957899
 79
     2
 49
-15.0
 49
7.499999999999999
 47
2.162163071610333
 98
        1
 10
680.7226911805259
 20
1083.142433173368
  0
LINE
  5
B0A
330
18
100
AcDbEntity
  8
0
100
AcDbLine
 10
617.5737050667821
 20
1307.176659052436
 30
0.0
 11
344.4983246846987
 21
1307.176659052436
 31
0.0
  0
LINE
  5
B0B
330
18
100
AcDbEntity
  8
0
100
AcDbLine
 10
664.5194550683434
 20
1158.178197485153
 30
0.0
 11
567.5737050667783
 21
1158.178197485153
 31
0.0
  0
LINE
  5
B40
330
18
100
AcDbEntity
  8
0
100
AcDbLine
 10
1070.573705066782
 20
1157.176659052436
 30
0.0
 11
1167.573705066778
 21
1157.176659052436
 31
0.0
  0
LINE
  5
B43
330
18
100
AcDbEntity
  8
0
100
AcDbLine
 10
567.5737050667783
 20
607.1766590524357
 30
0.0
 11
1167.573705066778
 21
607.1766590524357
 31
0.0
  0
LINE
  5
B46
330
18
100
AcDbEntity
  8
0
100
AcDbLine
 10
567.5737050667783
 20
1158.178197485153
 30
0.0
 11
567.5737050667783
 21
557.1766590524357
 31
0.0
  0
LINE
  5
B47
330
18
100
AcDbEntity
  8
0
100
AcDbLine
 10
1167.573705066778
 20
1157.176659052436
 30
0.0
 11
1167.573705066778
 21
557.1766590524357
 31
0.0
  0
LINE
  5
B48
330
18
100
AcDbEntity
  8
KL
100
AcDbLine
 10
1177.573705066778
 20
1167.176659052436
 30
0.0
 11
1177.573705066778
 21
597.1766590524356
 31
0.0
  0
LINE
  5
B49
330
18
100
AcDbEntity
  8
KL
100
AcDbLine
 10
1079.973705066782
 20
1167.176659052436
 30
0.0
 11
1177.573705066778
 21
1167.176659052436
 31
0.0
  0
LINE
  5
B4A
330
18
100
AcDbEntity
  8
KL
100
AcDbLine
 10
654.2322589400278
 20
1168.178197485153
 30
0.0
 11
557.2865089384626
 21
1168.178197485153
 31
0.0
  0
LINE
  5
B4B
330
18
100
AcDbEntity
  8
KL
100
AcDbLine
 10
557.5737050667783
 20
1168.178197485153
 30
0.0
 11
557.5737050667785
 21
597.1766590524355
 31
0.0
  0
HATCH
  5
B8F
330
18
100
AcDbEntity
  8
NAZORI
100
AcDbHatch
 10
0.0
 20
0.0
 30
0.0
210
0.0
220
0.0
230
1.0
  2
HONEY
 70
     0
 71
     0
 91
        2
 92
        7
 72
     0
 73
     1
 93
        4
 10
672.9472907395927
 20
1002.587385092861
 10
567.573705066778
 20
1002.587385092861
 10
567.5737050667783
 20
922.6128026763515
 10
675.3275296181884
 20
958.6445134880078
 97
        0
 92
        7
 72
     0
 73
     1
 93
        5
 10
664.5737050667824
 20
1157.176659052435
 10
663.6322589400279
 20
1158.178197485153
 10
567.5737050667783
 20
1158.178197485153
 10
567.5737050667785
 20
1002.587385092861
 10
672.9472907395924
 20
1002.587385092861
 97
        0
 75
     0
 76
     1
 52
10.0
 41
110.0
 77
     0
 78
     3
 53
10.0
 43
-529.3154157936005
 44
0.0
 45
18.24388358368176
 46
15.30843592748104
 79
     2
 49
13.75
 49
-27.5
 53
130.0
 43
-529.3154157936005
 44
0.0
 45
-22.37943619724586
 46
8.145448683413775
 79
     2
 49
13.75
 49
-27.5
 53
70.0
 43
-529.3154157936005
 44
0.0
 45
-4.135552613564091
 46
23.45388461089482
 79
     2
 49
-27.5
 49
13.75
 47
2.004577565555432
 98
        2
 10
633.3341911256702
 20
992.606469227625
 10
637.3485340185079
 20
1052.743796954904
  0
HATCH
  5
BA4
330
18
100
AcDbEntity
  8
NAZORI
100
AcDbHatch
 10
0.0
 20
0.0
 30
0.0
210
0.0
220
0.0
230
1.0
  2
HONEY
 70
     0
 71
     0
 91
        2
 92
        7
 72
     0
 73
     1
 93
        5
 10
1167.573705066778
 20
916.5456597658307
 10
920.3171740847775
 20
834.2332235921357
 10
867.5737050667782
 20
752.7439686847276
 10
867.5737050667782
 20
657.1766590524357
 10
1167.573705066778
 20
657.1766590524357
 97
        0
 92
        7
 72
     0
 73
     1
 93
        3
 10
867.573705066778
 20
752.7439686847277
 10
805.7182930808467
 20
657.1766590524357
 10
867.5737050667782
 20
657.1766590524357
 97
        0
 75
     0
 76
     1
 52
10.0
 41
110.0
 77
     0
 78
     3
 53
10.0
 43
-529.3154157936005
 44
0.0
 45
18.24388358368176
 46
15.30843592748104
 79
     2
 49
13.74999999999999
 49
-27.49999999999999
 53
130.0
 43
-529.3154157936005
 44
0.0
 45
-22.37943619724586
 46
8.145448683413775
 79
     2
 49
13.75
 49
-27.5
 53
70.0
 43
-529.3154157936005
 44
0.0
 45
-4.135552613564091
 46
23.45388461089482
 79
     2
 49
-27.49999999999999
 49
13.74999999999999
 47
2.004577565555432
 98
        2
 10
962.509894023311
 20
725.9976530186349
 10
842.0797552078411
 20
673.8786346143934
  0
DIMENSION
  5
C36
330
18
100
AcDbEntity
  8
SUNPOU
100
AcDbDimension
  2
*D26
 10
1438.778975055245
 20
607.1766590524354
 30
0.0
 11
1416.278975055245
 21
882.1766590524358
 31
0.0
 70
    32
 71
     5
 42
550.0
  3
DIM1
100
AcDbAlignedDimension
 13
1273.420354499172
 23
1157.176659052436
 33
0.0
 14
1281.940381063323
 24
607.1766590524354
 34
0.0
 50
90.0
100
AcDbRotatedDimension
1001
ACAD
1000
DSTYLE
1002
{
1070
    75
1070
     1
1002
}
  0
TEXT
  5
CBC
330
18
100
AcDbEntity
  8
SUNPOU
100
AcDbText
 10
356.3986982849062
 20
1020.563017648916
 30
0.0
 40
25.0
  1
単粒度砕石
  7
BIGFONT
 72
     2
 11
499.7320316182395
 21
1033.063017648916
 31
0.0
100
AcDbText
 73
     2
  0
LINE
  5
CBD
330
18
100
AcDbEntity
  8
SUNPOU
100
AcDbLine
 10
628.7719244442269
 20
1008.724208776965
 30
0.0
 11
358.4026202250043
 21
1008.724208776965
 31
0.0
  0
SOLID
  5
CBE
330
18
100
AcDbEntity
  8
SUNPOU
100
AcDbTrace
 10
612.3470528459468
 20
1011.224208776965
 30
0.0
 11
612.3470528459468
 21
1006.224208776965
 31
0.0
 12
627.3470528459467
 22
1008.724208776965
 32
0.0
 13
627.3470528459467
 23
1008.724208776965
 33
0.0
  0
TEXT
  5
CBF
330
18
100
AcDbEntity
  8
SUNPOU
100
AcDbText
 10
411.6377496358451
 20
644.9065869305468
 30
0.0
 40
25.0
  1
敷き砂
  7
BIGFONT
 72
     2
 11
494.9710829691785
 21
657.4065869305468
 31
0.0
100
AcDbText
 73
     2
  0
LINE
  5
CC0
330
18
100
AcDbEntity
  8
SUNPOU
100
AcDbLine
 10
607.5861041968858
 20
633.0677780585965
 30
0.0
 11
402.799726888531
 21
633.0677780585965
 31
0.0
  0
SOLID
  5
CC1
330
18
100
AcDbEntity
  8
SUNPOU
100
AcDbTrace
 10
607.5861041968858
 20
635.5677780585965
 30
0.0
 11
607.5861041968858
 21
630.5677780585965
 31
0.0
 12
622.5861041968857
 22
633.0677780585965
 32
0.0
 13
622.5861041968857
 23
633.0677780585965
 33
0.0
  0
TEXT
  5
CC2
330
18
100
AcDbEntity
  8
SUNPOU
100
AcDbText
 10
361.3986982849061
 20
1177.715585086907
 30
0.0
 40
25.0
  1
透水シート
  7
BIGFONT
 72
     2
 11
499.7320316182395
 21
1190.215585086908
 31
0.0
100
AcDbText
 73
     2
  0
LINE
  5
CC3
330
18
100
AcDbEntity
  8
SUNPOU
100
AcDbLine
 10
557.5737050667783
 20
1165.876776214957
 30
0.0
 11
358.4026202250043
 21
1165.876776214957
 31
0.0
  0
SOLID
  5
CC4
330
18
100
AcDbEntity
  8
SUNPOU
100
AcDbTrace
 10
542.5737050667783
 20
1168.376776214957
 30
0.0
 11
542.5737050667783
 21
1163.376776214957
 31
0.0
 12
557.5737050667783
 22
1165.876776214957
 32
0.0
 13
557.5737050667783
 23
1165.876776214957
 33
0.0
  0
DIMENSION
  5
D00
330
18
100
AcDbEntity
  8
SUNPOU
100
AcDbDimension
  2
*D27
 10
1361.099664777209
 20
657.1766590524354
 30
0.0
 11
1338.599664777209
 21
777.1766590524358
 31
0.0
 70
    32
 71
     5
 42
240.0000000000001
  3
DIM1
100
AcDbAlignedDimension
 13
1283.420354499172
 23
897.1766590524357
 33
0.0
 14
1274.336684921993
 24
657.1766590524356
 34
0.0
 50
90.0
100
AcDbRotatedDimension
  0
DIMENSION
  5
D31
330
18
100
AcDbEntity
  8
SUNPOU
100
AcDbDimension
  2
*D28
 10
1361.099664777209
 20
607.1766590524354
 30
0.0
 11
1335.038522381624
 21
556.1646144708279
 31
0.0
 70
   160
 71
     5
 42
50.00000000000011
  3
DIM1
100
AcDbAlignedDimension
 13
1274.336684921994
 23
657.1766590524357
 33
0.0
 14
1271.940381063323
 24
607.1766590524356
 34
0.0
 50
90.0
100
AcDbRotatedDimension
  0
TEXT
  5
DE8
330
18
100
AcDbEntity
  8
0
100
AcDbText
 10
3993.816025063244
 20
1693.06685651101
 30
0.0
 40
50.0
  1
Ｓ＝１／１０
  7
BIGFONT
 72
     4
 11
4165.48269172991
 21
1716.400189844343
 31
0.0
100
AcDbText
  0
LINE
  5
DE9
330
18
100
AcDbEntity
  8
0
100
AcDbLine
 10
3655.573705066783
 20
1307.176659052436
 30
0.0
 11
4012.573705066783
 21
1307.176659052436
 31
0.0
  0
DIMENSION
  5
DEA
330
18
100
AcDbEntity
  8
SUNPOU
100
AcDbDimension
  2
*D39
 10
4021.859175877462
 20
607.1766590524354
 30
0.0
 11
3999.359175877463
 21
957.1766590524363
 31
0.0
 70
    32
 71
     5
 42
700.0000000000002
  3
DIM1
100
AcDbAlignedDimension
 13
3780.390935874168
 23
1307.176659052436
 33
0.0
 14
3801.940381063324
 24
607.1766590524356
 34
0.0
 50
90.0
100
AcDbRotatedDimension
  0
LINE
  5
DEB
330
18
100
AcDbEntity
  8
0
100
AcDbLine
 10
3537.573705066783
 20
1257.176659052436
 30
0.0
 11
3520.685308365038
 21
1003.850708526247
 31
0.0
  0
LINE
  5
DEC
330
18
100
AcDbEntity
  8
0
100
AcDbLine
 10
3590.573705066783
 20
1157.176659052436
 30
0.0
 11
3577.573705066783
 21
917.1766590524358
 31
0.0
  0
DIMENSION
  5
DED
330
18
100
AcDbEntity
  8
SUNPOU
100
AcDbDimension
  2
*D35
 10
3577.573705066783
 20
1057.176659052436
 30
0.0
 11
3547.573705066783
 21
1084.676659052435
 31
0.0
 70
    32
 71
     5
 42
60.0
  3
DIM1
100
AcDbAlignedDimension
 13
3517.573705066784
 23
957.1766590524356
 33
0.0
 14
3577.573705066783
 24
957.1766590524356
 34
0.0
100
AcDbRotatedDimension
  0
DIMENSION
  5
DEE
330
18
100
AcDbEntity
  8
SUNPOU
100
AcDbDimension
  2
*D38
 10
3881.09966477721
 20
897.1766590524355
 30
0.0
 11
3858.59966477721
 21
1027.176659052436
 31
0.0
 70
    32
 71
     5
 42
260.0000000000002
  3
DIM1
100
AcDbAlignedDimension
 13
3793.420354499173
 23
1157.176659052436
 33
0.0
 14
3793.420354499173
 24
897.1766590524357
 34
0.0
 50
90.0
100
AcDbRotatedDimension
1001
ACAD
1000
DSTYLE
1002
{
1070
    75
1070
     1
1002
}
  0
HATCH
  5
DEF
330
18
100
AcDbEntity
  8
NAZORI
100
AcDbHatch
 10
0.0
 20
0.0
 30
0.0
210
0.0
220
0.0
230
1.0
  2
HONEY
 70
     0
 71
     0
 91
        2
 92
        7
 72
     1
 73
     1
 93
        5
 10
3590.573705066783
 20
1157.176659052436
 42
0.0
 10
3530.907038400116
 20
1157.176659052436
 42
0.0
 10
3520.685308365038
 20
1003.850708526247
 42
-0.033710199725894
 10
3519.78584532787
 20
997.1766590524357
 42
0.0
 10
3581.907038400117
 20
997.1766590524357
 42
0.0
 97
        0
 92
      153
 93
        4
 72
     1
 10
3521.085609828688
 20
1103.426659052435
 11
3574.061800304878
 21
1103.426659052435
 72
     1
 10
3574.061800304879
 20
1103.426659052435
 11
3574.061800304879
 21
1065.926659052435
 72
     1
 10
3574.061800304879
 20
1065.926659052435
 11
3521.085609828688
 21
1065.926659052435
 72
     1
 10
3521.085609828688
 20
1065.926659052435
 11
3521.085609828688
 21
1103.426659052435
 97
        0
 75
     0
 76
     1
 52
10.0
 41
60.0
 77
     0
 78
     3
 53
10.0
 43
1990.6845842064
 44
0.0
 45
9.951209227462781
 46
8.350055960444205
 79
     2
 49
7.499999999999994
 49
-14.99999999999999
 53
130.0
 43
1990.6845842064
 44
0.0
 45
-12.20696519849774
 46
4.442972009134786
 79
     2
 49
7.5
 49
-15.0
 53
70.0
 43
1990.6845842064
 44
0.0
 45
-2.255755971034959
 46
12.79302796957899
 79
     2
 49
-14.99999999999999
 49
7.499999999999994
 47
2.162163071610333
 98
        1
 10
3574.424718953031
 20
1083.142433173368
  0
LINE
  5
DF0
330
18
100
AcDbEntity
  8
0
100
AcDbLine
 10
3687.57370506678
 20
1157.176659052436
 30
0.0
 11
3687.57370506678
 21
557.1766590524357
 31
0.0
  0
LINE
  5
DF1
330
18
100
AcDbEntity
  8
KL
100
AcDbLine
 10
3697.57370506678
 20
1167.176659052436
 30
0.0
 11
3697.573705066779
 21
597.1766590524357
 31
0.0
  0
DIMENSION
  5
DF2
330
18
100
AcDbEntity
  8
SUNPOU
100
AcDbDimension
  2
*D41
 10
3958.778975055247
 20
607.1766590524354
 30
0.0
 11
3936.278975055247
 21
882.1766590524363
 31
0.0
 70
    32
 71
     5
 42
550.0000000000002
  3
DIM1
100
AcDbAlignedDimension
 13
3793.420354499173
 23
1157.176659052436
 33
0.0
 14
3801.940381063324
 24
607.1766590524356
 34
0.0
 50
90.0
100
AcDbRotatedDimension
1001
ACAD
1000
DSTYLE
1002
{
1070
    75
1070
     1
1002
}
  0
LINE
  5
DF3
330
18
100
AcDbEntity
  8
0
100
AcDbLine
 10
3254.462101768529
 20
1003.850708526247
 30
0.0
 11
3237.573705066783
 21
1257.176659052436
 31
0.0
  0
LINE
  5
DF4
330
18
100
AcDbEntity
  8
0
100
AcDbLine
 10
3197.573705066783
 20
917.1766590524358
 30
0.0
 11
3184.573705066783
 21
1157.176659052436
 31
0.0
  0
DIMENSION
  5
DF5
330
18
100
AcDbEntity
  8
SUNPOU
100
AcDbDimension
  2
*D33
 10
3439.822287434396
 20
1257.176659052435
 30
0.0
 11
3417.322287434396
 21
1132.83413857514
 31
0.0
 70
   160
 71
     5
 42
299.9999999999998
  3
DIM1
100
AcDbAlignedDimension
 13
3439.822287434396
 23
957.1766590524356
 33
0.0
 14
3439.822287434396
 24
1257.176659052435
 34
0.0
 50
90.0
100
AcDbRotatedDimension
  0
DIMENSION
  5
DF6
330
18
100
AcDbEntity
  8
SUNPOU
100
AcDbDimension
  2
*D36
 10
3197.573705066783
 20
1057.176659052436
 30
0.0
 11
3227.573705066783
 21
1084.676659052435
 31
0.0
 70
    32
 71
     5
 42
60.0
  3
DIM1
100
AcDbAlignedDimension
 13
3257.573705066783
 23
957.1766590524356
 33
0.0
 14
3197.573705066783
 24
957.1766590524356
 34
0.0
100
AcDbRotatedDimension
  0
HATCH
  5
DF7
330
18
100
AcDbEntity
  8
NAZORI
100
AcDbHatch
 10
0.0
 20
0.0
 30
0.0
210
0.0
220
0.0
230
1.0
  2
HONEY
 70
     0
 71
     0
 91
        2
 92
        7
 72
     1
 73
     1
 93
        5
 10
3184.573705066775
 20
1157.176659052436
 42
0.0
 10
3244.240371733442
 20
1157.176659052436
 42
0.0
 10
3254.462101768522
 20
1003.850708526247
 42
0.033710199725894
 10
3255.361564805689
 20
997.1766590524357
 42
0.0
 10
3193.240371733442
 20
997.1766590524357
 42
0.0
 97
        0
 92
      153
 93
        4
 72
     1
 10
3254.061800304871
 20
1103.426659052435
 11
3201.08560982868
 21
1103.426659052435
 72
     1
 10
3201.08560982868
 20
1103.426659052435
 11
3201.08560982868
 21
1065.926659052435
 72
     1
 10
3201.08560982868
 20
1065.926659052435
 11
3254.061800304871
 21
1065.926659052435
 72
     1
 10
3254.061800304871
 20
1065.926659052435
 11
3254.061800304871
 21
1103.426659052435
 97
        0
 75
     0
 76
     1
 52
10.0
 41
60.0
 77
     0
 78
     3
 53
170.0
 43
4784.462825927159
 44
0.0
 45
-9.951209227462781
 46
8.350055960444205
 79
     2
 49
7.499999999999993
 49
-14.99999999999999
 53
50.00000000000003
 43
4784.462825927159
 44
0.0
 45
12.20696519849774
 46
4.442972009134786
 79
     2
 49
7.5
 49
-15.0
 53
109.9999999999999
 43
4784.462825927159
 44
0.0
 45
2.255755971034959
 46
12.79302796957899
 79
     2
 49
-14.99999999999999
 49
7.499999999999997
 47
2.162163071610333
 98
        1
 10
3200.722691180527
 20
1083.142433173368
  0
LINE
  5
DF9
330
18
100
AcDbEntity
  8
0
100
AcDbLine
 10
3087.573705066779
 20
1158.178197485153
 30
0.0
 11
3087.573705066779
 21
557.1766590524357
 31
0.0
  0
LINE
  5
DFA
330
18
100
AcDbEntity
  8
KL
100
AcDbLine
 10
3077.57370506678
 20
1168.178197485153
 30
0.0
 11
3077.57370506678
 21
597.1766590524356
 31
0.0
  0
HATCH
  5
DFB
330
18
100
AcDbEntity
  8
NAZORI
100
AcDbHatch
 10
0.0
 20
0.0
 30
0.0
210
0.0
220
0.0
230
1.0
  2
HONEY
 70
     0
 71
     0
 91
        2
 92
        7
 72
     0
 73
     1
 93
        4
 10
3192.947290739594
 20
1002.587385092861
 10
3087.573705066779
 20
1002.587385092861
 10
3087.573705066779
 20
922.6128026763515
 10
3195.327529618189
 20
958.6445134880078
 97
        0
 92
        7
 72
     0
 73
     1
 93
        5
 10
3184.573705066783
 20
1157.176659052435
 10
3183.632258940029
 20
1158.178197485153
 10
3087.573705066779
 20
1158.178197485153
 10
3087.573705066779
 20
1002.587385092861
 10
3192.947290739594
 20
1002.587385092861
 97
        0
 75
     0
 76
     1
 52
10.0
 41
110.0
 77
     0
 78
     3
 53
10.0
 43
1990.6845842064
 44
0.0
 45
18.24388358368176
 46
15.30843592748104
 79
     2
 49
13.74999999999999
 49
-27.49999999999998
 53
130.0
 43
1990.6845842064
 44
0.0
 45
-22.37943619724586
 46
8.145448683413775
 79
     2
 49
13.75
 49
-27.5
 53
70.0
 43
1990.6845842064
 44
0.0
 45
-4.135552613564091
 46
23.45388461089482
 79
     2
 49
-27.49999999999998
 49
13.74999999999999
 47
2.004577565555432
 98
        2
 10
3153.334191125671
 20
992.606469227625
 10
3157.348534018509
 20
1052.743796954904
  0
DIMENSION
  5
DFC
330
18
100
AcDbEntity
  8
SUNPOU
100
AcDbDimension
  2
*D31
 10
3517.573705066784
 20
1057.176659052436
 30
0.0
 11
3387.573705066783
 21
1079.676659052436
 31
0.0
 70
    32
 71
     5
 42
260.0
  3
DIM1
100
AcDbAlignedDimension
 13
3257.573705066783
 23
957.1766590524356
 33
0.0
 14
3517.573705066784
 24
957.1766590524356
 34
0.0
100
AcDbRotatedDimension
  0
LINE
  5
DFD
330
18
100
AcDbEntity
  8
SUNPOU
100
AcDbLine
 10
3206.084135814825
 20
913.6034392286237
 30
0.0
 11
2878.402620225005
 21
913.6034392286237
 31
0.0
  0
LINE
  5
DFE
330
18
100
AcDbEntity
  8
SUNPOU
100
AcDbLine
 10
3148.771924444228
 20
1008.724208776965
 30
0.0
 11
2878.402620225005
 21
1008.724208776965
 31
0.0
  0
LINE
  5
DFF
330
18
100
AcDbEntity
  8
SUNPOU
100
AcDbLine
 10
3127.586104196887
 20
633.0677780585965
 30
0.0
 11
2922.799726888532
 21
633.0677780585965
 31
0.0
  0
TEXT
  5
E00
330
18
100
AcDbEntity
  8
SUNPOU
100
AcDbText
 10
2931.637749635846
 20
644.9065869305468
 30
0.0
 40
25.0
  1
敷き砂
  7
BIGFONT
 72
     2
 11
3014.97108296918
 21
657.4065869305468
 31
0.0
100
AcDbText
 73
     2
  0
TEXT
  5
E01
330
18
100
AcDbEntity
  8
SUNPOU
100
AcDbText
 10
2869.11868568239
 20
925.442248100574
 30
0.0
 40
25.0
  1
GEU-300
  7
BIGFONT
 72
     2
 11
3038.166304730009
 21
937.942248100574
 31
0.0
100
AcDbText
 73
     2
  0
TEXT
  5
E02
330
18
100
AcDbEntity
  8
SUNPOU
100
AcDbText
 10
2876.398698284907
 20
1020.563017648916
 30
0.0
 40
25.0
  1
単粒度砕石
  7
BIGFONT
 72
     2
 11
3019.732031618241
 21
1033.063017648916
 31
0.0
100
AcDbText
 73
     2
  0
LINE
  5
E03
330
18
100
AcDbEntity
  8
0
100
AcDbLine
 10
3557.573705066783
 20
897.1766590524357
 30
0.0
 11
3217.573705066783
 21
897.1766590524357
 31
0.0
  0
DIMENSION
  5
E04
330
18
100
AcDbEntity
  8
SUNPOU
100
AcDbDimension
  2
*D29
 10
3687.57370506678
 20
461.8386872283426
 30
0.0
 11
3387.57370506678
 21
484.3386872283426
 31
0.0
 70
    32
 71
     5
 42
600.0
  3
DIM1
100
AcDbAlignedDimension
 13
3087.573705066779
 23
607.1766590524357
 33
0.0
 14
3687.57370506678
 24
607.1766590524357
 34
0.0
100
AcDbRotatedDimension
  0
LINE
  5
E06
330
18
100
AcDbEntity
  8
0
100
AcDbLine
 10
3087.573705066779
 20
607.1766590524357
 30
0.0
 11
3687.57370506678
 21
607.1766590524357
 31
0.0
  0
HATCH
  5
E07
330
18
100
AcDbEntity
  8
NAZORI
100
AcDbHatch
 10
0.0
 20
0.0
 30
0.0
210
0.0
220
0.0
230
1.0
  2
HONEY
 70
     0
 71
     0
 91
        2
 92
        7
 72
     0
 73
     1
 93
        5
 10
3687.57370506678
 20
916.5456597658307
 10
3440.317174084778
 20
834.2332235921357
 10
3387.57370506678
 20
752.7439686847276
 10
3387.57370506678
 20
657.1766590524357
 10
3687.57370506678
 20
657.1766590524357
 97
        0
 92
        7
 72
     0
 73
     1
 93
        3
 10
3387.573705066779
 20
752.7439686847277
 10
3325.718293080848
 20
657.1766590524357
 10
3387.57370506678
 20
657.1766590524357
 97
        0
 75
     0
 76
     1
 52
10.0
 41
110.0
 77
     0
 78
     3
 53
10.0
 43
1990.6845842064
 44
0.0
 45
18.24388358368176
 46
15.30843592748104
 79
     2
 49
13.74999999999998
 49
-27.49999999999997
 53
130.0
 43
1990.6845842064
 44
0.0
 45
-22.37943619724586
 46
8.145448683413775
 79
     2
 49
13.75
 49
-27.5
 53
70.0
 43
1990.6845842064
 44
0.0
 45
-4.135552613564091
 46
23.45388461089482
 79
     2
 49
-27.49999999999997
 49
13.74999999999998
 47
2.004577565555432
 98
        2
 10
3482.509894023312
 20
725.9976530186349
 10
3362.079755207842
 20
673.8786346143934
  0
SOLID
  5
E09
330
18
100
AcDbEntity
  8
SUNPOU
100
AcDbTrace
 10
3127.586104196887
 20
635.5677780585965
 30
0.0
 11
3127.586104196887
 21
630.5677780585965
 31
0.0
 12
3142.586104196887
 22
633.0677780585965
 32
0.0
 13
3142.586104196887
 23
633.0677780585965
 33
0.0
  0
LINE
  5
E0A
330
18
100
AcDbEntity
  8
0
100
AcDbLine
 10
3470.796050472207
 20
957.1766590524358
 30
0.0
 11
3304.351359661359
 21
957.1766590524354
 31
0.0
  0
SOLID
  5
E0B
330
18
100
AcDbEntity
  8
SUNPOU
100
AcDbTrace
 10
3132.347052845947
 20
1011.224208776965
 30
0.0
 11
3132.347052845947
 21
1006.224208776965
 31
0.0
 12
3147.347052845948
 22
1008.724208776965
 32
0.0
 13
3147.347052845948
 23
1008.724208776965
 33
0.0
  0
ARC
  5
E0C
330
18
100
AcDbEntity
  8
0
100
AcDbCircle
 10
3304.351359661359
 20
1007.176659052435
 30
0.0
 40
50.0
100
AcDbArc
 50
183.8140748342904
 51
270.0
  0
LINE
  5
E0D
330
18
100
AcDbEntity
  8
0
100
AcDbLine
 10
3217.573705066783
 20
897.1766590524357
 30
0.0
 11
3197.573705066783
 21
917.1766590524358
 31
0.0
  0
SOLID
  5
E0E
330
18
100
AcDbEntity
  8
SUNPOU
100
AcDbTrace
 10
3206.084135814825
 20
916.1034392286238
 30
0.0
 11
3206.084135814825
 21
911.1034392286237
 31
0.0
 12
3221.084135814825
 22
913.6034392286237
 32
0.0
 13
3221.084135814825
 23
913.6034392286237
 33
0.0
  0
DIMENSION
  5
E0F
330
18
100
AcDbEntity
  8
SUNPOU
100
AcDbDimension
  2
*D32
 10
3439.822287434396
 20
897.1766590524355
 30
0.0
 11
3418.373143823584
 21
927.1766590524359
 31
0.0
 70
   160
 71
     5
 42
60.00000000000023
  3
DIM1
100
AcDbAlignedDimension
 13
3439.822287434396
 23
957.1766590524358
 33
0.0
 14
3439.822287434396
 24
897.1766590524355
 34
0.0
 50
90.0
100
AcDbRotatedDimension
  0
ARC
  5
E10
330
18
100
AcDbEntity
  8
0
100
AcDbCircle
 10
3470.796050472207
 20
1007.176659052436
 30
0.0
 40
50.0
100
AcDbArc
 50
270.0
 51
356.1859251657096
  0
DIMENSION
  5
E11
330
18
100
AcDbEntity
  8
SUNPOU
100
AcDbDimension
  2
*D42
 10
3881.09966477721
 20
657.1766590524354
 30
0.0
 11
3858.59966477721
 21
777.1766590524362
 31
0.0
 70
    32
 71
     5
 42
240.0
  3
DIM1
100
AcDbAlignedDimension
 13
3803.420354499174
 23
897.1766590524357
 33
0.0
 14
3794.336684921993
 24
657.1766590524356
 34
0.0
 50
90.0
100
AcDbRotatedDimension
  0
DIMENSION
  5
E12
330
18
100
AcDbEntity
  8
SUNPOU
100
AcDbDimension
  2
*D43
 10
3881.09966477721
 20
607.1766590524354
 30
0.0
 11
3855.677255867055
 21
561.1810839088835
 31
0.0
 70
   160
 71
     5
 42
50.00000000000011
  3
DIM1
100
AcDbAlignedDimension
 13
3794.336684921995
 23
657.1766590524357
 33
0.0
 14
3791.940381063324
 24
607.1766590524356
 34
0.0
 50
90.0
100
AcDbRotatedDimension
  0
LINE
  5
E13
330
18
100
AcDbEntity
  8
0
100
AcDbLine
 10
3557.573705066783
 20
897.1766590524357
 30
0.0
 11
3577.573705066783
 21
917.1766590524358
 31
0.0
  0
POINT
  5
E14
330
18
100
AcDbEntity
  8
DEFPOINTS
  6
ByBlock
 62
   250
100
AcDbPoint
 10
3577.573705066783
 20
957.1766590524358
 30
0.0
  0
SOLID
  5
E15
330
18
100
AcDbEntity
  8
SUNPOU
100
AcDbTrace
 10
3062.57370506678
 20
1168.376776214957
 30
0.0
 11
3062.57370506678
 21
1163.376776214957
 31
0.0
 12
3077.57370506678
 22
1165.876776214957
 32
0.0
 13
3077.57370506678
 23
1165.876776214957
 33
0.0
  0
LINE
  5
E16
330
18
100
AcDbEntity
  8
0
100
AcDbLine
 10
3137.573705066783
 20
1307.176659052436
 30
0.0
 11
2864.4983246847
 21
1307.176659052436
 31
0.0
  0
LINE
  5
E17
330
18
100
AcDbEntity
  8
SUNPOU
100
AcDbLine
 10
3077.57370506678
 20
1165.876776214957
 30
0.0
 11
2878.402620225005
 21
1165.876776214957
 31
0.0
  0
TEXT
  5
E18
330
18
100
AcDbEntity
  8
0
100
AcDbText
 10
2902.317243706181
 20
1695.536080799962
 30
0.0
 40
70.0
  1
浸透側溝GEU-300構造図
  7
BIGFONT
 72
     4
 11
3431.31724370618
 21
1730.536080799962
 31
0.0
100
AcDbText
  0
TEXT
  5
E1A
330
18
100
AcDbEntity
  8
SUNPOU
100
AcDbText
 10
2881.398698284907
 20
1177.715585086907
 30
0.0
 40
25.0
  1
透水シート
  7
BIGFONT
 72
     2
 11
3019.732031618241
 21
1190.215585086908
 31
0.0
100
AcDbText
 73
     2
  0
LINE
  5
E1B
330
18
100
AcDbEntity
  8
0
 62
   250
100
AcDbLine
 10
3590.573705066783
 20
1257.176659052436
 30
0.0
 11
3537.573705066783
 21
1257.176659052436
 31
0.0
  0
DIMENSION
  5
E1C
330
18
100
AcDbEntity
  8
SUNPOU
100
AcDbDimension
  2
*D40
 10
3637.573705066783
 20
1459.358807524524
 30
0.0
 11
3387.573705066783
 21
1481.858807524524
 31
0.0
 70
    32
 71
     5
 42
500.0
  3
DIM1
100
AcDbAlignedDimension
 13
3137.573705066783
 23
1307.176659052436
 33
0.0
 14
3637.573705066783
 24
1307.176659052436
 34
0.0
100
AcDbRotatedDimension
  0
DIMENSION
  5
E1D
330
18
100
AcDbEntity
  8
SUNPOU
100
AcDbDimension
  2
*D30
 10
3537.573705066783
 20
1357.176659052436
 30
0.0
 11
3387.573705066783
 21
1379.676659052436
 31
0.0
 70
    32
 71
     5
 42
300.0
  3
DIM1
100
AcDbAlignedDimension
 13
3237.573705066783
 23
1307.176659052435
 33
0.0
 14
3537.573705066783
 24
1307.176659052436
 34
0.0
100
AcDbRotatedDimension
  0
LINE
  5
E1E
330
18
100
AcDbEntity
  8
0
100
AcDbLine
 10
3137.573705066783
 20
1207.176659052435
 30
0.0
 11
3137.573705066783
 21
1307.176659052436
 31
0.0
  0
LINE
  5
E1F
330
18
100
AcDbEntity
  8
0
100
AcDbLine
 10
3184.519455068345
 20
1158.178197485153
 30
0.0
 11
3087.573705066779
 21
1158.178197485153
 31
0.0
  0
LINE
  5
E20
330
18
100
AcDbEntity
  8
KL
100
AcDbLine
 10
3174.232258940029
 20
1168.178197485153
 30
0.0
 11
3077.286508938464
 21
1168.178197485153
 31
0.0
  0
LINE
  5
E21
330
18
100
AcDbEntity
  8
0
100
AcDbLine
 10
3184.573705066783
 20
1157.176659052436
 30
0.0
 11
3137.573705066783
 21
1207.176659052435
 31
0.0
  0
LINE
  5
E22
330
18
100
AcDbEntity
  8
0
 62
   250
100
AcDbLine
 10
3237.573705066783
 20
1257.176659052436
 30
0.0
 11
3184.573705066783
 21
1257.176659052436
 31
0.0
  0
LINE
  5
E23
330
18
100
AcDbEntity
  8
0
100
AcDbLine
 10
3184.573705066783
 20
1257.176659052436
 30
0.0
 11
3182.573705066783
 21
1307.176659052435
 31
0.0
  0
LINE
  5
E24
330
18
100
AcDbEntity
  8
0
100
AcDbLine
 10
3137.573705066783
 20
1307.176659052436
 30
0.0
 11
3182.573705066783
 21
1307.176659052435
 31
0.0
  0
DIMENSION
  5
E25
330
18
100
AcDbEntity
  8
SUNPOU
100
AcDbDimension
  2
*D34
 10
3439.822287434396
 20
1307.176659052436
 30
0.0
 11
3416.836955187452
 21
1282.176659052436
 31
0.0
 70
   160
 71
     5
 42
50.00000000000023
  3
DIM1
100
AcDbAlignedDimension
 13
3439.822287434396
 23
1257.176659052435
 33
0.0
 14
3439.822287434396
 24
1307.176659052436
 34
0.0
 50
90.0
100
AcDbRotatedDimension
  0
LINE
  5
E26
330
18
100
AcDbEntity
  8
0
100
AcDbLine
 10
3637.573705066783
 20
1207.176659052436
 30
0.0
 11
3637.573705066783
 21
1307.176659052436
 31
0.0
  0
LINE
  5
E27
330
18
100
AcDbEntity
  8
KL
100
AcDbLine
 10
3599.973705066783
 20
1167.176659052436
 30
0.0
 11
3697.57370506678
 21
1167.176659052436
 31
0.0
  0
LINE
  5
E28
330
18
100
AcDbEntity
  8
0
100
AcDbLine
 10
3590.573705066783
 20
1157.176659052436
 30
0.0
 11
3687.57370506678
 21
1157.176659052436
 31
0.0
  0
LINE
  5
E29
330
18
100
AcDbEntity
  8
0
100
AcDbLine
 10
3590.573705066783
 20
1157.176659052436
 30
0.0
 11
3637.573705066783
 21
1207.176659052436
 31
0.0
  0
LINE
  5
E2A
330
18
100
AcDbEntity
  8
0
100
AcDbLine
 10
3722.573705066783
 20
1307.176659052436
 30
0.0
 11
3592.573705066783
 21
1307.176659052435
 31
0.0
  0
LINE
  5
E2B
330
18
100
AcDbEntity
  8
0
100
AcDbLine
 10
3590.573705066783
 20
1257.176659052436
 30
0.0
 11
3592.573705066783
 21
1307.176659052436
 31
0.0
  0
POINT
  5
E2C
330
18
100
AcDbEntity
  8
DEFPOINTS
  6
ByBlock
 62
   250
100
AcDbPoint
 10
3595.573705066783
 20
1307.176659052436
 30
0.0
  0
POINT
  5
E2D
330
18
100
AcDbEntity
  8
DEFPOINTS
  6
ByBlock
 62
   250
100
AcDbPoint
 10
3640.573705066783
 20
1307.176659052436
 30
0.0
  0
DIMENSION
  5
E2E
330
18
100
AcDbEntity
  8
SUNPOU
100
AcDbDimension
  2
*D37
 10
3958.778975055247
 20
1157.176659052436
 30
0.0
 11
3936.278975055246
 21
1232.176659052436
 31
0.0
 70
    32
 71
     5
 42
150.0
  3
DIM1
100
AcDbAlignedDimension
 13
3790.390935874168
 23
1307.176659052436
 33
0.0
 14
3793.420354499173
 24
1157.176659052436
 34
0.0
 50
90.0
100
AcDbRotatedDimension
  0
INSERT
  5
F87
330
18
100
AcDbEntity
  8
SUNPOU
100
AcDbBlockReference
  2
A$C57A3340D
 10
3187.573709066783
 20
1247.176658052435
 30
0.0
  0
LEADER
  5
F88
330
18
100
AcDbEntity
  8
SUNPOU
100
AcDbLeader
  3
DIM1
 73
     0
 75
     1
 40
25.0
 41
167.8571428571428
 76
     3
 10
3263.429372066783
 20
1284.421852052435
 30
0.0
 10
3115.260846066784
 20
1358.587865052435
 30
0.0
 10
3095.260846066784
 20
1358.587865052435
 30
0.0
340
F89
  0
MTEXT
  5
F89
102
{ACAD_REACTORS
330
F88
102
}
330
18
100
AcDbEntity
  8
SUNPOU
100
AcDbMText
 10
3085.260846066784
 20
1381.087865052435
 30
0.0
 40
25.0
 41
0.0
 71
     6
 72
     1
  1
\A1;GUF-300
  7
BIGFONT
 73
     1
 44
1.0
  0
MTEXT
  5
F9A
330
18
100
AcDbEntity
  8
0
100
AcDbMText
 10
1209.982258739392
 20
509.0594740776141
 30
0.0
 40
30.0
 41
370.7
 71
     1
 72
     5
  1
{\C1;製品長 Ｌ＝1.000ｍ}
  7
BIGFONT
 73
     1
 44
1.0
  0
MTEXT
  5
F9B
330
18
100
AcDbEntity
  8
0
100
AcDbMText
 10
3729.982258739394
 20
509.0594740776141
 30
0.0
 40
30.0
 41
370.7
 71
     1
 72
     5
  1
{\C1;製品長 Ｌ＝1.000ｍ}
  7
BIGFONT
 73
     1
 44
1.0
  0
LINE
  5
FF7
330
18
100
AcDbEntity
  8
0
100
AcDbLine
 10
567.5737050667783
 20
657.1766590524357
 30
0.0
 11
1167.573705066778
 21
657.1766590524357
 31
0.0
  0
LINE
  5
FF8
330
18
100
AcDbEntity
  8
0
100
AcDbLine
 10
3087.573705066779
 20
657.1766590524357
 30
0.0
 11
3687.57370506678
 21
657.1766590524357
 31
0.0
  0
LINE
  5
FFA
330
18
100
AcDbEntity
  8
KL
100
AcDbLine
 10
557.5737050667785
 20
597.1766590524355
 30
0.0
 11
617.5737050667784
 21
597.1766590524356
 31
0.0
  0
LINE
  5
FFB
330
18
100
AcDbEntity
  8
KL
100
AcDbLine
 10
1117.573705066778
 20
597.1766590524356
 30
0.0
 11
1177.573705066778
 21
597.1766590524356
 31
0.0
  0
LINE
  5
FFC
330
18
100
AcDbEntity
  8
KL
100
AcDbLine
 10
3077.57370506678
 20
597.1766590524356
 30
0.0
 11
3137.57370506678
 21
597.1766590524356
 31
0.0
  0
LINE
  5
FFD
330
18
100
AcDbEntity
  8
KL
100
AcDbLine
 10
3637.57370506678
 20
597.1766590524356
 30
0.0
 11
3697.573705066779
 21
597.1766590524357
 31
0.0
  0
HATCH
  5
110D
330
18
100
AcDbEntity
  8
NAZORI
100
AcDbHatch
 10
0.0
 20
0.0
 30
0.0
210
0.0
220
0.0
230
1.0
  2
AR-SAND
 70
     0
 71
     0
 91
        1
 92
        7
 72
     0
 73
     1
 93
        4
 10
1167.573705066778
 20
657.1766590524357
 10
567.5737050667783
 20
657.1766590524357
 10
567.5737050667783
 20
607.1766590524357
 10
1167.573705066778
 20
607.1766590524357
 97
        0
 75
     0
 76
     1
 52
0.0
 41
15.0
 77
     0
 78
     4
 53
37.5
 43
567.5737050667783
 44
607.1766590524357
 45
-0.9449003716441223
 46
28.90235653519738
 79
     6
 49
0.0
 49
-22.8
 49
0.0
 49
-25.5
 49
0.0
 49
-24.375
 53
7.499999999999999
 43
567.5737050667783
 44
607.1766590524357
 45
26.54665057901591
 46
42.3321909784461
 79
     6
 49
0.0
 49
-12.3
 49
0.0
 49
-20.55
 49
0.0
 49
-7.875
 53
327.5
 43
549.1237050667782
 44
607.1766590524357
 45
46.71212792627243
 46
0.0848858030544675
 79
     6
 49
0.0
 49
-7.5
 49
0.0
 49
-27.0
 49
0.0
 49
-35.25
 53
317.5
 43
549.1237050667782
 44
607.1766590524357
 45
45.0918990685844
 46
13.16513347401374
 79
     6
 49
0.0
 49
-3.75
 49
0.0
 49
-17.7
 49
0.0
 49
-20.25
 47
2.508234194601453
 98
        1
 10
800.5097179382573
 20
623.8869386220821
1001
ACAD
1010
567.5737050667783
1020
557.1766590524357
1030
0.0
  0
HATCH
  5
114C
330
18
100
AcDbEntity
  8
NAZORI
100
AcDbHatch
 10
0.0
 20
0.0
 30
0.0
210
0.0
220
0.0
230
1.0
  2
AR-SAND
 70
     0
 71
     0
 91
        1
 92
        7
 72
     0
 73
     1
 93
        4
 10
3687.57370506678
 20
607.1766590524357
 10
3687.57370506678
 20
657.1766590524357
 10
3087.573705066779
 20
657.1766590524357
 10
3087.573705066779
 20
607.1766590524357
 97
        0
 75
     0
 76
     1
 52
0.0
 41
15.0
 77
     0
 78
     4
 53
37.5
 43
3087.573705066779
 44
607.1766590524357
 45
-0.9449003716441223
 46
28.90235653519738
 79
     6
 49
0.0
 49
-22.8
 49
0.0
 49
-25.5
 49
0.0
 49
-24.375
 53
7.499999999999999
 43
3087.573705066779
 44
607.1766590524357
 45
26.54665057901591
 46
42.3321909784461
 79
     6
 49
0.0
 49
-12.3
 49
0.0
 49
-20.55
 49
0.0
 49
-7.875
 53
327.5
 43
3069.12370506678
 44
607.1766590524357
 45
46.71212792627243
 46
0.0848858030544675
 79
     6
 49
0.0
 49
-7.5
 49
0.0
 49
-27.0
 49
0.0
 49
-35.25
 53
317.5
 43
3069.12370506678
 44
607.1766590524357
 45
45.0918990685844
 46
13.16513347401374
 79
     6
 49
0.0
 49
-3.75
 49
0.0
 49
-17.7
 49
0.0
 49
-20.25
 47
2.508234194601453
 98
        1
 10
3293.543675751922
 20
631.4116383583323
1001
ACAD
1010
2052.573705066778
1020
557.1766590524357
1030
0.0
  0
LWPOLYLINE
  5
136D
330
18
100
AcDbEntity
  8
KL
  6
ByBlock
 62
     0
 48
2.0
100
AcDbPolyline
 90
        4
 70
     1
 43
0.0
 10
-392.4262949332214
 20
-899.3934380677155
 10
-392.4262949332192
 20
2664.606561932284
 10
2127.573705066781
 20
2664.606561932283
 10
2127.573705066779
 20
-899.3934380677178
  0
LWPOLYLINE
  5
1402
330
18
100
AcDbEntity
  8
KL
  6
ByBlock
 62
     0
 48
2.0
100
AcDbPolyline
 90
        4
 70
     1
 43
0.0
 10
2127.573705066779
 20
-899.3934380677158
 10
2127.573705066781
 20
2664.606561932283
 10
4647.573705066781
 20
2664.606561932283
 10
4647.573705066779
 20
-899.3934380677181
  0
LINE
  5
1404
330
18
100
AcDbEntity
  8
NAZORI
100
AcDbLine
 10
3387.57370506678
 20
461.8386872283426
 30
0.0
 11
3387.57370506678
 21
461.8386872283426
 31
0.0
  0
ENDSEC
  0
SECTION
  2
OBJECTS
  0
DICTIONARY
  5
C
330
0
100
AcDbDictionary
281
     1
  3
ACAD_COLOR
350
FC8
  3
ACAD_GROUP
350
D
  3
ACAD_LAYOUT
350
AFF
  3
ACAD_MATERIAL
350
F9E
  3
ACAD_MLEADERSTYLE
350
FED
  3
ACAD_MLINESTYLE
350
E
  3
ACAD_PLOTSETTINGS
350
B00
  3
ACAD_PLOTSTYLENAME
350
AFD
  3
ACAD_SCALELIST
350
FCB
  3
ACAD_TABLESTYLE
350
FC9
  3
ACAD_VISUALSTYLE
350
FB7
  3
ACDB_RECOMPOSE_DATA
350
135A
  3
ACDBVARIABLEDICTIONARY
350
6FB
  0
DICTIONARY
  5
134C
330
F
100
AcDbDictionary
280
     1
281
     1
  3
ADSK_XREC_LAYER_RECONCILED
360
134D
  0
DICTIONARY
  5
134E
330
66
100
AcDbDictionary
280
     1
281
     1
  3
ADSK_XREC_LAYER_RECONCILED
360
134F
  0
DICTIONARY
  5
1350
330
67
100
AcDbDictionary
280
     1
281
     1
  3
ADSK_XREC_LAYER_RECONCILED
360
1351
  0
DICTIONARY
  5
1352
330
69
100
AcDbDictionary
280
     1
281
     1
  3
ADSK_XREC_LAYER_RECONCILED
360
1353
  0
DICTIONARY
  5
1354
330
6C
100
AcDbDictionary
280
     1
281
     1
  3
ADSK_XREC_LAYER_RECONCILED
360
1355
  0
DICTIONARY
  5
1356
330
6D
100
AcDbDictionary
280
     1
281
     1
  3
ADSK_XREC_LAYER_RECONCILED
360
1357
  0
DICTIONARY
  5
FF4
330
18
100
AcDbDictionary
280
     1
281
     1
  3
ACAD_SORTENTS
360
FF5
  0
DICTIONARY
  5
FC8
102
{ACAD_REACTORS
330
C
102
}
330
C
100
AcDbDictionary
281
     1
  0
DICTIONARY
  5
D
102
{ACAD_REACTORS
330
C
102
}
330
C
100
AcDbDictionary
281
     1
  0
DICTIONARY
  5
AFF
102
{ACAD_REACTORS
330
C
102
}
330
C
100
AcDbDictionary
281
     1
  3
Model
350
B01
  3
ﾚｲｱｳﾄ1
350
B02
  0
DICTIONARY
  5
F9E
102
{ACAD_REACTORS
330
C
102
}
330
C
100
AcDbDictionary
281
     1
  3
ByBlock
350
FA7
  3
ByLayer
350
F9F
  3
Global
350
FAF
  0
DICTIONARY
  5
FED
102
{ACAD_REACTORS
330
C
102
}
330
C
100
AcDbDictionary
281
     1
  3
Standard
350
FEE
  0
DICTIONARY
  5
E
102
{ACAD_REACTORS
330
C
102
}
330
C
100
AcDbDictionary
281
     1
  3
STANDARD
350
1B
  0
DICTIONARY
  5
B00
102
{ACAD_REACTORS
330
C
102
}
330
C
100
AcDbDictionary
281
     1
  0
ACDBDICTIONARYWDFLT
  5
AFD
102
{ACAD_REACTORS
330
C
102
}
330
C
100
AcDbDictionary
281
     1
  3
Normal
350
AFE
100
AcDbDictionaryWithDefault
340
AFE
  0
DICTIONARY
  5
FCB
102
{ACAD_REACTORS
330
C
102
}
330
C
100
AcDbDictionary
281
     1
  3
A0
350
FCC
  3
A1
350
FCD
  3
A2
350
FCE
  3
A3
350
FCF
  3
A4
350
FD0
  3
A5
350
FD1
  3
A6
350
FD2
  3
A7
350
FD3
  3
A8
350
FD4
  3
A9
350
FD5
  3
B0
350
FD6
  3
B1
350
FD7
  3
B2
350
FD8
  3
B3
350
FD9
  3
B4
350
FDA
  3
B5
350
FDB
  3
B6
350
FDC
  3
B7
350
FDD
  3
B8
350
FDE
  3
B9
350
FDF
  3
C0
350
FE0
  3
C1
350
FE1
  3
C2
350
FE2
  3
C3
350
FE3
  3
C4
350
FE4
  3
C5
350
FE5
  3
C6
350
FE6
  3
C7
350
FE7
  3
C8
350
FE8
  3
C9
350
FE9
  3
D0
350
FEA
  3
D1
350
FEB
  3
D2
350
FEC
  0
DICTIONARY
  5
FC9
102
{ACAD_REACTORS
330
C
102
}
330
C
100
AcDbDictionary
281
     1
  3
Standard
350
FCA
  0
DICTIONARY
  5
FB7
102
{ACAD_REACTORS
330
C
102
}
330
C
100
AcDbDictionary
281
     1
  3
2dWireframe
350
FBD
  3
3D Hidden
350
FBF
  3
3dWireframe
350
FBE
  3
Basic
350
FBC
  3
Brighten
350
FC3
  3
ColorChange
350
FC7
  3
Conceptual
350
FC0
  3
Dim
350
FC2
  3
Facepattern
350
FC6
  3
Flat
350
FB8
  3
FlatWithEdges
350
FB9
  3
Gouraud
350
FBA
  3
GouraudWithEdges
350
FBB
  3
Linepattern
350
FC5
  3
Realistic
350
FC1
  3
Thicken
350
FC4
  0
XRECORD
  5
135A
102
{ACAD_REACTORS
330
C
102
}
330
C
100
AcDbXrecord
280
     1
 90
        1
330
FCA
  0
DICTIONARY
  5
6FB
102
{ACAD_REACTORS
330
C
102
}
330
C
100
AcDbDictionary
281
     1
  3
CANNOSCALE
350
135E
  3
CMLEADERSTYLE
350
135C
  3
CTABLESTYLE
350
135B
  3
LIGHTINGUNITS
350
135F
  3
MSLTSCALE
350
135D
  3
SORTENTS
350
6FC
  0
XRECORD
  5
134D
102
{ACAD_REACTORS
330
134C
102
}
330
134C
100
AcDbXrecord
280
     1
290
     1
  0
XRECORD
  5
134F
102
{ACAD_REACTORS
330
134E
102
}
330
134E
100
AcDbXrecord
280
     1
290
     1
  0
XRECORD
  5
1351
102
{ACAD_REACTORS
330
1350
102
}
330
1350
100
AcDbXrecord
280
     1
290
     1
  0
XRECORD
  5
1353
102
{ACAD_REACTORS
330
1352
102
}
330
1352
100
AcDbXrecord
280
     1
290
     1
  0
XRECORD
  5
1355
102
{ACAD_REACTORS
330
1354
102
}
330
1354
100
AcDbXrecord
280
     1
290
     1
  0
XRECORD
  5
1357
102
{ACAD_REACTORS
330
1356
102
}
330
1356
100
AcDbXrecord
280
     1
290
     1
  0
SORTENTSTABLE
  5
FF5
102
{ACAD_REACTORS
330
FF4
102
}
330
FF4
100
AcDbSortentsTable
330
18
331
512
  5
512
331
B4B
  5
CC0
331
ADC
  5
ADC
331
E1D
  5
E29
331
FF8
  5
E12
331
DEE
  5
DF7
331
E25
  5
F89
331
DF6
  5
E02
331
E2D
  5
FFB
331
DFE
  5
E0B
331
5C9
  5
5C9
331
4DB
  5
4DB
331
54A
  5
54A
331
5E1
  5
5E1
331
4EB
  5
4EB
331
4F3
  5
4F3
331
CC1
  5
DEA
331
E06
  5
E13
331
F9A
  5
10CF
331
E0E
  5
E1B
331
E16
  5
E23
331
D31
  5
DEF
331
E1E
  5
E2A
331
E26
  5
F9A
331
DEF
  5
DF9
331
E2E
  5
FFC
331
DF7
  5
E03
331
DFF
  5
E0C
331
4DC
  5
4DC
331
4E4
  5
4E4
331
4EC
  5
4EC
331
4F4
  5
4F4
331
CC2
  5
DEB
331
E07
  5
E14
331
F9B
  5
10D0
331
E0F
  5
E1C
331
E17
  5
E24
331
970
  5
970
331
60A
  5
60A
331
E1F
  5
E2B
331
FFA
  5
B4B
331
DE8
  5
DF0
331
DF0
  5
DFC
331
E27
  5
F9B
331
4DD
  5
4DD
331
4E5
  5
4E5
331
4ED
  5
4ED
331
4F5
  5
4F5
331
CC3
  5
DEC
331
E00
  5
E0D
331
E10
  5
E1D
331
5FB
  5
5FB
331
B46
  5
C36
331
60B
  5
60B
331
BA4
  5
CC2
331
E18
  5
E25
331
FFB
  5
BA4
331
DE9
  5
DF1
331
E20
  5
E2C
331
E28
  5
FF3
331
DF1
  5
DFD
331
CBC
  5
CC4
331
DF9
  5
E04
331
4DE
  5
4DE
331
6C3
  5
6C3
331
4E6
  5
4E6
331
56D
  5
56D
331
4EE
  5
4EE
331
4F6
  5
4F6
331
E01
  5
E0E
331
CC4
  5
DED
331
E09
  5
E15
331
E11
  5
E1E
331
4FE
  5
4FE
331
B47
  5
CBC
331
516
  5
516
331
93B
  5
93B
331
B8F
  5
CC1
331
536
  5
536
331
DEA
  5
DF2
331
E21
  5
E2D
331
FFC
  5
110E
331
DF2
  5
DFE
331
E29
  5
FF6
331
DFA
  5
E05
331
CBD
  5
D00
331
56E
  5
56E
331
4EF
  5
4EF
331
114C
  5
DFB
331
E02
  5
E0F
331
E0A
  5
E16
331
E12
  5
E1F
331
B40
  5
B40
331
B48
  5
CBD
331
E1A
  5
E26
331
C36
  5
CC3
331
FFD
  5
110F
331
DEB
  5
DF3
331
E22
  5
E2E
331
E2A
  5
FF7
331
110D
  5
B47
331
DF3
  5
DFF
331
DFB
  5
E06
331
CBE
  5
D31
331
F87
  5
FFD
331
4F0
  5
4F0
331
B09
  5
B09
331
E03
  5
E10
331
E0B
  5
E17
331
E13
  5
E20
331
92D
  5
92D
331
B49
  5
CBE
331
AEA
  5
AEA
331
E1B
  5
E27
331
DEC
  5
DF4
331
E23
  5
F87
331
DF4
  5
E00
331
E2B
  5
FF8
331
F88
  5
108C
331
CBF
  5
DE8
331
DFC
  5
E07
331
570
  5
570
331
4E9
  5
4E9
331
4F1
  5
4F1
331
B0A
  5
B0A
331
E04
  5
E11
331
E0C
  5
E18
331
E14
  5
E21
331
B4A
  5
CBF
331
AEB
  5
AEB
331
6B7
  5
6B7
331
FF7
  5
B48
331
E1C
  5
E28
331
DED
  5
DF6
331
E24
  5
F88
331
E2C
  5
FFA
331
DF5
  5
E01
331
F89
  5
108D
331
DFD
  5
E09
331
4EA
  5
4EA
331
4F2
  5
4F2
331
B0B
  5
B0B
331
6F7
  5
6F7
331
CC0
  5
DE9
331
D00
  5
DEE
331
E0D
  5
E1A
331
E15
  5
E22
331
50A
  5
50A
331
B43
  5
B49
  0
LAYOUT
  5
B01
102
{ACAD_REACTORS
330
AFF
102
}
330
AFF
100
AcDbPlotSettings
  1

  2
EPSON PM-2200C
  4

  6

 40
0.0
 41
0.0
 42
0.0
 43
0.0
 44
0.0
 45
0.0
 46
0.0
 47
0.0
 48
0.0
 49
0.0
140
0.0
141
0.0
142
1.0
143
1.0
 70
  1712
 72
     0
 73
     0
 74
     0
  7

 75
     0
147
1.0
 76
     0
 77
     2
 78
   300
148
0.0
149
0.0
100
AcDbLayout
  1
Model
 70
     1
 71
     0
 10
0.0
 20
0.0
 11
12.0
 21
9.0
 12
0.0
 22
0.0
 32
0.0
 14
0.0
 24
0.0
 34
0.0
 15
0.0
 25
0.0
 35
0.0
146
0.0
 13
0.0
 23
0.0
 33
0.0
 16
1.0
 26
0.0
 36
0.0
 17
0.0
 27
1.0
 37
0.0
 76
     0
330
18
331
F9C
  0
LAYOUT
  5
B02
102
{ACAD_REACTORS
330
AFF
102
}
330
AFF
100
AcDbPlotSettings
  1

  2
EPSON PM-2200C
  4

  6

 40
0.0
 41
0.0
 42
0.0
 43
0.0
 44
0.0
 45
0.0
 46
0.0
 47
0.0
 48
0.0
 49
0.0
140
0.0
141
0.0
142
1.0
143
1.0
 70
   688
 72
     0
 73
     0
 74
     5
  7

 75
    16
147
1.0
 76
     0
 77
     2
 78
   300
148
0.0
149
0.0
100
AcDbLayout
  1
ﾚｲｱｳﾄ1
 70
     1
 71
     1
 10
0.0
 20
0.0
 11
12.0
 21
9.0
 12
0.0
 22
0.0
 32
0.0
 14
1.000000000000000E+20
 24
1.000000000000000E+20
 34
1.000000000000000E+20
 15
-1.000000000000000E+20
 25
-1.000000000000000E+20
 35
-1.000000000000000E+20
146
0.0
 13
0.0
 23
0.0
 33
0.0
 16
1.0
 26
0.0
 36
0.0
 17
0.0
 27
1.0
 37
0.0
 76
     0
330
15
  0
MATERIAL
  5
FA7
102
{ACAD_XDICTIONARY
360
FA8
102
}
102
{ACAD_REACTORS
330
F9E
102
}
330
F9E
100
AcDbMaterial
  1
ByBlock
 72
     0
 43
0.0208333333333333
 43
0.0
 43
0.0
 43
0.0
 43
0.0
 43
0.0208333333333333
 43
0.0
 43
0.0
 43
0.0
 43
0.0
 43
1.0
 43
0.0
 43
0.0
 43
0.0
 43
0.0
 43
1.0
 77
     0
 47
0.0208333333333333
 47
0.0
 47
0.0
 47
0.0
 47
0.0
 47
0.0208333333333333
 47
0.0
 47
0.0
 47
0.0
 47
0.0
 47
1.0
 47
0.0
 47
0.0
 47
0.0
 47
0.0
 47
1.0
171
     0
 49
0.0208333333333333
 49
0.0
 49
0.0
 49
0.0
 49
0.0
 49
0.0208333333333333
 49
0.0
 49
0.0
 49
0.0
 49
0.0
 49
1.0
 49
0.0
 49
0.0
 49
0.0
 49
0.0
 49
1.0
175
     0
142
0.0208333333333333
142
0.0
142
0.0
142
0.0
142
0.0
142
0.0208333333333333
142
0.0
142
0.0
142
0.0
142
0.0
142
1.0
142
0.0
142
0.0
142
0.0
142
0.0
142
1.0
179
     0
144
0.0208333333333333
144
0.0
144
0.0
144
0.0
144
0.0
144
0.0208333333333333
144
0.0
144
0.0
144
0.0
144
0.0
144
1.0
144
0.0
144
0.0
144
0.0
144
0.0
144
1.0
147
0.0208333333333333
147
0.0
147
0.0
147
0.0
147
0.0
147
0.0208333333333333
147
0.0
147
0.0
147
0.0
147
0.0
147
1.0
147
0.0
147
0.0
147
0.0
147
0.0
147
1.0
  0
MATERIAL
  5
F9F
102
{ACAD_XDICTIONARY
360
FA0
102
}
102
{ACAD_REACTORS
330
F9E
102
}
330
F9E
100
AcDbMaterial
  1
ByLayer
 72
     0
 43
0.0208333333333333
 43
0.0
 43
0.0
 43
0.0
 43
0.0
 43
0.0208333333333333
 43
0.0
 43
0.0
 43
0.0
 43
0.0
 43
1.0
 43
0.0
 43
0.0
 43
0.0
 43
0.0
 43
1.0
 77
     0
 47
0.0208333333333333
 47
0.0
 47
0.0
 47
0.0
 47
0.0
 47
0.0208333333333333
 47
0.0
 47
0.0
 47
0.0
 47
0.0
 47
1.0
 47
0.0
 47
0.0
 47
0.0
 47
0.0
 47
1.0
171
     0
 49
0.0208333333333333
 49
0.0
 49
0.0
 49
0.0
 49
0.0
 49
0.0208333333333333
 49
0.0
 49
0.0
 49
0.0
 49
0.0
 49
1.0
 49
0.0
 49
0.0
 49
0.0
 49
0.0
 49
1.0
175
     0
142
0.0208333333333333
142
0.0
142
0.0
142
0.0
142
0.0
142
0.0208333333333333
142
0.0
142
0.0
142
0.0
142
0.0
142
1.0
142
0.0
142
0.0
142
0.0
142
0.0
142
1.0
179
     0
144
0.0208333333333333
144
0.0
144
0.0
144
0.0
144
0.0
144
0.0208333333333333
144
0.0
144
0.0
144
0.0
144
0.0
144
1.0
144
0.0
144
0.0
144
0.0
144
0.0
144
1.0
147
0.0208333333333333
147
0.0
147
0.0
147
0.0
147
0.0
147
0.0208333333333333
147
0.0
147
0.0
147
0.0
147
0.0
147
1.0
147
0.0
147
0.0
147
0.0
147
0.0
147
1.0
  0
MATERIAL
  5
FAF
102
{ACAD_XDICTIONARY
360
FB0
102
}
102
{ACAD_REACTORS
330
F9E
102
}
330
F9E
100
AcDbMaterial
  1
Global
 72
     0
 43
0.0208333333333333
 43
0.0
 43
0.0
 43
0.0
 43
0.0
 43
0.0208333333333333
 43
0.0
 43
0.0
 43
0.0
 43
0.0
 43
1.0
 43
0.0
 43
0.0
 43
0.0
 43
0.0
 43
1.0
 77
     0
 47
0.0208333333333333
 47
0.0
 47
0.0
 47
0.0
 47
0.0
 47
0.0208333333333333
 47
0.0
 47
0.0
 47
0.0
 47
0.0
 47
1.0
 47
0.0
 47
0.0
 47
0.0
 47
0.0
 47
1.0
171
     0
 49
0.0208333333333333
 49
0.0
 49
0.0
 49
0.0
 49
0.0
 49
0.0208333333333333
 49
0.0
 49
0.0
 49
0.0
 49
0.0
 49
1.0
 49
0.0
 49
0.0
 49
0.0
 49
0.0
 49
1.0
175
     0
142
0.0208333333333333
142
0.0
142
0.0
142
0.0
142
0.0
142
0.0208333333333333
142
0.0
142
0.0
142
0.0
142
0.0
142
1.0
142
0.0
142
0.0
142
0.0
142
0.0
142
1.0
179
     0
144
0.0208333333333333
144
0.0
144
0.0
144
0.0
144
0.0
144
0.0208333333333333
144
0.0
144
0.0
144
0.0
144
0.0
144
1.0
144
0.0
144
0.0
144
0.0
144
0.0
144
1.0
147
0.0208333333333333
147
0.0
147
0.0
147
0.0
147
0.0
147
0.0208333333333333
147
0.0
147
0.0
147
0.0
147
0.0
147
1.0
147
0.0
147
0.0
147
0.0
147
0.0
147
1.0
  0
MLEADERSTYLE
  5
FEE
102
{ACAD_REACTORS
330
FED
102
}
330
FED
100
AcDbMLeaderStyle
170
     2
171
     1
172
     0
 90
        2
 40
0.0
 41
0.0
173
     1
 91
-1056964608
340
12
 92
       -2
290
     1
 42
0.09
291
     1
 43
0.36
  3
Standard
 44
0.18
300

342
10
174
     1
178
     6
175
     1
176
     0
 93
-1056964608
 45
0.18
292
     0
297
     0
 46
0.18
 94
-1056964608
 47
1.0
 49
1.0
140
1.0
293
     1
141
0.0
294
     1
177
     0
142
1.0
295
     0
296
     0
143
0.125
1001
ACAD_MLEADERVER
1070
     2
  0
MLINESTYLE
  5
1B
102
{ACAD_REACTORS
330
E
102
}
330
E
100
AcDbMlineStyle
  2
STANDARD
 70
     0
  3

 62
     0
 51
90.0
 52
90.0
 71
     2
 49
0.5
 62
   256
  6
BYLAYER
 49
-0.5
 62
   256
  6
BYLAYER
  0
ACDBPLACEHOLDER
  5
AFE
102
{ACAD_REACTORS
330
AFD
102
}
330
AFD
  0
SCALE
  5
FCC
102
{ACAD_REACTORS
330
FCB
102
}
330
FCB
100
AcDbScale
 70
     0
300
1:1
140
1.0
141
1.0
290
     1
  0
SCALE
  5
FCD
102
{ACAD_REACTORS
330
FCB
102
}
330
FCB
100
AcDbScale
 70
     0
300
1:2
140
1.0
141
2.0
290
     0
  0
SCALE
  5
FCE
102
{ACAD_REACTORS
330
FCB
102
}
330
FCB
100
AcDbScale
 70
     0
300
1:4
140
1.0
141
4.0
290
     0
  0
SCALE
  5
FCF
102
{ACAD_REACTORS
330
FCB
102
}
330
FCB
100
AcDbScale
 70
     0
300
1:5
140
1.0
141
5.0
290
     0
  0
SCALE
  5
FD0
102
{ACAD_REACTORS
330
FCB
102
}
330
FCB
100
AcDbScale
 70
     0
300
1:8
140
1.0
141
8.0
290
     0
  0
SCALE
  5
FD1
102
{ACAD_REACTORS
330
FCB
102
}
330
FCB
100
AcDbScale
 70
     0
300
1:10
140
1.0
141
10.0
290
     0
  0
SCALE
  5
FD2
102
{ACAD_REACTORS
330
FCB
102
}
330
FCB
100
AcDbScale
 70
     0
300
1:16
140
1.0
141
16.0
290
     0
  0
SCALE
  5
FD3
102
{ACAD_REACTORS
330
FCB
102
}
330
FCB
100
AcDbScale
 70
     0
300
1:20
140
1.0
141
20.0
290
     0
  0
SCALE
  5
FD4
102
{ACAD_REACTORS
330
FCB
102
}
330
FCB
100
AcDbScale
 70
     0
300
1:30
140
1.0
141
30.0
290
     0
  0
SCALE
  5
FD5
102
{ACAD_REACTORS
330
FCB
102
}
330
FCB
100
AcDbScale
 70
     0
300
1:40
140
1.0
141
40.0
290
     0
  0
SCALE
  5
FD6
102
{ACAD_REACTORS
330
FCB
102
}
330
FCB
100
AcDbScale
 70
     0
300
1:50
140
1.0
141
50.0
290
     0
  0
SCALE
  5
FD7
102
{ACAD_REACTORS
330
FCB
102
}
330
FCB
100
AcDbScale
 70
     0
300
1:100
140
1.0
141
100.0
290
     0
  0
SCALE
  5
FD8
102
{ACAD_REACTORS
330
FCB
102
}
330
FCB
100
AcDbScale
 70
     0
300
2:1
140
2.0
141
1.0
290
     0
  0
SCALE
  5
FD9
102
{ACAD_REACTORS
330
FCB
102
}
330
FCB
100
AcDbScale
 70
     0
300
4:1
140
4.0
141
1.0
290
     0
  0
SCALE
  5
FDA
102
{ACAD_REACTORS
330
FCB
102
}
330
FCB
100
AcDbScale
 70
     0
300
8:1
140
8.0
141
1.0
290
     0
  0
SCALE
  5
FDB
102
{ACAD_REACTORS
330
FCB
102
}
330
FCB
100
AcDbScale
 70
     0
300
10:1
140
10.0
141
1.0
290
     0
  0
SCALE
  5
FDC
102
{ACAD_REACTORS
330
FCB
102
}
330
FCB
100
AcDbScale
 70
     0
300
100:1
140
100.0
141
1.0
290
     0
  0
SCALE
  5
FDD
102
{ACAD_REACTORS
330
FCB
102
}
330
FCB
100
AcDbScale
 70
     0
300
1/128" = 1'-0"
140
0.0078125
141
12.0
290
     0
  0
SCALE
  5
FDE
102
{ACAD_REACTORS
330
FCB
102
}
330
FCB
100
AcDbScale
 70
     0
300
1/64" = 1'-0"
140
0.015625
141
12.0
290
     0
  0
SCALE
  5
FDF
102
{ACAD_REACTORS
330
FCB
102
}
330
FCB
100
AcDbScale
 70
     0
300
1/32" = 1'-0"
140
0.03125
141
12.0
290
     0
  0
SCALE
  5
FE0
102
{ACAD_REACTORS
330
FCB
102
}
330
FCB
100
AcDbScale
 70
     0
300
1/16" = 1'-0"
140
0.0625
141
12.0
290
     0
  0
SCALE
  5
FE1
102
{ACAD_REACTORS
330
FCB
102
}
330
FCB
100
AcDbScale
 70
     0
300
3/32" = 1'-0"
140
0.09375
141
12.0
290
     0
  0
SCALE
  5
FE2
102
{ACAD_REACTORS
330
FCB
102
}
330
FCB
100
AcDbScale
 70
     0
300
1/8" = 1'-0"
140
0.125
141
12.0
290
     0
  0
SCALE
  5
FE3
102
{ACAD_REACTORS
330
FCB
102
}
330
FCB
100
AcDbScale
 70
     0
300
3/16" = 1'-0"
140
0.1875
141
12.0
290
     0
  0
SCALE
  5
FE4
102
{ACAD_REACTORS
330
FCB
102
}
330
FCB
100
AcDbScale
 70
     0
300
1/4" = 1'-0"
140
0.25
141
12.0
290
     0
  0
SCALE
  5
FE5
102
{ACAD_REACTORS
330
FCB
102
}
330
FCB
100
AcDbScale
 70
     0
300
3/8" = 1'-0"
140
0.375
141
12.0
290
     0
  0
SCALE
  5
FE6
102
{ACAD_REACTORS
330
FCB
102
}
330
FCB
100
AcDbScale
 70
     0
300
1/2" = 1'-0"
140
0.5
141
12.0
290
     0
  0
SCALE
  5
FE7
102
{ACAD_REACTORS
330
FCB
102
}
330
FCB
100
AcDbScale
 70
     0
300
3/4" = 1'-0"
140
0.75
141
12.0
290
     0
  0
SCALE
  5
FE8
102
{ACAD_REACTORS
330
FCB
102
}
330
FCB
100
AcDbScale
 70
     0
300
1" = 1'-0"
140
1.0
141
12.0
290
     0
  0
SCALE
  5
FE9
102
{ACAD_REACTORS
330
FCB
102
}
330
FCB
100
AcDbScale
 70
     0
300
1-1/2" = 1'-0"
140
1.5
141
12.0
290
     0
  0
SCALE
  5
FEA
102
{ACAD_REACTORS
330
FCB
102
}
330
FCB
100
AcDbScale
 70
     0
300
3" = 1'-0"
140
3.0
141
12.0
290
     0
  0
SCALE
  5
FEB
102
{ACAD_REACTORS
330
FCB
102
}
330
FCB
100
AcDbScale
 70
     0
300
6" = 1'-0"
140
6.0
141
12.0
290
     0
  0
SCALE
  5
FEC
102
{ACAD_REACTORS
330
FCB
102
}
330
FCB
100
AcDbScale
 70
     0
300
1'-0" = 1'-0"
140
12.0
141
12.0
290
     0
  0
TABLESTYLE
  5
FCA
102
{ACAD_XDICTIONARY
360
1358
102
}
102
{ACAD_REACTORS
330
FC9
102
}
330
FC9
100
AcDbTableStyle
  3
Standard
 70
     0
 71
     0
 40
0.06
 41
0.06
280
     0
281
     0
  7
STANDARD
140
0.18
170
     2
 62
     0
 63
     7
283
     0
274
    -2
284
     1
 64
     0
275
    -2
285
     1
 65
     0
276
    -2
286
     1
 66
     0
277
    -2
287
     1
 67
     0
278
    -2
288
     1
 68
     0
279
    -2
289
     1
 69
     0
  7
STANDARD
140
0.25
170
     5
 62
     0
 63
     7
283
     0
274
    -2
284
     1
 64
     0
275
    -2
285
     1
 65
     0
276
    -2
286
     1
 66
     0
277
    -2
287
     1
 67
     0
278
    -2
288
     1
 68
     0
279
    -2
289
     1
 69
     0
  7
STANDARD
140
0.18
170
     5
 62
     0
 63
     7
283
     0
274
    -2
284
     1
 64
     0
275
    -2
285
     1
 65
     0
276
    -2
286
     1
 66
     0
277
    -2
287
     1
 67
     0
278
    -2
288
     1
 68
     0
279
    -2
289
     1
 69
     0
  0
VISUALSTYLE
  5
FBD
102
{ACAD_REACTORS
330
FB7
102
}
330
FB7
100
AcDbVisualStyle
  2
2dWireframe
 70
     4
 71
     0
 72
     2
 73
     0
 90
        0
 40
-0.6
 41
-30.0
 62
     5
 63
     7
421
 16777215
 74
     1
 91
        4
 64
     7
 65
   257
 75
     1
175
     1
 42
1.0
 92
        0
 66
   257
 43
1.0
 76
     1
 77
     6
 78
     2
 67
     7
 79
     5
170
     0
171
     0
290
     0
174
     0
 93
        1
 44
0.0
173
     0
291
     0
 45
0.0
1001
ACAD
1000
AcDbSavedByObjectVersion
1070
     0
  0
VISUALSTYLE
  5
FBF
102
{ACAD_REACTORS
330
FB7
102
}
330
FB7
100
AcDbVisualStyle
  2
3D Hidden
 70
     6
 71
     1
 72
     2
 73
     2
 90
        0
 40
-0.6
 41
-30.0
 62
     5
 63
     7
421
 16777215
 74
     2
 91
        2
 64
     7
 65
   257
 75
     2
175
     1
 42
40.0
 92
        0
 66
   257
 43
1.0
 76
     1
 77
     6
 78
     2
 67
     7
 79
     3
170
     0
171
     0
290
     0
174
     0
 93
        1
 44
0.0
173
     0
291
     0
 45
0.0
1001
ACAD
1000
AcDbSavedByObjectVersion
1070
     0
  0
VISUALSTYLE
  5
FBE
102
{ACAD_REACTORS
330
FB7
102
}
330
FB7
100
AcDbVisualStyle
  2
3dWireframe
 70
     5
 71
     0
 72
     2
 73
     0
 90
        0
 40
-0.6
 41
-30.0
 62
     5
 63
     7
421
 16777215
 74
     1
 91
        4
 64
     7
 65
   257
 75
     1
175
     1
 42
1.0
 92
        0
 66
   257
 43
1.0
 76
     1
 77
     6
 78
     2
 67
     7
 79
     5
170
     0
171
     0
290
     0
174
     0
 93
        1
 44
0.0
173
     0
291
     0
 45
0.0
1001
ACAD
1000
AcDbSavedByObjectVersion
1070
     0
  0
VISUALSTYLE
  5
FBC
102
{ACAD_REACTORS
330
FB7
102
}
330
FB7
100
AcDbVisualStyle
  2
Basic
 70
     7
 71
     1
 72
     0
 73
     1
 90
        0
 40
-0.6
 41
-30.0
 62
     5
 63
     7
421
 16777215
 74
     0
 91
        4
 64
     7
 65
   257
 75
     1
175
     1
 42
1.0
 92
        8
 66
     7
 43
1.0
 76
     1
 77
     6
 78
     2
 67
     7
 79
     5
170
     0
171
     0
290
     0
174
     0
 93
        1
 44
0.0
173
     0
291
     1
 45
0.0
1001
ACAD
1000
AcDbSavedByObjectVersion
1070
     0
  0
VISUALSTYLE
  5
FC3
102
{ACAD_REACTORS
330
FB7
102
}
330
FB7
100
AcDbVisualStyle
  2
Brighten
 70
    12
 71
     2
 72
     2
 73
     0
 90
        0
 40
-0.6
 41
-30.0
 62
     5
 63
     7
421
 16777215
 74
     1
 91
        4
 64
     7
 65
   257
 75
     1
175
     1
 42
1.0
 92
        8
 66
     7
 43
1.0
 76
     1
 77
     6
 78
     2
 67
     7
 79
     5
170
     0
171
     0
290
     0
174
     0
 93
        1
 44
50.0
173
     0
291
     1
 45
0.0
1001
ACAD
1000
AcDbSavedByObjectVersion
1070
     0
  0
VISUALSTYLE
  5
FC7
102
{ACAD_REACTORS
330
FB7
102
}
330
FB7
100
AcDbVisualStyle
  2
ColorChange
 70
    16
 71
     2
 72
     2
 73
     3
 90
        0
 40
-0.6
 41
-30.0
 62
     5
 63
     8
421
  8421504
 74
     1
 91
        4
 64
     7
 65
   257
 75
     1
175
     1
 42
1.0
 92
        8
 66
     8
424
  8421504
 43
1.0
 76
     1
 77
     6
 78
     2
 67
     7
 79
     5
170
     0
171
     0
290
     0
174
     0
 93
        1
 44
0.0
173
     0
291
     1
 45
0.0
1001
ACAD
1000
AcDbSavedByObjectVersion
1070
     0
  0
VISUALSTYLE
  5
FC0
102
{ACAD_REACTORS
330
FB7
102
}
330
FB7
100
AcDbVisualStyle
  2
Conceptual
 70
     9
 71
     3
 72
     2
 73
     0
 90
        0
 40
-0.6
 41
-30.0
 62
     5
 63
     7
421
 16777215
 74
     2
 91
        2
 64
     7
 65
   257
 75
     1
175
     1
 42
40.0
 92
        8
 66
     7
 43
1.0
 76
     1
 77
     6
 78
     2
 67
     7
 79
     3
170
     0
171
     0
290
     0
174
     0
 93
        1
 44
0.0
173
     0
291
     0
 45
0.0
1001
ACAD
1000
AcDbSavedByObjectVersion
1070
     0
  0
VISUALSTYLE
  5
FC2
102
{ACAD_REACTORS
330
FB7
102
}
330
FB7
100
AcDbVisualStyle
  2
Dim
 70
    11
 71
     2
 72
     2
 73
     0
 90
        0
 40
-0.6
 41
-30.0
 62
     5
 63
     7
421
 16777215
 74
     1
 91
        4
 64
     7
 65
   257
 75
     1
175
     1
 42
1.0
 92
        8
 66
     7
 43
1.0
 76
     1
 77
     6
 78
     2
 67
     7
 79
     5
170
     0
171
     0
290
     0
174
     0
 93
        1
 44
-50.0
173
     0
291
     1
 45
0.0
1001
ACAD
1000
AcDbSavedByObjectVersion
1070
     0
  0
VISUALSTYLE
  5
FC6
102
{ACAD_REACTORS
330
FB7
102
}
330
FB7
100
AcDbVisualStyle
  2
Facepattern
 70
    15
 71
     2
 72
     2
 73
     0
 90
        0
 40
-0.6
 41
-30.0
 62
     5
 63
     7
421
 16777215
 74
     1
 91
        4
 64
     7
 65
   257
 75
     1
175
     1
 42
1.0
 92
        8
 66
     7
 43
1.0
 76
     1
 77
     6
 78
     2
 67
     7
 79
     5
170
     0
171
     0
290
     0
174
     0
 93
        1
 44
0.0
173
     0
291
     1
 45
0.0
1001
ACAD
1000
AcDbSavedByObjectVersion
1070
     0
  0
VISUALSTYLE
  5
FB8
102
{ACAD_REACTORS
330
FB7
102
}
330
FB7
100
AcDbVisualStyle
  2
Flat
 70
     0
 71
     2
 72
     1
 73
     1
 90
        2
 40
-0.6
 41
30.0
 62
     5
 63
     7
421
 16777215
 74
     0
 91
        4
 64
     7
 65
   257
 75
     1
175
     1
 42
1.0
 92
        8
 66
     7
 43
1.0
 76
     1
 77
     6
 78
     2
 67
     7
 79
     5
170
     0
171
     0
290
     0
174
     0
 93
       13
 44
0.0
173
     0
291
     1
 45
0.0
1001
ACAD
1000
AcDbSavedByObjectVersion
1070
     0
  0
VISUALSTYLE
  5
FB9
102
{ACAD_REACTORS
330
FB7
102
}
330
FB7
100
AcDbVisualStyle
  2
FlatWithEdges
 70
     1
 71
     2
 72
     1
 73
     1
 90
        2
 40
-0.6
 41
30.0
 62
     5
 63
     7
421
 16777215
 74
     1
 91
        4
 64
     7
 65
   257
 75
     1
175
     1
 42
1.0
 92
        0
 66
   257
 43
1.0
 76
     1
 77
     6
 78
     2
 67
     7
 79
     5
170
     0
171
     0
290
     0
174
     0
 93
       13
 44
0.0
173
     0
291
     1
 45
0.0
1001
ACAD
1000
AcDbSavedByObjectVersion
1070
     0
  0
VISUALSTYLE
  5
FBA
102
{ACAD_REACTORS
330
FB7
102
}
330
FB7
100
AcDbVisualStyle
  2
Gouraud
 70
     2
 71
     2
 72
     2
 73
     1
 90
        2
 40
-0.6
 41
30.0
 62
     5
 63
     7
421
 16777215
 74
     0
 91
        4
 64
     7
 65
   257
 75
     1
175
     1
 42
1.0
 92
        0
 66
     7
 43
1.0
 76
     1
 77
     6
 78
     2
 67
     7
 79
     5
170
     0
171
     0
290
     0
174
     0
 93
       13
 44
0.0
173
     0
291
     1
 45
0.0
1001
ACAD
1000
AcDbSavedByObjectVersion
1070
     0
  0
VISUALSTYLE
  5
FBB
102
{ACAD_REACTORS
330
FB7
102
}
330
FB7
100
AcDbVisualStyle
  2
GouraudWithEdges
 70
     3
 71
     2
 72
     2
 73
     1
 90
        2
 40
-0.6
 41
30.0
 62
     5
 63
     7
421
 16777215
 74
     1
 91
        4
 64
     7
 65
   257
 75
     1
175
     1
 42
1.0
 92
        0
 66
   257
 43
1.0
 76
     1
 77
     6
 78
     2
 67
     7
 79
     5
170
     0
171
     0
290
     0
174
     0
 93
       13
 44
0.0
173
     0
291
     1
 45
0.0
1001
ACAD
1000
AcDbSavedByObjectVersion
1070
     0
  0
VISUALSTYLE
  5
FC5
102
{ACAD_REACTORS
330
FB7
102
}
330
FB7
100
AcDbVisualStyle
  2
Linepattern
 70
    14
 71
     2
 72
     2
 73
     0
 90
        0
 40
-0.6
 41
-30.0
 62
     5
 63
     7
421
 16777215
 74
     1
 91
        4
 64
     7
 65
   257
 75
     7
175
     7
 42
1.0
 92
        8
 66
     7
 43
1.0
 76
     1
 77
     6
 78
     2
 67
     7
 79
     5
170
     0
171
     0
290
     0
174
     0
 93
        1
 44
0.0
173
     0
291
     1
 45
0.0
1001
ACAD
1000
AcDbSavedByObjectVersion
1070
     0
  0
VISUALSTYLE
  5
FC1
102
{ACAD_REACTORS
330
FB7
102
}
330
FB7
100
AcDbVisualStyle
  2
Realistic
 70
     8
 71
     2
 72
     2
 73
     0
 90
        0
 40
-0.6
 41
-30.0
 62
     5
 63
     7
421
 16777215
 74
     1
 91
        0
 64
     7
 65
   257
 75
     1
175
     1
 42
1.0
 92
        8
 66
     8
424
  7895160
 43
1.0
 76
     1
 77
     6
 78
     2
 67
     7
 79
     5
170
     0
171
     0
290
     0
174
     0
 93
       13
 44
0.0
173
     0
291
     0
 45
0.0
1001
ACAD
1000
AcDbSavedByObjectVersion
1070
     0
  0
VISUALSTYLE
  5
FC4
102
{ACAD_REACTORS
330
FB7
102
}
330
FB7
100
AcDbVisualStyle
  2
Thicken
 70
    13
 71
     2
 72
     2
 73
     0
 90
        0
 40
-0.6
 41
-30.0
 62
     5
 63
     7
421
 16777215
 74
     1
 91
        4
 64
     7
 65
   257
 75
     1
175
     1
 42
1.0
 92
       12
 66
     7
 43
1.0
 76
     1
 77
     6
 78
     2
 67
     7
 79
     5
170
     0
171
     0
290
     0
174
     0
 93
        1
 44
0.0
173
     0
291
     1
 45
0.0
1001
ACAD
1000
AcDbSavedByObjectVersion
1070
     0
  0
DICTIONARYVAR
  5
135E
102
{ACAD_REACTORS
330
6FB
102
}
330
6FB
100
DictionaryVariables
280
     0
  1
1:1
  0
DICTIONARYVAR
  5
135C
102
{ACAD_REACTORS
330
6FB
102
}
330
6FB
100
DictionaryVariables
280
     0
  1
STANDARD
  0
DICTIONARYVAR
  5
135B
102
{ACAD_REACTORS
330
6FB
102
}
330
6FB
100
DictionaryVariables
280
     0
  1
STANDARD
  0
DICTIONARYVAR
  5
135F
102
{ACAD_REACTORS
330
6FB
102
}
330
6FB
100
DictionaryVariables
280
     0
  1
0
  0
DICTIONARYVAR
  5
135D
102
{ACAD_REACTORS
330
6FB
102
}
330
6FB
100
DictionaryVariables
280
     0
  1
0
  0
DICTIONARYVAR
  5
6FC
102
{ACAD_REACTORS
330
6FB
102
}
330
6FB
100
DictionaryVariables
280
     0
  1
96
  0
DICTIONARY
  5
FA8
330
FA7
100
AcDbDictionary
280
     1
281
     1
  3
ACAD_XREC_ROUNDTRIP
360
1493
  3
BUMPTILE
360
FAA
  3
DIFFUSETILE
360
FA9
  3
OPACITYTILE
360
FAD
  3
REFLECTIONTILE
360
FAC
  3
REFRACTIONTILE
360
FAE
  3
SPECULARTILE
360
FAB
  0
DICTIONARY
  5
FA0
330
F9F
100
AcDbDictionary
280
     1
281
     1
  3
ACAD_XREC_ROUNDTRIP
360
1492
  3
BUMPTILE
360
FA2
  3
DIFFUSETILE
360
FA1
  3
OPACITYTILE
360
FA5
  3
REFLECTIONTILE
360
FA4
  3
REFRACTIONTILE
360
FA6
  3
SPECULARTILE
360
FA3
  0
DICTIONARY
  5
FB0
330
FAF
100
AcDbDictionary
280
     1
281
     1
  3
ACAD_XREC_ROUNDTRIP
360
1494
  3
BUMPTILE
360
FB2
  3
DIFFUSETILE
360
FB1
  3
OPACITYTILE
360
FB5
  3
REFLECTIONTILE
360
FB4
  3
REFRACTIONTILE
360
FB6
  3
SPECULARTILE
360
FB3
  0
DICTIONARY
  5
1358
330
FCA
100
AcDbDictionary
280
     1
281
     1
  3
ACAD_ROUNDTRIP_2008_TABLESTYLE_CELLSTYLEMAP
360
1491
  3
ACAD_XREC_ROUNDTRIP
360
1495
  0
XRECORD
  5
1493
102
{ACAD_REACTORS
330
FA8
102
}
330
FA8
100
AcDbXrecord
280
     1
102
MATERIAL
148
0.0
149
0.0
149
0.0
 93
        0
 94
      127
282
     0
 72
     0
 77
     0
171
     0
175
     0
179
     0
273
     0
  0
XRECORD
  5
FAA
102
{ACAD_REACTORS
330
FA8
102
}
330
FA8
100
AcDbXrecord
280
     1
270
     1
271
     1
  0
XRECORD
  5
FA9
102
{ACAD_REACTORS
330
FA8
102
}
330
FA8
100
AcDbXrecord
280
     1
270
     1
271
     1
  0
XRECORD
  5
FAD
102
{ACAD_REACTORS
330
FA8
102
}
330
FA8
100
AcDbXrecord
280
     1
270
     1
271
     1
  0
XRECORD
  5
FAC
102
{ACAD_REACTORS
330
FA8
102
}
330
FA8
100
AcDbXrecord
280
     1
270
     1
271
     1
  0
XRECORD
  5
FAE
102
{ACAD_REACTORS
330
FA8
102
}
330
FA8
100
AcDbXrecord
280
     1
270
     1
271
     1
  0
XRECORD
  5
FAB
102
{ACAD_REACTORS
330
FA8
102
}
330
FA8
100
AcDbXrecord
280
     1
270
     1
271
     1
  0
XRECORD
  5
1492
102
{ACAD_REACTORS
330
FA0
102
}
330
FA0
100
AcDbXrecord
280
     1
102
MATERIAL
148
0.0
149
0.0
149
0.0
 93
        0
 94
      127
282
     0
 72
     0
 77
     0
171
     0
175
     0
179
     0
273
     0
  0
XRECORD
  5
FA2
102
{ACAD_REACTORS
330
FA0
102
}
330
FA0
100
AcDbXrecord
280
     1
270
     1
271
     1
  0
XRECORD
  5
FA1
102
{ACAD_REACTORS
330
FA0
102
}
330
FA0
100
AcDbXrecord
280
     1
270
     1
271
     1
  0
XRECORD
  5
FA5
102
{ACAD_REACTORS
330
FA0
102
}
330
FA0
100
AcDbXrecord
280
     1
270
     1
271
     1
  0
XRECORD
  5
FA4
102
{ACAD_REACTORS
330
FA0
102
}
330
FA0
100
AcDbXrecord
280
     1
270
     1
271
     1
  0
XRECORD
  5
FA6
102
{ACAD_REACTORS
330
FA0
102
}
330
FA0
100
AcDbXrecord
280
     1
270
     1
271
     1
  0
XRECORD
  5
FA3
102
{ACAD_REACTORS
330
FA0
102
}
330
FA0
100
AcDbXrecord
280
     1
270
     1
271
     1
  0
XRECORD
  5
1494
102
{ACAD_REACTORS
330
FB0
102
}
330
FB0
100
AcDbXrecord
280
     1
102
MATERIAL
148
0.0
149
0.0
149
0.0
 93
        0
 94
      127
282
     0
 72
     0
 77
     0
171
     0
175
     0
179
     0
273
     0
  0
XRECORD
  5
FB2
102
{ACAD_REACTORS
330
FB0
102
}
330
FB0
100
AcDbXrecord
280
     1
270
     1
271
     1
  0
XRECORD
  5
FB1
102
{ACAD_REACTORS
330
FB0
102
}
330
FB0
100
AcDbXrecord
280
     1
270
     1
271
     1
  0
XRECORD
  5
FB5
102
{ACAD_REACTORS
330
FB0
102
}
330
FB0
100
AcDbXrecord
280
     1
270
     1
271
     1
  0
XRECORD
  5
FB4
102
{ACAD_REACTORS
330
FB0
102
}
330
FB0
100
AcDbXrecord
280
     1
270
     1
271
     1
  0
XRECORD
  5
FB6
102
{ACAD_REACTORS
330
FB0
102
}
330
FB0
100
AcDbXrecord
280
     1
270
     1
271
     1
  0
XRECORD
  5
FB3
102
{ACAD_REACTORS
330
FB0
102
}
330
FB0
100
AcDbXrecord
280
     1
270
     1
271
     1
  0
CELLSTYLEMAP
  5
1491
102
{ACAD_REACTORS
330
1358
102
}
330
1358
100
AcDbCellStyleMap
 90
        3
300
CELLSTYLE
  1
TABLEFORMAT_BEGIN
 90
        5
170
     1
 91
        0
 92
    32768
 62
   257
 93
        1
300
CONTENTFORMAT
  1
CONTENTFORMAT_BEGIN
 90
        0
 91
        0
 92
      512
 93
        0
300

 40
0.0
140
1.0
 94
        5
 62
     0
340
10
144
0.25
309
CONTENTFORMAT_END
171
     0
 94
        0
309
TABLEFORMAT_END
  1
CELLSTYLE_BEGIN
 90
        1
 91
        1
300
_TITLE
309
CELLSTYLE_END
300
CELLSTYLE
  1
TABLEFORMAT_BEGIN
 90
        5
170
     1
 91
        0
 92
        0
 62
   257
 93
        1
300
CONTENTFORMAT
  1
CONTENTFORMAT_BEGIN
 90
        0
 91
        0
 92
      512
 93
        0
300

 40
0.0
140
1.0
 94
        5
 62
     0
340
10
144
0.18
309
CONTENTFORMAT_END
171
     0
 94
        0
309
TABLEFORMAT_END
  1
CELLSTYLE_BEGIN
 90
        2
 91
        1
300
_HEADER
309
CELLSTYLE_END
300
CELLSTYLE
  1
TABLEFORMAT_BEGIN
 90
        5
170
     1
 91
        0
 92
        0
 62
   257
 93
        1
300
CONTENTFORMAT
  1
CONTENTFORMAT_BEGIN
 90
        0
 91
        0
 92
      512
 93
        0
300

 40
0.0
140
1.0
 94
        2
 62
     0
340
10
144
0.18
309
CONTENTFORMAT_END
171
     0
 94
        0
309
TABLEFORMAT_END
  1
CELLSTYLE_BEGIN
 90
        3
 91
        2
300
_DATA
309
CELLSTYLE_END
  0
XRECORD
  5
1495
102
{ACAD_REACTORS
330
1358
102
}
330
1358
100
AcDbXrecord
280
     1
102
ACAD_ROUNDTRIP_PRE2007_TABLESTYLE
 90
      512
 91
        0
  1

 92
      512
 93
        0
  2

 94
      512
 95
        0
  3

  0
ENDSEC
  0
EOF
