  0
SECTION
  2
HEADER
  9
$ACADVER
  1
AC1018
  9
$ACADMAINTVER
 70
   104
  9
$DWGCODEPAGE
  3
ANSI_932
  9
$LASTSAVEDBY
  1
poracon
  9
$INSBASE
 10
0.0
 20
0.0
 30
0.0
  9
$EXTMIN
 10
321.3637482186459
 20
53.71374994742655
 30
-0.0000000000112498
  9
$EXTMAX
 10
5361.489235853429
 20
3617.976563302153
 30
0.0000000000002956
  9
$LIMMIN
 10
0.0
 20
0.0
  9
$LIMMAX
 10
420.0
 20
297.0
  9
$ORTHOMODE
 70
     1
  9
$REGENMODE
 70
     1
  9
$FILLMODE
 70
     1
  9
$QTEXTMODE
 70
     0
  9
$MIRRTEXT
 70
     1
  9
$LTSCALE
 40
1.0
  9
$ATTMODE
 70
     1
  9
$TEXTSIZE
 40
50.0
  9
$TRACEWID
 40
1.0
  9
$TEXTSTYLE
  7
STANDARD
  9
$CLAYER
  8
saiseki
  9
$CELTYPE
  6
BYLAYER
  9
$CECOLOR
 62
   256
  9
$CELTSCALE
 40
1.0
  9
$DISPSILH
 70
     0
  9
$DIMSCALE
 40
10.0
  9
$DIMASZ
 40
2.5
  9
$DIMEXO
 40
0.625
  9
$DIMDLI
 40
3.75
  9
$DIMRND
 40
0.0
  9
$DIMDLE
 40
0.0
  9
$DIMEXE
 40
1.25
  9
$DIMTP
 40
0.0
  9
$DIMTM
 40
0.0
  9
$DIMTXT
 40
3.0
  9
$DIMCEN
 40
2.5
  9
$DIMTSZ
 40
0.0
  9
$DIMTOL
 70
     0
  9
$DIMLIM
 70
     0
  9
$DIMTIH
 70
     0
  9
$DIMTOH
 70
     0
  9
$DIMSE1
 70
     0
  9
$DIMSE2
 70
     0
  9
$DIMTAD
 70
     1
  9
$DIMZIN
 70
     8
  9
$DIMBLK
  1
Open
  9
$DIMASO
 70
     1
  9
$DIMSHO
 70
     1
  9
$DIMPOST
  1

  9
$DIMAPOST
  1

  9
$DIMALT
 70
     0
  9
$DIMALTD
 70
     4
  9
$DIMALTF
 40
0.0394
  9
$DIMLFAC
 40
1.0
  9
$DIMTOFL
 70
     1
  9
$DIMTVP
 40
1.0
  9
$DIMTIX
 70
     0
  9
$DIMSOXD
 70
     0
  9
$DIMSAH
 70
     0
  9
$DIMBLK1
  1

  9
$DIMBLK2
  1

  9
$DIMSTYLE
  2
ISO-25
  9
$DIMCLRD
 70
   256
  9
$DIMCLRE
 70
   256
  9
$DIMCLRT
 70
   256
  9
$DIMTFAC
 40
1.0
  9
$DIMGAP
 40
0.625
  9
$DIMJUST
 70
     0
  9
$DIMSD1
 70
     0
  9
$DIMSD2
 70
     0
  9
$DIMTOLJ
 70
     1
  9
$DIMTZIN
 70
     0
  9
$DIMALTZ
 70
     0
  9
$DIMALTTZ
 70
     0
  9
$DIMUPT
 70
     1
  9
$DIMDEC
 70
     0
  9
$DIMTDEC
 70
     0
  9
$DIMALTU
 70
     8
  9
$DIMALTTD
 70
     4
  9
$DIMTXSTY
  7
BIGFONT
  9
$DIMAUNIT
 70
     0
  9
$DIMADEC
 70
     0
  9
$DIMALTRND
 40
0.0
  9
$DIMAZIN
 70
     0
  9
$DIMDSEP
 70
    46
  9
$DIMATFIT
 70
     3
  9
$DIMFRAC
 70
     0
  9
$DIMLDRBLK
  1
Open
  9
$DIMLUNIT
 70
     2
  9
$DIMLWD
 70
    -1
  9
$DIMLWE
 70
    -1
  9
$DIMTMOVE
 70
     0
  9
$LUNITS
 70
     2
  9
$LUPREC
 70
     4
  9
$SKETCHINC
 40
1.0
  9
$FILLETRAD
 40
0.0
  9
$AUNITS
 70
     0
  9
$AUPREC
 70
     0
  9
$MENU
  1
.
  9
$ELEVATION
 40
0.0
  9
$PELEVATION
 40
0.0
  9
$THICKNESS
 40
0.0
  9
$LIMCHECK
 70
     0
  9
$CHAMFERA
 40
10.0
  9
$CHAMFERB
 40
10.0
  9
$CHAMFERC
 40
0.0
  9
$CHAMFERD
 40
0.0
  9
$SKPOLY
 70
     1
  9
$TDCREATE
 40
2450199.456126991
  9
$TDUCREATE
 40
2450199.081126991
  9
$TDUPDATE
 40
2457339.985419722
  9
$TDUUPDATE
 40
2457339.610419722
  9
$TDINDWG
 40
0.4268842708
  9
$TDUSRTIMER
 40
0.4268842708
  9
$USRTIMER
 70
     1
  9
$ANGBASE
 50
0.0
  9
$ANGDIR
 70
     0
  9
$PDMODE
 70
     0
  9
$PDSIZE
 40
0.0
  9
$PLINEWID
 40
0.0
  9
$SPLFRAME
 70
     0
  9
$SPLINETYPE
 70
     6
  9
$SPLINESEGS
 70
     8
  9
$HANDSEED
  5
41C8
  9
$SURFTAB1
 70
     6
  9
$SURFTAB2
 70
     6
  9
$SURFTYPE
 70
     6
  9
$SURFU
 70
     6
  9
$SURFV
 70
     6
  9
$UCSBASE
  2

  9
$UCSNAME
  2

  9
$UCSORG
 10
0.0
 20
0.0
 30
0.0
  9
$UCSXDIR
 10
1.0
 20
0.0
 30
0.0
  9
$UCSYDIR
 10
0.0
 20
1.0
 30
0.0
  9
$UCSORTHOREF
  2

  9
$UCSORTHOVIEW
 70
     0
  9
$UCSORGTOP
 10
0.0
 20
0.0
 30
0.0
  9
$UCSORGBOTTOM
 10
0.0
 20
0.0
 30
0.0
  9
$UCSORGLEFT
 10
0.0
 20
0.0
 30
0.0
  9
$UCSORGRIGHT
 10
0.0
 20
0.0
 30
0.0
  9
$UCSORGFRONT
 10
0.0
 20
0.0
 30
0.0
  9
$UCSORGBACK
 10
0.0
 20
0.0
 30
0.0
  9
$PUCSBASE
  2

  9
$PUCSNAME
  2

  9
$PUCSORG
 10
0.0
 20
0.0
 30
0.0
  9
$PUCSXDIR
 10
1.0
 20
0.0
 30
0.0
  9
$PUCSYDIR
 10
0.0
 20
1.0
 30
0.0
  9
$PUCSORTHOREF
  2

  9
$PUCSORTHOVIEW
 70
     0
  9
$PUCSORGTOP
 10
0.0
 20
0.0
 30
0.0
  9
$PUCSORGBOTTOM
 10
0.0
 20
0.0
 30
0.0
  9
$PUCSORGLEFT
 10
0.0
 20
0.0
 30
0.0
  9
$PUCSORGRIGHT
 10
0.0
 20
0.0
 30
0.0
  9
$PUCSORGFRONT
 10
0.0
 20
0.0
 30
0.0
  9
$PUCSORGBACK
 10
0.0
 20
0.0
 30
0.0
  9
$USERI1
 70
     0
  9
$USERI2
 70
     0
  9
$USERI3
 70
     0
  9
$USERI4
 70
     0
  9
$USERI5
 70
     0
  9
$USERR1
 40
0.0
  9
$USERR2
 40
0.0
  9
$USERR3
 40
0.0
  9
$USERR4
 40
0.0
  9
$USERR5
 40
0.0
  9
$WORLDVIEW
 70
     1
  9
$SHADEDGE
 70
     3
  9
$SHADEDIF
 70
    70
  9
$TILEMODE
 70
     1
  9
$MAXACTVP
 70
    48
  9
$PINSBASE
 10
0.0
 20
0.0
 30
0.0
  9
$PLIMCHECK
 70
     0
  9
$PEXTMIN
 10
1.000000000000000E+20
 20
1.000000000000000E+20
 30
1.000000000000000E+20
  9
$PEXTMAX
 10
-1.000000000000000E+20
 20
-1.000000000000000E+20
 30
-1.000000000000000E+20
  9
$PLIMMIN
 10
0.0
 20
0.0
  9
$PLIMMAX
 10
840.0
 20
594.0
  9
$UNITMODE
 70
     0
  9
$VISRETAIN
 70
     0
  9
$PLINEGEN
 70
     0
  9
$PSLTSCALE
 70
     1
  9
$TREEDEPTH
 70
  3020
  9
$CMLSTYLE
  2
STANDARD
  9
$CMLJUST
 70
     0
  9
$CMLSCALE
 40
1.0
  9
$PROXYGRAPHICS
 70
     1
  9
$MEASUREMENT
 70
     1
  9
$CELWEIGHT
370
    -1
  9
$ENDCAPS
280
     0
  9
$JOINSTYLE
280
     0
  9
$LWDISPLAY
290
     0
  9
$INSUNITS
 70
     0
  9
$HYPERLINKBASE
  1

  9
$STYLESHEET
  1

  9
$XEDIT
290
     1
  9
$CEPSNTYPE
380
     0
  9
$PSTYLEMODE
290
     1
  9
$FINGERPRINTGUID
  2
{36C49202-8B86-4C76-9948-2C2D4D06F5DC}
  9
$VERSIONGUID
  2
{4E816D09-D747-4485-A3AD-078B5D596ABA}
  9
$EXTNAMES
290
     1
  9
$PSVPSCALE
 40
0.0
  9
$OLESTARTUP
290
     0
  9
$SORTENTS
280
    96
  9
$INDEXCTL
280
     0
  9
$HIDETEXT
280
     0
  9
$XCLIPFRAME
290
     0
  9
$HALOGAP
280
     0
  9
$OBSCOLOR
 70
   257
  9
$OBSLTYPE
280
     0
  9
$INTERSECTIONDISPLAY
280
     0
  9
$INTERSECTIONCOLOR
 70
   257
  9
$DIMASSOC
280
     1
  9
$PROJECTNAME
  1

  0
ENDSEC
  0
SECTION
  2
CLASSES
  0
CLASS
  1
DICTIONARYVAR
  2
AcDbDictionaryVar
  3
ObjectDBX Classes
 90
        0
 91
        6
280
     0
281
     0
  0
CLASS
  1
ACDBDICTIONARYWDFLT
  2
AcDbDictionaryWithDefault
  3
ObjectDBX Classes
 90
        0
 91
        1
280
     0
281
     0
  0
CLASS
  1
MATERIAL
  2
AcDbMaterial
  3
ObjectDBX Classes
 90
     1153
 91
        3
280
     0
281
     0
  0
CLASS
  1
VISUALSTYLE
  2
AcDbVisualStyle
  3
ObjectDBX Classes
 90
     4095
 91
       16
280
     0
281
     0
  0
CLASS
  1
TABLESTYLE
  2
AcDbTableStyle
  3
ObjectDBX Classes
 90
     4095
 91
        1
280
     0
281
     0
  0
CLASS
  1
SCALE
  2
AcDbScale
  3
ObjectDBX Classes
 90
     1153
 91
       33
280
     0
281
     0
  0
CLASS
  1
MLEADERSTYLE
  2
AcDbMLeaderStyle
  3
ACDB_MLEADERSTYLE_CLASS
 90
     4095
 91
        1
280
     0
281
     0
  0
CLASS
  1
SORTENTSTABLE
  2
AcDbSortentsTable
  3
ObjectDBX Classes
 90
        0
 91
        1
280
     0
281
     0
  0
CLASS
  1
CELLSTYLEMAP
  2
AcDbCellStyleMap
  3
ObjectDBX Classes
 90
     1152
 91
        3
280
     0
281
     0
  0
ENDSEC
  0
SECTION
  2
TABLES
  0
TABLE
  2
VPORT
  5
8
330
0
100
AcDbSymbolTable
 70
     1
  0
VPORT
  5
356E
330
8
100
AcDbSymbolTableRecord
100
AcDbViewportTableRecord
  2
*Active
 70
     0
 10
0.0
 20
0.0
 11
1.0
 21
1.0
 12
2680.744617926715
 22
1808.988281651076
 13
0.0
 23
0.0
 14
50.0
 24
50.0
 15
0.0
 25
0.0
 16
0.0
 26
0.0
 36
1.0
 17
0.0
 27
0.0
 37
0.0
 40
3646.728694931044
 41
1.669761273209549
 42
50.0
 43
0.0
 44
0.0
 50
0.0
 51
0.0
 71
     0
 72
   100
 73
     1
 74
     1
 75
     0
 76
     0
 77
     0
 78
     0
281
     0
 65
     1
110
0.0
120
0.0
130
0.0
111
1.0
121
0.0
131
0.0
112
0.0
122
1.0
132
0.0
 79
     0
146
0.0
  0
ENDTAB
  0
TABLE
  2
LTYPE
  5
5
330
0
100
AcDbSymbolTable
 70
     5
  0
LTYPE
  5
14
330
5
100
AcDbSymbolTableRecord
100
AcDbLinetypeTableRecord
  2
BYBLOCK
 70
     0
  3

 72
    65
 73
     0
 40
0.0
  0
LTYPE
  5
15
330
5
100
AcDbSymbolTableRecord
100
AcDbLinetypeTableRecord
  2
BYLAYER
 70
     0
  3

 72
    65
 73
     0
 40
0.0
  0
LTYPE
  5
16
330
5
100
AcDbSymbolTableRecord
100
AcDbLinetypeTableRecord
  2
CONTINUOUS
 70
     0
  3
Solid line
 72
    65
 73
     0
 40
0.0
  0
LTYPE
  5
2C36
330
5
100
AcDbSymbolTableRecord
100
AcDbLinetypeTableRecord
  2
CENTERX2
 70
     0
  3
Center (2x) ________  __  ________  __  _____
 72
    65
 73
     4
 40
101.6
 49
63.5
 74
     0
 49
-12.7
 74
     0
 49
12.7
 74
     0
 49
-12.7
 74
     0
  0
LTYPE
  5
2F47
330
5
100
AcDbSymbolTableRecord
100
AcDbLinetypeTableRecord
  2
HIDDEN2
 70
     0
  3
Hidden (.5x) _ _ _ _ _ _ _ _ _ _ _ _ _ _ _ _ _
 72
    65
 73
     2
 40
4.762499999999999
 49
3.174999999999999
 74
     0
 49
-1.587499999999999
 74
     0
  0
LTYPE
  5
3091
330
5
100
AcDbSymbolTableRecord
100
AcDbLinetypeTableRecord
  2
DASHED
 70
     0
  3
__ __ __ __ __ __ __ __ __ __ __ __ __ __ __ __
 72
    65
 73
     2
 40
0.75
 49
0.5
 74
     0
 49
-0.25
 74
     0
  0
LTYPE
  5
369E
330
5
100
AcDbSymbolTableRecord
100
AcDbLinetypeTableRecord
  2
HIDDEN
 70
     0
  3
__ __ __ __ __ __ __ __ __ __ __ __ __ __ __ __
 72
    65
 73
     2
 40
0.375
 49
0.25
 74
     0
 49
-0.125
 74
     0
  0
ENDTAB
  0
TABLE
  2
LAYER
  5
2
330
0
100
AcDbSymbolTable
 70
    10
  0
LAYER
  5
F
102
{ACAD_XDICTIONARY
360
3671
102
}
330
2
100
AcDbSymbolTableRecord
100
AcDbLayerTableRecord
  2
0
 70
     0
 62
   250
  6
CONTINUOUS
370
    -3
390
253F
  0
LAYER
  5
63
102
{ACAD_XDICTIONARY
360
3673
102
}
330
2
100
AcDbSymbolTableRecord
100
AcDbLayerTableRecord
  2
TB
 70
     0
 62
     5
  6
HIDDEN2
370
    -3
390
253F
  0
LAYER
  5
36A
102
{ACAD_XDICTIONARY
360
3675
102
}
330
2
100
AcDbSymbolTableRecord
100
AcDbLayerTableRecord
  2
KEIKAKU
 70
     0
 62
     7
  6
CONTINUOUS
370
    -3
390
253F
  0
LAYER
  5
36B
330
2
100
AcDbSymbolTableRecord
100
AcDbLayerTableRecord
  2
DEFPOINTS
 70
     0
 62
     7
  6
CONTINUOUS
290
     0
370
    -3
390
253F
  0
LAYER
  5
267D
102
{ACAD_XDICTIONARY
360
3677
102
}
330
2
100
AcDbSymbolTableRecord
100
AcDbLayerTableRecord
  2
sunpou
 70
     0
 62
     3
  6
CONTINUOUS
370
    -3
390
253F
  0
LAYER
  5
267E
102
{ACAD_XDICTIONARY
360
3679
102
}
330
2
100
AcDbSymbolTableRecord
100
AcDbLayerTableRecord
  2
CT1
 70
     0
 62
     1
  6
CENTERX2
370
    -3
390
253F
  0
LAYER
  5
267F
102
{ACAD_XDICTIONARY
360
367B
102
}
330
2
100
AcDbSymbolTableRecord
100
AcDbLayerTableRecord
  2
saiseki
 70
     0
 62
     4
  6
CONTINUOUS
370
    -3
390
253F
  0
LAYER
  5
369F
102
{ACAD_XDICTIONARY
360
36A0
102
}
330
2
100
AcDbSymbolTableRecord
100
AcDbLayerTableRecord
  2
KL
 70
     0
 62
     5
  6
HIDDEN
370
    -3
390
253F
  0
LAYER
  5
36A1
102
{ACAD_XDICTIONARY
360
36A2
102
}
330
2
100
AcDbSymbolTableRecord
100
AcDbLayerTableRecord
  2
NAZORI
 70
     0
 62
     4
  6
CONTINUOUS
370
    -3
390
253F
  0
LAYER
  5
378B
102
{ACAD_XDICTIONARY
360
378C
102
}
330
2
100
AcDbSymbolTableRecord
100
AcDbLayerTableRecord
  2
KIJUN
 70
     0
 62
     6
  6
DASHED
370
    -3
390
253F
  0
ENDTAB
  0
TABLE
  2
STYLE
  5
3
330
0
100
AcDbSymbolTable
 70
     4
  0
STYLE
  5
10
330
3
100
AcDbSymbolTableRecord
100
AcDbTextStyleTableRecord
  2
STANDARD
 70
     0
 40
0.0
 41
1.0
 50
0.0
 71
     0
 42
50.0
  3
isocp.shx
  4
bigfont.shx
  0
STYLE
  5
9A
330
3
100
AcDbSymbolTableRecord
100
AcDbTextStyleTableRecord
  2
ISOCP
 70
     0
 40
0.0
 41
1.0
 50
0.0
 71
     0
 42
2.5
  3
isocp.shx
  4

  0
STYLE
  5
2BF5
330
3
100
AcDbSymbolTableRecord
100
AcDbTextStyleTableRecord
  2
BIGFONT
 70
     0
 40
0.0
 41
1.0
 50
0.0
 71
     0
 42
50.0
  3
simplex
  4
bigfont
  0
STYLE
  5
2C35
330
3
100
AcDbSymbolTableRecord
100
AcDbTextStyleTableRecord
  2

 70
     1
 40
0.0
 41
1.0
 50
0.0
 71
     0
 42
50.0
  3
ltypeshp.shx
  4

  0
ENDTAB
  0
TABLE
  2
VIEW
  5
6
330
0
100
AcDbSymbolTable
 70
     0
  0
ENDTAB
  0
TABLE
  2
UCS
  5
7
330
0
100
AcDbSymbolTable
 70
     0
  0
ENDTAB
  0
TABLE
  2
APPID
  5
9
330
0
100
AcDbSymbolTable
 70
     3
  0
APPID
  5
11
330
9
100
AcDbSymbolTableRecord
100
AcDbRegAppTableRecord
  2
ACAD
 70
     0
  0
APPID
  5
35C1
330
9
100
AcDbSymbolTableRecord
100
AcDbRegAppTableRecord
  2
ACAD_MLEADERVER
 70
     0
  0
APPID
  5
36AC
330
9
100
AcDbSymbolTableRecord
100
AcDbRegAppTableRecord
  2
ACAD_EXEMPT_FROM_CAD_STANDARDS
 70
     0
  0
ENDTAB
  0
TABLE
  2
DIMSTYLE
  5
A
330
0
100
AcDbSymbolTable
 70
     8
100
AcDbDimStyleTable
 71
     2
340
24
340
28
  0
DIMSTYLE
105
1D
102
{ACAD_REACTORS
330
372
330
375
330
376
330
37B
330
385
330
386
330
38B
330
38C
330
38D
330
390
330
391
330
394
330
397
102
}
330
A
100
AcDbSymbolTableRecord
100
AcDbDimStyleTableRecord
  2
STANDARD
 70
     0
340
10
  0
DIMSTYLE
105
24
102
{ACAD_REACTORS
330
326C
330
3268
330
3267
330
326F
330
3273
330
3460
330
3488
330
34A7
330
34B4
330
34C3
330
34D2
330
3525
330
38BE
330
38BD
330
38BC
330
38BB
330
3865
330
38B9
330
3861
330
385A
330
385E
330
38D2
330
38D1
330
38D0
330
38C0
330
38C2
330
38C1
330
3859
330
38BA
330
38FB
102
}
330
A
100
AcDbSymbolTableRecord
100
AcDbDimStyleTableRecord
  2
ISO-25
 70
     0
 41
2.5
 42
0.625
 43
3.75
 44
1.25
 74
     0
 77
     1
 78
     8
140
2.5
141
2.5
143
0.0394
145
1.0
147
0.625
172
     1
340
10
  0
DIMSTYLE
105
28
330
A
100
AcDbSymbolTableRecord
100
AcDbDimStyleTableRecord
  2
ISO1
 70
     0
 41
10.0
 42
2.5
 43
15.0
 44
5.0
 74
     0
 77
     1
 78
     8
140
10.0
141
10.0
143
0.0394
145
4.0
147
2.5
172
     1
340
10
  0
DIMSTYLE
105
29
330
A
100
AcDbSymbolTableRecord
100
AcDbDimStyleTableRecord
  2
ISO1-4
 70
     0
 41
14.0
 42
3.5
 43
21.0
 44
7.0
 74
     0
 77
     1
 78
     8
140
14.0
141
14.0
143
0.0394
145
5.599999999999999
147
3.5
172
     1
340
10
  0
DIMSTYLE
105
2A
330
A
100
AcDbSymbolTableRecord
100
AcDbDimStyleTableRecord
  2
ISO2
 70
     0
 41
20.0
 42
5.0
 43
30.0
 44
10.0
 74
     0
 77
     1
 78
     8
140
20.0
141
20.0
143
0.0394
145
8.0
147
5.0
172
     1
340
10
  0
DIMSTYLE
105
2BF6
330
A
100
AcDbSymbolTableRecord
100
AcDbDimStyleTableRecord
  2
P1
 70
     0
 40
10.0
 41
2.0
 42
1.0
 43
10.0
 44
1.0
 73
     0
 74
     0
 77
     2
140
3.0
141
0.0
147
1.0
172
     1
173
     1
271
     0
272
     0
279
     2
288
     1
340
2BF5
341
2BEF
343
2BEF
344
2BEF
  0
DIMSTYLE
105
3094
330
A
100
AcDbSymbolTableRecord
100
AcDbDimStyleTableRecord
  2
STYLE10
 70
     0
 40
10.0
 41
2.0
 42
3.0
 43
0.0
 44
0.0
 73
     0
 74
     0
 77
     1
 78
    12
140
2.5
141
0.0
147
1.0
172
     1
173
     1
176
     4
177
     4
178
     2
340
10
341
2A9C
343
2A9C
344
2A9C
  0
DIMSTYLE
105
355C
330
A
100
AcDbSymbolTableRecord
100
AcDbDimStyleTableRecord
  2
DIM1
 70
     0
 40
10.0
 41
2.0
 42
1.0
 43
2.0
 44
0.0
 73
     0
 74
     0
 77
     1
140
2.5
141
0.0
147
1.0
172
     1
271
     0
279
     2
288
     1
340
2BF5
  0
ENDTAB
  0
TABLE
  2
BLOCK_RECORD
  5
1
330
0
100
AcDbSymbolTable
 70
    47
  0
BLOCK_RECORD
  5
1A
102
{ACAD_XDICTIONARY
360
35CD
102
}
330
1
100
AcDbSymbolTableRecord
100
AcDbBlockTableRecord
  2
*MODEL_SPACE
340
2542
  0
BLOCK_RECORD
  5
17
330
1
100
AcDbSymbolTableRecord
100
AcDbBlockTableRecord
  2
*PAPER_SPACE
340
2543
  0
BLOCK_RECORD
  5
2D3
330
1
100
AcDbSymbolTableRecord
100
AcDbBlockTableRecord
  2
*D0
340
0
  0
BLOCK_RECORD
  5
2DF
330
1
100
AcDbSymbolTableRecord
100
AcDbBlockTableRecord
  2
*D1
340
0
  0
BLOCK_RECORD
  5
2EB
330
1
100
AcDbSymbolTableRecord
100
AcDbBlockTableRecord
  2
*D2
340
0
  0
BLOCK_RECORD
  5
2F7
330
1
100
AcDbSymbolTableRecord
100
AcDbBlockTableRecord
  2
*D3
340
0
  0
BLOCK_RECORD
  5
303
330
1
100
AcDbSymbolTableRecord
100
AcDbBlockTableRecord
  2
*D4
340
0
  0
BLOCK_RECORD
  5
30F
330
1
100
AcDbSymbolTableRecord
100
AcDbBlockTableRecord
  2
*D5
340
0
  0
BLOCK_RECORD
  5
31B
330
1
100
AcDbSymbolTableRecord
100
AcDbBlockTableRecord
  2
*D6
340
0
  0
BLOCK_RECORD
  5
326
330
1
100
AcDbSymbolTableRecord
100
AcDbBlockTableRecord
  2
*D7
340
0
  0
BLOCK_RECORD
  5
331
330
1
100
AcDbSymbolTableRecord
100
AcDbBlockTableRecord
  2
*D8
340
0
  0
BLOCK_RECORD
  5
33D
330
1
100
AcDbSymbolTableRecord
100
AcDbBlockTableRecord
  2
*D9
340
0
  0
BLOCK_RECORD
  5
348
330
1
100
AcDbSymbolTableRecord
100
AcDbBlockTableRecord
  2
*D10
340
0
  0
BLOCK_RECORD
  5
353
330
1
100
AcDbSymbolTableRecord
100
AcDbBlockTableRecord
  2
*D11
340
0
  0
BLOCK_RECORD
  5
35E
330
1
100
AcDbSymbolTableRecord
100
AcDbBlockTableRecord
  2
*D12
340
0
  0
BLOCK_RECORD
  5
36C
330
1
100
AcDbSymbolTableRecord
100
AcDbBlockTableRecord
  2
A$C75D85E54
340
0
  0
BLOCK_RECORD
  5
2A96
330
1
100
AcDbSymbolTableRecord
100
AcDbBlockTableRecord
  2
_Open
340
0
102
{BLKREFS
331
4088
331
4089
331
4091
331
4092
331
409A
331
409B
331
40A5
331
40A6
331
40AE
331
40AF
331
40B7
331
40B8
331
40C0
331
40C1
331
40C9
331
40CA
331
40D2
331
40D3
331
40DB
331
40DC
331
40E4
331
40E5
331
40ED
331
40EE
331
40F6
331
40F7
331
4108
331
4109
331
411A
331
411B
331
4123
331
4124
331
412C
331
412D
331
4135
331
4136
331
413E
331
413F
331
4147
331
4148
331
4150
331
4151
331
4159
331
415A
331
4162
331
4163
331
416B
331
416C
331
4174
331
4175
331
417D
331
417E
331
4186
331
4187
331
418F
331
4190
331
41A8
331
41A9
331
41B3
331
41B4
102
}
  0
BLOCK_RECORD
  5
2A9C
330
1
100
AcDbSymbolTableRecord
100
AcDbBlockTableRecord
  2
_Closed
340
0
  0
BLOCK_RECORD
  5
2BEF
330
1
100
AcDbSymbolTableRecord
100
AcDbBlockTableRecord
  2
ARROW
340
0
  0
BLOCK_RECORD
  5
32BC
330
1
100
AcDbSymbolTableRecord
100
AcDbBlockTableRecord
  2
*D17
340
0
  0
BLOCK_RECORD
  5
32C8
330
1
100
AcDbSymbolTableRecord
100
AcDbBlockTableRecord
  2
*D18
340
0
  0
BLOCK_RECORD
  5
32D3
330
1
100
AcDbSymbolTableRecord
100
AcDbBlockTableRecord
  2
*D19
340
0
  0
BLOCK_RECORD
  5
32DF
330
1
100
AcDbSymbolTableRecord
100
AcDbBlockTableRecord
  2
*D20
340
0
  0
BLOCK_RECORD
  5
32EA
330
1
100
AcDbSymbolTableRecord
100
AcDbBlockTableRecord
  2
*D21
340
0
  0
BLOCK_RECORD
  5
3461
330
1
100
AcDbSymbolTableRecord
100
AcDbBlockTableRecord
  2
*D22
340
0
  0
BLOCK_RECORD
  5
3489
330
1
100
AcDbSymbolTableRecord
100
AcDbBlockTableRecord
  2
*D23
340
0
  0
BLOCK_RECORD
  5
34A8
330
1
100
AcDbSymbolTableRecord
100
AcDbBlockTableRecord
  2
*D24
340
0
  0
BLOCK_RECORD
  5
34B5
330
1
100
AcDbSymbolTableRecord
100
AcDbBlockTableRecord
  2
*D25
340
0
  0
BLOCK_RECORD
  5
34C4
330
1
100
AcDbSymbolTableRecord
100
AcDbBlockTableRecord
  2
*D26
340
0
  0
BLOCK_RECORD
  5
34D3
330
1
100
AcDbSymbolTableRecord
100
AcDbBlockTableRecord
  2
*D27
340
0
  0
BLOCK_RECORD
  5
3526
330
1
100
AcDbSymbolTableRecord
100
AcDbBlockTableRecord
  2
*D28
340
0
  0
BLOCK_RECORD
  5
3917
330
1
100
AcDbSymbolTableRecord
100
AcDbBlockTableRecord
  2
*D29
340
0
  0
BLOCK_RECORD
  5
3923
330
1
100
AcDbSymbolTableRecord
100
AcDbBlockTableRecord
  2
*D30
340
0
  0
BLOCK_RECORD
  5
392F
330
1
100
AcDbSymbolTableRecord
100
AcDbBlockTableRecord
  2
*D31
340
0
  0
BLOCK_RECORD
  5
393B
330
1
100
AcDbSymbolTableRecord
100
AcDbBlockTableRecord
  2
*D32
340
0
  0
BLOCK_RECORD
  5
3947
330
1
100
AcDbSymbolTableRecord
100
AcDbBlockTableRecord
  2
*D33
340
0
  0
BLOCK_RECORD
  5
3953
330
1
100
AcDbSymbolTableRecord
100
AcDbBlockTableRecord
  2
*D34
340
0
  0
BLOCK_RECORD
  5
395F
330
1
100
AcDbSymbolTableRecord
100
AcDbBlockTableRecord
  2
*D35
340
0
  0
BLOCK_RECORD
  5
396B
330
1
100
AcDbSymbolTableRecord
100
AcDbBlockTableRecord
  2
*D36
340
0
  0
BLOCK_RECORD
  5
3977
330
1
100
AcDbSymbolTableRecord
100
AcDbBlockTableRecord
  2
*D37
340
0
  0
BLOCK_RECORD
  5
3983
330
1
100
AcDbSymbolTableRecord
100
AcDbBlockTableRecord
  2
*D38
340
0
  0
BLOCK_RECORD
  5
398F
330
1
100
AcDbSymbolTableRecord
100
AcDbBlockTableRecord
  2
*D39
340
0
  0
BLOCK_RECORD
  5
399B
330
1
100
AcDbSymbolTableRecord
100
AcDbBlockTableRecord
  2
*D40
340
0
  0
BLOCK_RECORD
  5
39A7
330
1
100
AcDbSymbolTableRecord
100
AcDbBlockTableRecord
  2
*D41
340
0
  0
BLOCK_RECORD
  5
39B3
330
1
100
AcDbSymbolTableRecord
100
AcDbBlockTableRecord
  2
*D42
340
0
  0
BLOCK_RECORD
  5
39BF
330
1
100
AcDbSymbolTableRecord
100
AcDbBlockTableRecord
  2
*D43
340
0
  0
BLOCK_RECORD
  5
39CB
330
1
100
AcDbSymbolTableRecord
100
AcDbBlockTableRecord
  2
*D44
340
0
  0
BLOCK_RECORD
  5
39D7
330
1
100
AcDbSymbolTableRecord
100
AcDbBlockTableRecord
  2
*D45
340
0
  0
BLOCK_RECORD
  5
39E3
330
1
100
AcDbSymbolTableRecord
100
AcDbBlockTableRecord
  2
*D46
340
0
  0
ENDTAB
  0
ENDSEC
  0
SECTION
  2
BLOCKS
  0
BLOCK
  5
1B
330
1A
100
AcDbEntity
  8
0
100
AcDbBlockBegin
  2
*MODEL_SPACE
 70
     0
 10
0.0
 20
0.0
 30
0.0
  3
*MODEL_SPACE
  1

  0
ENDBLK
  5
1C
330
1A
100
AcDbEntity
  8
0
100
AcDbBlockEnd
  0
BLOCK
  5
18
330
17
100
AcDbEntity
 67
     1
  8
0
100
AcDbBlockBegin
  2
*PAPER_SPACE
 70
     0
 10
0.0
 20
0.0
 30
0.0
  3
*PAPER_SPACE
  1

  0
ENDBLK
  5
19
330
17
100
AcDbEntity
 67
     1
  8
0
100
AcDbBlockEnd
  0
BLOCK
  5
2DD
330
2D3
100
AcDbEntity
  8
0
100
AcDbBlockBegin
  2
*D0
 70
     1
 10
0.0
 20
0.0
 30
0.0
  3
*D0
  1

  0
LINE
  5
2D4
330
2D3
100
AcDbEntity
  8
0
  6
ByBlock
 62
     7
100
AcDbLine
 10
1363.75
 20
2200.0
 30
0.0
 11
1307.5
 21
2200.0
 31
0.0
  0
LINE
  5
2D5
330
2D3
100
AcDbEntity
  8
0
  6
ByBlock
 62
     7
100
AcDbLine
 10
1363.75
 20
2105.0
 30
0.0
 11
1307.5
 21
2105.0
 31
0.0
  0
LINE
  5
2D6
330
2D3
100
AcDbEntity
  8
0
  6
ByBlock
 62
     7
100
AcDbLine
 10
1320.0
 20
2175.0
 30
0.0
 11
1320.0
 21
2130.0
 31
0.0
  0
SOLID
  5
2D7
330
2D3
100
AcDbEntity
  8
0
  6
ByBlock
 62
     7
100
AcDbTrace
 10
1315.833333333333
 20
2175.0
 30
0.0
 11
1324.166666666666
 21
2175.0
 31
0.0
 12
1320.0
 22
2200.0
 32
0.0
 13
1320.0
 23
2200.0
 33
0.0
  0
SOLID
  5
2D8
330
2D3
100
AcDbEntity
  8
0
  6
ByBlock
 62
     7
100
AcDbTrace
 10
1315.833333333333
 20
2130.0
 30
0.0
 11
1324.166666666666
 21
2130.0
 31
0.0
 12
1320.0
 22
2105.0
 32
0.0
 13
1320.0
 23
2105.0
 33
0.0
  0
MTEXT
  5
2D9
330
2D3
100
AcDbEntity
  8
0
  6
ByBlock
 62
     7
100
AcDbMText
 10
1302.5
 20
2152.5
 30
0.0
 40
30.0
 41
0.0
 71
     5
 72
     1
  1
\A1;95
 11
0.0000000000000001
 21
1.0
 31
0.0
 73
     1
 44
1.0
  0
POINT
  5
2DA
330
2D3
100
AcDbEntity
  8
DEFPOINTS
  6
ByBlock
 62
     0
100
AcDbPoint
 10
1370.0
 20
2200.0
 30
0.0
  0
POINT
  5
2DB
330
2D3
100
AcDbEntity
  8
DEFPOINTS
  6
ByBlock
 62
     0
100
AcDbPoint
 10
1370.0
 20
2105.0
 30
0.0
  0
POINT
  5
2DC
330
2D3
100
AcDbEntity
  8
DEFPOINTS
  6
ByBlock
 62
     0
100
AcDbPoint
 10
1320.0
 20
2105.0
 30
0.0
  0
ENDBLK
  5
2DE
330
2D3
100
AcDbEntity
  8
0
100
AcDbBlockEnd
  0
BLOCK
  5
2E9
330
2DF
100
AcDbEntity
  8
0
100
AcDbBlockBegin
  2
*D1
 70
     1
 10
0.0
 20
0.0
 30
0.0
  3
*D1
  1

  0
LINE
  5
2E0
330
2DF
100
AcDbEntity
  8
0
  6
ByBlock
 62
     7
100
AcDbLine
 10
1478.75
 20
2105.0
 30
0.0
 11
1387.5
 21
2105.0
 31
0.0
  0
LINE
  5
2E1
330
2DF
100
AcDbEntity
  8
0
  6
ByBlock
 62
     7
100
AcDbLine
 10
1513.75
 20
1505.0
 30
0.0
 11
1387.5
 21
1505.0
 31
0.0
  0
LINE
  5
2E2
330
2DF
100
AcDbEntity
  8
0
  6
ByBlock
 62
     7
100
AcDbLine
 10
1400.0
 20
2080.0
 30
0.0
 11
1400.0
 21
1530.0
 31
0.0
  0
SOLID
  5
2E3
330
2DF
100
AcDbEntity
  8
0
  6
ByBlock
 62
     7
100
AcDbTrace
 10
1395.833333333333
 20
2080.0
 30
0.0
 11
1404.166666666667
 21
2080.0
 31
0.0
 12
1400.0
 22
2105.0
 32
0.0
 13
1400.0
 23
2105.0
 33
0.0
  0
SOLID
  5
2E4
330
2DF
100
AcDbEntity
  8
0
  6
ByBlock
 62
     7
100
AcDbTrace
 10
1395.833333333333
 20
1530.0
 30
0.0
 11
1404.166666666666
 21
1530.0
 31
0.0
 12
1400.0
 22
1505.0
 32
0.0
 13
1400.0
 23
1505.0
 33
0.0
  0
MTEXT
  5
2E5
330
2DF
100
AcDbEntity
  8
0
  6
ByBlock
 62
     7
100
AcDbMText
 10
1382.5
 20
1805.0
 30
0.0
 40
30.0
 41
0.0
 71
     5
 72
     1
  1
\A1;H
 11
0.0000000000000001
 21
1.0
 31
0.0
 73
     1
 44
1.0
  0
POINT
  5
2E6
330
2DF
100
AcDbEntity
  8
DEFPOINTS
  6
ByBlock
 62
     0
100
AcDbPoint
 10
1485.0
 20
2105.0
 30
0.0
  0
POINT
  5
2E7
330
2DF
100
AcDbEntity
  8
DEFPOINTS
  6
ByBlock
 62
     0
100
AcDbPoint
 10
1520.0
 20
1505.0
 30
0.0
  0
POINT
  5
2E8
330
2DF
100
AcDbEntity
  8
DEFPOINTS
  6
ByBlock
 62
     0
100
AcDbPoint
 10
1400.0
 20
1505.0
 30
0.0
  0
ENDBLK
  5
2EA
330
2DF
100
AcDbEntity
  8
0
100
AcDbBlockEnd
  0
BLOCK
  5
2F5
330
2EB
100
AcDbEntity
  8
0
100
AcDbBlockBegin
  2
*D2
 70
     1
 10
0.0
 20
0.0
 30
0.0
  3
*D2
  1

  0
LINE
  5
2EC
330
2EB
100
AcDbEntity
  8
0
  6
ByBlock
 62
     7
100
AcDbLine
 10
1095.0
 20
1328.75
 30
0.0
 11
1095.0
 21
1197.5
 31
0.0
  0
LINE
  5
2ED
330
2EB
100
AcDbEntity
  8
0
  6
ByBlock
 62
     7
100
AcDbLine
 10
1645.0
 20
1328.75
 30
0.0
 11
1645.0
 21
1197.5
 31
0.0
  0
LINE
  5
2EE
330
2EB
100
AcDbEntity
  8
0
  6
ByBlock
 62
     7
100
AcDbLine
 10
1120.0
 20
1210.0
 30
0.0
 11
1620.0
 21
1210.0
 31
0.0
  0
SOLID
  5
2EF
330
2EB
100
AcDbEntity
  8
0
  6
ByBlock
 62
     7
100
AcDbTrace
 10
1120.0
 20
1214.166666666667
 30
0.0
 11
1120.0
 21
1205.833333333333
 31
0.0
 12
1095.0
 22
1210.0
 32
0.0
 13
1095.0
 23
1210.0
 33
0.0
  0
SOLID
  5
2F0
330
2EB
100
AcDbEntity
  8
0
  6
ByBlock
 62
     7
100
AcDbTrace
 10
1620.0
 20
1214.166666666667
 30
0.0
 11
1620.0
 21
1205.833333333333
 31
0.0
 12
1645.0
 22
1210.0
 32
0.0
 13
1645.0
 23
1210.0
 33
0.0
  0
MTEXT
  5
2F1
330
2EB
100
AcDbEntity
  8
0
  6
ByBlock
 62
     7
100
AcDbMText
 10
1370.0
 20
1227.5
 30
0.0
 40
30.0
 41
0.0
 71
     5
 72
     1
  1
\A1;550
 73
     1
 44
1.0
  0
POINT
  5
2F2
330
2EB
100
AcDbEntity
  8
DEFPOINTS
  6
ByBlock
 62
     0
100
AcDbPoint
 10
1095.0
 20
1335.0
 30
0.0
  0
POINT
  5
2F3
330
2EB
100
AcDbEntity
  8
DEFPOINTS
  6
ByBlock
 62
     0
100
AcDbPoint
 10
1645.0
 20
1335.0
 30
0.0
  0
POINT
  5
2F4
330
2EB
100
AcDbEntity
  8
DEFPOINTS
  6
ByBlock
 62
     0
100
AcDbPoint
 10
1645.0
 20
1210.0
 30
0.0
  0
ENDBLK
  5
2F6
330
2EB
100
AcDbEntity
  8
0
100
AcDbBlockEnd
  0
BLOCK
  5
301
330
2F7
100
AcDbEntity
  8
0
100
AcDbBlockBegin
  2
*D3
 70
     1
 10
0.0
 20
0.0
 30
0.0
  3
*D3
  1

  0
LINE
  5
2F8
330
2F7
100
AcDbEntity
  8
0
  6
ByBlock
 62
     7
100
AcDbLine
 10
1070.0
 20
1328.75
 30
0.0
 11
1070.0
 21
1117.5
 31
0.0
  0
LINE
  5
2F9
330
2F7
100
AcDbEntity
  8
0
  6
ByBlock
 62
     7
100
AcDbLine
 10
1670.0
 20
1328.75
 30
0.0
 11
1670.0
 21
1117.5
 31
0.0
  0
LINE
  5
2FA
330
2F7
100
AcDbEntity
  8
0
  6
ByBlock
 62
     7
100
AcDbLine
 10
1095.0
 20
1130.0
 30
0.0
 11
1645.0
 21
1130.0
 31
0.0
  0
SOLID
  5
2FB
330
2F7
100
AcDbEntity
  8
0
  6
ByBlock
 62
     7
100
AcDbTrace
 10
1095.0
 20
1134.166666666666
 30
0.0
 11
1095.0
 21
1125.833333333333
 31
0.0
 12
1070.0
 22
1130.0
 32
0.0
 13
1070.0
 23
1130.0
 33
0.0
  0
SOLID
  5
2FC
330
2F7
100
AcDbEntity
  8
0
  6
ByBlock
 62
     7
100
AcDbTrace
 10
1645.0
 20
1134.166666666666
 30
0.0
 11
1645.0
 21
1125.833333333333
 31
0.0
 12
1670.0
 22
1130.0
 32
0.0
 13
1670.0
 23
1130.0
 33
0.0
  0
MTEXT
  5
2FD
330
2F7
100
AcDbEntity
  8
0
  6
ByBlock
 62
     7
100
AcDbMText
 10
1370.0
 20
1147.5
 30
0.0
 40
30.0
 41
0.0
 71
     5
 72
     1
  1
\A1;600
 73
     1
 44
1.0
  0
POINT
  5
2FE
330
2F7
100
AcDbEntity
  8
DEFPOINTS
  6
ByBlock
 62
     0
100
AcDbPoint
 10
1070.0
 20
1335.0
 30
0.0
  0
POINT
  5
2FF
330
2F7
100
AcDbEntity
  8
DEFPOINTS
  6
ByBlock
 62
     0
100
AcDbPoint
 10
1670.0
 20
1335.0
 30
0.0
  0
POINT
  5
300
330
2F7
100
AcDbEntity
  8
DEFPOINTS
  6
ByBlock
 62
     0
100
AcDbPoint
 10
1670.0
 20
1130.0
 30
0.0
  0
ENDBLK
  5
302
330
2F7
100
AcDbEntity
  8
0
100
AcDbBlockEnd
  0
BLOCK
  5
30D
330
303
100
AcDbEntity
  8
0
100
AcDbBlockBegin
  2
*D4
 70
     1
 10
0.0
 20
0.0
 30
0.0
  3
*D4
  1

  0
LINE
  5
304
330
303
100
AcDbEntity
  8
0
  6
ByBlock
 62
     7
100
AcDbLine
 10
1108.75
 20
2200.0
 30
0.0
 11
947.4999999999999
 21
2200.0
 31
0.0
  0
LINE
  5
305
330
303
100
AcDbEntity
  8
0
  6
ByBlock
 62
     7
100
AcDbLine
 10
1128.75
 20
1900.0
 30
0.0
 11
947.4999999999999
 21
1900.0
 31
0.0
  0
LINE
  5
306
330
303
100
AcDbEntity
  8
0
  6
ByBlock
 62
     7
100
AcDbLine
 10
960.0
 20
2175.0
 30
0.0
 11
960.0
 21
1925.0
 31
0.0
  0
SOLID
  5
307
330
303
100
AcDbEntity
  8
0
  6
ByBlock
 62
     7
100
AcDbTrace
 10
955.8333333333333
 20
2175.0
 30
0.0
 11
964.1666666666665
 21
2175.0
 31
0.0
 12
960.0
 22
2200.0
 32
0.0
 13
960.0
 23
2200.0
 33
0.0
  0
SOLID
  5
308
330
303
100
AcDbEntity
  8
0
  6
ByBlock
 62
     7
100
AcDbTrace
 10
955.8333333333333
 20
1925.0
 30
0.0
 11
964.1666666666665
 21
1925.0
 31
0.0
 12
960.0
 22
1900.0
 32
0.0
 13
960.0
 23
1900.0
 33
0.0
  0
MTEXT
  5
309
330
303
100
AcDbEntity
  8
0
  6
ByBlock
 62
     7
100
AcDbMText
 10
942.5
 20
2050.0
 30
0.0
 40
30.0
 41
0.0
 71
     5
 72
     1
  1
\A1;300
 11
0.0000000000000001
 21
1.0
 31
0.0
 73
     1
 44
1.0
  0
POINT
  5
30A
330
303
100
AcDbEntity
  8
DEFPOINTS
  6
ByBlock
 62
     0
100
AcDbPoint
 10
1115.0
 20
2200.0
 30
0.0
  0
POINT
  5
30B
330
303
100
AcDbEntity
  8
DEFPOINTS
  6
ByBlock
 62
     0
100
AcDbPoint
 10
1135.0
 20
1900.0
 30
0.0
  0
POINT
  5
30C
330
303
100
AcDbEntity
  8
DEFPOINTS
  6
ByBlock
 62
     0
100
AcDbPoint
 10
960.0
 20
1900.0
 30
0.0
  0
ENDBLK
  5
30E
330
303
100
AcDbEntity
  8
0
100
AcDbBlockEnd
  0
BLOCK
  5
319
330
30F
100
AcDbEntity
  8
0
100
AcDbBlockBegin
  2
*D5
 70
     1
 10
0.0
 20
0.0
 30
0.0
  3
*D5
  1

  0
LINE
  5
310
330
30F
100
AcDbEntity
  8
0
  6
ByBlock
 62
     7
100
AcDbLine
 10
1135.0
 20
1906.25
 30
0.0
 11
1135.0
 21
1942.5
 31
0.0
  0
LINE
  5
311
330
30F
100
AcDbEntity
  8
0
  6
ByBlock
 62
     7
100
AcDbLine
 10
1220.0
 20
1793.75
 30
0.0
 11
1220.0
 21
1942.5
 31
0.0
  0
LINE
  5
312
330
30F
100
AcDbEntity
  8
0
  6
ByBlock
 62
     7
100
AcDbLine
 10
1160.0
 20
1930.0
 30
0.0
 11
1195.0
 21
1930.0
 31
0.0
  0
SOLID
  5
313
330
30F
100
AcDbEntity
  8
0
  6
ByBlock
 62
     7
100
AcDbTrace
 10
1160.0
 20
1934.166666666667
 30
0.0
 11
1160.0
 21
1925.833333333333
 31
0.0
 12
1135.0
 22
1930.0
 32
0.0
 13
1135.0
 23
1930.0
 33
0.0
  0
SOLID
  5
314
330
30F
100
AcDbEntity
  8
0
  6
ByBlock
 62
     7
100
AcDbTrace
 10
1195.0
 20
1934.166666666667
 30
0.0
 11
1195.0
 21
1925.833333333333
 31
0.0
 12
1220.0
 22
1930.0
 32
0.0
 13
1220.0
 23
1930.0
 33
0.0
  0
MTEXT
  5
315
330
30F
100
AcDbEntity
  8
0
  6
ByBlock
 62
     7
100
AcDbMText
 10
1177.5
 20
1947.5
 30
0.0
 40
30.0
 41
0.0
 71
     5
 72
     1
  1
\A1;ｅ
 73
     1
 44
1.0
  0
POINT
  5
316
330
30F
100
AcDbEntity
  8
DEFPOINTS
  6
ByBlock
 62
     0
100
AcDbPoint
 10
1135.0
 20
1900.0
 30
0.0
  0
POINT
  5
317
330
30F
100
AcDbEntity
  8
DEFPOINTS
  6
ByBlock
 62
     0
100
AcDbPoint
 10
1220.0
 20
1787.5
 30
0.0
  0
POINT
  5
318
330
30F
100
AcDbEntity
  8
DEFPOINTS
  6
ByBlock
 62
     0
100
AcDbPoint
 10
1220.0
 20
1930.0
 30
0.0
  0
ENDBLK
  5
31A
330
30F
100
AcDbEntity
  8
0
100
AcDbBlockEnd
  0
BLOCK
  5
324
330
31B
100
AcDbEntity
  8
0
100
AcDbBlockBegin
  2
*D6
 70
     1
 10
0.0
 20
0.0
 30
0.0
  3
*D6
  1

  0
LINE
  5
31C
330
31B
100
AcDbEntity
  8
0
  6
ByBlock
 62
     7
100
AcDbLine
 10
1520.0
 20
1793.75
 30
0.0
 11
1520.0
 21
1942.5
 31
0.0
  0
LINE
  5
31D
330
31B
100
AcDbEntity
  8
0
  6
ByBlock
 62
     7
100
AcDbLine
 10
1245.0
 20
1930.0
 30
0.0
 11
1495.0
 21
1930.0
 31
0.0
  0
SOLID
  5
31E
330
31B
100
AcDbEntity
  8
0
  6
ByBlock
 62
     7
100
AcDbTrace
 10
1245.0
 20
1934.166666666667
 30
0.0
 11
1245.0
 21
1925.833333333333
 31
0.0
 12
1220.0
 22
1930.0
 32
0.0
 13
1220.0
 23
1930.0
 33
0.0
  0
SOLID
  5
31F
330
31B
100
AcDbEntity
  8
0
  6
ByBlock
 62
     7
100
AcDbTrace
 10
1495.0
 20
1934.166666666667
 30
0.0
 11
1495.0
 21
1925.833333333333
 31
0.0
 12
1520.0
 22
1930.0
 32
0.0
 13
1520.0
 23
1930.0
 33
0.0
  0
MTEXT
  5
320
330
31B
100
AcDbEntity
  8
0
  6
ByBlock
 62
     7
100
AcDbMText
 10
1370.0
 20
1947.5
 30
0.0
 40
30.0
 41
0.0
 71
     5
 72
     1
  1
\A1;B
 73
     1
 44
1.0
  0
POINT
  5
321
330
31B
100
AcDbEntity
  8
DEFPOINTS
  6
ByBlock
 62
     0
100
AcDbPoint
 10
1220.0
 20
1787.5
 30
0.0
  0
POINT
  5
322
330
31B
100
AcDbEntity
  8
DEFPOINTS
  6
ByBlock
 62
     0
100
AcDbPoint
 10
1520.0
 20
1787.5
 30
0.0
  0
POINT
  5
323
330
31B
100
AcDbEntity
  8
DEFPOINTS
  6
ByBlock
 62
     0
100
AcDbPoint
 10
1520.0
 20
1930.0
 30
0.0
  0
ENDBLK
  5
325
330
31B
100
AcDbEntity
  8
0
100
AcDbBlockEnd
  0
BLOCK
  5
32F
330
326
100
AcDbEntity
  8
0
100
AcDbBlockBegin
  2
*D7
 70
     1
 10
0.0
 20
0.0
 30
0.0
  3
*D7
  1

  0
LINE
  5
327
330
326
100
AcDbEntity
  8
0
  6
ByBlock
 62
     7
100
AcDbLine
 10
1605.0
 20
1906.25
 30
0.0
 11
1605.0
 21
1942.5
 31
0.0
  0
LINE
  5
328
330
326
100
AcDbEntity
  8
0
  6
ByBlock
 62
     7
100
AcDbLine
 10
1545.0
 20
1930.0
 30
0.0
 11
1580.0
 21
1930.0
 31
0.0
  0
SOLID
  5
329
330
326
100
AcDbEntity
  8
0
  6
ByBlock
 62
     7
100
AcDbTrace
 10
1545.0
 20
1934.166666666667
 30
0.0
 11
1545.0
 21
1925.833333333333
 31
0.0
 12
1520.0
 22
1930.0
 32
0.0
 13
1520.0
 23
1930.0
 33
0.0
  0
SOLID
  5
32A
330
326
100
AcDbEntity
  8
0
  6
ByBlock
 62
     7
100
AcDbTrace
 10
1580.0
 20
1934.166666666667
 30
0.0
 11
1580.0
 21
1925.833333333333
 31
0.0
 12
1605.0
 22
1930.0
 32
0.0
 13
1605.0
 23
1930.0
 33
0.0
  0
MTEXT
  5
32B
330
326
100
AcDbEntity
  8
0
  6
ByBlock
 62
     7
100
AcDbMText
 10
1562.5
 20
1947.5
 30
0.0
 40
30.0
 41
0.0
 71
     5
 72
     1
  1
\A1;ｅ
 73
     1
 44
1.0
  0
POINT
  5
32C
330
326
100
AcDbEntity
  8
DEFPOINTS
  6
ByBlock
 62
     0
100
AcDbPoint
 10
1520.0
 20
1787.5
 30
0.0
  0
POINT
  5
32D
330
326
100
AcDbEntity
  8
DEFPOINTS
  6
ByBlock
 62
     0
100
AcDbPoint
 10
1605.0
 20
1900.0
 30
0.0
  0
POINT
  5
32E
330
326
100
AcDbEntity
  8
DEFPOINTS
  6
ByBlock
 62
     0
100
AcDbPoint
 10
1605.0
 20
1930.0
 30
0.0
  0
ENDBLK
  5
330
330
326
100
AcDbEntity
  8
0
100
AcDbBlockEnd
  0
BLOCK
  5
33B
330
331
100
AcDbEntity
  8
0
100
AcDbBlockBegin
  2
*D8
 70
     1
 10
0.0
 20
0.0
 30
0.0
  3
*D8
  1

  0
LINE
  5
332
330
331
100
AcDbEntity
  8
0
  6
ByBlock
 62
     7
100
AcDbLine
 10
1088.75
 20
1505.0
 30
0.0
 11
937.5
 21
1505.0
 31
0.0
  0
LINE
  5
333
330
331
100
AcDbEntity
  8
0
  6
ByBlock
 62
     7
100
AcDbLine
 10
1063.75
 20
1435.0
 30
0.0
 11
937.5
 21
1435.0
 31
0.0
  0
LINE
  5
334
330
331
100
AcDbEntity
  8
0
  6
ByBlock
 62
     7
100
AcDbLine
 10
950.0
 20
1480.0
 30
0.0
 11
950.0
 21
1460.0
 31
0.0
  0
SOLID
  5
335
330
331
100
AcDbEntity
  8
0
  6
ByBlock
 62
     7
100
AcDbTrace
 10
945.8333333333333
 20
1480.0
 30
0.0
 11
954.1666666666666
 21
1480.0
 31
0.0
 12
950.0
 22
1505.0
 32
0.0
 13
950.0
 23
1505.0
 33
0.0
  0
SOLID
  5
336
330
331
100
AcDbEntity
  8
0
  6
ByBlock
 62
     7
100
AcDbTrace
 10
945.8333333333333
 20
1460.0
 30
0.0
 11
954.1666666666666
 21
1460.0
 31
0.0
 12
950.0
 22
1435.0
 32
0.0
 13
950.0
 23
1435.0
 33
0.0
  0
MTEXT
  5
337
330
331
100
AcDbEntity
  8
0
  6
ByBlock
 62
     7
100
AcDbMText
 10
932.5000000000001
 20
1470.0
 30
0.0
 40
30.0
 41
0.0
 71
     5
 72
     1
  1
\A1;70
 11
0.0000000000000001
 21
1.0
 31
0.0
 73
     1
 44
1.0
  0
POINT
  5
338
330
331
100
AcDbEntity
  8
DEFPOINTS
  6
ByBlock
 62
     0
100
AcDbPoint
 10
1095.0
 20
1505.0
 30
0.0
  0
POINT
  5
339
330
331
100
AcDbEntity
  8
DEFPOINTS
  6
ByBlock
 62
     0
100
AcDbPoint
 10
1070.0
 20
1435.0
 30
0.0
  0
POINT
  5
33A
330
331
100
AcDbEntity
  8
DEFPOINTS
  6
ByBlock
 62
     0
100
AcDbPoint
 10
950.0
 20
1435.0
 30
0.0
  0
ENDBLK
  5
33C
330
331
100
AcDbEntity
  8
0
100
AcDbBlockEnd
  0
BLOCK
  5
346
330
33D
100
AcDbEntity
  8
0
100
AcDbBlockBegin
  2
*D9
 70
     1
 10
0.0
 20
0.0
 30
0.0
  3
*D9
  1

  0
LINE
  5
33E
330
33D
100
AcDbEntity
  8
0
  6
ByBlock
 62
     7
100
AcDbLine
 10
1063.75
 20
1335.0
 30
0.0
 11
937.5
 21
1335.0
 31
0.0
  0
LINE
  5
33F
330
33D
100
AcDbEntity
  8
0
  6
ByBlock
 62
     7
100
AcDbLine
 10
950.0
 20
1410.0
 30
0.0
 11
950.0
 21
1360.0
 31
0.0
  0
SOLID
  5
340
330
33D
100
AcDbEntity
  8
0
  6
ByBlock
 62
     7
100
AcDbTrace
 10
945.8333333333333
 20
1410.0
 30
0.0
 11
954.1666666666666
 21
1410.0
 31
0.0
 12
950.0
 22
1435.0
 32
0.0
 13
950.0
 23
1435.0
 33
0.0
  0
SOLID
  5
341
330
33D
100
AcDbEntity
  8
0
  6
ByBlock
 62
     7
100
AcDbTrace
 10
945.8333333333333
 20
1360.0
 30
0.0
 11
954.1666666666666
 21
1360.0
 31
0.0
 12
950.0
 22
1335.0
 32
0.0
 13
950.0
 23
1335.0
 33
0.0
  0
MTEXT
  5
342
330
33D
100
AcDbEntity
  8
0
  6
ByBlock
 62
     7
100
AcDbMText
 10
932.5000000000001
 20
1385.0
 30
0.0
 40
30.0
 41
0.0
 71
     5
 72
     1
  1
\A1;100
 11
0.0000000000000001
 21
1.0
 31
0.0
 73
     1
 44
1.0
  0
POINT
  5
343
330
33D
100
AcDbEntity
  8
DEFPOINTS
  6
ByBlock
 62
     0
100
AcDbPoint
 10
1070.0
 20
1435.0
 30
0.0
  0
POINT
  5
344
330
33D
100
AcDbEntity
  8
DEFPOINTS
  6
ByBlock
 62
     0
100
AcDbPoint
 10
1070.0
 20
1335.0
 30
0.0
  0
POINT
  5
345
330
33D
100
AcDbEntity
  8
DEFPOINTS
  6
ByBlock
 62
     0
100
AcDbPoint
 10
950.0
 20
1335.0
 30
0.0
  0
ENDBLK
  5
347
330
33D
100
AcDbEntity
  8
0
100
AcDbBlockEnd
  0
BLOCK
  5
351
330
348
100
AcDbEntity
  8
0
100
AcDbBlockBegin
  2
*D10
 70
     1
 10
0.0
 20
0.0
 30
0.0
  3
*D10
  1

  0
LINE
  5
349
330
348
100
AcDbEntity
  8
0
  6
ByBlock
 62
     7
100
AcDbLine
 10
1363.75
 20
1585.0
 30
0.0
 11
1307.5
 21
1585.0
 31
0.0
  0
LINE
  5
34A
330
348
100
AcDbEntity
  8
0
  6
ByBlock
 62
     7
100
AcDbLine
 10
1320.0
 20
2080.0
 30
0.0
 11
1320.0
 21
1610.0
 31
0.0
  0
SOLID
  5
34B
330
348
100
AcDbEntity
  8
0
  6
ByBlock
 62
     7
100
AcDbTrace
 10
1315.833333333333
 20
2080.0
 30
0.0
 11
1324.166666666666
 21
2080.0
 31
0.0
 12
1320.0
 22
2105.0
 32
0.0
 13
1320.0
 23
2105.0
 33
0.0
  0
SOLID
  5
34C
330
348
100
AcDbEntity
  8
0
  6
ByBlock
 62
     7
100
AcDbTrace
 10
1315.833333333333
 20
1610.0
 30
0.0
 11
1324.166666666666
 21
1610.0
 31
0.0
 12
1320.0
 22
1585.0
 32
0.0
 13
1320.0
 23
1585.0
 33
0.0
  0
MTEXT
  5
34D
330
348
100
AcDbEntity
  8
0
  6
ByBlock
 62
     7
100
AcDbMText
 10
1302.5
 20
1845.0
 30
0.0
 40
30.0
 41
0.0
 71
     5
 72
     1
  1
\A1;H－80
 11
0.0000000000000001
 21
1.0
 31
0.0
 73
     1
 44
1.0
  0
POINT
  5
34E
330
348
100
AcDbEntity
  8
DEFPOINTS
  6
ByBlock
 62
     0
100
AcDbPoint
 10
1370.0
 20
2105.0
 30
0.0
  0
POINT
  5
34F
330
348
100
AcDbEntity
  8
DEFPOINTS
  6
ByBlock
 62
     0
100
AcDbPoint
 10
1370.0
 20
1585.0
 30
0.0
  0
POINT
  5
350
330
348
100
AcDbEntity
  8
DEFPOINTS
  6
ByBlock
 62
     0
100
AcDbPoint
 10
1320.0
 20
1585.0
 30
0.0
  0
ENDBLK
  5
352
330
348
100
AcDbEntity
  8
0
100
AcDbBlockEnd
  0
BLOCK
  5
35C
330
353
100
AcDbEntity
  8
0
100
AcDbBlockBegin
  2
*D11
 70
     1
 10
0.0
 20
0.0
 30
0.0
  3
*D11
  1

  0
LINE
  5
354
330
353
100
AcDbEntity
  8
0
  6
ByBlock
 62
     7
100
AcDbLine
 10
1363.75
 20
1505.0
 30
0.0
 11
1307.5
 21
1505.0
 31
0.0
  0
LINE
  5
355
330
353
100
AcDbEntity
  8
0
  6
ByBlock
 62
     7
100
AcDbLine
 10
1320.0
 20
1560.0
 30
0.0
 11
1320.0
 21
1530.0
 31
0.0
  0
SOLID
  5
356
330
353
100
AcDbEntity
  8
0
  6
ByBlock
 62
     7
100
AcDbTrace
 10
1315.833333333333
 20
1560.0
 30
0.0
 11
1324.166666666666
 21
1560.0
 31
0.0
 12
1320.0
 22
1585.0
 32
0.0
 13
1320.0
 23
1585.0
 33
0.0
  0
SOLID
  5
357
330
353
100
AcDbEntity
  8
0
  6
ByBlock
 62
     7
100
AcDbTrace
 10
1315.833333333333
 20
1530.0
 30
0.0
 11
1324.166666666666
 21
1530.0
 31
0.0
 12
1320.0
 22
1505.0
 32
0.0
 13
1320.0
 23
1505.0
 33
0.0
  0
MTEXT
  5
358
330
353
100
AcDbEntity
  8
0
  6
ByBlock
 62
     7
100
AcDbMText
 10
1302.5
 20
1545.0
 30
0.0
 40
30.0
 41
0.0
 71
     5
 72
     1
  1
\A1;80
 11
0.0000000000000001
 21
1.0
 31
0.0
 73
     1
 44
1.0
  0
POINT
  5
359
330
353
100
AcDbEntity
  8
DEFPOINTS
  6
ByBlock
 62
     0
100
AcDbPoint
 10
1370.0
 20
1585.0
 30
0.0
  0
POINT
  5
35A
330
353
100
AcDbEntity
  8
DEFPOINTS
  6
ByBlock
 62
     0
100
AcDbPoint
 10
1370.0
 20
1505.0
 30
0.0
  0
POINT
  5
35B
330
353
100
AcDbEntity
  8
DEFPOINTS
  6
ByBlock
 62
     0
100
AcDbPoint
 10
1320.0
 20
1505.0
 30
0.0
  0
ENDBLK
  5
35D
330
353
100
AcDbEntity
  8
0
100
AcDbBlockEnd
  0
BLOCK
  5
368
330
35E
100
AcDbEntity
  8
0
100
AcDbBlockBegin
  2
*D12
 70
     1
 10
0.0
 20
0.0
 30
0.0
  3
*D12
  1

  0
LINE
  5
35F
330
35E
100
AcDbEntity
  8
0
  6
ByBlock
 62
     7
100
AcDbLine
 10
1035.0
 20
1511.25
 30
0.0
 11
1035.0
 21
1772.5
 31
0.0
  0
LINE
  5
360
330
35E
100
AcDbEntity
  8
0
  6
ByBlock
 62
     7
100
AcDbLine
 10
1135.0
 20
1511.25
 30
0.0
 11
1135.0
 21
1772.5
 31
0.0
  0
LINE
  5
361
330
35E
100
AcDbEntity
  8
0
  6
ByBlock
 62
     7
100
AcDbLine
 10
1060.0
 20
1760.0
 30
0.0
 11
1110.0
 21
1760.0
 31
0.0
  0
SOLID
  5
362
330
35E
100
AcDbEntity
  8
0
  6
ByBlock
 62
     7
100
AcDbTrace
 10
1060.0
 20
1764.166666666667
 30
0.0
 11
1060.0
 21
1755.833333333333
 31
0.0
 12
1035.0
 22
1760.0
 32
0.0
 13
1035.0
 23
1760.0
 33
0.0
  0
SOLID
  5
363
330
35E
100
AcDbEntity
  8
0
  6
ByBlock
 62
     7
100
AcDbTrace
 10
1110.0
 20
1764.166666666667
 30
0.0
 11
1110.0
 21
1755.833333333333
 31
0.0
 12
1135.0
 22
1760.0
 32
0.0
 13
1135.0
 23
1760.0
 33
0.0
  0
MTEXT
  5
364
330
35E
100
AcDbEntity
  8
0
  6
ByBlock
 62
     7
100
AcDbMText
 10
1085.0
 20
1777.5
 30
0.0
 40
30.0
 41
0.0
 71
     5
 72
     1
  1
\A1;100
 73
     1
 44
1.0
  0
POINT
  5
365
330
35E
100
AcDbEntity
  8
DEFPOINTS
  6
ByBlock
 62
     0
100
AcDbPoint
 10
1035.0
 20
1505.0
 30
0.0
  0
POINT
  5
366
330
35E
100
AcDbEntity
  8
DEFPOINTS
  6
ByBlock
 62
     0
100
AcDbPoint
 10
1135.0
 20
1505.0
 30
0.0
  0
POINT
  5
367
330
35E
100
AcDbEntity
  8
DEFPOINTS
  6
ByBlock
 62
     0
100
AcDbPoint
 10
1135.0
 20
1760.0
 30
0.0
  0
ENDBLK
  5
369
330
35E
100
AcDbEntity
  8
0
100
AcDbBlockEnd
  0
BLOCK
  5
3F5
330
36C
100
AcDbEntity
  8
0
100
AcDbBlockBegin
  2
A$C75D85E54
 70
     0
 10
0.0
 20
0.0
 30
0.0
  3
A$C75D85E54
  1

  0
LINE
  5
36D
330
36C
100
AcDbEntity
  8
KEIKAKU
 62
     2
100
AcDbLine
 10
980.0000002818743
 20
882.5000040224113
 30
0.0
 11
1490.000000281874
 21
882.5000040224113
 31
0.0
  0
LINE
  5
36E
330
36C
100
AcDbEntity
  8
KEIKAKU
 62
     2
100
AcDbLine
 10
1000.000000281874
 20
982.5000040224113
 30
0.0
 11
1490.000000281874
 21
982.5000040224113
 31
0.0
  0
LINE
  5
36F
330
36C
100
AcDbEntity
  8
KEIKAKU
 62
     2
100
AcDbLine
 10
1000.000000281874
 20
1082.500004022411
 30
0.0
 11
1490.000000281874
 21
1082.500004022411
 31
0.0
  0
MTEXT
  5
370
102
{ACAD_REACTORS
330
371
102
}
330
36C
100
AcDbEntity
  8
KEIKAKU
 62
     7
100
AcDbMText
 10
1160.574378761648
 20
331.1331966929429
 30
0.0
 40
30.0
 41
0.0
 71
     4
 72
     1
  1
\A1;ｲﾝﾊﾞｰﾄｺﾝｸﾘｰﾄ
 73
     1
 44
1.0
  0
LEADER
  5
371
330
36C
100
AcDbEntity
  8
KEIKAKU
 62
     7
100
AcDbLeader
  3
STANDARD
 73
     0
 74
     0
 75
     1
 40
30.37913385826775
 41
244.3045275590551
 76
     3
 10
855.7870114666075
 20
417.7610145783947
 30
0.0
 10
1133.074378761648
 20
313.4436297638091
 30
0.0
 10
1158.074378761648
 20
313.4436297638091
 30
0.0
340
370
1001
ACAD
1000
DSTYLE
1002
{
1070
    78
1070
     8
1070
   288
1070
     1
1070
   140
1040
3.0
1070
    74
1070
     0
1070
   172
1070
     1
1070
    73
1070
     0
1070
   272
1070
     0
1070
    77
1070
     1
1070
    40
1040
10.0
1070
   147
1040
0.25
1070
   287
1070
     5
1070
    42
1040
0.625
1070
    44
1040
1.25
1070
    43
1040
3.75
1070
   271
1070
     0
1070
   178
1070
     7
1070
   177
1070
     7
1070
   176
1070
     7
1070
   141
1040
2.5
1070
    41
1040
2.5
1070
   273
1070
     8
1070
   274
1070
     4
1070
   143
1040
0.0394
1070
   171
1070
     4
1002
}
  0
DIMENSION
  5
372
330
36C
100
AcDbEntity
  8
KEIKAKU
 62
     2
100
AcDbDimension
  2
*D8
 10
325.0000002818743
 20
317.5000040224113
 30
0.0
 11
307.5000002818742
 21
352.5000040224113
 31
0.0
 12
-624.9999997181257
 22
-1117.499995977588
 32
0.0
 71
     5
 42
-1.0
  3
STANDARD
100
AcDbAlignedDimension
 13
470.0000002818742
 23
387.5000040224113
 33
0.0
 14
445.0000002818742
 24
317.5000040224113
 34
0.0
 50
90.0
100
AcDbRotatedDimension
1001
ACAD
1000
DSTYLE
1002
{
1070
    40
1040
10.0
1070
    41
1040
2.5
1070
    42
1040
0.625
1070
    43
1040
3.75
1070
    44
1040
1.25
1070
    73
1070
     0
1070
    74
1070
     0
1070
    77
1070
     1
1070
    78
1070
     8
1070
   140
1040
3.0
1070
   141
1040
2.5
1070
   143
1040
0.0394
1070
   147
1040
0.25
1070
   171
1070
     4
1070
   172
1070
     1
1070
   176
1070
     7
1070
   177
1070
     7
1070
   178
1070
     7
1070
   271
1070
     0
1070
   272
1070
     0
1070
   273
1070
     8
1070
   274
1070
     4
1070
   279
1070
     2
1070
   288
1070
     1
1002
}
  0
LINE
  5
373
330
36C
100
AcDbEntity
  8
KEIKAKU
 62
     2
100
AcDbLine
 10
470.0000002818742
 20
387.5000040224113
 30
0.0
 11
470.0000002818742
 21
317.5000040224113
 31
0.0
  0
LINE
  5
374
330
36C
100
AcDbEntity
  8
KEIKAKU
 62
     2
100
AcDbLine
 10
1020.000000281874
 20
387.5000040224113
 30
0.0
 11
1020.000000281874
 21
317.5000040224113
 31
0.0
  0
DIMENSION
  5
375
330
36C
100
AcDbEntity
  8
KEIKAKU
 62
     2
100
AcDbDimension
  2
*D3
 10
1045.000000281874
 20
12.5000040224113
 30
0.0
 11
745.0000002818742
 21
30.00000402241131
 31
0.0
 12
-624.9999997181257
 22
-1117.499995977588
 32
0.0
 71
     5
 42
-1.0
  3
STANDARD
100
AcDbAlignedDimension
 13
445.0000002818742
 23
217.5000040224113
 33
0.0
 14
1045.000000281874
 24
217.5000040224113
 34
0.0
100
AcDbRotatedDimension
1001
ACAD
1000
DSTYLE
1002
{
1070
    40
1040
10.0
1070
    41
1040
2.5
1070
    42
1040
0.625
1070
    43
1040
3.75
1070
    44
1040
1.25
1070
    73
1070
     0
1070
    74
1070
     0
1070
    77
1070
     1
1070
    78
1070
     8
1070
   140
1040
3.0
1070
   141
1040
2.5
1070
   143
1040
0.0394
1070
   147
1040
0.25
1070
   171
1070
     4
1070
   172
1070
     1
1070
   176
1070
     7
1070
   177
1070
     7
1070
   178
1070
     7
1070
   271
1070
     0
1070
   272
1070
     0
1070
   273
1070
     8
1070
   274
1070
     4
1070
   279
1070
     2
1070
   288
1070
     1
1002
}
  0
DIMENSION
  5
376
330
36C
100
AcDbEntity
  8
KEIKAKU
 62
     2
100
AcDbDimension
  2
*D2
 10
1020.000000281874
 20
92.50000402241131
 30
0.0
 11
745.0000002818742
 21
110.0000040224113
 31
0.0
 12
-624.9999997181257
 22
-1117.499995977588
 32
0.0
 71
     5
 42
-1.0
  3
STANDARD
100
AcDbAlignedDimension
 13
470.0000002818742
 23
217.5000040224113
 33
0.0
 14
1020.000000281874
 24
217.5000040224113
 34
0.0
100
AcDbRotatedDimension
1001
ACAD
1000
DSTYLE
1002
{
1070
    40
1040
10.0
1070
    41
1040
2.5
1070
    42
1040
0.625
1070
    43
1040
3.75
1070
    44
1040
1.25
1070
    73
1070
     0
1070
    74
1070
     0
1070
    77
1070
     1
1070
    78
1070
     8
1070
   140
1040
3.0
1070
   141
1040
2.5
1070
   143
1040
0.0394
1070
   147
1040
0.25
1070
   171
1070
     4
1070
   172
1070
     1
1070
   176
1070
     7
1070
   177
1070
     7
1070
   178
1070
     7
1070
   271
1070
     0
1070
   272
1070
     0
1070
   273
1070
     8
1070
   274
1070
     4
1070
   279
1070
     2
1070
   288
1070
     1
1002
}
  0
LINE
  5
377
330
36C
100
AcDbEntity
  8
KEIKAKU
 62
     2
100
AcDbLine
 10
445.0000002818742
 20
217.5000040224113
 30
0.0
 11
1045.000000281874
 21
217.5000040224113
 31
0.0
  0
LINE
  5
378
330
36C
100
AcDbEntity
  8
KEIKAKU
 62
     2
100
AcDbLine
 10
445.0000002818742
 20
317.5000040224113
 30
0.0
 11
1045.000000281874
 21
317.5000040224113
 31
0.0
  0
MTEXT
  5
379
102
{ACAD_REACTORS
330
37A
102
}
330
36C
100
AcDbEntity
  8
KEIKAKU
 62
     7
100
AcDbMText
 10
382.5116235181558
 20
120.6925149917933
 30
0.0
 40
30.0
 41
0.0
 71
     6
 72
     1
  1
\A1;切込砕石
 73
     1
 44
1.0
  0
LEADER
  5
37A
330
36C
100
AcDbEntity
  8
KEIKAKU
 62
     7
100
AcDbLeader
  3
STANDARD
 73
     0
 75
     1
 40
30.0
 41
76.30452755905512
 76
     3
 10
533.6775499736758
 20
259.3115617252497
 30
0.0
 10
410.0116235181558
 20
103.1925149917933
 30
0.0
 10
385.0116235181559
 20
103.1925149917933
 30
0.0
340
379
1001
ACAD
1000
DSTYLE
1002
{
1070
    78
1070
     8
1070
   288
1070
     1
1070
   140
1040
3.0
1070
    74
1070
     0
1070
   172
1070
     1
1070
    73
1070
     0
1070
   272
1070
     0
1070
    77
1070
     1
1070
    40
1040
10.0
1070
   147
1040
0.25
1070
   287
1070
     5
1070
    42
1040
0.625
1070
    44
1040
1.25
1070
    43
1040
3.75
1070
   271
1070
     0
1070
   178
1070
     7
1070
   177
1070
     7
1070
   176
1070
     7
1070
   141
1040
2.5
1070
    41
1040
2.5
1070
   273
1070
     8
1070
   274
1070
     4
1070
   143
1040
0.0394
1070
   171
1070
     4
1002
}
  0
DIMENSION
  5
37B
330
36C
100
AcDbEntity
  8
KEIKAKU
 62
     2
100
AcDbDimension
  2
*D9
 10
325.0000002818743
 20
217.5000040224113
 30
0.0
 11
307.5000002818742
 21
267.5000040224113
 31
0.0
 12
-624.9999997181257
 22
-1117.499995977588
 32
0.0
 71
     5
 42
-1.0
  3
STANDARD
100
AcDbAlignedDimension
 13
445.0000002818742
 23
317.5000040224113
 33
0.0
 14
445.0000002818742
 24
217.5000040224113
 34
0.0
 50
90.0
100
AcDbRotatedDimension
1001
ACAD
1000
DSTYLE
1002
{
1070
    40
1040
10.0
1070
    41
1040
2.5
1070
    42
1040
0.625
1070
    43
1040
3.75
1070
    44
1040
1.25
1070
    73
1070
     0
1070
    74
1070
     0
1070
    75
1070
     1
1070
    77
1070
     1
1070
    78
1070
     8
1070
   140
1040
3.0
1070
   141
1040
2.5
1070
   143
1040
0.0394
1070
   147
1040
0.25
1070
   171
1070
     4
1070
   172
1070
     1
1070
   176
1070
     7
1070
   177
1070
     7
1070
   178
1070
     7
1070
   271
1070
     0
1070
   272
1070
     0
1070
   273
1070
     8
1070
   274
1070
     4
1070
   279
1070
     2
1070
   288
1070
     1
1002
}
  0
LINE
  5
37C
330
36C
100
AcDbEntity
  8
KEIKAKU
 62
     2
100
AcDbLine
 10
445.0000002818742
 20
317.5000040224113
 30
0.0
 11
445.0000002818742
 21
217.5000040224113
 31
0.0
  0
MTEXT
  5
37D
102
{ACAD_REACTORS
330
37E
102
}
330
36C
100
AcDbEntity
  8
KEIKAKU
 62
     7
100
AcDbMText
 10
1130.841200802922
 20
227.1507389969356
 30
0.0
 40
30.0
 41
0.0
 71
     4
 72
     1
  1
\A1;ﾍﾞｰｽｺﾝｸﾘｰﾄ
 73
     1
 44
1.0
  0
LEADER
  5
37E
330
36C
100
AcDbEntity
  8
KEIKAKU
 62
     7
100
AcDbLeader
  3
STANDARD
 73
     0
 74
     0
 75
     1
 40
30.22913385826774
 41
202.3045275590552
 76
     3
 10
912.7756285230061
 20
343.4878365034965
 30
0.0
 10
1103.341200802923
 20
209.5361720678017
 30
0.0
 10
1128.341200802922
 20
209.5361720678017
 30
0.0
340
37D
1001
ACAD
1000
DSTYLE
1002
{
1070
    78
1070
     8
1070
   288
1070
     1
1070
   140
1040
3.0
1070
    74
1070
     0
1070
   172
1070
     1
1070
    73
1070
     0
1070
   272
1070
     0
1070
    77
1070
     1
1070
    40
1040
10.0
1070
   147
1040
0.25
1070
   287
1070
     5
1070
    42
1040
0.625
1070
    44
1040
1.25
1070
    43
1040
3.75
1070
   271
1070
     0
1070
   178
1070
     7
1070
   177
1070
     7
1070
   176
1070
     7
1070
   141
1040
2.5
1070
    41
1040
2.5
1070
   273
1070
     8
1070
   274
1070
     4
1070
   143
1040
0.0394
1070
   171
1070
     4
1002
}
  0
LINE
  5
37F
330
36C
100
AcDbEntity
  8
KEIKAKU
 62
     2
100
AcDbLine
 10
1045.000000281874
 20
317.5000040224113
 30
0.0
 11
1045.000000281874
 21
217.5000040224113
 31
0.0
  0
LINE
  5
380
330
36C
100
AcDbEntity
  8
KEIKAKU
 62
     2
100
AcDbLine
 10
510.0000002818742
 20
882.5000040224113
 30
0.0
 11
0.000000281874236
 21
882.5000040224113
 31
0.0
  0
LINE
  5
381
330
36C
100
AcDbEntity
  8
KEIKAKU
 62
     2
100
AcDbLine
 10
490.0000002818742
 20
982.5000040224113
 30
0.0
 11
0.000000281874236
 21
982.5000040224113
 31
0.0
  0
LINE
  5
382
330
36C
100
AcDbEntity
  8
KEIKAKU
 62
     2
100
AcDbLine
 10
490.0000002818742
 20
1082.500004022411
 30
0.0
 11
0.000000281874236
 21
1082.500004022411
 31
0.0
  0
LINE
  5
383
330
36C
100
AcDbEntity
  8
KEIKAKU
 62
     2
100
AcDbLine
 10
595.0000002818742
 20
467.500004022411
 30
0.0
 11
895.0000002818741
 21
467.500004022411
 31
0.0
  0
HATCH
  5
384
330
36C
100
AcDbEntity
  8
KEIKAKU
 62
     2
100
AcDbHatch
 10
0.0
 20
0.0
 30
0.0
210
0.0
220
0.0
230
1.0
  2
HONEY
 70
     0
 71
     0
 91
        6
 92
        7
 72
     0
 73
     1
 93
        5
 10
595.0000002818742
 20
882.5000040224111
 10
510.0000002818742
 20
882.5000040224113
 10
510.0000002818742
 20
724.7343482929077
 10
555.9774380254559
 20
732.1841539755512
 10
595.0000002818742
 20
753.3507990274336
 97
        0
 92
        7
 72
     0
 73
     1
 93
        5
 10
980.0000002818739
 20
882.5000040224113
 10
895.0000002818741
 20
882.5000040224113
 10
895.0000002818745
 20
743.1085421836492
 10
947.4643391966742
 20
759.4176567985887
 10
980.0000002818745
 20
783.5913834906334
 97
        0
 92
        7
 72
     0
 73
     1
 93
        5
 10
980.0000002818745
 20
558.9627317655478
 10
940.0310309587849
 20
536.598112084956
 10
895.0000002818741
 20
503.0565161747335
 10
895.0000002818741
 20
417.5000040224112
 10
980.0000002818743
 20
417.5000040224112
 97
        0
 92
        7
 72
     0
 73
     1
 93
        5
 10
595.000000281874
 20
469.4364361641146
 10
555.977438025457
 20
499.4615125585714
 10
510.0000002818742
 20
515.2535491010755
 10
510.0000002818742
 20
417.5000040224112
 10
595.0000002818742
 20
417.5000040224112
 97
        0
 92
       24
 93
        4
 72
     1
 10
534.8750002818742
 20
852.5000040224112
 11
570.1250002818742
 21
852.5000040224112
 72
     1
 10
570.1250002818742
 20
852.5000040224112
 11
570.1250002818742
 21
807.5000040224113
 72
     1
 10
570.1250002818742
 20
807.5000040224113
 11
534.8750002818742
 21
807.5000040224113
 72
     1
 10
534.8750002818742
 20
807.5000040224113
 11
534.8750002818742
 21
852.5000040224112
 97
        0
 92
       24
 93
        4
 72
     1
 10
919.8750002818742
 20
852.5000040224112
 11
955.1250002818742
 21
852.5000040224112
 72
     1
 10
955.1250002818742
 20
852.5000040224112
 11
955.1250002818742
 21
807.5000040224113
 72
     1
 10
955.1250002818742
 20
807.5000040224113
 11
919.8750002818742
 21
807.5000040224113
 72
     1
 10
919.8750002818742
 20
807.5000040224113
 11
919.8750002818742
 21
852.5000040224112
 97
        0
 75
     0
 76
     1
 52
0.0
 41
3.5
 77
     0
 78
     3
 53
0.0
 43
-624.9999997181257
 44
-1117.499995977588
 45
16.66875
 46
9.623704999999999
 79
     2
 49
11.1125
 49
-22.225
 53
120.0
 43
-624.9999997181257
 44
-1117.499995977588
 45
-16.66874800852732
 46
9.623708449331868
 79
     2
 49
11.1125
 49
-22.225
 53
60.0
 43
-624.9999997181257
 44
-1117.499995977588
 45
0.0000019914726814
 46
19.24741344933186
 79
     2
 49
-22.225
 49
11.1125
 47
2.475772716849693
 98
        4
 10
555.9774380254566
 20
781.6996060254841
 10
942.5088064817318
 20
794.0784690379678
 10
930.1199838598405
 20
494.5099694513646
 10
555.9774380254566
 20
447.4702837105687
  0
DIMENSION
  5
385
330
36C
100
AcDbEntity
  8
KEIKAKU
 62
     2
100
AcDbDimension
  2
*D6
 10
895.0000002818741
 20
812.5000040224113
 30
0.0
 11
745.0000002818742
 21
830.0000040224112
 31
0.0
 12
-624.9999997181257
 22
-1117.499995977588
 32
0.0
  1
B
 71
     5
 42
-1.0
  3
STANDARD
100
AcDbAlignedDimension
 13
595.0000002818742
 23
670.0000040224113
 33
0.0
 14
895.0000002818741
 24
670.0000040224113
 34
0.0
100
AcDbRotatedDimension
1001
ACAD
1000
DSTYLE
1002
{
1070
    40
1040
10.0
1070
    41
1040
2.5
1070
    42
1040
0.625
1070
    43
1040
3.75
1070
    44
1040
1.25
1070
    73
1070
     0
1070
    74
1070
     0
1070
    75
1070
     1
1070
    77
1070
     1
1070
    78
1070
     8
1070
   140
1040
3.0
1070
   141
1040
2.5
1070
   143
1040
0.0394
1070
   147
1040
0.25
1070
   171
1070
     4
1070
   172
1070
     1
1070
   176
1070
     7
1070
   177
1070
     7
1070
   178
1070
     7
1070
   271
1070
     0
1070
   272
1070
     0
1070
   273
1070
     8
1070
   274
1070
     4
1070
   279
1070
     2
1070
   288
1070
     1
1002
}
  0
DIMENSION
  5
386
330
36C
100
AcDbEntity
  8
KEIKAKU
 62
     2
100
AcDbDimension
  2
*D1
 10
775.0000002818742
 20
387.5000040224113
 30
0.0
 11
757.5000002818742
 21
687.5000040224112
 31
0.0
 12
-624.9999997181257
 22
-1117.499995977588
 32
0.0
  1
H
 71
     5
 42
-1.0
  3
STANDARD
100
AcDbAlignedDimension
 13
860.0000002818742
 23
987.5000040224113
 33
0.0
 14
895.0000002818741
 24
387.5000040224113
 34
0.0
 50
90.0
100
AcDbRotatedDimension
1001
ACAD
1000
DSTYLE
1002
{
1070
    40
1040
10.0
1070
    41
1040
2.5
1070
    42
1040
0.625
1070
    43
1040
3.75
1070
    44
1040
1.25
1070
    73
1070
     0
1070
    74
1070
     0
1070
    77
1070
     1
1070
    78
1070
     8
1070
   140
1040
3.0
1070
   141
1040
2.5
1070
   143
1040
0.0394
1070
   147
1040
0.25
1070
   171
1070
     4
1070
   172
1070
     1
1070
   176
1070
     7
1070
   177
1070
     7
1070
   178
1070
     7
1070
   271
1070
     0
1070
   272
1070
     0
1070
   273
1070
     8
1070
   274
1070
     4
1070
   279
1070
     2
1070
   288
1070
     1
1002
}
  0
LINE
  5
387
330
36C
100
AcDbEntity
  8
KEIKAKU
 62
     2
100
AcDbLine
 10
410.0000002818742
 20
387.5000040224113
 30
0.0
 11
1080.000000281874
 21
387.5000040224113
 31
0.0
  0
LINE
  5
388
330
36C
100
AcDbEntity
  8
KEIKAKU
 62
     2
100
AcDbLine
 10
630.0000002818742
 20
987.5000040224113
 30
0.0
 11
860.0000002818742
 21
987.5000040224113
 31
0.0
  0
LINE
  5
389
330
36C
100
AcDbEntity
  8
KEIKAKU
 62
     2
100
AcDbLine
 10
490.0000002818742
 20
1082.500004022411
 30
0.0
 11
1000.000000281874
 21
1082.500004022411
 31
0.0
  0
LINE
  5
38A
330
36C
100
AcDbEntity
  8
KEIKAKU
 62
     2
100
AcDbLine
 10
410.0000002818742
 20
882.5000040224113
 30
0.0
 11
410.0000002818742
 21
387.5000040224113
 31
0.0
  0
DIMENSION
  5
38B
330
36C
100
AcDbEntity
  8
KEIKAKU
 62
     2
100
AcDbDimension
  2
*D10
 10
695.000000281874
 20
467.500004022411
 30
0.0
 11
677.500000281874
 21
727.5000040224113
 31
0.0
 12
-624.9999997181257
 22
-1117.499995977588
 32
0.0
  1
H－80
 71
     5
 42
-1.0
  3
STANDARD
100
AcDbAlignedDimension
 13
745.0000002818742
 23
987.5000040224113
 33
0.0
 14
745.0000002818742
 24
467.500004022411
 34
0.0
 50
90.0
100
AcDbRotatedDimension
1001
ACAD
1000
DSTYLE
1002
{
1070
    40
1040
10.0
1070
    41
1040
2.5
1070
    42
1040
0.625
1070
    43
1040
3.75
1070
    44
1040
1.25
1070
    73
1070
     0
1070
    74
1070
     0
1070
    75
1070
     1
1070
    77
1070
     1
1070
    78
1070
     8
1070
   140
1040
3.0
1070
   141
1040
2.5
1070
   143
1040
0.0394
1070
   147
1040
0.25
1070
   171
1070
     4
1070
   172
1070
     1
1070
   176
1070
     7
1070
   177
1070
     7
1070
   178
1070
     7
1070
   271
1070
     0
1070
   272
1070
     0
1070
   273
1070
     8
1070
   274
1070
     4
1070
   279
1070
     2
1070
   288
1070
     1
1002
}
  0
DIMENSION
  5
38C
330
36C
100
AcDbEntity
  8
KEIKAKU
 62
     2
100
AcDbDimension
  2
*D5
 10
595.0000002818742
 20
812.5000040224113
 30
0.0
 11
552.5000002818742
 21
830.0000040224112
 31
0.0
 12
-624.9999997181257
 22
-1117.499995977588
 32
0.0
  1
ｅ
 71
     5
 42
-1.0
  3
STANDARD
100
AcDbAlignedDimension
 13
510.0000002818742
 23
782.5000040224113
 33
0.0
 14
595.0000002818742
 24
670.0000040224113
 34
0.0
100
AcDbRotatedDimension
1001
ACAD
1000
DSTYLE
1002
{
1070
    40
1040
10.0
1070
    41
1040
2.5
1070
    42
1040
0.625
1070
    43
1040
3.75
1070
    44
1040
1.25
1070
    73
1070
     0
1070
    74
1070
     0
1070
    77
1070
     1
1070
    78
1070
     8
1070
   140
1040
3.0
1070
   141
1040
2.5
1070
   143
1040
0.0394
1070
   147
1040
0.25
1070
   171
1070
     4
1070
   172
1070
     1
1070
   176
1070
     7
1070
   177
1070
     7
1070
   178
1070
     7
1070
   271
1070
     0
1070
   272
1070
     0
1070
   273
1070
     8
1070
   274
1070
     4
1070
   279
1070
     2
1070
   288
1070
     1
1002
}
  0
DIMENSION
  5
38D
330
36C
100
AcDbEntity
  8
KEIKAKU
 62
     2
100
AcDbDimension
  2
*D4
 10
335.0000002818742
 20
782.5000040224113
 30
0.0
 11
317.5000002818742
 21
932.5000040224113
 31
0.0
 12
-624.9999997181257
 22
-1117.499995977588
 32
0.0
 71
     5
 42
-1.0
  3
STANDARD
100
AcDbAlignedDimension
 13
490.0000002818742
 23
1082.500004022411
 33
0.0
 14
510.0000002818742
 24
782.5000040224113
 34
0.0
 50
90.0
100
AcDbRotatedDimension
1001
ACAD
1000
DSTYLE
1002
{
1070
    40
1040
10.0
1070
    41
1040
2.5
1070
    42
1040
0.625
1070
    43
1040
3.75
1070
    44
1040
1.25
1070
    73
1070
     0
1070
    74
1070
     0
1070
    77
1070
     1
1070
    78
1070
     8
1070
   140
1040
3.0
1070
   141
1040
2.5
1070
   143
1040
0.0394
1070
   147
1040
0.25
1070
   171
1070
     4
1070
   172
1070
     1
1070
   176
1070
     7
1070
   177
1070
     7
1070
   178
1070
     7
1070
   271
1070
     0
1070
   272
1070
     0
1070
   273
1070
     8
1070
   274
1070
     4
1070
   279
1070
     2
1070
   288
1070
     1
1002
}
  0
LINE
  5
38E
330
36C
100
AcDbEntity
  8
KEIKAKU
 62
     2
100
AcDbLine
 10
510.0000002818742
 20
887.5000040224113
 30
0.0
 11
510.0000002818742
 21
387.5000040224113
 31
0.0
  0
LINE
  5
38F
330
36C
100
AcDbEntity
  8
KEIKAKU
 62
     2
100
AcDbLine
 10
595.0000002818742
 20
952.5000040224112
 30
0.0
 11
595.0000002818742
 21
387.5000040224113
 31
0.0
  0
DIMENSION
  5
390
330
36C
100
AcDbEntity
  8
KEIKAKU
 62
     2
100
AcDbDimension
  2
*D12
 10
510.0000002818742
 20
642.5000040224112
 30
0.0
 11
460.0000002818742
 21
660.0000040224113
 31
0.0
 12
-624.9999997181257
 22
-1117.499995977588
 32
0.0
 71
     5
 42
-1.0
  3
STANDARD
100
AcDbAlignedDimension
 13
410.0000002818742
 23
387.5000040224113
 33
0.0
 14
510.0000002818742
 24
387.5000040224113
 34
0.0
100
AcDbRotatedDimension
1001
ACAD
1000
DSTYLE
1002
{
1070
    40
1040
10.0
1070
    41
1040
2.5
1070
    42
1040
0.625
1070
    43
1040
3.75
1070
    44
1040
1.25
1070
    73
1070
     0
1070
    74
1070
     0
1070
    77
1070
     1
1070
    78
1070
     8
1070
   140
1040
3.0
1070
   141
1040
2.5
1070
   143
1040
0.0394
1070
   147
1040
0.25
1070
   171
1070
     4
1070
   172
1070
     1
1070
   176
1070
     7
1070
   177
1070
     7
1070
   178
1070
     7
1070
   271
1070
     0
1070
   272
1070
     0
1070
   273
1070
     8
1070
   274
1070
     4
1070
   279
1070
     2
1070
   288
1070
     1
1002
}
  0
DIMENSION
  5
391
330
36C
100
AcDbEntity
  8
KEIKAKU
 62
     2
100
AcDbDimension
  2
*D11
 10
695.000000281874
 20
387.5000040224113
 30
0.0
 11
677.500000281874
 21
427.5000040224113
 31
0.0
 12
-624.9999997181257
 22
-1117.499995977588
 32
0.0
 71
     5
 42
-1.0
  3
STANDARD
100
AcDbAlignedDimension
 13
745.0000002818742
 23
467.500004022411
 33
0.0
 14
745.0000002818742
 24
387.5000040224113
 34
0.0
 50
90.0
100
AcDbRotatedDimension
1001
ACAD
1000
DSTYLE
1002
{
1070
    40
1040
10.0
1070
    41
1040
2.5
1070
    42
1040
0.625
1070
    43
1040
3.75
1070
    44
1040
1.25
1070
    73
1070
     0
1070
    74
1070
     0
1070
    75
1070
     1
1070
    77
1070
     1
1070
    78
1070
     8
1070
   140
1040
3.0
1070
   141
1040
2.5
1070
   143
1040
0.0394
1070
   147
1040
0.25
1070
   171
1070
     4
1070
   172
1070
     1
1070
   176
1070
     7
1070
   177
1070
     7
1070
   178
1070
     7
1070
   271
1070
     0
1070
   272
1070
     0
1070
   273
1070
     8
1070
   274
1070
     4
1070
   279
1070
     2
1070
   288
1070
     1
1002
}
  0
LINE
  5
392
330
36C
100
AcDbEntity
  8
KEIKAKU
 62
     2
100
AcDbLine
 10
490.0000002818742
 20
987.5000040224113
 30
0.0
 11
510.0000002818742
 21
887.5000040224113
 31
0.0
  0
LINE
  5
393
330
36C
100
AcDbEntity
  8
KEIKAKU
 62
     2
100
AcDbLine
 10
490.0000002818742
 20
1082.500004022411
 30
0.0
 11
490.0000002818742
 21
987.5000040224113
 31
0.0
  0
DIMENSION
  5
394
330
36C
100
AcDbEntity
  8
KEIKAKU
 62
     2
100
AcDbDimension
  2
*D0
 10
695.0000002818742
 20
987.5000040224113
 30
0.0
 11
677.5000002818742
 21
1035.000004022411
 31
0.0
 12
-624.9999997181257
 22
-1117.499995977588
 32
0.0
 71
     5
 42
-1.0
  3
STANDARD
100
AcDbAlignedDimension
 13
745.0000002818742
 23
1082.500004022411
 33
0.0
 14
745.0000002818742
 24
987.5000040224113
 34
0.0
 50
90.0
100
AcDbRotatedDimension
1001
ACAD
1000
DSTYLE
1002
{
1070
    40
1040
10.0
1070
    41
1040
2.5
1070
    42
1040
0.625
1070
    43
1040
3.75
1070
    44
1040
1.25
1070
    73
1070
     0
1070
    74
1070
     0
1070
    77
1070
     1
1070
    78
1070
     8
1070
   140
1040
3.0
1070
   141
1040
2.5
1070
   143
1040
0.0394
1070
   147
1040
0.25
1070
   171
1070
     4
1070
   172
1070
     1
1070
   176
1070
     7
1070
   177
1070
     7
1070
   178
1070
     7
1070
   271
1070
     0
1070
   272
1070
     0
1070
   273
1070
     8
1070
   274
1070
     4
1070
   279
1070
     2
1070
   288
1070
     1
1002
}
  0
LINE
  5
395
330
36C
100
AcDbEntity
  8
KEIKAKU
 62
     2
100
AcDbLine
 10
630.0000002818742
 20
987.5000040224113
 30
0.0
 11
595.0000002818742
 21
952.5000040224112
 31
0.0
  0
LINE
  5
396
330
36C
100
AcDbEntity
  8
KEIKAKU
 62
     2
100
AcDbLine
 10
1080.000000281874
 20
882.5000040224113
 30
0.0
 11
1080.000000281874
 21
387.5000040224113
 31
0.0
  0
DIMENSION
  5
397
330
36C
100
AcDbEntity
  8
KEIKAKU
 62
     2
100
AcDbDimension
  2
*D7
 10
980.0000002818743
 20
812.5000040224113
 30
0.0
 11
937.5000002818742
 21
830.0000040224112
 31
0.0
 12
-624.9999997181257
 22
-1117.499995977588
 32
0.0
  1
ｅ
 71
     5
 42
-1.0
  3
STANDARD
100
AcDbAlignedDimension
 13
895.0000002818741
 23
670.0000040224113
 33
0.0
 14
980.0000002818743
 24
782.5000040224113
 34
0.0
100
AcDbRotatedDimension
1001
ACAD
1000
DSTYLE
1002
{
1070
    40
1040
10.0
1070
    41
1040
2.5
1070
    42
1040
0.625
1070
    43
1040
3.75
1070
    44
1040
1.25
1070
    73
1070
     0
1070
    74
1070
     0
1070
    75
1070
     1
1070
    77
1070
     1
1070
    78
1070
     8
1070
   140
1040
3.0
1070
   141
1040
2.5
1070
   143
1040
0.0394
1070
   147
1040
0.25
1070
   171
1070
     4
1070
   172
1070
     1
1070
   176
1070
     7
1070
   177
1070
     7
1070
   178
1070
     7
1070
   271
1070
     0
1070
   272
1070
     0
1070
   273
1070
     8
1070
   274
1070
     4
1070
   279
1070
     2
1070
   288
1070
     1
1002
}
  0
LINE
  5
398
330
36C
100
AcDbEntity
  8
KEIKAKU
 62
     2
100
AcDbLine
 10
980.0000002818743
 20
887.5000040224113
 30
0.0
 11
980.0000002818743
 21
387.5000040224113
 31
0.0
  0
LINE
  5
399
330
36C
100
AcDbEntity
  8
KEIKAKU
 62
     2
100
AcDbLine
 10
895.0000002818741
 20
952.5000040224112
 30
0.0
 11
895.0000002818741
 21
387.5000040224113
 31
0.0
  0
MTEXT
  5
39A
102
{ACAD_REACTORS
330
39B
102
}
330
36C
100
AcDbEntity
  8
KEIKAKU
 62
     7
100
AcDbMText
 10
1137.500000281874
 20
485.0000040224113
 30
0.0
 40
30.0
 41
0.0
 71
     4
 72
     1
  1
\A1;フィルター砂（荒目）
 73
     1
 44
1.0
  0
LEADER
  5
39B
330
36C
100
AcDbEntity
  8
KEIKAKU
 62
     7
100
AcDbLeader
  3
STANDARD
 73
     0
 74
     0
 75
     1
 40
30.22913385826774
 41
202.3371288760957
 76
     3
 10
1037.107893487655
 20
583.4263818742756
 30
0.0
 10
1110.000000281874
 20
467.3854370932773
 30
0.0
 10
1135.000000281874
 20
467.3854370932773
 30
0.0
340
39A
1001
ACAD
1000
DSTYLE
1002
{
1070
    78
1070
     8
1070
   288
1070
     1
1070
   140
1040
3.0
1070
    74
1070
     0
1070
   172
1070
     1
1070
    73
1070
     0
1070
   272
1070
     0
1070
    77
1070
     1
1070
    40
1040
10.0
1070
   147
1040
0.25
1070
   287
1070
     5
1070
    42
1040
0.625
1070
    44
1040
1.25
1070
    43
1040
3.75
1070
   271
1070
     0
1070
   178
1070
     7
1070
   177
1070
     7
1070
   176
1070
     7
1070
   141
1040
2.5
1070
    41
1040
2.5
1070
   273
1070
     8
1070
   274
1070
     4
1070
   143
1040
0.0394
1070
   171
1070
     4
1002
}
  0
LINE
  5
39C
330
36C
100
AcDbEntity
  8
KEIKAKU
 62
     2
100
AcDbLine
 10
1000.000000281874
 20
1082.500004022411
 30
0.0
 11
1000.000000281874
 21
987.5000040224113
 31
0.0
  0
LINE
  5
39D
330
36C
100
AcDbEntity
  8
KEIKAKU
 62
     2
100
AcDbLine
 10
1000.000000281874
 20
987.5000040224113
 30
0.0
 11
980.0000002818743
 21
887.5000040224113
 31
0.0
  0
LINE
  5
39E
330
36C
100
AcDbEntity
  8
KEIKAKU
 62
     2
100
AcDbLine
 10
860.0000002818742
 20
987.5000040224113
 30
0.0
 11
895.0000002818741
 21
952.5000040224112
 31
0.0
  0
TEXT
  5
39F
330
36C
100
AcDbEntity
  8
KEIKAKU
 62
     2
100
AcDbText
 10
2995.246555399985
 20
347.5000040224113
 30
0.0
 40
30.0
  1
0.600
 41
0.675
 72
     2
 11
3055.000000281874
 21
362.5000040224113
 31
0.0
100
AcDbText
 73
     2
  0
TEXT
  5
3A0
330
36C
100
AcDbEntity
  8
KEIKAKU
 62
     2
100
AcDbText
 10
2595.246555399985
 20
347.5000040224113
 30
0.0
 40
30.0
  1
0.600
 41
0.675
 72
     2
 11
2655.000000281874
 21
362.5000040224113
 31
0.0
100
AcDbText
 73
     2
  0
TEXT
  5
3A1
330
36C
100
AcDbEntity
  8
KEIKAKU
 62
     2
100
AcDbText
 10
2795.246555399985
 20
347.5000040224113
 30
0.0
 40
30.0
  1
0.600
 41
0.675
 72
     2
 11
2855.000000281874
 21
362.5000040224113
 31
0.0
100
AcDbText
 73
     2
  0
TEXT
  5
3A2
330
36C
100
AcDbEntity
  8
KEIKAKU
 62
     2
100
AcDbText
 10
2395.246555399985
 20
347.5000040224113
 30
0.0
 40
30.0
  1
0.600
 41
0.675
 72
     2
 11
2455.000000281874
 21
362.5000040224113
 31
0.0
100
AcDbText
 73
     2
  0
TEXT
  5
3A3
330
36C
100
AcDbEntity
  8
KEIKAKU
 62
     2
100
AcDbText
 10
2195.246555399985
 20
347.5000040224113
 30
0.0
 40
30.0
  1
0.600
 41
0.675
 72
     2
 11
2255.000000281874
 21
362.5000040224113
 31
0.0
100
AcDbText
 73
     2
  0
TEXT
  5
3A4
330
36C
100
AcDbEntity
  8
KEIKAKU
 62
     2
100
AcDbText
 10
1935.000000281874
 20
347.5000040224113
 30
0.0
 40
30.0
  1
切込砕石
 41
0.675
 11
1935.000000281874
 21
362.5000040224113
 31
0.0
100
AcDbText
 73
     2
  0
LINE
  5
3A5
330
36C
100
AcDbEntity
  8
KEIKAKU
 62
     2
100
AcDbLine
 10
3095.000000281875
 20
82.50000402241131
 30
0.0
 11
3095.000000281875
 21
962.5000040224113
 31
0.0
  0
LINE
  5
3A6
330
36C
100
AcDbEntity
  8
KEIKAKU
 62
     2
100
AcDbLine
 10
2895.000000281874
 20
82.50000402241131
 30
0.0
 11
2895.000000281875
 21
962.5000040224113
 31
0.0
  0
LINE
  5
3A7
330
36C
100
AcDbEntity
  8
KEIKAKU
 62
     2
100
AcDbLine
 10
2695.000000281874
 20
82.50000402241131
 30
0.0
 11
2695.000000281874
 21
962.5000040224113
 31
0.0
  0
LINE
  5
3A8
330
36C
100
AcDbEntity
  8
KEIKAKU
 62
     2
100
AcDbLine
 10
2495.000000281875
 20
82.50000402241131
 30
0.0
 11
2495.000000281875
 21
962.5000040224113
 31
0.0
  0
LINE
  5
3A9
330
36C
100
AcDbEntity
  8
KEIKAKU
 62
     2
100
AcDbLine
 10
2295.000000281874
 20
82.50000402241131
 30
0.0
 11
2295.000000281874
 21
962.5000040224113
 31
0.0
  0
LINE
  5
3AA
330
36C
100
AcDbEntity
  8
KEIKAKU
 62
     2
100
AcDbLine
 10
2095.000000281874
 20
82.50000402241131
 30
0.0
 11
2095.000000281874
 21
962.5000040224113
 31
0.0
  0
LINE
  5
3AB
330
36C
100
AcDbEntity
  8
KEIKAKU
 62
     2
100
AcDbLine
 10
1875.000000281874
 20
962.5000040224113
 30
0.0
 11
1875.000000281874
 21
82.50000402241131
 31
0.0
  0
LINE
  5
3AC
330
36C
100
AcDbEntity
  8
KEIKAKU
 62
     2
100
AcDbLine
 10
1875.000000281874
 20
82.50000402241131
 30
0.0
 11
3095.000000281874
 21
82.50000402241131
 31
0.0
  0
TEXT
  5
3AD
330
36C
100
AcDbEntity
  8
KEIKAKU
 62
     2
100
AcDbText
 10
2783.596555399985
 20
187.5000040224113
 30
0.0
 40
30.0
  1
5.0
 41
0.675
 72
     2
 11
2815.000000281875
 21
202.5000040224113
 31
0.0
100
AcDbText
 73
     2
  0
TEXT
  5
3AE
330
36C
100
AcDbEntity
  8
KEIKAKU
 62
     2
100
AcDbText
 10
2773.471555399984
 20
107.5000040224113
 30
0.0
 40
30.0
  1
10.0
 41
0.675
 72
     2
 11
2815.000000281875
 21
122.5000040224113
 31
0.0
100
AcDbText
 73
     2
  0
LINE
  5
3AF
330
36C
100
AcDbEntity
  8
KEIKAKU
 62
     2
100
AcDbLine
 10
1875.000000281874
 20
162.5000040224113
 30
0.0
 11
3095.000000281874
 21
162.5000040224113
 31
0.0
  0
LINE
  5
3B0
330
36C
100
AcDbEntity
  8
KEIKAKU
 62
     2
100
AcDbLine
 10
1875.000000281874
 20
242.5000040224113
 30
0.0
 11
3095.000000281874
 21
242.5000040224113
 31
0.0
  0
LINE
  5
3B1
330
36C
100
AcDbEntity
  8
KEIKAKU
 62
     2
100
AcDbLine
 10
1875.000000281874
 20
322.5000040224113
 30
0.0
 11
3095.000000281874
 21
322.5000040224113
 31
0.0
  0
TEXT
  5
3B2
330
36C
100
AcDbEntity
  8
KEIKAKU
 62
     2
100
AcDbText
 10
1935.000000281874
 20
107.5000040224113
 30
0.0
 40
30.0
  1
側溝蓋
 41
0.675
 11
1935.000000281874
 21
122.5000040224113
 31
0.0
100
AcDbText
 73
     2
  0
TEXT
  5
3B3
330
36C
100
AcDbEntity
  8
KEIKAKU
 62
     2
100
AcDbText
 10
1906.104562047625
 20
267.5000040224113
 30
0.0
 40
30.0
  1
フィルター砂
 41
0.675
 11
1906.104562047625
 21
282.5000040224113
 31
0.0
100
AcDbText
 73
     2
  0
TEXT
  5
3B4
330
36C
100
AcDbEntity
  8
KEIKAKU
 62
     2
100
AcDbText
 10
1935.000000281874
 20
187.5000040224113
 30
0.0
 40
30.0
  1
側溝本体
 41
0.675
 11
1935.000000281874
 21
202.5000040224113
 31
0.0
100
AcDbText
 73
     2
  0
TEXT
  5
3B5
330
36C
100
AcDbEntity
  8
KEIKAKU
 62
     2
100
AcDbText
 10
2373.471555399985
 20
107.5000040224113
 30
0.0
 40
30.0
  1
10.0
 41
0.675
 72
     2
 11
2415.000000281875
 21
122.5000040224113
 31
0.0
100
AcDbText
 73
     2
  0
TEXT
  5
3B6
330
36C
100
AcDbEntity
  8
KEIKAKU
 62
     2
100
AcDbText
 10
2173.471555399984
 20
107.5000040224113
 30
0.0
 40
30.0
  1
10.0
 41
0.675
 72
     2
 11
2215.000000281874
 21
122.5000040224113
 31
0.0
100
AcDbText
 73
     2
  0
TEXT
  5
3B7
330
36C
100
AcDbEntity
  8
KEIKAKU
 62
     2
100
AcDbText
 10
2183.596555399985
 20
187.5000040224113
 30
0.0
 40
30.0
  1
5.0
 41
0.675
 72
     2
 11
2215.000000281874
 21
202.5000040224113
 31
0.0
100
AcDbText
 73
     2
  0
TEXT
  5
3B8
330
36C
100
AcDbEntity
  8
KEIKAKU
 62
     2
100
AcDbText
 10
2193.221555399984
 20
267.5000040224113
 30
0.0
 40
30.0
  1
0.400
 41
0.675
 72
     2
 11
2255.000000281874
 21
282.5000040224113
 31
0.0
100
AcDbText
 73
     2
  0
TEXT
  5
3B9
330
36C
100
AcDbEntity
  8
KEIKAKU
 62
     2
100
AcDbText
 10
2383.596555399984
 20
187.5000040224113
 30
0.0
 40
30.0
  1
5.0
 41
0.675
 72
     2
 11
2415.000000281875
 21
202.5000040224113
 31
0.0
100
AcDbText
 73
     2
  0
TEXT
  5
3BA
330
36C
100
AcDbEntity
  8
KEIKAKU
 62
     2
100
AcDbText
 10
2395.246555399985
 20
267.5000040224113
 30
0.0
 40
30.0
  1
0.600
 41
0.675
 72
     2
 11
2455.000000281874
 21
282.5000040224113
 31
0.0
100
AcDbText
 73
     2
  0
TEXT
  5
3BB
330
36C
100
AcDbEntity
  8
KEIKAKU
 62
     2
100
AcDbText
 10
2573.471555399985
 20
107.5000040224113
 30
0.0
 40
30.0
  1
10.0
 41
0.675
 72
     2
 11
2615.000000281874
 21
122.5000040224113
 31
0.0
100
AcDbText
 73
     2
  0
TEXT
  5
3BC
330
36C
100
AcDbEntity
  8
KEIKAKU
 62
     2
100
AcDbText
 10
2595.246555399985
 20
267.5000040224113
 30
0.0
 40
30.0
  1
0.800
 41
0.675
 72
     2
 11
2655.000000281874
 21
282.5000040224113
 31
0.0
100
AcDbText
 73
     2
  0
TEXT
  5
3BD
330
36C
100
AcDbEntity
  8
KEIKAKU
 62
     2
100
AcDbText
 10
2583.596555399985
 20
187.5000040224113
 30
0.0
 40
30.0
  1
5.0
 41
0.675
 72
     2
 11
2615.000000281874
 21
202.5000040224113
 31
0.0
100
AcDbText
 73
     2
  0
TEXT
  5
3BE
330
36C
100
AcDbEntity
  8
KEIKAKU
 62
     2
100
AcDbText
 10
2973.471555399985
 20
107.5000040224113
 30
0.0
 40
30.0
  1
10.0
 41
0.675
 72
     2
 11
3015.000000281875
 21
122.5000040224113
 31
0.0
100
AcDbText
 73
     2
  0
TEXT
  5
3BF
330
36C
100
AcDbEntity
  8
KEIKAKU
 62
     2
100
AcDbText
 10
2799.296555399985
 20
267.5000040224113
 30
0.0
 40
30.0
  1
1.000
 41
0.675
 72
     2
 11
2855.000000281874
 21
282.5000040224113
 31
0.0
100
AcDbText
 73
     2
  0
TEXT
  5
3C0
330
36C
100
AcDbEntity
  8
KEIKAKU
 62
     2
100
AcDbText
 10
2983.596555399985
 20
187.5000040224113
 30
0.0
 40
30.0
  1
5.0
 41
0.675
 72
     2
 11
3015.000000281875
 21
202.5000040224113
 31
0.0
100
AcDbText
 73
     2
  0
TEXT
  5
3C1
330
36C
100
AcDbEntity
  8
KEIKAKU
 62
     2
100
AcDbText
 10
2999.296555399985
 20
267.5000040224113
 30
0.0
 40
30.0
  1
1.200
 41
0.675
 72
     2
 11
3055.000000281874
 21
282.5000040224113
 31
0.0
100
AcDbText
 73
     2
  0
TEXT
  5
3C2
330
36C
100
AcDbEntity
  8
KEIKAKU
 62
     2
100
AcDbText
 10
2793.221555399985
 20
507.5000040224113
 30
0.0
 40
30.0
  1
0.240
 41
0.675
 72
     2
 11
2855.000000281874
 21
522.5000040224113
 31
0.0
100
AcDbText
 73
     2
  0
TEXT
  5
3C3
330
36C
100
AcDbEntity
  8
KEIKAKU
 62
     2
100
AcDbText
 10
2777.037500281875
 20
587.5000040224112
 30
0.0
 40
30.0
  1
0.0044
 41
0.675
 72
     2
 11
2855.000000281874
 21
602.5000040224113
 31
0.0
100
AcDbText
 73
     2
  0
TEXT
  5
3C4
330
36C
100
AcDbEntity
  8
KEIKAKU
 62
     2
100
AcDbText
 10
2794.423717818069
 20
427.5000040224113
 30
0.0
 40
30.0
  1
0.385
 41
0.675
 72
     2
 11
2855.000000281874
 21
442.5000040224112
 31
0.0
100
AcDbText
 73
     2
  0
TEXT
  5
3C5
330
36C
100
AcDbEntity
  8
KEIKAKU
 62
     2
100
AcDbText
 10
2775.496555399985
 20
827.5000040224112
 30
0.0
 40
30.0
  1
300
 41
0.675
 72
     2
 11
2815.000000281875
 21
842.5000040224112
 31
0.0
100
AcDbText
 73
     2
  0
TEXT
  5
3C6
330
36C
100
AcDbEntity
  8
KEIKAKU
 62
     2
100
AcDbText
 10
2788.848717818069
 20
667.5000040224112
 30
0.0
 40
30.0
  1
85
 41
0.675
 72
     2
 11
2815.000000281875
 21
682.5000040224113
 31
0.0
100
AcDbText
 73
     2
  0
TEXT
  5
3C7
330
36C
100
AcDbEntity
  8
KEIKAKU
 62
     2
100
AcDbText
 10
2775.496555399985
 20
747.5000040224113
 30
0.0
 40
30.0
  1
600
 41
0.675
 72
     2
 11
2815.000000281875
 21
762.5000040224112
 31
0.0
100
AcDbText
 73
     2
  0
LINE
  5
3C8
330
36C
100
AcDbEntity
  8
KEIKAKU
 62
     2
100
AcDbLine
 10
1875.000000281874
 20
402.5000040224113
 30
0.0
 11
3095.000000281874
 21
402.5000040224113
 31
0.0
  0
LINE
  5
3C9
330
36C
100
AcDbEntity
  8
KEIKAKU
 62
     2
100
AcDbLine
 10
1875.000000281874
 20
482.5000040224113
 30
0.0
 11
3095.000000281874
 21
482.5000040224113
 31
0.0
  0
LINE
  5
3CA
330
36C
100
AcDbEntity
  8
KEIKAKU
 62
     2
100
AcDbLine
 10
1875.000000281874
 20
562.5000040224112
 30
0.0
 11
3095.000000281874
 21
562.5000040224112
 31
0.0
  0
LINE
  5
3CB
330
36C
100
AcDbEntity
  8
KEIKAKU
 62
     2
100
AcDbLine
 10
1875.000000281874
 20
642.5000040224112
 30
0.0
 11
3095.000000281874
 21
642.5000040224112
 31
0.0
  0
LINE
  5
3CC
330
36C
100
AcDbEntity
  8
KEIKAKU
 62
     2
100
AcDbLine
 10
1875.000000281874
 20
722.5000040224113
 30
0.0
 11
3095.000000281874
 21
722.5000040224113
 31
0.0
  0
LINE
  5
3CD
330
36C
100
AcDbEntity
  8
KEIKAKU
 62
     2
100
AcDbLine
 10
1875.000000281874
 20
802.5000040224112
 30
0.0
 11
3095.000000281874
 21
802.5000040224112
 31
0.0
  0
LINE
  5
3CE
330
36C
100
AcDbEntity
  8
KEIKAKU
 62
     2
100
AcDbLine
 10
1875.000000281874
 20
882.5000040224113
 30
0.0
 11
3095.000000281874
 21
882.5000040224113
 31
0.0
  0
LINE
  5
3CF
330
36C
100
AcDbEntity
  8
KEIKAKU
 62
     2
100
AcDbLine
 10
1875.000000281874
 20
962.5000040224113
 30
0.0
 11
3095.000000281875
 21
962.5000040224113
 31
0.0
  0
TEXT
  5
3D0
330
36C
100
AcDbEntity
  8
KEIKAKU
 62
     2
100
AcDbText
 10
2735.000000281874
 20
907.5000040224113
 30
0.0
 40
30.0
  1
300×600
 41
0.675
 11
2735.000000281874
 21
922.5000040224113
 31
0.0
100
AcDbText
 73
     2
  0
TEXT
  5
3D1
330
36C
100
AcDbEntity
  8
KEIKAKU
 62
     2
100
AcDbText
 10
1935.000000281874
 20
827.5000040224112
 30
0.0
 40
30.0
  1
側溝幅Ｂ
 41
0.675
 11
1935.000000281874
 21
842.5000040224112
 31
0.0
100
AcDbText
 73
     2
  0
TEXT
  5
3D2
330
36C
100
AcDbEntity
  8
KEIKAKU
 62
     2
100
AcDbText
 10
1895.000000281874
 20
587.5000040224112
 30
0.0
 40
30.0
  1
目地部モルタル
 41
0.675
 11
1895.000000281874
 21
602.5000040224113
 31
0.0
100
AcDbText
 73
     2
  0
TEXT
  5
3D3
330
36C
100
AcDbEntity
  8
KEIKAKU
 62
     2
100
AcDbText
 10
1922.960232232377
 20
507.5000040224113
 30
0.0
 40
30.0
  1
ｲﾝﾊﾞｰﾄｺﾝｸﾘｰﾄ
 41
0.675
 11
1922.960232232377
 21
522.5000040224113
 31
0.0
100
AcDbText
 73
     2
  0
TEXT
  5
3D4
330
36C
100
AcDbEntity
  8
KEIKAKU
 62
     2
100
AcDbText
 10
1935.000000281874
 20
427.5000040224113
 30
0.0
 40
30.0
  1
ﾍﾞｰｽｺﾝｸﾘｰﾄ
 41
0.675
 11
1935.000000281874
 21
442.5000040224112
 31
0.0
100
AcDbText
 73
     2
  0
TEXT
  5
3D5
330
36C
100
AcDbEntity
  8
KEIKAKU
 62
     2
100
AcDbText
 10
1935.000000281874
 20
667.5000040224112
 30
0.0
 40
30.0
  1
側壁厚ｅ
 41
0.675
 11
1935.000000281874
 21
682.5000040224113
 31
0.0
100
AcDbText
 73
     2
  0
TEXT
  5
3D6
330
36C
100
AcDbEntity
  8
KEIKAKU
 62
     2
100
AcDbText
 10
1935.000000281874
 20
747.5000040224113
 30
0.0
 40
30.0
  1
側溝深Ｈ
 41
0.675
 11
1935.000000281874
 21
762.5000040224112
 31
0.0
100
AcDbText
 73
     2
  0
TEXT
  5
3D7
330
36C
100
AcDbEntity
  8
KEIKAKU
 62
     2
100
AcDbText
 10
1935.000000281874
 20
907.5000040224113
 30
0.0
 40
30.0
  1
形    状
 41
0.675
 11
1935.000000281874
 21
922.5000040224113
 31
0.0
100
AcDbText
 73
     2
  0
TEXT
  5
3D8
330
36C
100
AcDbEntity
  8
KEIKAKU
 62
     2
100
AcDbText
 10
2575.496555399985
 20
827.5000040224112
 30
0.0
 40
30.0
  1
300
 41
0.675
 72
     2
 11
2615.000000281874
 21
842.5000040224112
 31
0.0
100
AcDbText
 73
     2
  0
TEXT
  5
3D9
330
36C
100
AcDbEntity
  8
KEIKAKU
 62
     2
100
AcDbText
 10
2375.496555399985
 20
827.5000040224112
 30
0.0
 40
30.0
  1
300
 41
0.675
 72
     2
 11
2415.000000281875
 21
842.5000040224112
 31
0.0
100
AcDbText
 73
     2
  0
TEXT
  5
3DA
330
36C
100
AcDbEntity
  8
KEIKAKU
 62
     2
100
AcDbText
 10
2175.496555399984
 20
827.5000040224112
 30
0.0
 40
30.0
  1
300
 41
0.675
 72
     2
 11
2215.000000281874
 21
842.5000040224112
 31
0.0
100
AcDbText
 73
     2
  0
TEXT
  5
3DB
330
36C
100
AcDbEntity
  8
KEIKAKU
 62
     2
100
AcDbText
 10
2379.871304415733
 20
587.5000040224112
 30
0.0
 40
30.0
  1
0.0032
 41
0.675
 72
     2
 11
2455.000000281874
 21
602.5000040224113
 31
0.0
100
AcDbText
 73
     2
  0
TEXT
  5
3DC
330
36C
100
AcDbEntity
  8
KEIKAKU
 62
     2
100
AcDbText
 10
2180.248717818069
 20
587.5000040224112
 30
0.0
 40
30.0
  1
0.0025
 41
0.675
 72
     2
 11
2255.000000281874
 21
602.5000040224113
 31
0.0
100
AcDbText
 73
     2
  0
TEXT
  5
3DD
330
36C
100
AcDbEntity
  8
KEIKAKU
 62
     2
100
AcDbText
 10
2194.423717818069
 20
427.5000040224113
 30
0.0
 40
30.0
  1
0.385
 41
0.675
 72
     2
 11
2255.000000281874
 21
442.5000040224112
 31
0.0
100
AcDbText
 73
     2
  0
TEXT
  5
3DE
330
36C
100
AcDbEntity
  8
KEIKAKU
 62
     2
100
AcDbText
 10
2193.221555399984
 20
507.5000040224113
 30
0.0
 40
30.0
  1
0.240
 41
0.675
 72
     2
 11
2255.000000281874
 21
522.5000040224113
 31
0.0
100
AcDbText
 73
     2
  0
TEXT
  5
3DF
330
36C
100
AcDbEntity
  8
KEIKAKU
 62
     2
100
AcDbText
 10
2394.423717818069
 20
427.5000040224113
 30
0.0
 40
30.0
  1
0.385
 41
0.675
 72
     2
 11
2455.000000281874
 21
442.5000040224112
 31
0.0
100
AcDbText
 73
     2
  0
TEXT
  5
3E0
330
36C
100
AcDbEntity
  8
KEIKAKU
 62
     2
100
AcDbText
 10
2393.221555399985
 20
507.5000040224113
 30
0.0
 40
30.0
  1
0.240
 41
0.675
 72
     2
 11
2455.000000281874
 21
522.5000040224113
 31
0.0
100
AcDbText
 73
     2
  0
TEXT
  5
3E1
330
36C
100
AcDbEntity
  8
KEIKAKU
 62
     2
100
AcDbText
 10
2188.848717818069
 20
667.5000040224112
 30
0.0
 40
30.0
  1
75
 41
0.675
 72
     2
 11
2215.000000281874
 21
682.5000040224113
 31
0.0
100
AcDbText
 73
     2
  0
TEXT
  5
3E2
330
36C
100
AcDbEntity
  8
KEIKAKU
 62
     2
100
AcDbText
 10
2175.496555399984
 20
747.5000040224113
 30
0.0
 40
30.0
  1
300
 41
0.675
 72
     2
 11
2215.000000281874
 21
762.5000040224112
 31
0.0
100
AcDbText
 73
     2
  0
TEXT
  5
3E3
330
36C
100
AcDbEntity
  8
KEIKAKU
 62
     2
100
AcDbText
 10
2388.848717818069
 20
667.5000040224112
 30
0.0
 40
30.0
  1
75
 41
0.675
 72
     2
 11
2415.000000281875
 21
682.5000040224113
 31
0.0
100
AcDbText
 73
     2
  0
TEXT
  5
3E4
330
36C
100
AcDbEntity
  8
KEIKAKU
 62
     2
100
AcDbText
 10
2373.471555399985
 20
747.5000040224113
 30
0.0
 40
30.0
  1
400
 41
0.675
 72
     2
 11
2415.000000281875
 21
762.5000040224112
 31
0.0
100
AcDbText
 73
     2
  0
TEXT
  5
3E5
330
36C
100
AcDbEntity
  8
KEIKAKU
 62
     2
100
AcDbText
 10
2581.087500281875
 20
587.5000040224112
 30
0.0
 40
30.0
  1
0.0038
 41
0.675
 72
     2
 11
2655.000000281874
 21
602.5000040224113
 31
0.0
100
AcDbText
 73
     2
  0
TEXT
  5
3E6
330
36C
100
AcDbEntity
  8
KEIKAKU
 62
     2
100
AcDbText
 10
2593.221555399985
 20
507.5000040224113
 30
0.0
 40
30.0
  1
0.240
 41
0.675
 72
     2
 11
2655.000000281874
 21
522.5000040224113
 31
0.0
100
AcDbText
 73
     2
  0
TEXT
  5
3E7
330
36C
100
AcDbEntity
  8
KEIKAKU
 62
     2
100
AcDbText
 10
2594.423717818069
 20
427.5000040224113
 30
0.0
 40
30.0
  1
0.385
 41
0.675
 72
     2
 11
2655.000000281874
 21
442.5000040224112
 31
0.0
100
AcDbText
 73
     2
  0
TEXT
  5
3E8
330
36C
100
AcDbEntity
  8
KEIKAKU
 62
     2
100
AcDbText
 10
2588.848717818069
 20
667.5000040224112
 30
0.0
 40
30.0
  1
75
 41
0.675
 72
     2
 11
2615.000000281874
 21
682.5000040224113
 31
0.0
100
AcDbText
 73
     2
  0
TEXT
  5
3E9
330
36C
100
AcDbEntity
  8
KEIKAKU
 62
     2
100
AcDbText
 10
2575.496555399985
 20
747.5000040224113
 30
0.0
 40
30.0
  1
500
 41
0.675
 72
     2
 11
2615.000000281874
 21
762.5000040224112
 31
0.0
100
AcDbText
 73
     2
  0
TEXT
  5
3EA
330
36C
100
AcDbEntity
  8
KEIKAKU
 62
     2
100
AcDbText
 10
2335.000000281874
 20
907.5000040224113
 30
0.0
 40
30.0
  1
300×400
 41
0.675
 11
2335.000000281874
 21
922.5000040224113
 31
0.0
100
AcDbText
 73
     2
  0
TEXT
  5
3EB
330
36C
100
AcDbEntity
  8
KEIKAKU
 62
     2
100
AcDbText
 10
2135.000000281874
 20
907.5000040224113
 30
0.0
 40
30.0
  1
300×300
 41
0.675
 11
2135.000000281874
 21
922.5000040224113
 31
0.0
100
AcDbText
 73
     2
  0
TEXT
  5
3EC
330
36C
100
AcDbEntity
  8
KEIKAKU
 62
     2
100
AcDbText
 10
2535.000000281874
 20
907.5000040224113
 30
0.0
 40
30.0
  1
300×500
 41
0.675
 11
2535.000000281874
 21
922.5000040224113
 31
0.0
100
AcDbText
 73
     2
  0
TEXT
  5
3ED
330
36C
100
AcDbEntity
  8
KEIKAKU
 62
     2
100
AcDbText
 10
2975.496555399985
 20
827.5000040224112
 30
0.0
 40
30.0
  1
300
 41
0.675
 72
     2
 11
3015.000000281875
 21
842.5000040224112
 31
0.0
100
AcDbText
 73
     2
  0
TEXT
  5
3EE
330
36C
100
AcDbEntity
  8
KEIKAKU
 62
     2
100
AcDbText
 10
2985.137500281874
 20
587.5000040224112
 30
0.0
 40
30.0
  1
0.0051
 41
0.675
 72
     2
 11
3055.000000281874
 21
602.5000040224113
 31
0.0
100
AcDbText
 73
     2
  0
TEXT
  5
3EF
330
36C
100
AcDbEntity
  8
KEIKAKU
 62
     2
100
AcDbText
 10
2994.423717818069
 20
427.5000040224113
 30
0.0
 40
30.0
  1
0.385
 41
0.675
 72
     2
 11
3055.000000281874
 21
442.5000040224112
 31
0.0
100
AcDbText
 73
     2
  0
TEXT
  5
3F0
330
36C
100
AcDbEntity
  8
KEIKAKU
 62
     2
100
AcDbText
 10
2993.221555399985
 20
507.5000040224113
 30
0.0
 40
30.0
  1
0.240
 41
0.675
 72
     2
 11
3055.000000281874
 21
522.5000040224113
 31
0.0
100
AcDbText
 73
     2
  0
TEXT
  5
3F1
330
36C
100
AcDbEntity
  8
KEIKAKU
 62
     2
100
AcDbText
 10
2988.848717818069
 20
667.5000040224112
 30
0.0
 40
30.0
  1
85
 41
0.675
 72
     2
 11
3015.000000281875
 21
682.5000040224113
 31
0.0
100
AcDbText
 73
     2
  0
TEXT
  5
3F2
330
36C
100
AcDbEntity
  8
KEIKAKU
 62
     2
100
AcDbText
 10
2975.496555399985
 20
747.5000040224113
 30
0.0
 40
30.0
  1
700
 41
0.675
 72
     2
 11
3015.000000281875
 21
762.5000040224112
 31
0.0
100
AcDbText
 73
     2
  0
TEXT
  5
3F3
330
36C
100
AcDbEntity
  8
KEIKAKU
 62
     2
100
AcDbText
 10
2935.000000281874
 20
907.5000040224113
 30
0.0
 40
30.0
  1
300×700
 41
0.675
 11
2935.000000281874
 21
922.5000040224113
 31
0.0
100
AcDbText
 73
     2
  0
TEXT
  5
3F4
330
36C
100
AcDbEntity
  8
KEIKAKU
 62
     2
100
AcDbText
 10
2951.833128532875
 20
1000.094021018316
 30
0.0
 40
30.0
  1
10m当
 41
0.675
100
AcDbText
  0
ENDBLK
  5
3F6
330
36C
100
AcDbEntity
  8
0
100
AcDbBlockEnd
  0
BLOCK
  5
2A9A
330
2A96
100
AcDbEntity
  8
0
100
AcDbBlockBegin
  2
_Open
 70
     0
 10
0.0
 20
0.0
 30
0.0
  3
_Open
  1

  0
LINE
  5
2A97
330
2A96
100
AcDbEntity
  8
0
 62
     0
370
    -2
100
AcDbLine
 10
-1.0
 20
0.1666666666666666
 30
0.0
 11
0.0
 21
0.0
 31
0.0
  0
LINE
  5
2A98
330
2A96
100
AcDbEntity
  8
0
 62
     0
370
    -2
100
AcDbLine
 10
-1.0
 20
-0.1666666666666666
 30
0.0
 11
0.0
 21
0.0
 31
0.0
  0
LINE
  5
2A99
330
2A96
100
AcDbEntity
  8
0
 62
     0
370
    -2
100
AcDbLine
 10
0.0
 20
0.0
 30
0.0
 11
-1.0
 21
0.0
 31
0.0
  0
ENDBLK
  5
2A9B
330
2A96
100
AcDbEntity
  8
0
100
AcDbBlockEnd
  0
BLOCK
  5
2AA1
330
2A9C
100
AcDbEntity
  8
0
100
AcDbBlockBegin
  2
_Closed
 70
     0
 10
0.0
 20
0.0
 30
0.0
  3
_Closed
  1

  0
LINE
  5
2A9D
330
2A9C
100
AcDbEntity
  8
0
 62
     0
370
    -2
100
AcDbLine
 10
-1.0
 20
0.1666666666666666
 30
0.0
 11
0.0
 21
0.0
 31
0.0
  0
LINE
  5
2A9E
330
2A9C
100
AcDbEntity
  8
0
 62
     0
370
    -2
100
AcDbLine
 10
0.0
 20
0.0
 30
0.0
 11
-1.0
 21
-0.1666666666666666
 31
0.0
  0
LINE
  5
2A9F
330
2A9C
100
AcDbEntity
  8
0
 62
     0
370
    -2
100
AcDbLine
 10
-1.0
 20
0.1666666666666666
 30
0.0
 11
-1.0
 21
-0.1666666666666666
 31
0.0
  0
LINE
  5
2AA0
330
2A9C
100
AcDbEntity
  8
0
 62
     0
370
    -2
100
AcDbLine
 10
0.0
 20
0.0
 30
0.0
 11
-1.0
 21
0.0
 31
0.0
  0
ENDBLK
  5
2AA2
330
2A9C
100
AcDbEntity
  8
0
100
AcDbBlockEnd
  0
BLOCK
  5
2BF3
330
2BEF
100
AcDbEntity
  8
0
100
AcDbBlockBegin
  2
ARROW
 70
     0
 10
0.0
 20
0.0
 30
0.0
  3
ARROW
  1

  0
LINE
  5
2BF0
330
2BEF
100
AcDbEntity
  8
0
100
AcDbLine
 10
-0.9999999999999992
 20
0.1666666667000003
 30
0.0
 11
0.0
 21
0.0
 31
0.0
  0
LINE
  5
2BF1
330
2BEF
100
AcDbEntity
  8
0
100
AcDbLine
 10
-0.9999999999999992
 20
0.0
 30
0.0
 11
0.0
 21
0.0
 31
0.0
  0
LINE
  5
2BF2
330
2BEF
100
AcDbEntity
  8
0
100
AcDbLine
 10
-0.9999999999999992
 20
-0.1666666667000003
 30
0.0
 11
0.0
 21
0.0
 31
0.0
  0
ENDBLK
  5
2BF4
330
2BEF
100
AcDbEntity
  8
0
100
AcDbBlockEnd
  0
BLOCK
  5
32C6
330
32BC
100
AcDbEntity
  8
0
100
AcDbBlockBegin
  2
*D17
 70
     1
 10
0.0
 20
0.0
 30
0.0
  3
*D17
  1

  0
LINE
  5
4085
330
32BC
100
AcDbEntity
  8
sunpou
 48
3.0
100
AcDbLine
 10
1962.722914565646
 20
2241.833700545269
 30
0.0
 11
2155.225163363766
 21
2241.833700545269
 31
0.0
  0
LINE
  5
4086
330
32BC
100
AcDbEntity
  8
sunpou
 48
3.0
100
AcDbLine
 10
1962.722914565651
 20
1441.833700545269
 30
0.0
 11
2155.225163363766
 21
1441.833700545269
 31
0.0
  0
LINE
  5
4087
330
32BC
100
AcDbEntity
  8
sunpou
 48
3.0
100
AcDbLine
 10
2142.725163363766
 20
2216.83370054527
 30
0.0
 11
2142.725163363766
 21
1466.833700545269
 31
0.0
  0
INSERT
  5
4088
330
32BC
100
AcDbEntity
  8
sunpou
 48
3.0
100
AcDbBlockReference
  2
_Open
 10
2142.725163363766
 20
2241.833700545269
 30
0.0
 41
25.0
 42
25.0
 43
25.0
 50
90.0
  0
INSERT
  5
4089
330
32BC
100
AcDbEntity
  8
sunpou
 48
3.0
100
AcDbBlockReference
  2
_Open
 10
2142.725163363766
 20
1441.833700545269
 30
0.0
 41
25.0
 42
25.0
 43
25.0
 50
270.0
  0
MTEXT
  5
408A
330
32BC
100
AcDbEntity
  8
sunpou
 48
3.0
100
AcDbMText
 10
2121.475163363765
 20
1861.123027856489
 30
0.0
 40
30.0
 41
0.0
 71
     5
 72
     1
  1
\A1;800
  7
BIGFONT
 11
0.0000000000000001
 21
1.0
 31
0.0
 73
     1
 44
1.0
  0
POINT
  5
408B
330
32BC
100
AcDbEntity
  8
DEFPOINTS
 62
     0
 48
3.0
100
AcDbPoint
 10
1956.472914565646
 20
2241.833700545269
 30
0.0
  0
POINT
  5
408C
330
32BC
100
AcDbEntity
  8
DEFPOINTS
 62
     0
 48
3.0
100
AcDbPoint
 10
1956.472914565651
 20
1441.833700545269
 30
0.0
  0
POINT
  5
408D
330
32BC
100
AcDbEntity
  8
DEFPOINTS
 62
     0
 48
3.0
100
AcDbPoint
 10
2142.725163363766
 20
1441.833700545269
 30
0.0
  0
ENDBLK
  5
32C7
330
32BC
100
AcDbEntity
  8
0
100
AcDbBlockEnd
  0
BLOCK
  5
32D1
330
32C8
100
AcDbEntity
  8
0
100
AcDbBlockBegin
  2
*D18
 70
     1
 10
0.0
 20
0.0
 30
0.0
  3
*D18
  1

  0
LINE
  5
408E
330
32C8
100
AcDbEntity
  8
sunpou
 48
3.0
100
AcDbLine
 10
1972.722914565649
 20
1804.348378690987
 30
0.0
 11
2071.288003101706
 21
1804.348378690987
 31
0.0
  0
LINE
  5
408F
330
32C8
100
AcDbEntity
  8
sunpou
 48
3.0
100
AcDbLine
 10
1962.722914565651
 20
1491.833700545269
 30
0.0
 11
2071.288003101706
 21
1491.833700545269
 31
0.0
  0
LINE
  5
4090
330
32C8
100
AcDbEntity
  8
sunpou
 48
3.0
100
AcDbLine
 10
2058.788003101706
 20
1779.348378690987
 30
0.0
 11
2058.788003101706
 21
1516.833700545269
 31
0.0
  0
INSERT
  5
4091
330
32C8
100
AcDbEntity
  8
sunpou
 48
3.0
100
AcDbBlockReference
  2
_Open
 10
2058.788003101706
 20
1804.348378690987
 30
0.0
 41
25.0
 42
25.0
 43
25.0
 50
90.0
  0
INSERT
  5
4092
330
32C8
100
AcDbEntity
  8
sunpou
 48
3.0
100
AcDbBlockReference
  2
_Open
 10
2058.788003101706
 20
1491.833700545269
 30
0.0
 41
25.0
 42
25.0
 43
25.0
 50
270.0
  0
MTEXT
  5
4093
330
32C8
100
AcDbEntity
  8
sunpou
 48
3.0
100
AcDbMText
 10
2037.538003101705
 20
1648.091039618129
 30
0.0
 40
30.0
 41
0.0
 71
     5
 72
     1
  1
\A1;313
  7
BIGFONT
 11
0.0000000000000001
 21
1.0
 31
0.0
 73
     1
 44
1.0
  0
POINT
  5
4094
330
32C8
100
AcDbEntity
  8
DEFPOINTS
 62
     0
 48
3.0
100
AcDbPoint
 10
1966.472914565649
 20
1804.348378690987
 30
0.0
  0
POINT
  5
4095
330
32C8
100
AcDbEntity
  8
DEFPOINTS
 62
     0
 48
3.0
100
AcDbPoint
 10
1956.472914565651
 20
1491.833700545269
 30
0.0
  0
POINT
  5
4096
330
32C8
100
AcDbEntity
  8
DEFPOINTS
 62
     0
 48
3.0
100
AcDbPoint
 10
2058.788003101706
 20
1491.833700545269
 30
0.0
  0
ENDBLK
  5
32D2
330
32C8
100
AcDbEntity
  8
0
100
AcDbBlockEnd
  0
BLOCK
  5
32DD
330
32D3
100
AcDbEntity
  8
0
100
AcDbBlockBegin
  2
*D19
 70
     1
 10
0.0
 20
0.0
 30
0.0
  3
*D19
  1

  0
LINE
  5
4097
330
32D3
100
AcDbEntity
  8
sunpou
 48
3.0
100
AcDbLine
 10
1956.472914565651
 20
1398.808005535274
 30
0.0
 11
1956.472914565651
 21
1202.326086781094
 31
0.0
  0
LINE
  5
4098
330
32D3
100
AcDbEntity
  8
sunpou
 48
3.0
100
AcDbLine
 10
1206.472914565651
 20
1398.808005535274
 30
0.0
 11
1206.472914565651
 21
1202.326086781094
 31
0.0
  0
LINE
  5
4099
330
32D3
100
AcDbEntity
  8
sunpou
 48
3.0
100
AcDbLine
 10
1931.472914565651
 20
1214.826086781094
 30
0.0
 11
1231.472914565651
 21
1214.826086781094
 31
0.0
  0
INSERT
  5
409A
330
32D3
100
AcDbEntity
  8
sunpou
 48
3.0
100
AcDbBlockReference
  2
_Open
 10
1956.472914565651
 20
1214.826086781094
 30
0.0
 41
25.0
 42
25.0
 43
25.0
  0
INSERT
  5
409B
330
32D3
100
AcDbEntity
  8
sunpou
 48
3.0
100
AcDbBlockReference
  2
_Open
 10
1206.472914565651
 20
1214.826086781094
 30
0.0
 41
25.0
 42
25.0
 43
25.0
 50
180.0
  0
MTEXT
  5
409C
330
32D3
100
AcDbEntity
  8
sunpou
 48
3.0
100
AcDbMText
 10
1589.553173444353
 20
1236.076086781094
 30
0.0
 40
30.0
 41
0.0
 71
     5
 72
     1
  1
\A1;750
  7
BIGFONT
 73
     1
 44
1.0
  0
POINT
  5
409D
330
32D3
100
AcDbEntity
  8
DEFPOINTS
 62
     0
 48
3.0
100
AcDbPoint
 10
1956.472914565651
 20
1405.058005535274
 30
0.0
  0
POINT
  5
409E
330
32D3
100
AcDbEntity
  8
DEFPOINTS
 62
     0
 48
3.0
100
AcDbPoint
 10
1206.472914565651
 20
1405.058005535274
 30
0.0
  0
POINT
  5
409F
330
32D3
100
AcDbEntity
  8
DEFPOINTS
 62
     0
 48
3.0
100
AcDbPoint
 10
1206.472914565651
 20
1214.826086781094
 30
0.0
  0
ENDBLK
  5
32DE
330
32D3
100
AcDbEntity
  8
0
100
AcDbBlockEnd
  0
BLOCK
  5
32E8
330
32DF
100
AcDbEntity
  8
0
100
AcDbBlockBegin
  2
*D20
 70
     1
 10
0.0
 20
0.0
 30
0.0
  3
*D20
  1

  0
LINE
  5
40A0
330
32DF
100
AcDbEntity
  8
sunpou
 48
3.0
100
AcDbLine
 10
1962.722914565651
 20
1491.833700545269
 30
0.0
 11
2071.288003101706
 21
1491.833700545269
 31
0.0
  0
LINE
  5
40A1
330
32DF
100
AcDbEntity
  8
sunpou
 48
3.0
100
AcDbLine
 10
1962.722914565651
 20
1441.833700545269
 30
0.0
 11
2071.288003101706
 21
1441.833700545269
 31
0.0
  0
LINE
  5
40A2
330
32DF
100
AcDbEntity
  8
sunpou
 48
3.0
100
AcDbLine
 10
2058.788003101706
 20
1516.833700545269
 30
0.0
 11
2058.788003101706
 21
1541.833700545269
 31
0.0
  0
LINE
  5
40A3
330
32DF
100
AcDbEntity
  8
sunpou
 48
3.0
100
AcDbLine
 10
2058.788003101706
 20
1416.833700545269
 30
0.0
 11
2058.788003101706
 21
1330.762271973841
 31
0.0
  0
LINE
  5
40A4
330
32DF
100
AcDbEntity
  8
sunpou
 48
3.0
100
AcDbLine
 10
2058.788003101706
 20
1491.833700545269
 30
0.0
 11
2058.788003101706
 21
1441.833700545269
 31
0.0
  0
INSERT
  5
40A5
330
32DF
100
AcDbEntity
  8
sunpou
 48
3.0
100
AcDbBlockReference
  2
_Open
 10
2058.788003101706
 20
1491.833700545269
 30
0.0
 41
25.0
 42
25.0
 43
25.0
 50
270.0
  0
INSERT
  5
40A6
330
32DF
100
AcDbEntity
  8
sunpou
 48
3.0
100
AcDbBlockReference
  2
_Open
 10
2058.788003101706
 20
1441.833700545269
 30
0.0
 41
25.0
 42
25.0
 43
25.0
 50
90.0
  0
MTEXT
  5
40A7
330
32DF
100
AcDbEntity
  8
sunpou
 48
3.0
100
AcDbMText
 10
2037.538003101705
 20
1361.297986259555
 30
0.0
 40
30.0
 41
0.0
 71
     5
 72
     1
  1
\A1;50
  7
BIGFONT
 11
0.0000000000000001
 21
1.0
 31
0.0
 73
     1
 44
1.0
  0
POINT
  5
40A8
330
32DF
100
AcDbEntity
  8
DEFPOINTS
 62
     0
 48
3.0
100
AcDbPoint
 10
1956.472914565651
 20
1491.833700545269
 30
0.0
  0
POINT
  5
40A9
330
32DF
100
AcDbEntity
  8
DEFPOINTS
 62
     0
 48
3.0
100
AcDbPoint
 10
1956.472914565651
 20
1441.833700545269
 30
0.0
  0
POINT
  5
40AA
330
32DF
100
AcDbEntity
  8
DEFPOINTS
 62
     0
 48
3.0
100
AcDbPoint
 10
2058.788003101706
 20
1441.833700545269
 30
0.0
  0
ENDBLK
  5
32E9
330
32DF
100
AcDbEntity
  8
0
100
AcDbBlockEnd
  0
BLOCK
  5
32F4
330
32EA
100
AcDbEntity
  8
0
100
AcDbBlockBegin
  2
*D21
 70
     1
 10
0.0
 20
0.0
 30
0.0
  3
*D21
  1

  0
LINE
  5
40AB
330
32EA
100
AcDbEntity
  8
sunpou
 48
3.0
100
AcDbLine
 10
1891.474038964705
 20
2391.833700545269
 30
0.0
 11
2155.039127500765
 21
2391.833700545269
 31
0.0
  0
LINE
  5
40AC
330
32EA
100
AcDbEntity
  8
sunpou
 48
3.0
100
AcDbLine
 10
2046.474038964706
 20
2241.833700545269
 30
0.0
 11
2155.039127500765
 21
2241.833700545269
 31
0.0
  0
LINE
  5
40AD
330
32EA
100
AcDbEntity
  8
sunpou
 48
3.0
100
AcDbLine
 10
2142.539127500766
 20
2366.833700545269
 30
0.0
 11
2142.539127500766
 21
2266.833700545269
 31
0.0
  0
INSERT
  5
40AE
330
32EA
100
AcDbEntity
  8
sunpou
 48
3.0
100
AcDbBlockReference
  2
_Open
 10
2142.539127500766
 20
2391.833700545269
 30
0.0
 41
25.0
 42
25.0
 43
25.0
 50
90.0
  0
INSERT
  5
40AF
330
32EA
100
AcDbEntity
  8
sunpou
 48
3.0
100
AcDbBlockReference
  2
_Open
 10
2142.539127500766
 20
2241.833700545269
 30
0.0
 41
25.0
 42
25.0
 43
25.0
 50
270.0
  0
MTEXT
  5
40B0
330
32EA
100
AcDbEntity
  8
sunpou
 48
3.0
100
AcDbMText
 10
2121.289127500765
 20
2315.209166768758
 30
0.0
 40
30.0
 41
0.0
 71
     5
 72
     1
  1
\A1;150
  7
BIGFONT
 11
0.0000000000000001
 21
1.0
 31
0.0
 73
     1
 44
1.0
  0
POINT
  5
40B1
330
32EA
100
AcDbEntity
  8
DEFPOINTS
 62
     0
 48
3.0
100
AcDbPoint
 10
1885.224038964706
 20
2391.833700545269
 30
0.0
  0
POINT
  5
40B2
330
32EA
100
AcDbEntity
  8
DEFPOINTS
 62
     0
 48
3.0
100
AcDbPoint
 10
2040.224038964706
 20
2241.833700545269
 30
0.0
  0
POINT
  5
40B3
330
32EA
100
AcDbEntity
  8
DEFPOINTS
 62
     0
 48
3.0
100
AcDbPoint
 10
2142.539127500766
 20
2241.833700545269
 30
0.0
  0
ENDBLK
  5
32F5
330
32EA
100
AcDbEntity
  8
0
100
AcDbBlockEnd
  0
BLOCK
  5
346B
330
3461
100
AcDbEntity
  8
0
100
AcDbBlockBegin
  2
*D22
 70
     1
 10
0.0
 20
0.0
 30
0.0
  3
*D22
  1

  0
LINE
  5
40B4
330
3461
100
AcDbEntity
  8
sunpou
 48
3.0
100
AcDbLine
 10
1972.722914565648
 20
1904.348378690988
 30
0.0
 11
2071.288003101706
 21
1904.348378690988
 31
0.0
  0
LINE
  5
40B5
330
3461
100
AcDbEntity
  8
sunpou
 48
3.0
100
AcDbLine
 10
1978.972914565649
 20
1804.348378690987
 30
0.0
 11
2071.288003101706
 21
1804.348378690987
 31
0.0
  0
LINE
  5
40B6
330
3461
100
AcDbEntity
  8
sunpou
 48
3.0
100
AcDbLine
 10
2058.788003101706
 20
1879.348378690988
 30
0.0
 11
2058.788003101706
 21
1829.348378690987
 31
0.0
  0
INSERT
  5
40B7
330
3461
100
AcDbEntity
  8
sunpou
 48
3.0
100
AcDbBlockReference
  2
_Open
 10
2058.788003101706
 20
1904.348378690988
 30
0.0
 41
25.0
 42
25.0
 43
25.0
 50
90.0
  0
INSERT
  5
40B8
330
3461
100
AcDbEntity
  8
sunpou
 48
3.0
100
AcDbBlockReference
  2
_Open
 10
2058.788003101706
 20
1804.348378690987
 30
0.0
 41
25.0
 42
25.0
 43
25.0
 50
270.0
  0
MTEXT
  5
40B9
330
3461
100
AcDbEntity
  8
sunpou
 48
3.0
100
AcDbMText
 10
2037.538003101705
 20
1854.348378690988
 30
0.0
 40
30.0
 41
0.0
 71
     5
 72
     1
  1
\A1;100
  7
BIGFONT
 11
0.0000000000000001
 21
1.0
 31
0.0
 73
     1
 44
1.0
  0
POINT
  5
40BA
330
3461
100
AcDbEntity
  8
DEFPOINTS
 62
     0
 48
3.0
100
AcDbPoint
 10
1966.472914565648
 20
1904.348378690988
 30
0.0
  0
POINT
  5
40BB
330
3461
100
AcDbEntity
  8
DEFPOINTS
 62
     0
 48
3.0
100
AcDbPoint
 10
1972.722914565649
 20
1804.348378690987
 30
0.0
  0
POINT
  5
40BC
330
3461
100
AcDbEntity
  8
DEFPOINTS
 62
     0
 48
3.0
100
AcDbPoint
 10
2058.788003101706
 20
1804.348378690987
 30
0.0
  0
ENDBLK
  5
346C
330
3461
100
AcDbEntity
  8
0
100
AcDbBlockEnd
  0
BLOCK
  5
3493
330
3489
100
AcDbEntity
  8
0
100
AcDbBlockBegin
  2
*D23
 70
     1
 10
0.0
 20
0.0
 30
0.0
  3
*D23
  1

  0
LINE
  5
40BD
330
3489
100
AcDbEntity
  8
sunpou
 48
3.0
100
AcDbLine
 10
1972.722914565646
 20
2241.833700545269
 30
0.0
 11
2071.288003101705
 21
2241.833700545269
 31
0.0
  0
LINE
  5
40BE
330
3489
100
AcDbEntity
  8
sunpou
 48
3.0
100
AcDbLine
 10
1978.972914565648
 20
1904.348378690988
 30
0.0
 11
2071.288003101705
 21
1904.348378690988
 31
0.0
  0
LINE
  5
40BF
330
3489
100
AcDbEntity
  8
sunpou
 48
3.0
100
AcDbLine
 10
2058.788003101705
 20
2216.83370054527
 30
0.0
 11
2058.788003101705
 21
1929.348378690988
 31
0.0
  0
INSERT
  5
40C0
330
3489
100
AcDbEntity
  8
sunpou
 48
3.0
100
AcDbBlockReference
  2
_Open
 10
2058.788003101705
 20
2241.833700545269
 30
0.0
 41
25.0
 42
25.0
 43
25.0
 50
90.0
  0
INSERT
  5
40C1
330
3489
100
AcDbEntity
  8
sunpou
 48
3.0
100
AcDbBlockReference
  2
_Open
 10
2058.788003101705
 20
1904.348378690988
 30
0.0
 41
25.0
 42
25.0
 43
25.0
 50
270.0
  0
MTEXT
  5
40C2
330
3489
100
AcDbEntity
  8
sunpou
 48
3.0
100
AcDbMText
 10
2037.538003101705
 20
2073.091039618129
 30
0.0
 40
30.0
 41
0.0
 71
     5
 72
     1
  1
\A1;337
  7
BIGFONT
 11
0.0000000000000001
 21
1.0
 31
0.0
 73
     1
 44
1.0
  0
POINT
  5
40C3
330
3489
100
AcDbEntity
  8
DEFPOINTS
 62
     0
 48
3.0
100
AcDbPoint
 10
1966.472914565646
 20
2241.833700545269
 30
0.0
  0
POINT
  5
40C4
330
3489
100
AcDbEntity
  8
DEFPOINTS
 62
     0
 48
3.0
100
AcDbPoint
 10
1972.722914565648
 20
1904.348378690988
 30
0.0
  0
POINT
  5
40C5
330
3489
100
AcDbEntity
  8
DEFPOINTS
 62
     0
 48
3.0
100
AcDbPoint
 10
2058.788003101705
 20
1904.348378690988
 30
0.0
  0
ENDBLK
  5
3494
330
3489
100
AcDbEntity
  8
0
100
AcDbBlockEnd
  0
BLOCK
  5
34B2
330
34A8
100
AcDbEntity
  8
0
100
AcDbBlockBegin
  2
*D24
 70
     1
 10
0.0
 20
0.0
 30
0.0
  3
*D24
  1

  0
LINE
  5
40C6
330
34A8
100
AcDbEntity
  8
sunpou
100
AcDbLine
 10
1351.472914565647
 20
2388.083700545269
 30
0.0
 11
1351.472914565647
 21
2480.410312408525
 31
0.0
  0
LINE
  5
40C7
330
34A8
100
AcDbEntity
  8
sunpou
100
AcDbLine
 10
1811.472914565646
 20
2388.083700545269
 30
0.0
 11
1811.472914565646
 21
2480.410312408525
 31
0.0
  0
LINE
  5
40C8
330
34A8
100
AcDbEntity
  8
sunpou
100
AcDbLine
 10
1376.472914565647
 20
2467.910312408525
 30
0.0
 11
1786.472914565646
 21
2467.910312408525
 31
0.0
  0
INSERT
  5
40C9
330
34A8
100
AcDbEntity
  8
sunpou
100
AcDbBlockReference
  2
_Open
 10
1351.472914565647
 20
2467.910312408525
 30
0.0
 41
25.0
 42
25.0
 43
25.0
 50
180.0
  0
INSERT
  5
40CA
330
34A8
100
AcDbEntity
  8
sunpou
100
AcDbBlockReference
  2
_Open
 10
1811.472914565646
 20
2467.910312408525
 30
0.0
 41
25.0
 42
25.0
 43
25.0
  0
MTEXT
  5
40CB
330
34A8
100
AcDbEntity
  8
sunpou
100
AcDbMText
 10
1575.269667422399
 20
2489.160312408525
 30
0.0
 40
30.0
 41
0.0
 71
     5
 72
     1
  1
\A1;460
  7
BIGFONT
 73
     1
 44
1.0
  0
POINT
  5
40CC
330
34A8
100
AcDbEntity
  8
DEFPOINTS
 62
     0
100
AcDbPoint
 10
1351.472914565647
 20
2381.83370054527
 30
0.0
  0
POINT
  5
40CD
330
34A8
100
AcDbEntity
  8
DEFPOINTS
 62
     0
100
AcDbPoint
 10
1811.472914565646
 20
2381.83370054527
 30
0.0
  0
POINT
  5
40CE
330
34A8
100
AcDbEntity
  8
DEFPOINTS
 62
     0
100
AcDbPoint
 10
1811.472914565646
 20
2467.910312408525
 30
0.0
  0
ENDBLK
  5
34B3
330
34A8
100
AcDbEntity
  8
0
100
AcDbBlockEnd
  0
BLOCK
  5
34BF
330
34B5
100
AcDbEntity
  8
0
100
AcDbBlockBegin
  2
*D25
 70
     1
 10
0.0
 20
0.0
 30
0.0
  3
*D25
  1

  0
LINE
  5
40CF
330
34B5
100
AcDbEntity
  8
sunpou
100
AcDbLine
 10
1434.428118319656
 20
2238.994303610811
 30
0.0
 11
1434.428118319656
 21
2224.729424022047
 31
0.0
  0
LINE
  5
40D0
330
34B5
100
AcDbEntity
  8
sunpou
100
AcDbLine
 10
1728.517710811638
 20
2238.99430361081
 30
0.0
 11
1728.517710811638
 21
2224.729424022047
 31
0.0
  0
LINE
  5
40D1
330
34B5
100
AcDbEntity
  8
sunpou
100
AcDbLine
 10
1459.428118319656
 20
2237.229424022047
 30
0.0
 11
1703.517710811638
 21
2237.229424022047
 31
0.0
  0
INSERT
  5
40D2
330
34B5
100
AcDbEntity
  8
sunpou
100
AcDbBlockReference
  2
_Open
 10
1434.428118319656
 20
2237.229424022047
 30
0.0
 41
25.0
 42
25.0
 43
25.0
 50
180.0
  0
INSERT
  5
40D3
330
34B5
100
AcDbEntity
  8
sunpou
100
AcDbBlockReference
  2
_Open
 10
1728.517710811638
 20
2237.229424022047
 30
0.0
 41
25.0
 42
25.0
 43
25.0
  0
MTEXT
  5
40D4
330
34B5
100
AcDbEntity
  8
sunpou
100
AcDbMText
 10
1589.266959960094
 20
2258.479424022047
 30
0.0
 40
30.0
 41
0.0
 71
     5
 72
     1
  1
\A1;294
  7
BIGFONT
 73
     1
 44
1.0
  0
POINT
  5
40D5
330
34B5
100
AcDbEntity
  8
DEFPOINTS
 62
     0
100
AcDbPoint
 10
1434.428118319656
 20
2245.244303610811
 30
0.0
  0
POINT
  5
40D6
330
34B5
100
AcDbEntity
  8
DEFPOINTS
 62
     0
100
AcDbPoint
 10
1728.517710811638
 20
2245.24430361081
 30
0.0
  0
POINT
  5
40D7
330
34B5
100
AcDbEntity
  8
DEFPOINTS
 62
     0
100
AcDbPoint
 10
1728.517710811638
 20
2237.229424022047
 30
0.0
  0
ENDBLK
  5
34C0
330
34B5
100
AcDbEntity
  8
0
100
AcDbBlockEnd
  0
BLOCK
  5
34D0
330
34C4
100
AcDbEntity
  8
0
100
AcDbBlockBegin
  2
*D26
 70
     1
 10
0.0
 20
0.0
 30
0.0
  3
*D26
  1

  0
LINE
  5
40D8
330
34C4
100
AcDbEntity
  8
sunpou
100
AcDbLine
 10
1590.298158068517
 20
2391.833700545269
 30
0.0
 11
1680.501731716613
 21
2391.833700545269
 31
0.0
  0
LINE
  5
40D9
330
34C4
100
AcDbEntity
  8
sunpou
100
AcDbLine
 10
1587.722914565646
 20
2304.348378690988
 30
0.0
 11
1680.501731716613
 21
2304.348378690988
 31
0.0
  0
LINE
  5
40DA
330
34C4
100
AcDbEntity
  8
sunpou
100
AcDbLine
 10
1668.001731716613
 20
2366.833700545269
 30
0.0
 11
1668.001731716613
 21
2329.348378690989
 31
0.0
  0
INSERT
  5
40DB
330
34C4
100
AcDbEntity
  8
sunpou
100
AcDbBlockReference
  2
_Open
 10
1668.001731716613
 20
2391.833700545269
 30
0.0
 41
25.0
 42
25.0
 43
25.0
 50
90.0
  0
INSERT
  5
40DC
330
34C4
100
AcDbEntity
  8
sunpou
100
AcDbBlockReference
  2
_Open
 10
1668.001731716613
 20
2304.348378690988
 30
0.0
 41
25.0
 42
25.0
 43
25.0
 50
270.0
  0
MTEXT
  5
40DD
330
34C4
100
AcDbEntity
  8
sunpou
100
AcDbMText
 10
1646.751731716613
 20
2347.327117627113
 30
0.0
 40
30.0
 41
0.0
 71
     5
 72
     1
  1
\A1;87
  7
BIGFONT
 11
0.0000000000000001
 21
1.0
 31
0.0
 73
     1
 44
1.0
  0
POINT
  5
40DE
330
34C4
100
AcDbEntity
  8
DEFPOINTS
 62
     0
100
AcDbPoint
 10
1584.048158068517
 20
2391.833700545269
 30
0.0
  0
POINT
  5
40DF
330
34C4
100
AcDbEntity
  8
DEFPOINTS
 62
     0
100
AcDbPoint
 10
1581.472914565646
 20
2304.348378690988
 30
0.0
  0
POINT
  5
40E0
330
34C4
100
AcDbEntity
  8
DEFPOINTS
 62
     0
100
AcDbPoint
 10
1668.001731716613
 20
2304.348378690988
 30
0.0
  0
ENDBLK
  5
34D1
330
34C4
100
AcDbEntity
  8
0
100
AcDbBlockEnd
  0
BLOCK
  5
34DD
330
34D3
100
AcDbEntity
  8
0
100
AcDbBlockBegin
  2
*D27
 70
     1
 10
0.0
 20
0.0
 30
0.0
  3
*D27
  1

  0
LINE
  5
40E1
330
34D3
100
AcDbEntity
  8
sunpou
100
AcDbLine
 10
1587.722914565646
 20
2304.348378690988
 30
0.0
 11
1680.501731716614
 21
2304.348378690988
 31
0.0
  0
LINE
  5
40E2
330
34D3
100
AcDbEntity
  8
sunpou
100
AcDbLine
 10
1587.722914565648
 20
1974.348378690988
 30
0.0
 11
1680.501731716614
 21
1974.348378690988
 31
0.0
  0
LINE
  5
40E3
330
34D3
100
AcDbEntity
  8
sunpou
100
AcDbLine
 10
1668.001731716614
 20
2279.348378690988
 30
0.0
 11
1668.001731716614
 21
1999.348378690988
 31
0.0
  0
INSERT
  5
40E4
330
34D3
100
AcDbEntity
  8
sunpou
100
AcDbBlockReference
  2
_Open
 10
1668.001731716614
 20
2304.348378690988
 30
0.0
 41
25.0
 42
25.0
 43
25.0
 50
90.0
  0
INSERT
  5
40E5
330
34D3
100
AcDbEntity
  8
sunpou
100
AcDbBlockReference
  2
_Open
 10
1668.001731716614
 20
1974.348378690988
 30
0.0
 41
25.0
 42
25.0
 43
25.0
 50
270.0
  0
MTEXT
  5
40E6
330
34D3
100
AcDbEntity
  8
sunpou
100
AcDbMText
 10
1646.751731716614
 20
2139.348378690989
 30
0.0
 40
30.0
 41
0.0
 71
     5
 72
     1
  1
\A1;330
  7
BIGFONT
 11
0.0000000000000001
 21
1.0
 31
0.0
 73
     1
 44
1.0
  0
POINT
  5
40E7
330
34D3
100
AcDbEntity
  8
DEFPOINTS
 62
     0
100
AcDbPoint
 10
1581.472914565646
 20
2304.348378690988
 30
0.0
  0
POINT
  5
40E8
330
34D3
100
AcDbEntity
  8
DEFPOINTS
 62
     0
100
AcDbPoint
 10
1581.472914565648
 20
1974.348378690988
 30
0.0
  0
POINT
  5
40E9
330
34D3
100
AcDbEntity
  8
DEFPOINTS
 62
     0
100
AcDbPoint
 10
1668.001731716614
 20
1974.348378690988
 30
0.0
  0
ENDBLK
  5
34DE
330
34D3
100
AcDbEntity
  8
0
100
AcDbBlockEnd
  0
BLOCK
  5
3530
330
3526
100
AcDbEntity
  8
0
100
AcDbBlockBegin
  2
*D28
 70
     1
 10
0.0
 20
0.0
 30
0.0
  3
*D28
  1

  0
LINE
  5
40EA
330
3526
100
AcDbEntity
  8
sunpou
100
AcDbLine
 10
1281.472914565646
 20
1426.255206764674
 30
0.0
 11
1281.472914565646
 21
1339.456937035087
 31
0.0
  0
LINE
  5
40EB
330
3526
100
AcDbEntity
  8
sunpou
100
AcDbLine
 10
1881.472914565646
 20
1426.255206764674
 30
0.0
 11
1881.472914565646
 21
1339.456937035087
 31
0.0
  0
LINE
  5
40EC
330
3526
100
AcDbEntity
  8
sunpou
100
AcDbLine
 10
1306.472914565646
 20
1351.956937035087
 30
0.0
 11
1856.472914565646
 21
1351.956937035087
 31
0.0
  0
INSERT
  5
40ED
330
3526
100
AcDbEntity
  8
sunpou
100
AcDbBlockReference
  2
_Open
 10
1281.472914565646
 20
1351.956937035087
 30
0.0
 41
25.0
 42
25.0
 43
25.0
 50
180.0
  0
INSERT
  5
40EE
330
3526
100
AcDbEntity
  8
sunpou
100
AcDbBlockReference
  2
_Open
 10
1881.472914565646
 20
1351.956937035087
 30
0.0
 41
25.0
 42
25.0
 43
25.0
  0
MTEXT
  5
40EF
330
3526
100
AcDbEntity
  8
sunpou
100
AcDbMText
 10
1581.763066027364
 20
1373.206937035087
 30
0.0
 40
30.0
 41
0.0
 71
     5
 72
     1
  1
\A1;600
  7
BIGFONT
 73
     1
 44
1.0
  0
POINT
  5
40F0
330
3526
100
AcDbEntity
  8
DEFPOINTS
 62
     0
100
AcDbPoint
 10
1281.472914565646
 20
1432.505206764674
 30
0.0
  0
POINT
  5
40F1
330
3526
100
AcDbEntity
  8
DEFPOINTS
 62
     0
100
AcDbPoint
 10
1881.472914565646
 20
1432.505206764674
 30
0.0
  0
POINT
  5
40F2
330
3526
100
AcDbEntity
  8
DEFPOINTS
 62
     0
100
AcDbPoint
 10
1881.472914565646
 20
1351.956937035087
 30
0.0
  0
ENDBLK
  5
3531
330
3526
100
AcDbEntity
  8
0
100
AcDbBlockEnd
  0
BLOCK
  5
3918
330
3917
100
AcDbEntity
  8
0
100
AcDbBlockBegin
  2
*D29
 70
     1
 10
0.0
 20
0.0
 30
0.0
  3
*D29
  1

  0
LINE
  5
40F3
330
3917
100
AcDbEntity
  8
sunpou
 48
3.0
100
AcDbLine
 10
4566.170745998724
 20
2236.829275689696
 30
0.0
 11
4758.672994796843
 21
2236.829275689696
 31
0.0
  0
LINE
  5
40F4
330
3917
100
AcDbEntity
  8
sunpou
 48
3.0
100
AcDbLine
 10
4566.170745998728
 20
1436.829275689696
 30
0.0
 11
4758.672994796842
 21
1436.829275689695
 31
0.0
  0
LINE
  5
40F5
330
3917
100
AcDbEntity
  8
sunpou
 48
3.0
100
AcDbLine
 10
4746.172994796843
 20
2211.829275689696
 30
0.0
 11
4746.172994796842
 21
1461.829275689695
 31
0.0
  0
INSERT
  5
40F6
330
3917
100
AcDbEntity
  8
sunpou
 48
3.0
100
AcDbBlockReference
  2
_Open
 10
4746.172994796843
 20
2236.829275689696
 30
0.0
 41
25.0
 42
25.0
 43
25.0
 50
90.0
  0
INSERT
  5
40F7
330
3917
100
AcDbEntity
  8
sunpou
 48
3.0
100
AcDbBlockReference
  2
_Open
 10
4746.172994796842
 20
1436.829275689695
 30
0.0
 41
25.0
 42
25.0
 43
25.0
 50
270.0
  0
MTEXT
  5
40F8
330
3917
100
AcDbEntity
  8
sunpou
 48
3.0
100
AcDbMText
 10
4724.922994796842
 20
1856.118603000915
 30
0.0
 40
30.0
 41
0.0
 71
     5
 72
     1
  1
\A1;800
  7
BIGFONT
 11
0.0000000000000001
 21
1.0
 31
0.0
 73
     1
 44
1.0
  0
POINT
  5
40F9
330
3917
100
AcDbEntity
  8
DEFPOINTS
 62
     0
 48
3.0
100
AcDbPoint
 10
4559.920745998724
 20
2236.829275689696
 30
0.0
  0
POINT
  5
40FA
330
3917
100
AcDbEntity
  8
DEFPOINTS
 62
     0
 48
3.0
100
AcDbPoint
 10
4559.920745998728
 20
1436.829275689696
 30
0.0
  0
POINT
  5
40FB
330
3917
100
AcDbEntity
  8
DEFPOINTS
 62
     0
 48
3.0
100
AcDbPoint
 10
4746.172994796842
 20
1436.829275689695
 30
0.0
  0
ENDBLK
  5
3919
330
3917
100
AcDbEntity
  8
0
100
AcDbBlockEnd
  0
BLOCK
  5
3924
330
3923
100
AcDbEntity
  8
0
100
AcDbBlockBegin
  2
*D30
 70
     1
 10
0.0
 20
0.0
 30
0.0
  3
*D30
  1

  0
LINE
  5
41A5
330
3923
100
AcDbEntity
  8
sunpou
 48
3.0
100
AcDbLine
 10
4576.170745998726
 20
1799.343953835414
 30
0.0
 11
4674.735834534782
 21
1799.343953835413
 31
0.0
  0
LINE
  5
41A6
330
3923
100
AcDbEntity
  8
sunpou
 48
3.0
100
AcDbLine
 10
4482.722914565647
 20
1486.829275689696
 30
0.0
 11
4674.735834534782
 21
1486.829275689695
 31
0.0
  0
LINE
  5
41A7
330
3923
100
AcDbEntity
  8
sunpou
 48
3.0
100
AcDbLine
 10
4662.235834534782
 20
1774.343953835413
 30
0.0
 11
4662.235834534782
 21
1511.829275689695
 31
0.0
  0
INSERT
  5
41A8
330
3923
100
AcDbEntity
  8
sunpou
 48
3.0
100
AcDbBlockReference
  2
_Open
 10
4662.235834534782
 20
1799.343953835413
 30
0.0
 41
25.0
 42
25.0
 43
25.0
 50
90.0
  0
INSERT
  5
41A9
330
3923
100
AcDbEntity
  8
sunpou
 48
3.0
100
AcDbBlockReference
  2
_Open
 10
4662.235834534782
 20
1486.829275689695
 30
0.0
 41
25.0
 42
25.0
 43
25.0
 50
270.0
  0
MTEXT
  5
41AA
330
3923
100
AcDbEntity
  8
sunpou
 48
3.0
100
AcDbMText
 10
4640.985834534783
 20
1643.086614762555
 30
0.0
 40
30.0
 41
0.0
 71
     5
 72
     1
  1
\A1;313
  7
BIGFONT
 11
0.0000000000000001
 21
1.0
 31
0.0
 73
     1
 44
1.0
  0
POINT
  5
41AB
330
3923
100
AcDbEntity
  8
DEFPOINTS
 62
     0
 48
3.0
100
AcDbPoint
 10
4569.920745998726
 20
1799.343953835414
 30
0.0
  0
POINT
  5
41AC
330
3923
100
AcDbEntity
  8
DEFPOINTS
 62
     0
 48
3.0
100
AcDbPoint
 10
4476.472914565646
 20
1486.829275689696
 30
0.0
  0
POINT
  5
41AD
330
3923
100
AcDbEntity
  8
DEFPOINTS
 62
     0
 48
3.0
100
AcDbPoint
 10
4662.235834534782
 20
1486.829275689695
 30
0.0
  0
ENDBLK
  5
3925
330
3923
100
AcDbEntity
  8
0
100
AcDbBlockEnd
  0
BLOCK
  5
3930
330
392F
100
AcDbEntity
  8
0
100
AcDbBlockBegin
  2
*D31
 70
     1
 10
0.0
 20
0.0
 30
0.0
  3
*D31
  1

  0
LINE
  5
4105
330
392F
100
AcDbEntity
  8
sunpou
 48
3.0
100
AcDbLine
 10
4476.472914565646
 20
1430.579275689695
 30
0.0
 11
4476.472914565646
 21
1063.733807317213
 31
0.0
  0
LINE
  5
4106
330
392F
100
AcDbEntity
  8
sunpou
 48
3.0
100
AcDbLine
 10
3726.472914565647
 20
1430.579275689695
 30
0.0
 11
3726.472914565647
 21
1063.733807317213
 31
0.0
  0
LINE
  5
4107
330
392F
100
AcDbEntity
  8
sunpou
 48
3.0
100
AcDbLine
 10
4451.472914565647
 20
1076.233807317213
 30
0.0
 11
3751.472914565647
 21
1076.233807317213
 31
0.0
  0
INSERT
  5
4108
330
392F
100
AcDbEntity
  8
sunpou
 48
3.0
100
AcDbBlockReference
  2
_Open
 10
4476.472914565646
 20
1076.233807317213
 30
0.0
 41
25.0
 42
25.0
 43
25.0
  0
INSERT
  5
4109
330
392F
100
AcDbEntity
  8
sunpou
 48
3.0
100
AcDbBlockReference
  2
_Open
 10
3726.472914565647
 20
1076.233807317213
 30
0.0
 41
25.0
 42
25.0
 43
25.0
 50
180.0
  0
MTEXT
  5
410A
330
392F
100
AcDbEntity
  8
sunpou
 48
3.0
100
AcDbMText
 10
4110.478884666498
 20
1097.483807317213
 30
0.0
 40
30.0
 41
0.0
 71
     5
 72
     1
  1
\A1;750
  7
BIGFONT
 73
     1
 44
1.0
  0
POINT
  5
410B
330
392F
100
AcDbEntity
  8
DEFPOINTS
 62
     0
 48
3.0
100
AcDbPoint
 10
4476.472914565646
 20
1436.829275689696
 30
0.0
  0
POINT
  5
410C
330
392F
100
AcDbEntity
  8
DEFPOINTS
 62
     0
 48
3.0
100
AcDbPoint
 10
3726.472914565647
 20
1436.829275689696
 30
0.0
  0
POINT
  5
410D
330
392F
100
AcDbEntity
  8
DEFPOINTS
 62
     0
 48
3.0
100
AcDbPoint
 10
3726.472914565647
 20
1076.233807317213
 30
0.0
  0
ENDBLK
  5
3931
330
392F
100
AcDbEntity
  8
0
100
AcDbBlockEnd
  0
BLOCK
  5
393C
330
393B
100
AcDbEntity
  8
0
100
AcDbBlockBegin
  2
*D32
 70
     1
 10
0.0
 20
0.0
 30
0.0
  3
*D32
  1

  0
LINE
  5
41AE
330
393B
100
AcDbEntity
  8
sunpou
 48
3.0
100
AcDbLine
 10
4482.722914565647
 20
1486.829275689696
 30
0.0
 11
4674.735834534782
 21
1486.829275689695
 31
0.0
  0
LINE
  5
41AF
330
393B
100
AcDbEntity
  8
sunpou
 48
3.0
100
AcDbLine
 10
4566.170745998728
 20
1436.829275689696
 30
0.0
 11
4674.735834534782
 21
1436.829275689695
 31
0.0
  0
LINE
  5
41B0
330
393B
100
AcDbEntity
  8
sunpou
 48
3.0
100
AcDbLine
 10
4662.235834534782
 20
1511.829275689695
 30
0.0
 11
4662.235834534782
 21
1536.829275689695
 31
0.0
  0
LINE
  5
41B1
330
393B
100
AcDbEntity
  8
sunpou
 48
3.0
100
AcDbLine
 10
4662.235834534782
 20
1411.829275689695
 30
0.0
 11
4662.235834534782
 21
1325.757847118267
 31
0.0
  0
LINE
  5
41B2
330
393B
100
AcDbEntity
  8
sunpou
 48
3.0
100
AcDbLine
 10
4662.235834534782
 20
1486.829275689695
 30
0.0
 11
4662.235834534782
 21
1436.829275689695
 31
0.0
  0
INSERT
  5
41B3
330
393B
100
AcDbEntity
  8
sunpou
 48
3.0
100
AcDbBlockReference
  2
_Open
 10
4662.235834534782
 20
1486.829275689695
 30
0.0
 41
25.0
 42
25.0
 43
25.0
 50
270.0
  0
INSERT
  5
41B4
330
393B
100
AcDbEntity
  8
sunpou
 48
3.0
100
AcDbBlockReference
  2
_Open
 10
4662.235834534782
 20
1436.829275689695
 30
0.0
 41
25.0
 42
25.0
 43
25.0
 50
90.0
  0
MTEXT
  5
41B5
330
393B
100
AcDbEntity
  8
sunpou
 48
3.0
100
AcDbMText
 10
4640.985834534783
 20
1356.293561403982
 30
0.0
 40
30.0
 41
0.0
 71
     5
 72
     1
  1
\A1;50
  7
BIGFONT
 11
0.0000000000000001
 21
1.0
 31
0.0
 73
     1
 44
1.0
  0
POINT
  5
41B6
330
393B
100
AcDbEntity
  8
DEFPOINTS
 62
     0
 48
3.0
100
AcDbPoint
 10
4476.472914565646
 20
1486.829275689696
 30
0.0
  0
POINT
  5
41B7
330
393B
100
AcDbEntity
  8
DEFPOINTS
 62
     0
 48
3.0
100
AcDbPoint
 10
4559.920745998728
 20
1436.829275689696
 30
0.0
  0
POINT
  5
41B8
330
393B
100
AcDbEntity
  8
DEFPOINTS
 62
     0
 48
3.0
100
AcDbPoint
 10
4662.235834534782
 20
1436.829275689695
 30
0.0
  0
ENDBLK
  5
393D
330
393B
100
AcDbEntity
  8
0
100
AcDbBlockEnd
  0
BLOCK
  5
3948
330
3947
100
AcDbEntity
  8
0
100
AcDbBlockBegin
  2
*D33
 70
     1
 10
0.0
 20
0.0
 30
0.0
  3
*D33
  1

  0
LINE
  5
4117
330
3947
100
AcDbEntity
  8
sunpou
 48
3.0
100
AcDbLine
 10
4411.4740389647
 20
2386.829275689696
 30
0.0
 11
4675.039127500761
 21
2386.829275689696
 31
0.0
  0
LINE
  5
4118
330
3947
100
AcDbEntity
  8
sunpou
 48
3.0
100
AcDbLine
 10
4566.474038964702
 20
2236.829275689696
 30
0.0
 11
4675.039127500761
 21
2236.829275689696
 31
0.0
  0
LINE
  5
4119
330
3947
100
AcDbEntity
  8
sunpou
 48
3.0
100
AcDbLine
 10
4662.539127500761
 20
2361.829275689696
 30
0.0
 11
4662.539127500761
 21
2261.829275689696
 31
0.0
  0
INSERT
  5
411A
330
3947
100
AcDbEntity
  8
sunpou
 48
3.0
100
AcDbBlockReference
  2
_Open
 10
4662.539127500761
 20
2386.829275689696
 30
0.0
 41
25.0
 42
25.0
 43
25.0
 50
90.0
  0
INSERT
  5
411B
330
3947
100
AcDbEntity
  8
sunpou
 48
3.0
100
AcDbBlockReference
  2
_Open
 10
4662.539127500761
 20
2236.829275689696
 30
0.0
 41
25.0
 42
25.0
 43
25.0
 50
270.0
  0
MTEXT
  5
411C
330
3947
100
AcDbEntity
  8
sunpou
 48
3.0
100
AcDbMText
 10
4641.28912750076
 20
2310.204741913185
 30
0.0
 40
30.0
 41
0.0
 71
     5
 72
     1
  1
\A1;150
  7
BIGFONT
 11
0.0000000000000001
 21
1.0
 31
0.0
 73
     1
 44
1.0
  0
POINT
  5
411D
330
3947
100
AcDbEntity
  8
DEFPOINTS
 62
     0
 48
3.0
100
AcDbPoint
 10
4405.224038964701
 20
2386.829275689696
 30
0.0
  0
POINT
  5
411E
330
3947
100
AcDbEntity
  8
DEFPOINTS
 62
     0
 48
3.0
100
AcDbPoint
 10
4560.224038964701
 20
2236.829275689696
 30
0.0
  0
POINT
  5
411F
330
3947
100
AcDbEntity
  8
DEFPOINTS
 62
     0
 48
3.0
100
AcDbPoint
 10
4662.539127500761
 20
2236.829275689696
 30
0.0
  0
ENDBLK
  5
3949
330
3947
100
AcDbEntity
  8
0
100
AcDbBlockEnd
  0
BLOCK
  5
3954
330
3953
100
AcDbEntity
  8
0
100
AcDbBlockBegin
  2
*D34
 70
     1
 10
0.0
 20
0.0
 30
0.0
  3
*D34
  1

  0
LINE
  5
4120
330
3953
100
AcDbEntity
  8
sunpou
 48
3.0
100
AcDbLine
 10
4576.170745998726
 20
1899.343953835414
 30
0.0
 11
4674.735834534782
 21
1899.343953835414
 31
0.0
  0
LINE
  5
4121
330
3953
100
AcDbEntity
  8
sunpou
 48
3.0
100
AcDbLine
 10
4582.420745998726
 20
1799.343953835414
 30
0.0
 11
4674.735834534782
 21
1799.343953835413
 31
0.0
  0
LINE
  5
4122
330
3953
100
AcDbEntity
  8
sunpou
 48
3.0
100
AcDbLine
 10
4662.235834534782
 20
1874.343953835414
 30
0.0
 11
4662.235834534782
 21
1824.343953835413
 31
0.0
  0
INSERT
  5
4123
330
3953
100
AcDbEntity
  8
sunpou
 48
3.0
100
AcDbBlockReference
  2
_Open
 10
4662.235834534782
 20
1899.343953835414
 30
0.0
 41
25.0
 42
25.0
 43
25.0
 50
90.0
  0
INSERT
  5
4124
330
3953
100
AcDbEntity
  8
sunpou
 48
3.0
100
AcDbBlockReference
  2
_Open
 10
4662.235834534782
 20
1799.343953835413
 30
0.0
 41
25.0
 42
25.0
 43
25.0
 50
270.0
  0
MTEXT
  5
4125
330
3953
100
AcDbEntity
  8
sunpou
 48
3.0
100
AcDbMText
 10
4640.985834534783
 20
1849.343953835415
 30
0.0
 40
30.0
 41
0.0
 71
     5
 72
     1
  1
\A1;100
  7
BIGFONT
 11
0.0000000000000001
 21
1.0
 31
0.0
 73
     1
 44
1.0
  0
POINT
  5
4126
330
3953
100
AcDbEntity
  8
DEFPOINTS
 62
     0
 48
3.0
100
AcDbPoint
 10
4569.920745998725
 20
1899.343953835414
 30
0.0
  0
POINT
  5
4127
330
3953
100
AcDbEntity
  8
DEFPOINTS
 62
     0
 48
3.0
100
AcDbPoint
 10
4576.170745998726
 20
1799.343953835414
 30
0.0
  0
POINT
  5
4128
330
3953
100
AcDbEntity
  8
DEFPOINTS
 62
     0
 48
3.0
100
AcDbPoint
 10
4662.235834534782
 20
1799.343953835413
 30
0.0
  0
ENDBLK
  5
3955
330
3953
100
AcDbEntity
  8
0
100
AcDbBlockEnd
  0
BLOCK
  5
3960
330
395F
100
AcDbEntity
  8
0
100
AcDbBlockBegin
  2
*D35
 70
     1
 10
0.0
 20
0.0
 30
0.0
  3
*D35
  1

  0
LINE
  5
4129
330
395F
100
AcDbEntity
  8
sunpou
 48
3.0
100
AcDbLine
 10
4576.170745998723
 20
2236.829275689696
 30
0.0
 11
4674.735834534782
 21
2236.829275689696
 31
0.0
  0
LINE
  5
412A
330
395F
100
AcDbEntity
  8
sunpou
 48
3.0
100
AcDbLine
 10
4582.420745998725
 20
1899.343953835414
 30
0.0
 11
4674.735834534781
 21
1899.343953835414
 31
0.0
  0
LINE
  5
412B
330
395F
100
AcDbEntity
  8
sunpou
 48
3.0
100
AcDbLine
 10
4662.235834534782
 20
2211.829275689696
 30
0.0
 11
4662.235834534782
 21
1924.343953835414
 31
0.0
  0
INSERT
  5
412C
330
395F
100
AcDbEntity
  8
sunpou
 48
3.0
100
AcDbBlockReference
  2
_Open
 10
4662.235834534782
 20
2236.829275689696
 30
0.0
 41
25.0
 42
25.0
 43
25.0
 50
90.0
  0
INSERT
  5
412D
330
395F
100
AcDbEntity
  8
sunpou
 48
3.0
100
AcDbBlockReference
  2
_Open
 10
4662.235834534782
 20
1899.343953835414
 30
0.0
 41
25.0
 42
25.0
 43
25.0
 50
270.0
  0
MTEXT
  5
412E
330
395F
100
AcDbEntity
  8
sunpou
 48
3.0
100
AcDbMText
 10
4640.985834534782
 20
2068.086614762556
 30
0.0
 40
30.0
 41
0.0
 71
     5
 72
     1
  1
\A1;337
  7
BIGFONT
 11
0.0000000000000001
 21
1.0
 31
0.0
 73
     1
 44
1.0
  0
POINT
  5
412F
330
395F
100
AcDbEntity
  8
DEFPOINTS
 62
     0
 48
3.0
100
AcDbPoint
 10
4569.920745998723
 20
2236.829275689696
 30
0.0
  0
POINT
  5
4130
330
395F
100
AcDbEntity
  8
DEFPOINTS
 62
     0
 48
3.0
100
AcDbPoint
 10
4576.170745998726
 20
1899.343953835414
 30
0.0
  0
POINT
  5
4131
330
395F
100
AcDbEntity
  8
DEFPOINTS
 62
     0
 48
3.0
100
AcDbPoint
 10
4662.235834534782
 20
1899.343953835414
 30
0.0
  0
ENDBLK
  5
3961
330
395F
100
AcDbEntity
  8
0
100
AcDbBlockEnd
  0
BLOCK
  5
396C
330
396B
100
AcDbEntity
  8
0
100
AcDbBlockBegin
  2
*D36
 70
     1
 10
0.0
 20
0.0
 30
0.0
  3
*D36
  1

  0
LINE
  5
4132
330
396B
100
AcDbEntity
  8
sunpou
100
AcDbLine
 10
3871.472914565643
 20
2383.079275689696
 30
0.0
 11
3871.472914565643
 21
2475.405887552951
 31
0.0
  0
LINE
  5
4133
330
396B
100
AcDbEntity
  8
sunpou
100
AcDbLine
 10
4331.472914565642
 20
2383.079275689696
 30
0.0
 11
4331.472914565642
 21
2475.405887552951
 31
0.0
  0
LINE
  5
4134
330
396B
100
AcDbEntity
  8
sunpou
100
AcDbLine
 10
3896.472914565643
 20
2462.905887552951
 30
0.0
 11
4306.472914565642
 21
2462.905887552951
 31
0.0
  0
INSERT
  5
4135
330
396B
100
AcDbEntity
  8
sunpou
100
AcDbBlockReference
  2
_Open
 10
3871.472914565643
 20
2462.905887552951
 30
0.0
 41
25.0
 42
25.0
 43
25.0
 50
180.0
  0
INSERT
  5
4136
330
396B
100
AcDbEntity
  8
sunpou
100
AcDbBlockReference
  2
_Open
 10
4331.472914565642
 20
2462.905887552951
 30
0.0
 41
25.0
 42
25.0
 43
25.0
  0
MTEXT
  5
4137
330
396B
100
AcDbEntity
  8
sunpou
100
AcDbMText
 10
4095.269667422394
 20
2484.155887552951
 30
0.0
 40
30.0
 41
0.0
 71
     5
 72
     1
  1
\A1;460
  7
BIGFONT
 73
     1
 44
1.0
  0
POINT
  5
4138
330
396B
100
AcDbEntity
  8
DEFPOINTS
 62
     0
100
AcDbPoint
 10
3871.472914565643
 20
2376.829275689696
 30
0.0
  0
POINT
  5
4139
330
396B
100
AcDbEntity
  8
DEFPOINTS
 62
     0
100
AcDbPoint
 10
4331.472914565642
 20
2376.829275689696
 30
0.0
  0
POINT
  5
413A
330
396B
100
AcDbEntity
  8
DEFPOINTS
 62
     0
100
AcDbPoint
 10
4331.472914565642
 20
2462.905887552951
 30
0.0
  0
ENDBLK
  5
396D
330
396B
100
AcDbEntity
  8
0
100
AcDbBlockEnd
  0
BLOCK
  5
3978
330
3977
100
AcDbEntity
  8
0
100
AcDbBlockBegin
  2
*D37
 70
     1
 10
0.0
 20
0.0
 30
0.0
  3
*D37
  1

  0
LINE
  5
413B
330
3977
100
AcDbEntity
  8
sunpou
100
AcDbLine
 10
3954.428118319652
 20
2233.989878755237
 30
0.0
 11
3954.428118319652
 21
2219.724999166473
 31
0.0
  0
LINE
  5
413C
330
3977
100
AcDbEntity
  8
sunpou
100
AcDbLine
 10
4248.517710811634
 20
2233.989878755236
 30
0.0
 11
4248.517710811634
 21
2219.724999166473
 31
0.0
  0
LINE
  5
413D
330
3977
100
AcDbEntity
  8
sunpou
100
AcDbLine
 10
3979.428118319652
 20
2232.224999166473
 30
0.0
 11
4223.517710811633
 21
2232.224999166473
 31
0.0
  0
INSERT
  5
413E
330
3977
100
AcDbEntity
  8
sunpou
100
AcDbBlockReference
  2
_Open
 10
3954.428118319652
 20
2232.224999166473
 30
0.0
 41
25.0
 42
25.0
 43
25.0
 50
180.0
  0
INSERT
  5
413F
330
3977
100
AcDbEntity
  8
sunpou
100
AcDbBlockReference
  2
_Open
 10
4248.517710811634
 20
2232.224999166473
 30
0.0
 41
25.0
 42
25.0
 43
25.0
  0
MTEXT
  5
4140
330
3977
100
AcDbEntity
  8
sunpou
100
AcDbMText
 10
4109.266959960089
 20
2253.474999166474
 30
0.0
 40
30.0
 41
0.0
 71
     5
 72
     1
  1
\A1;294
  7
BIGFONT
 73
     1
 44
1.0
  0
POINT
  5
4141
330
3977
100
AcDbEntity
  8
DEFPOINTS
 62
     0
100
AcDbPoint
 10
3954.428118319652
 20
2240.239878755237
 30
0.0
  0
POINT
  5
4142
330
3977
100
AcDbEntity
  8
DEFPOINTS
 62
     0
100
AcDbPoint
 10
4248.517710811634
 20
2240.239878755236
 30
0.0
  0
POINT
  5
4143
330
3977
100
AcDbEntity
  8
DEFPOINTS
 62
     0
100
AcDbPoint
 10
4248.517710811634
 20
2232.224999166473
 30
0.0
  0
ENDBLK
  5
3979
330
3977
100
AcDbEntity
  8
0
100
AcDbBlockEnd
  0
BLOCK
  5
3984
330
3983
100
AcDbEntity
  8
0
100
AcDbBlockBegin
  2
*D38
 70
     1
 10
0.0
 20
0.0
 30
0.0
  3
*D38
  1

  0
LINE
  5
4144
330
3983
100
AcDbEntity
  8
sunpou
100
AcDbLine
 10
4110.298158068513
 20
2386.829275689696
 30
0.0
 11
4200.501731716609
 21
2386.829275689696
 31
0.0
  0
LINE
  5
4145
330
3983
100
AcDbEntity
  8
sunpou
100
AcDbLine
 10
4107.722914565641
 20
2299.343953835415
 30
0.0
 11
4200.501731716609
 21
2299.343953835415
 31
0.0
  0
LINE
  5
4146
330
3983
100
AcDbEntity
  8
sunpou
100
AcDbLine
 10
4188.001731716609
 20
2361.829275689696
 30
0.0
 11
4188.001731716609
 21
2324.343953835414
 31
0.0
  0
INSERT
  5
4147
330
3983
100
AcDbEntity
  8
sunpou
100
AcDbBlockReference
  2
_Open
 10
4188.001731716609
 20
2386.829275689696
 30
0.0
 41
25.0
 42
25.0
 43
25.0
 50
90.0
  0
INSERT
  5
4148
330
3983
100
AcDbEntity
  8
sunpou
100
AcDbBlockReference
  2
_Open
 10
4188.001731716609
 20
2299.343953835415
 30
0.0
 41
25.0
 42
25.0
 43
25.0
 50
270.0
  0
MTEXT
  5
4149
330
3983
100
AcDbEntity
  8
sunpou
100
AcDbMText
 10
4166.751731716608
 20
2342.322692771539
 30
0.0
 40
30.0
 41
0.0
 71
     5
 72
     1
  1
\A1;87
  7
BIGFONT
 11
0.0000000000000001
 21
1.0
 31
0.0
 73
     1
 44
1.0
  0
POINT
  5
414A
330
3983
100
AcDbEntity
  8
DEFPOINTS
 62
     0
100
AcDbPoint
 10
4104.048158068513
 20
2386.829275689696
 30
0.0
  0
POINT
  5
414B
330
3983
100
AcDbEntity
  8
DEFPOINTS
 62
     0
100
AcDbPoint
 10
4101.472914565642
 20
2299.343953835415
 30
0.0
  0
POINT
  5
414C
330
3983
100
AcDbEntity
  8
DEFPOINTS
 62
     0
100
AcDbPoint
 10
4188.001731716609
 20
2299.343953835415
 30
0.0
  0
ENDBLK
  5
3985
330
3983
100
AcDbEntity
  8
0
100
AcDbBlockEnd
  0
BLOCK
  5
3990
330
398F
100
AcDbEntity
  8
0
100
AcDbBlockBegin
  2
*D39
 70
     1
 10
0.0
 20
0.0
 30
0.0
  3
*D39
  1

  0
LINE
  5
414D
330
398F
100
AcDbEntity
  8
sunpou
100
AcDbLine
 10
4107.722914565641
 20
2299.343953835415
 30
0.0
 11
4200.50173171661
 21
2299.343953835415
 31
0.0
  0
LINE
  5
414E
330
398F
100
AcDbEntity
  8
sunpou
100
AcDbLine
 10
4107.722914565644
 20
1969.343953835414
 30
0.0
 11
4200.501731716609
 21
1969.343953835414
 31
0.0
  0
LINE
  5
414F
330
398F
100
AcDbEntity
  8
sunpou
100
AcDbLine
 10
4188.001731716609
 20
2274.343953835415
 30
0.0
 11
4188.001731716609
 21
1994.343953835414
 31
0.0
  0
INSERT
  5
4150
330
398F
100
AcDbEntity
  8
sunpou
100
AcDbBlockReference
  2
_Open
 10
4188.001731716609
 20
2299.343953835415
 30
0.0
 41
25.0
 42
25.0
 43
25.0
 50
90.0
  0
INSERT
  5
4151
330
398F
100
AcDbEntity
  8
sunpou
100
AcDbBlockReference
  2
_Open
 10
4188.001731716609
 20
1969.343953835414
 30
0.0
 41
25.0
 42
25.0
 43
25.0
 50
270.0
  0
MTEXT
  5
4152
330
398F
100
AcDbEntity
  8
sunpou
100
AcDbMText
 10
4166.751731716609
 20
2134.343953835415
 30
0.0
 40
30.0
 41
0.0
 71
     5
 72
     1
  1
\A1;330
  7
BIGFONT
 11
0.0000000000000001
 21
1.0
 31
0.0
 73
     1
 44
1.0
  0
POINT
  5
4153
330
398F
100
AcDbEntity
  8
DEFPOINTS
 62
     0
100
AcDbPoint
 10
4101.472914565642
 20
2299.343953835415
 30
0.0
  0
POINT
  5
4154
330
398F
100
AcDbEntity
  8
DEFPOINTS
 62
     0
100
AcDbPoint
 10
4101.472914565643
 20
1969.343953835414
 30
0.0
  0
POINT
  5
4155
330
398F
100
AcDbEntity
  8
DEFPOINTS
 62
     0
100
AcDbPoint
 10
4188.001731716609
 20
1969.343953835414
 30
0.0
  0
ENDBLK
  5
3991
330
398F
100
AcDbEntity
  8
0
100
AcDbBlockEnd
  0
BLOCK
  5
399C
330
399B
100
AcDbEntity
  8
0
100
AcDbBlockBegin
  2
*D40
 70
     1
 10
0.0
 20
0.0
 30
0.0
  3
*D40
  1

  0
LINE
  5
4156
330
399B
100
AcDbEntity
  8
sunpou
100
AcDbLine
 10
3801.472914565642
 20
1430.579275689695
 30
0.0
 11
3801.472914565642
 21
1171.785454530636
 31
0.0
  0
LINE
  5
4157
330
399B
100
AcDbEntity
  8
sunpou
100
AcDbLine
 10
4401.472914565641
 20
1430.579275689695
 30
0.0
 11
4401.472914565641
 21
1171.785454530636
 31
0.0
  0
LINE
  5
4158
330
399B
100
AcDbEntity
  8
sunpou
100
AcDbLine
 10
3826.472914565642
 20
1184.285454530637
 30
0.0
 11
4376.472914565641
 21
1184.285454530637
 31
0.0
  0
INSERT
  5
4159
330
399B
100
AcDbEntity
  8
sunpou
100
AcDbBlockReference
  2
_Open
 10
3801.472914565642
 20
1184.285454530637
 30
0.0
 41
25.0
 42
25.0
 43
25.0
 50
180.0
  0
INSERT
  5
415A
330
399B
100
AcDbEntity
  8
sunpou
100
AcDbBlockReference
  2
_Open
 10
4401.472914565641
 20
1184.285454530637
 30
0.0
 41
25.0
 42
25.0
 43
25.0
  0
MTEXT
  5
415B
330
399B
100
AcDbEntity
  8
sunpou
100
AcDbMText
 10
4106.014682123496
 20
1205.535454530637
 30
0.0
 40
30.0
 41
0.0
 71
     5
 72
     1
  1
\A1;600
  7
BIGFONT
 73
     1
 44
1.0
  0
POINT
  5
415C
330
399B
100
AcDbEntity
  8
DEFPOINTS
 62
     0
100
AcDbPoint
 10
3801.472914565642
 20
1436.829275689696
 30
0.0
  0
POINT
  5
415D
330
399B
100
AcDbEntity
  8
DEFPOINTS
 62
     0
100
AcDbPoint
 10
4401.472914565641
 20
1436.829275689696
 30
0.0
  0
POINT
  5
415E
330
399B
100
AcDbEntity
  8
DEFPOINTS
 62
     0
100
AcDbPoint
 10
4401.472914565641
 20
1184.285454530637
 30
0.0
  0
ENDBLK
  5
399D
330
399B
100
AcDbEntity
  8
0
100
AcDbBlockEnd
  0
BLOCK
  5
39A8
330
39A7
100
AcDbEntity
  8
0
100
AcDbBlockBegin
  2
*D41
 70
     1
 10
0.0
 20
0.0
 30
0.0
  3
*D41
  1

  0
LINE
  5
415F
330
39A7
100
AcDbEntity
  8
sunpou
100
AcDbLine
 10
4481.30682092667
 20
1699.453079907431
 30
0.0
 11
4587.413321867591
 21
1699.453079907431
 31
0.0
  0
LINE
  5
4160
330
39A7
100
AcDbEntity
  8
sunpou
100
AcDbLine
 10
4500.22834233365
 20
1899.343953835414
 30
0.0
 11
4587.413321867591
 21
1899.343953835414
 31
0.0
  0
LINE
  5
4161
330
39A7
100
AcDbEntity
  8
sunpou
100
AcDbLine
 10
4574.913321867591
 20
1724.453079907431
 30
0.0
 11
4574.913321867591
 21
1874.343953835414
 31
0.0
  0
INSERT
  5
4162
330
39A7
100
AcDbEntity
  8
sunpou
100
AcDbBlockReference
  2
_Open
 10
4574.913321867591
 20
1699.453079907431
 30
0.0
 41
25.0
 42
25.0
 43
25.0
 50
270.0
  0
INSERT
  5
4163
330
39A7
100
AcDbEntity
  8
sunpou
100
AcDbBlockReference
  2
_Open
 10
4574.913321867591
 20
1899.343953835414
 30
0.0
 41
25.0
 42
25.0
 43
25.0
 50
90.0
  0
MTEXT
  5
4164
330
39A7
100
AcDbEntity
  8
sunpou
100
AcDbMText
 10
4553.663321867591
 20
1799.398516871423
 30
0.0
 40
30.0
 41
0.0
 71
     5
 72
     1
  1
\A1;200
  7
BIGFONT
 11
0.0000000000000001
 21
1.0
 31
0.0
 73
     1
 44
1.0
  0
POINT
  5
4165
330
39A7
100
AcDbEntity
  8
DEFPOINTS
 62
     0
100
AcDbPoint
 10
4475.05682092667
 20
1699.453079907431
 30
0.0
  0
POINT
  5
4166
330
39A7
100
AcDbEntity
  8
DEFPOINTS
 62
     0
100
AcDbPoint
 10
4493.97834233365
 20
1899.343953835414
 30
0.0
  0
POINT
  5
4167
330
39A7
100
AcDbEntity
  8
DEFPOINTS
 62
     0
100
AcDbPoint
 10
4574.913321867591
 20
1899.343953835414
 30
0.0
  0
ENDBLK
  5
39A9
330
39A7
100
AcDbEntity
  8
0
100
AcDbBlockEnd
  0
BLOCK
  5
39B4
330
39B3
100
AcDbEntity
  8
0
100
AcDbBlockBegin
  2
*D42
 70
     1
 10
0.0
 20
0.0
 30
0.0
  3
*D42
  1

  0
LINE
  5
4168
330
39B3
100
AcDbEntity
  8
sunpou
100
AcDbLine
 10
4472.70031998575
 20
1609.453079907431
 30
0.0
 11
4587.413321867591
 21
1609.453079907431
 31
0.0
  0
LINE
  5
4169
330
39B3
100
AcDbEntity
  8
sunpou
100
AcDbLine
 10
4481.30682092667
 20
1699.453079907431
 30
0.0
 11
4587.413321867591
 21
1699.453079907431
 31
0.0
  0
LINE
  5
416A
330
39B3
100
AcDbEntity
  8
sunpou
100
AcDbLine
 10
4574.913321867591
 20
1634.453079907431
 30
0.0
 11
4574.913321867591
 21
1674.453079907431
 31
0.0
  0
INSERT
  5
416B
330
39B3
100
AcDbEntity
  8
sunpou
100
AcDbBlockReference
  2
_Open
 10
4574.913321867591
 20
1609.453079907431
 30
0.0
 41
25.0
 42
25.0
 43
25.0
 50
270.0
  0
INSERT
  5
416C
330
39B3
100
AcDbEntity
  8
sunpou
100
AcDbBlockReference
  2
_Open
 10
4574.913321867591
 20
1699.453079907431
 30
0.0
 41
25.0
 42
25.0
 43
25.0
 50
90.0
  0
MTEXT
  5
416D
330
39B3
100
AcDbEntity
  8
sunpou
100
AcDbMText
 10
4553.663321867591
 20
1655.231152261624
 30
0.0
 40
30.0
 41
0.0
 71
     5
 72
     1
  1
\A1;90
  7
BIGFONT
 11
0.0000000000000001
 21
1.0
 31
0.0
 73
     1
 44
1.0
  0
POINT
  5
416E
330
39B3
100
AcDbEntity
  8
DEFPOINTS
 62
     0
100
AcDbPoint
 10
4466.45031998575
 20
1609.453079907431
 30
0.0
  0
POINT
  5
416F
330
39B3
100
AcDbEntity
  8
DEFPOINTS
 62
     0
100
AcDbPoint
 10
4475.05682092667
 20
1699.453079907431
 30
0.0
  0
POINT
  5
4170
330
39B3
100
AcDbEntity
  8
DEFPOINTS
 62
     0
100
AcDbPoint
 10
4574.913321867591
 20
1699.453079907431
 30
0.0
  0
ENDBLK
  5
39B5
330
39B3
100
AcDbEntity
  8
0
100
AcDbBlockEnd
  0
BLOCK
  5
39C0
330
39BF
100
AcDbEntity
  8
0
100
AcDbBlockBegin
  2
*D43
 70
     1
 10
0.0
 20
0.0
 30
0.0
  3
*D43
  1

  0
LINE
  5
4171
330
39BF
100
AcDbEntity
  8
sunpou
100
AcDbLine
 10
4221.528827043783
 20
1418.125088586926
 30
0.0
 11
4221.528827043783
 21
1254.033719848345
 31
0.0
  0
LINE
  5
4172
330
39BF
100
AcDbEntity
  8
sunpou
100
AcDbLine
 10
4331.528827043785
 20
1430.579275689695
 30
0.0
 11
4331.528827043785
 21
1254.033719848345
 31
0.0
  0
LINE
  5
4173
330
39BF
100
AcDbEntity
  8
sunpou
100
AcDbLine
 10
4246.528827043784
 20
1266.533719848345
 30
0.0
 11
4306.528827043786
 21
1266.533719848345
 31
0.0
  0
INSERT
  5
4174
330
39BF
100
AcDbEntity
  8
sunpou
100
AcDbBlockReference
  2
_Open
 10
4221.528827043783
 20
1266.533719848345
 30
0.0
 41
25.0
 42
25.0
 43
25.0
 50
180.0
  0
INSERT
  5
4175
330
39BF
100
AcDbEntity
  8
sunpou
100
AcDbBlockReference
  2
_Open
 10
4331.528827043785
 20
1266.533719848345
 30
0.0
 41
25.0
 42
25.0
 43
25.0
  0
MTEXT
  5
4176
330
39BF
100
AcDbEntity
  8
sunpou
100
AcDbMText
 10
4276.528827043785
 20
1287.783719848345
 30
0.0
 40
30.0
 41
0.0
 71
     5
 72
     1
  1
\A1;110
  7
BIGFONT
 73
     1
 44
1.0
  0
POINT
  5
4177
330
39BF
100
AcDbEntity
  8
DEFPOINTS
 62
     0
100
AcDbPoint
 10
4221.528827043783
 20
1424.375088586926
 30
0.0
  0
POINT
  5
4178
330
39BF
100
AcDbEntity
  8
DEFPOINTS
 62
     0
100
AcDbPoint
 10
4331.528827043785
 20
1436.829275689696
 30
0.0
  0
POINT
  5
4179
330
39BF
100
AcDbEntity
  8
DEFPOINTS
 62
     0
100
AcDbPoint
 10
4331.528827043785
 20
1266.533719848345
 30
0.0
  0
ENDBLK
  5
39C1
330
39BF
100
AcDbEntity
  8
0
100
AcDbBlockEnd
  0
BLOCK
  5
39CC
330
39CB
100
AcDbEntity
  8
0
100
AcDbBlockBegin
  2
*D44
 70
     1
 10
0.0
 20
0.0
 30
0.0
  3
*D44
  1

  0
LINE
  5
417A
330
39CB
100
AcDbEntity
  8
sunpou
100
AcDbLine
 10
3981.528827043788
 20
1418.125088586926
 30
0.0
 11
3981.528827043788
 21
1254.033719848345
 31
0.0
  0
LINE
  5
417B
330
39CB
100
AcDbEntity
  8
sunpou
100
AcDbLine
 10
4221.528827043783
 20
1418.125088586926
 30
0.0
 11
4221.528827043783
 21
1254.033719848345
 31
0.0
  0
LINE
  5
417C
330
39CB
100
AcDbEntity
  8
sunpou
100
AcDbLine
 10
4006.528827043787
 20
1266.533719848345
 30
0.0
 11
4196.528827043784
 21
1266.533719848345
 31
0.0
  0
INSERT
  5
417D
330
39CB
100
AcDbEntity
  8
sunpou
100
AcDbBlockReference
  2
_Open
 10
3981.528827043788
 20
1266.533719848345
 30
0.0
 41
25.0
 42
25.0
 43
25.0
 50
180.0
  0
INSERT
  5
417E
330
39CB
100
AcDbEntity
  8
sunpou
100
AcDbBlockReference
  2
_Open
 10
4221.528827043783
 20
1266.533719848345
 30
0.0
 41
25.0
 42
25.0
 43
25.0
  0
MTEXT
  5
417F
330
39CB
100
AcDbEntity
  8
sunpou
100
AcDbMText
 10
4101.528827043785
 20
1287.783719848345
 30
0.0
 40
30.0
 41
0.0
 71
     5
 72
     1
  1
\A1;240
  7
BIGFONT
 73
     1
 44
1.0
  0
POINT
  5
4180
330
39CB
100
AcDbEntity
  8
DEFPOINTS
 62
     0
100
AcDbPoint
 10
3981.528827043788
 20
1424.375088586926
 30
0.0
  0
POINT
  5
4181
330
39CB
100
AcDbEntity
  8
DEFPOINTS
 62
     0
100
AcDbPoint
 10
4221.528827043783
 20
1424.375088586926
 30
0.0
  0
POINT
  5
4182
330
39CB
100
AcDbEntity
  8
DEFPOINTS
 62
     0
100
AcDbPoint
 10
4221.528827043783
 20
1266.533719848345
 30
0.0
  0
ENDBLK
  5
39CD
330
39CB
100
AcDbEntity
  8
0
100
AcDbBlockEnd
  0
BLOCK
  5
39D8
330
39D7
100
AcDbEntity
  8
0
100
AcDbBlockBegin
  2
*D45
 70
     1
 10
0.0
 20
0.0
 30
0.0
  3
*D45
  1

  0
LINE
  5
4183
330
39D7
100
AcDbEntity
  8
sunpou
100
AcDbLine
 10
3871.528827043786
 20
1430.579275689695
 30
0.0
 11
3871.528827043786
 21
1254.033719848345
 31
0.0
  0
LINE
  5
4184
330
39D7
100
AcDbEntity
  8
sunpou
100
AcDbLine
 10
3981.528827043788
 20
1418.125088586926
 30
0.0
 11
3981.528827043788
 21
1254.033719848345
 31
0.0
  0
LINE
  5
4185
330
39D7
100
AcDbEntity
  8
sunpou
100
AcDbLine
 10
3896.528827043786
 20
1266.533719848345
 30
0.0
 11
3956.528827043788
 21
1266.533719848345
 31
0.0
  0
INSERT
  5
4186
330
39D7
100
AcDbEntity
  8
sunpou
100
AcDbBlockReference
  2
_Open
 10
3871.528827043786
 20
1266.533719848345
 30
0.0
 41
25.0
 42
25.0
 43
25.0
 50
180.0
  0
INSERT
  5
4187
330
39D7
100
AcDbEntity
  8
sunpou
100
AcDbBlockReference
  2
_Open
 10
3981.528827043788
 20
1266.533719848345
 30
0.0
 41
25.0
 42
25.0
 43
25.0
  0
MTEXT
  5
4188
330
39D7
100
AcDbEntity
  8
sunpou
100
AcDbMText
 10
3921.947469295592
 20
1287.783719848345
 30
0.0
 40
30.0
 41
0.0
 71
     5
 72
     1
  1
\A1;110
  7
BIGFONT
 73
     1
 44
1.0
  0
POINT
  5
4189
330
39D7
100
AcDbEntity
  8
DEFPOINTS
 62
     0
100
AcDbPoint
 10
3871.528827043786
 20
1436.829275689696
 30
0.0
  0
POINT
  5
418A
330
39D7
100
AcDbEntity
  8
DEFPOINTS
 62
     0
100
AcDbPoint
 10
3981.528827043788
 20
1424.375088586926
 30
0.0
  0
POINT
  5
418B
330
39D7
100
AcDbEntity
  8
DEFPOINTS
 62
     0
100
AcDbPoint
 10
3981.528827043788
 20
1266.533719848345
 30
0.0
  0
ENDBLK
  5
39D9
330
39D7
100
AcDbEntity
  8
0
100
AcDbBlockEnd
  0
BLOCK
  5
39E4
330
39E3
100
AcDbEntity
  8
0
100
AcDbBlockBegin
  2
*D46
 70
     1
 10
0.0
 20
0.0
 30
0.0
  3
*D46
  1

  0
LINE
  5
418C
330
39E3
100
AcDbEntity
  8
sunpou
100
AcDbLine
 10
3219.335918587869
 20
536.2915455362879
 30
0.0
 11
3219.335918587869
 21
628.6181573995434
 31
0.0
  0
LINE
  5
418D
330
39E3
100
AcDbEntity
  8
sunpou
100
AcDbLine
 10
3679.335918587868
 20
536.2915455362879
 30
0.0
 11
3679.335918587868
 21
628.6181573995434
 31
0.0
  0
LINE
  5
418E
330
39E3
100
AcDbEntity
  8
sunpou
100
AcDbLine
 10
3244.335918587869
 20
616.1181573995434
 30
0.0
 11
3654.335918587868
 21
616.1181573995434
 31
0.0
  0
INSERT
  5
418F
330
39E3
100
AcDbEntity
  8
sunpou
100
AcDbBlockReference
  2
_Open
 10
3219.335918587869
 20
616.1181573995434
 30
0.0
 41
25.0
 42
25.0
 43
25.0
 50
180.0
  0
INSERT
  5
4190
330
39E3
100
AcDbEntity
  8
sunpou
100
AcDbBlockReference
  2
_Open
 10
3679.335918587868
 20
616.1181573995434
 30
0.0
 41
25.0
 42
25.0
 43
25.0
  0
MTEXT
  5
4191
330
39E3
100
AcDbEntity
  8
sunpou
100
AcDbMText
 10
3443.132671444621
 20
637.3681573995433
 30
0.0
 40
30.0
 41
0.0
 71
     5
 72
     1
  1
\A1;460
  7
BIGFONT
 73
     1
 44
1.0
  0
POINT
  5
4192
330
39E3
100
AcDbEntity
  8
DEFPOINTS
 62
     0
100
AcDbPoint
 10
3219.335918587869
 20
530.0415455362879
 30
0.0
  0
POINT
  5
4193
330
39E3
100
AcDbEntity
  8
DEFPOINTS
 62
     0
100
AcDbPoint
 10
3679.335918587868
 20
530.0415455362879
 30
0.0
  0
POINT
  5
4194
330
39E3
100
AcDbEntity
  8
DEFPOINTS
 62
     0
100
AcDbPoint
 10
3679.335918587868
 20
616.1181573995434
 30
0.0
  0
ENDBLK
  5
39E5
330
39E3
100
AcDbEntity
  8
0
100
AcDbBlockEnd
  0
ENDSEC
  0
SECTION
  2
ENTITIES
  0
TEXT
  5
2D46
330
1A
100
AcDbEntity
  8
0
100
AcDbText
 10
1031.46937667199
 20
2887.279767915965
 30
0.0
 40
50.0
  1
浸透性管渠型側溝EX-300 構造図
  7
BIGFONT
100
AcDbText
  0
TEXT
  5
2D80
330
1A
100
AcDbEntity
  8
0
100
AcDbText
 10
2094.169722175306
 20
2884.112031492019
 30
0.0
 40
40.0
  1
S=1/10
  7
BIGFONT
100
AcDbText
  0
LINE
  5
3265
330
1A
100
AcDbEntity
  8
TB
 48
3.0
100
AcDbLine
 10
1966.472914565646
 20
2251.83370054527
 30
0.0
 11
1966.472914565652
 21
1426.833700545269
 31
0.0
  0
LINE
  5
3266
330
1A
100
AcDbEntity
  8
TB
 48
3.0
100
AcDbLine
 10
1196.472914565647
 20
2251.83370054527
 30
0.0
 11
1196.472914565652
 21
1426.83370054527
 31
0.0
  0
DIMENSION
  5
3267
330
1A
100
AcDbEntity
  8
sunpou
 48
3.0
100
AcDbDimension
  2
*D17
 10
2142.725163363766
 20
1441.833700545269
 30
0.0
 11
2142.725163363765
 21
1861.123027856489
 31
0.0
 70
   160
 71
     5
 42
800.0
  3
ISO-25
100
AcDbAlignedDimension
 13
1956.472914565646
 23
2241.833700545269
 33
0.0
 14
1956.472914565651
 24
1441.833700545269
 34
0.0
 50
90.0
100
AcDbRotatedDimension
1001
ACAD
1000
DSTYLE
1002
{
1070
    40
1040
10.0
1070
    73
1070
     0
1070
   140
1040
3.0
1070
   171
1070
     4
1070
   176
1070
   256
1070
   177
1070
   256
1070
   178
1070
   256
1070
   271
1070
     0
1070
   272
1070
     0
1070
   273
1070
     8
1070
   274
1070
     4
1070
   288
1070
     1
1070
   340
1005
2BF5
1070
   341
1005
2A96
1070
   342
1005
2A96
1070
   371
1070
    -1
1070
   372
1070
    -1
1002
}
  0
DIMENSION
  5
3268
330
1A
100
AcDbEntity
  8
sunpou
 48
3.0
100
AcDbDimension
  2
*D18
 10
2058.788003101706
 20
1491.833700545269
 30
0.0
 11
2037.538003101705
 21
1648.091039618129
 31
0.0
 70
    32
 71
     5
 42
312.5146781457179
  3
ISO-25
100
AcDbAlignedDimension
 13
1966.472914565649
 23
1804.348378690987
 33
0.0
 14
1956.472914565651
 24
1491.833700545269
 34
0.0
 50
90.0
100
AcDbRotatedDimension
1001
ACAD
1000
DSTYLE
1002
{
1070
    40
1040
10.0
1070
    73
1070
     0
1070
   140
1040
3.0
1070
   171
1070
     4
1070
   176
1070
   256
1070
   177
1070
   256
1070
   178
1070
   256
1070
   271
1070
     0
1070
   272
1070
     0
1070
   273
1070
     8
1070
   274
1070
     4
1070
   288
1070
     1
1070
   340
1005
2BF5
1070
   341
1005
2A96
1070
   342
1005
2A96
1070
   371
1070
    -1
1070
   372
1070
    -1
1002
}
  0
LINE
  5
3269
330
1A
100
AcDbEntity
  8
0
 48
3.0
100
AcDbLine
 10
1206.472914565647
 20
2241.833700545269
 30
0.0
 11
1206.472914565651
 21
1441.833700545269
 31
0.0
  0
LINE
  5
326A
330
1A
100
AcDbEntity
  8
0
 48
3.0
100
AcDbLine
 10
1956.472914565646
 20
2241.833700545269
 30
0.0
 11
1956.472914565651
 21
1441.833700545269
 31
0.0
  0
DIMENSION
  5
326C
330
1A
100
AcDbEntity
  8
sunpou
 48
3.0
100
AcDbDimension
  2
*D19
 10
1206.472914565651
 20
1214.826086781094
 30
0.0
 11
1589.553173444353
 21
1214.826086781094
 31
0.0
 70
   160
 71
     5
 42
750.0
  3
ISO-25
100
AcDbAlignedDimension
 13
1956.472914565651
 23
1405.058005535274
 33
0.0
 14
1206.472914565651
 24
1405.058005535274
 34
0.0
100
AcDbRotatedDimension
1001
ACAD
1000
DSTYLE
1002
{
1070
    40
1040
10.0
1070
    73
1070
     0
1070
   140
1040
3.0
1070
   171
1070
     4
1070
   176
1070
   256
1070
   177
1070
   256
1070
   178
1070
   256
1070
   271
1070
     0
1070
   272
1070
     0
1070
   273
1070
     8
1070
   274
1070
     4
1070
   288
1070
     1
1070
   340
1005
2BF5
1070
   341
1005
2A96
1070
   342
1005
2A96
1070
   371
1070
    -1
1070
   372
1070
    -1
1002
}
  0
LINE
  5
326E
330
1A
100
AcDbEntity
  8
0
 48
3.0
100
AcDbLine
 10
1206.472914565651
 20
1441.833700545269
 30
0.0
 11
1956.472914565651
 21
1441.833700545269
 31
0.0
  0
DIMENSION
  5
326F
330
1A
100
AcDbEntity
  8
sunpou
 48
3.0
100
AcDbDimension
  2
*D20
 10
2058.788003101706
 20
1441.833700545269
 30
0.0
 11
2037.538003101705
 21
1361.297986259555
 31
0.0
 70
    32
 71
     5
 42
50.0
  3
ISO-25
100
AcDbAlignedDimension
 13
1956.472914565651
 23
1491.833700545269
 33
0.0
 14
1956.472914565651
 24
1441.833700545269
 34
0.0
 50
90.0
100
AcDbRotatedDimension
1001
ACAD
1000
DSTYLE
1002
{
1070
    40
1040
10.0
1070
    73
1070
     0
1070
   140
1040
3.0
1070
   171
1070
     4
1070
   176
1070
   256
1070
   177
1070
   256
1070
   178
1070
   256
1070
   271
1070
     0
1070
   272
1070
     0
1070
   273
1070
     8
1070
   274
1070
     4
1070
   288
1070
     1
1070
   340
1005
2BF5
1070
   341
1005
2A96
1070
   342
1005
2A96
1070
   371
1070
    -1
1070
   372
1070
    -1
1002
}
  0
LINE
  5
3270
330
1A
100
AcDbEntity
  8
TB
 48
3.0
100
AcDbLine
 10
1811.472914565646
 20
2251.83370054527
 30
0.0
 11
1966.472914565646
 21
2251.83370054527
 31
0.0
  0
LINE
  5
3271
330
1A
100
AcDbEntity
  8
0
100
AcDbLine
 10
1281.472914565646
 20
1804.348378690987
 30
0.0
 11
1881.472914565646
 21
1804.348378690987
 31
0.0
  0
LINE
  5
3272
330
1A
100
AcDbEntity
  8
0
 48
3.0
100
AcDbLine
 10
1811.472914565646
 20
2241.833700545269
 30
0.0
 11
1956.472914565646
 21
2241.833700545269
 31
0.0
  0
DIMENSION
  5
3273
330
1A
100
AcDbEntity
  8
sunpou
 48
3.0
100
AcDbDimension
  2
*D21
 10
2142.539127500766
 20
2241.833700545269
 30
0.0
 11
2142.539127500765
 21
2315.209166768758
 31
0.0
 70
   160
 71
     5
 42
150.0
  3
ISO-25
100
AcDbAlignedDimension
 13
1885.224038964706
 23
2391.833700545269
 33
0.0
 14
2040.224038964706
 24
2241.833700545269
 34
0.0
 50
90.0
100
AcDbRotatedDimension
1001
ACAD
1000
DSTYLE
1002
{
1070
    40
1040
10.0
1070
    73
1070
     0
1070
   140
1040
3.0
1070
   171
1070
     4
1070
   176
1070
   256
1070
   177
1070
   256
1070
   178
1070
   256
1070
   271
1070
     0
1070
   272
1070
     0
1070
   273
1070
     8
1070
   274
1070
     4
1070
   288
1070
     1
1070
   340
1005
2BF5
1070
   341
1005
2A96
1070
   342
1005
2A96
1070
   371
1070
    -1
1070
   372
1070
    -1
1002
}
  0
LINE
  5
3274
330
1A
100
AcDbEntity
  8
0
 48
3.0
100
AcDbLine
 10
1776.623401571388
 20
2391.833700545269
 30
0.0
 11
2256.62340157139
 21
2391.833700545269
 31
0.0
  0
LINE
  5
3276
330
1A
100
AcDbEntity
  8
0
100
AcDbLine
 10
1281.472914565646
 20
1904.348378690987
 30
0.0
 11
1881.472914565646
 21
1904.348378690988
 31
0.0
  0
LINE
  5
3277
330
1A
100
AcDbEntity
  8
TB
 48
3.0
100
AcDbLine
 10
1196.472914565647
 20
2251.83370054527
 30
0.0
 11
1351.472914565647
 21
2251.83370054527
 31
0.0
  0
LINE
  5
3278
330
1A
100
AcDbEntity
  8
0
 48
3.0
100
AcDbLine
 10
1206.472914565647
 20
2241.833700545269
 30
0.0
 11
1351.472914565647
 21
2241.833700545269
 31
0.0
  0
LINE
  5
3279
330
1A
100
AcDbEntity
  8
0
 48
3.0
100
AcDbLine
 10
1361.472914565647
 20
2391.833700545269
 30
0.0
 11
881.4729145656484
 21
2391.833700545268
 31
0.0
  0
LINE
  5
327A
330
1A
100
AcDbEntity
  8
0
 48
3.0
100
AcDbLine
 10
1281.472914565646
 20
1904.348378690987
 30
0.0
 11
1281.472914565646
 21
1804.348378690987
 31
0.0
  0
LINE
  5
327B
330
1A
100
AcDbEntity
  8
0
 48
3.0
100
AcDbLine
 10
1083.90208777349
 20
2391.833700545269
 30
0.0
 11
1038.90208777349
 21
2346.833700545269
 31
0.0
  0
LINE
  5
327C
330
1A
100
AcDbEntity
  8
0
 48
3.0
100
AcDbLine
 10
963.9020877734902
 20
2391.833700545269
 30
0.0
 11
918.9020877734902
 21
2346.833700545268
 31
0.0
  0
LINE
  5
327D
330
1A
100
AcDbEntity
  8
0
 48
3.0
100
AcDbLine
 10
993.9020877734902
 20
2361.833700545268
 30
0.0
 11
1008.90208777349
 21
2346.833700545268
 31
0.0
  0
LINE
  5
327E
330
1A
100
AcDbEntity
  8
0
 48
3.0
100
AcDbLine
 10
1023.90208777349
 20
2391.833700545269
 30
0.0
 11
978.9020877734902
 21
2346.833700545268
 31
0.0
  0
LINE
  5
327F
330
1A
100
AcDbEntity
  8
0
 48
3.0
100
AcDbLine
 10
993.9020877734902
 20
2391.833700545269
 30
0.0
 11
948.9020877734892
 21
2346.833700545268
 31
0.0
  0
LINE
  5
3280
330
1A
100
AcDbEntity
  8
0
 48
3.0
100
AcDbLine
 10
1008.90208777349
 20
2376.83370054527
 30
0.0
 11
1038.90208777349
 21
2346.833700545268
 31
0.0
  0
LINE
  5
3281
330
1A
100
AcDbEntity
  8
0
 48
3.0
100
AcDbLine
 10
1023.90208777349
 20
2391.833700545269
 30
0.0
 11
1053.90208777349
 21
2361.83370054527
 31
0.0
  0
LINE
  5
3282
330
1A
100
AcDbEntity
  8
0
 48
3.0
100
AcDbLine
 10
1128.90208777349
 20
2376.83370054527
 30
0.0
 11
1158.90208777349
 21
2346.833700545269
 31
0.0
  0
LINE
  5
3283
330
1A
100
AcDbEntity
  8
0
 48
3.0
100
AcDbLine
 10
1143.90208777349
 20
2391.833700545269
 30
0.0
 11
1098.90208777349
 21
2346.833700545268
 31
0.0
  0
LINE
  5
3284
330
1A
100
AcDbEntity
  8
0
 48
3.0
100
AcDbLine
 10
1113.90208777349
 20
2361.833700545268
 30
0.0
 11
1128.902087773489
 21
2346.833700545269
 31
0.0
  0
LINE
  5
3285
330
1A
100
AcDbEntity
  8
0
 48
3.0
100
AcDbLine
 10
1113.90208777349
 20
2391.833700545269
 30
0.0
 11
1068.90208777349
 21
2346.833700545268
 31
0.0
  0
LINE
  5
3286
330
1A
100
AcDbEntity
  8
0
 48
3.0
100
AcDbLine
 10
1143.90208777349
 20
2391.833700545269
 30
0.0
 11
1188.902087773489
 21
2346.833700545269
 31
0.0
  0
LINE
  5
3287
330
1A
100
AcDbEntity
  8
0
100
AcDbLine
 10
1811.472914565646
 20
2381.83370054527
 30
0.0
 11
1811.472914565646
 21
1968.848378690987
 31
0.0
  0
LINE
  5
3288
330
1A
100
AcDbEntity
  8
0
100
AcDbLine
 10
1753.486519283584
 20
2243.995863187214
 30
0.0
 11
1743.344139112604
 21
2041.148259767628
 31
0.0
  0
LINE
  5
3289
330
1A
100
AcDbEntity
  8
0
100
AcDbLine
 10
1738.505234200416
 20
2244.744927441371
 30
0.0
 11
1728.362854029436
 21
2041.897324021787
 31
0.0
  0
LINE
  5
328A
330
1A
100
AcDbEntity
  8
0
100
AcDbLine
 10
1728.517710811638
 20
2245.24430361081
 30
0.0
 11
1716.472914565646
 21
2004.348378690989
 31
0.0
  0
LINE
  5
328B
330
1A
100
AcDbEntity
  8
0
100
AcDbLine
 10
1351.472914565647
 20
2381.83370054527
 30
0.0
 11
1351.472914565647
 21
1968.848378690987
 31
0.0
  0
LINE
  5
328C
330
1A
100
AcDbEntity
  8
0
100
AcDbLine
 10
1424.440594930876
 20
2244.744927441371
 30
0.0
 11
1434.582975101857
 21
2041.897324021785
 31
0.0
  0
LINE
  5
328D
330
1A
100
AcDbEntity
  8
0
100
AcDbLine
 10
1409.459309847709
 20
2243.995863187214
 30
0.0
 11
1419.601690018689
 21
2041.148259767628
 31
0.0
  0
LINE
  5
328E
330
1A
100
AcDbEntity
  8
0
100
AcDbLine
 10
1434.428118319655
 20
2245.24430361081
 30
0.0
 11
1446.472914565648
 21
2004.348378690989
 31
0.0
  0
HATCH
  5
328F
330
1A
100
AcDbEntity
  8
saiseki
100
AcDbHatch
 10
0.0
 20
0.0
 30
0.0
210
0.0
220
0.0
230
1.0
  2
HONEY
 70
     0
 71
     0
 91
        2
 92
        7
 72
     0
 73
     1
 93
        5
 10
1811.472914565646
 20
2251.851497843794
 10
1728.848070523287
 20
2251.851497843794
 10
1718.348070523287
 20
2041.851497843794
 10
1810.046125510107
 20
2041.851497843794
 10
1811.472914565646
 20
2044.348378690989
 97
        0
 92
        7
 72
     0
 73
     1
 93
        5
 10
1434.097758608006
 20
2251.851497843794
 10
1351.472914565646
 20
2251.851497843794
 10
1351.472914565646
 20
2044.348378690987
 10
1352.899703621186
 20
2041.851497843794
 10
1444.597758608008
 20
2041.851497843794
 97
        0
 75
     0
 76
     1
 52
15.0
 41
100.0
 77
     0
 78
     3
 53
15.0
 43
481.4712849893275
 44
1004.348378690987
 45
15.30931090463842
 46
15.30931084670127
 79
     2
 49
12.5
 49
-25.0
 53
135.0
 43
481.4712849893275
 44
1004.348378690987
 45
-20.91290755999516
 46
5.603596734500367
 79
     2
 49
12.5
 49
-25.0
 53
74.99999999999999
 43
481.4712849893275
 44
1004.348378690987
 45
-5.603596655356741
 46
20.91290758120164
 79
     2
 49
-25.0
 49
12.5
 47
1.947723445783793
 98
        2
 10
1763.24705318879
 20
2142.17152452798
 10
1398.772149701368
 20
2167.491929669635
  0
LINE
  5
3290
330
1A
100
AcDbEntity
  8
0
100
AcDbLine
 10
1684.707498033166
 20
1971.679551524624
 30
0.0
 11
1581.472914565647
 21
1948.738532976285
 31
0.0
  0
LINE
  5
3291
330
1A
100
AcDbEntity
  8
0
100
AcDbLine
 10
1681.453541165887
 20
1986.322357427382
 30
0.0
 11
1581.472914565647
 21
1964.104440405107
 31
0.0
  0
LINE
  5
3292
330
1A
100
AcDbEntity
  8
0
100
AcDbLine
 10
1716.472914565646
 20
2004.348378690989
 30
0.0
 11
1581.472914565648
 21
1974.348378690988
 31
0.0
  0
LWPOLYLINE
  5
3293
330
1A
100
AcDbEntity
  8
TB
100
AcDbPolyline
 90
        9
 70
     0
 43
0.0
 10
1370.371336082899
 20
2003.537744331031
 10
1402.796906679902
 20
1933.698053814398
 10
1420.505744639057
 20
1962.703908027813
 42
0.198912
 10
1421.098135940093
 20
1966.484613397491
 10
1415.827266535918
 20
1988.280370663408
 42
0.09902
 10
1415.001399043929
 20
1990.059162184616
 10
1402.431544809227
 20
2007.224446999749
 42
0.294108
 10
1397.377520290854
 20
2009.165241627815
 10
1370.371336082899
 20
2003.537744331031
  0
LINE
  5
3294
330
1A
100
AcDbEntity
  8
0
100
AcDbLine
 10
1446.472914565648
 20
2004.348378690989
 30
0.0
 11
1581.472914565646
 21
1974.348378690988
 31
0.0
  0
ARC
  5
3295
330
1A
100
AcDbEntity
  8
0
100
AcDbCircle
 10
1494.508115434528
 20
2044.893581038419
 30
0.0
 40
75.0
100
AcDbArc
 50
182.8624052260997
 51
257.4711922908156
  0
LINE
  5
3296
330
1A
100
AcDbEntity
  8
0
100
AcDbLine
 10
1416.472914565646
 20
1904.348378690988
 30
0.0
 11
1351.472914565647
 21
2044.348378690987
 31
0.0
  0
ARC
  5
3297
330
1A
100
AcDbEntity
  8
0
100
AcDbCircle
 10
1494.508115434528
 20
2044.893581038419
 30
0.0
 40
60.0
100
AcDbArc
 50
182.8624052260997
 51
257.4711922908156
  0
ARC
  5
3298
330
1A
100
AcDbEntity
  8
0
100
AcDbCircle
 10
1494.508115434528
 20
2044.893581038419
 30
0.0
 40
50.0
100
AcDbArc
 50
182.8624052260997
 51
257.4711922908156
  0
LWPOLYLINE
  5
3299
330
1A
100
AcDbEntity
  8
TB
100
AcDbPolyline
 90
        7
 70
     0
 43
0.0
 10
1378.372450905537
 20
1986.304573943809
 10
1389.321344873356
 20
1962.722340782349
 10
1404.865821961078
 20
1974.508222107316
 42
0.352819
 10
1406.379988886542
 20
1980.598034897021
 10
1403.03621940878
 20
1987.799999926047
 42
0.352819
 10
1397.407052178912
 20
1990.573264715063
 10
1378.372450905537
 20
1986.304573943809
  0
LINE
  5
329A
330
1A
100
AcDbEntity
  8
0
100
AcDbLine
 10
1351.472914565646
 20
1968.848378690987
 30
0.0
 11
1391.169343137075
 21
1958.848378690986
 31
0.0
  0
LINE
  5
329B
330
1A
100
AcDbEntity
  8
0
100
AcDbLine
 10
1481.492287965409
 20
1986.322357427382
 30
0.0
 11
1581.472914565647
 21
1964.104440405107
 31
0.0
  0
LINE
  5
329C
330
1A
100
AcDbEntity
  8
0
100
AcDbLine
 10
1478.238331098128
 20
1971.679551524624
 30
0.0
 11
1581.472914565647
 21
1948.738532976285
 31
0.0
  0
LWPOLYLINE
  5
329D
330
1A
100
AcDbEntity
  8
TB
100
AcDbPolyline
 90
        9
 70
     0
 43
0.0
 10
1792.574493048393
 20
2003.537744331031
 10
1760.148922451391
 20
1933.698053814398
 10
1742.440084492235
 20
1962.703908027813
 42
-0.198912
 10
1741.8476931912
 20
1966.484613397491
 10
1747.118562595375
 20
1988.280370663408
 42
-0.09902
 10
1747.944430087364
 20
1990.059162184616
 10
1760.514284322065
 20
2007.224446999749
 42
-0.294108
 10
1765.568308840438
 20
2009.165241627815
 10
1792.574493048393
 20
2003.537744331031
  0
ARC
  5
329E
330
1A
100
AcDbEntity
  8
0
100
AcDbCircle
 10
1668.437713696767
 20
2044.893581038419
 30
0.0
 40
75.0
100
AcDbArc
 50
282.5288077091844
 51
357.1375947739003
  0
ARC
  5
329F
330
1A
100
AcDbEntity
  8
0
100
AcDbCircle
 10
1668.437713696767
 20
2044.893581038419
 30
0.0
 40
60.0
100
AcDbArc
 50
282.5288077091844
 51
357.1375947739003
  0
ARC
  5
32A0
330
1A
100
AcDbEntity
  8
0
100
AcDbCircle
 10
1668.437713696767
 20
2044.893581038419
 30
0.0
 40
50.0
100
AcDbArc
 50
282.5288077091844
 51
357.1375947739003
  0
LINE
  5
32A1
330
1A
100
AcDbEntity
  8
0
100
AcDbLine
 10
1746.472914565647
 20
1904.348378690988
 30
0.0
 11
1811.472914565646
 21
2044.348378690987
 31
0.0
  0
LWPOLYLINE
  5
32A2
330
1A
100
AcDbEntity
  8
TB
100
AcDbPolyline
 90
        7
 70
     0
 43
0.0
 10
1784.573378225756
 20
1986.304573943809
 10
1773.624484257937
 20
1962.722340782349
 10
1758.080007170215
 20
1974.508222107316
 42
-0.352819
 10
1756.565840244751
 20
1980.598034897021
 10
1759.909609722513
 20
1987.799999926047
 42
-0.352819
 10
1765.538776952381
 20
1990.573264715063
 10
1784.573378225756
 20
1986.304573943809
  0
LINE
  5
32A3
330
1A
100
AcDbEntity
  8
0
100
AcDbLine
 10
1811.472914565649
 20
1968.848378690987
 30
0.0
 11
1771.77648599422
 21
1958.848378690986
 31
0.0
  0
LINE
  5
32A4
330
1A
100
AcDbEntity
  8
0
100
AcDbLine
 10
1811.472914565646
 20
2349.83370054527
 30
0.0
 11
1351.472914565647
 21
2349.83370054527
 31
0.0
  0
LINE
  5
32A5
330
1A
100
AcDbEntity
  8
0
100
AcDbLine
 10
1811.472914565646
 20
2339.83370054527
 30
0.0
 11
1351.472914565647
 21
2339.83370054527
 31
0.0
  0
LINE
  5
32A6
330
1A
100
AcDbEntity
  8
0
100
AcDbLine
 10
1801.472914565646
 20
2391.833700545269
 30
0.0
 11
1511.472914565646
 21
2374.833700545269
 31
0.0
  0
LINE
  5
32A7
330
1A
100
AcDbEntity
  8
0
100
AcDbLine
 10
1581.472914565644
 20
2329.404244058246
 30
0.0
 11
1683.585630829345
 21
2322.573962033918
 31
0.0
  0
LINE
  5
32A8
330
1A
100
AcDbEntity
  8
0
100
AcDbLine
 10
1581.472914565647
 20
2314.370724837891
 30
0.0
 11
1682.584523437024
 21
2307.607406518736
 31
0.0
  0
LINE
  5
32A9
330
1A
100
AcDbEntity
  8
0
100
AcDbLine
 10
1581.472914565646
 20
2304.348378690988
 30
0.0
 11
1681.917118508811
 21
2297.629702841948
 31
0.0
  0
ARC
  5
32AA
330
1A
100
AcDbEntity
  8
0
100
AcDbCircle
 10
1484.365735263547
 20
2247.741184458006
 30
0.0
 40
75.0
100
AcDbArc
 50
93.82679309814784
 51
182.8624052260997
  0
ARC
  5
32AB
330
1A
100
AcDbEntity
  8
0
100
AcDbCircle
 10
1484.365735263547
 20
2247.741184458006
 30
0.0
 40
60.0
100
AcDbArc
 50
93.82679309814784
 51
182.8624052260997
  0
ARC
  5
32AC
330
1A
100
AcDbEntity
  8
0
100
AcDbCircle
 10
1484.365735263547
 20
2247.741184458006
 30
0.0
 40
50.0
100
AcDbArc
 50
93.82679309814784
 51
182.8624052260997
  0
LINE
  5
32AD
330
1A
100
AcDbEntity
  8
0
100
AcDbLine
 10
1511.472914565644
 20
2374.833700545269
 30
0.0
 11
1391.472914565646
 21
2391.833700545269
 31
0.0
  0
LWPOLYLINE
  5
32AE
330
1A
100
AcDbEntity
  8
TB
100
AcDbPolyline
 90
        7
 70
     0
 43
0.0
 10
1351.472914565646
 20
2332.853027925921
 10
1351.472914565646
 20
2306.85302792592
 10
1370.535062565646
 20
2310.996972925919
 42
0.352819
 10
1374.472914565646
 20
2315.882854925919
 10
1374.472914565646
 20
2323.82320092592
 42
0.352819
 10
1370.535062565646
 20
2328.709082925919
 10
1351.472914565646
 20
2332.853027925921
  0
LWPOLYLINE
  5
32AF
330
1A
100
AcDbEntity
  8
TB
100
AcDbPolyline
 90
        9
 70
     0
 43
0.0
 10
1351.472914565646
 20
2351.85302792592
 10
1351.472914565646
 20
2274.85302792592
 10
1379.749682565646
 20
2293.70420592592
 42
0.198912
 10
1381.879084565647
 20
2296.883876925919
 10
1386.276798565646
 20
2318.872446925919
 42
0.09902
 10
1386.276798565646
 20
2320.83360892592
 10
1382.104323565646
 20
2341.695983925919
 42
0.294108
 10
1378.337568565646
 20
2345.58460892592
 10
1351.472914565646
 20
2351.85302792592
  0
LINE
  5
32B0
330
1A
100
AcDbEntity
  8
0
100
AcDbLine
 10
1391.472914565645
 20
2391.833700545269
 30
0.0
 11
1361.472914565647
 21
2391.833700545269
 31
0.0
  0
LINE
  5
32B1
330
1A
100
AcDbEntity
  8
0
100
AcDbLine
 10
1351.472914565647
 20
2381.83370054527
 30
0.0
 11
1361.472914565647
 21
2391.833700545269
 31
0.0
  0
LINE
  5
32B2
330
1A
100
AcDbEntity
  8
0
100
AcDbLine
 10
1581.472914565647
 20
2314.370724837891
 30
0.0
 11
1480.361305694268
 21
2307.607406518736
 31
0.0
  0
LINE
  5
32B3
330
1A
100
AcDbEntity
  8
0
100
AcDbLine
 10
1581.472914565646
 20
2304.348378690988
 30
0.0
 11
1481.028710622481
 21
2297.629702841948
 31
0.0
  0
LINE
  5
32B4
330
1A
100
AcDbEntity
  8
0
100
AcDbLine
 10
1581.472914565644
 20
2329.404244058246
 30
0.0
 11
1479.360198301948
 21
2322.573962033918
 31
0.0
  0
ARC
  5
32B5
330
1A
100
AcDbEntity
  8
0
100
AcDbCircle
 10
1678.580093867745
 20
2247.741184458006
 30
0.0
 40
75.0
100
AcDbArc
 50
357.1375947739003
 51
86.17320690185215
  0
ARC
  5
32B6
330
1A
100
AcDbEntity
  8
0
100
AcDbCircle
 10
1678.580093867745
 20
2247.741184458006
 30
0.0
 40
60.0
100
AcDbArc
 50
357.1375947739003
 51
86.17320690185215
  0
ARC
  5
32B7
330
1A
100
AcDbEntity
  8
0
100
AcDbCircle
 10
1678.580093867745
 20
2247.741184458006
 30
0.0
 40
50.0
100
AcDbArc
 50
357.1375947739003
 51
86.17320690185215
  0
LWPOLYLINE
  5
32B8
330
1A
100
AcDbEntity
  8
TB
100
AcDbPolyline
 90
        7
 70
     0
 43
0.0
 10
1811.472914565646
 20
2332.853027925921
 10
1811.472914565646
 20
2306.85302792592
 10
1792.410766565646
 20
2310.996972925919
 42
-0.352819
 10
1788.472914565646
 20
2315.882854925919
 10
1788.472914565646
 20
2323.82320092592
 42
-0.352819
 10
1792.410766565646
 20
2328.709082925919
 10
1811.472914565646
 20
2332.853027925921
  0
LWPOLYLINE
  5
32B9
330
1A
100
AcDbEntity
  8
TB
100
AcDbPolyline
 90
        9
 70
     0
 43
0.0
 10
1811.472914565646
 20
2351.85302792592
 10
1811.472914565646
 20
2274.85302792592
 10
1783.196146565647
 20
2293.70420592592
 42
-0.198912
 10
1781.066744565646
 20
2296.883876925919
 10
1776.669030565647
 20
2318.872446925919
 42
-0.09902
 10
1776.669030565647
 20
2320.83360892592
 10
1780.841505565646
 20
2341.695983925919
 42
-0.294108
 10
1784.608260565646
 20
2345.58460892592
 10
1811.472914565646
 20
2351.85302792592
  0
LINE
  5
32BA
330
1A
100
AcDbEntity
  8
0
100
AcDbLine
 10
1811.472914565646
 20
2381.83370054527
 30
0.0
 11
1801.472914565646
 21
2391.833700545269
 31
0.0
  0
LINE
  5
32BB
330
1A
100
AcDbEntity
  8
0
 48
3.0
100
AcDbLine
 10
1881.472914565646
 20
1904.348378690988
 30
0.0
 11
1881.472914565646
 21
1804.348378690987
 31
0.0
  0
LEADER
  5
343E
330
1A
100
AcDbEntity
  8
sunpou
100
AcDbLeader
  3
ISO-25
 73
     0
 75
     1
 40
30.0
 41
316.0
 76
     3
 10
1440.26044663966
 20
1860.82295554488
 30
0.0
 10
1192.93155537576
 20
1577.752762032303
 30
0.0
 10
1167.93155537576
 20
1577.752762032303
 30
0.0
340
343F
213
0.0
223
-8.953556552835834
233
0.0
1001
ACAD
1000
DSTYLE
1002
{
1070
   147
1040
0.625
1070
    77
1070
     0
1070
    40
1040
10.0
1070
    73
1070
     0
1070
   140
1040
3.0
1070
   171
1070
     4
1070
   176
1070
   256
1070
   177
1070
   256
1070
   178
1070
   256
1070
   271
1070
     0
1070
   272
1070
     0
1070
   273
1070
     8
1070
   274
1070
     4
1070
   288
1070
     1
1070
   340
1005
2BF5
1070
   341
1005
2A96
1070
   342
1005
2A96
1070
   371
1070
    -1
1070
   372
1070
    -1
1002
}
  0
MTEXT
  5
343F
102
{ACAD_REACTORS
330
343E
102
}
330
1A
100
AcDbEntity
  8
sunpou
100
AcDbMText
 10
1161.68155537576
 20
1586.706318585139
 30
0.0
 40
30.0
 41
0.0
 71
     9
 72
     1
  1
受け台と単粒度砕石
  7
BIGFONT
 73
     1
 44
1.0
  0
LEADER
  5
3440
330
1A
100
AcDbEntity
  8
sunpou
100
AcDbLeader
  3
ISO-25
 73
     0
 75
     1
 40
30.0
 41
100.0
 76
     3
 10
1268.881074659583
 20
1466.280051614204
 30
0.0
 10
1139.692652961495
 20
1380.681850988124
 30
0.0
 10
1114.692652961495
 20
1380.681850988124
 30
0.0
340
3441
213
0.0
223
-8.953556552835834
233
0.0
1001
ACAD
1000
DSTYLE
1002
{
1070
   147
1040
0.625
1070
    77
1070
     0
1070
    40
1040
10.0
1070
    73
1070
     0
1070
   140
1040
3.0
1070
   171
1070
     4
1070
   176
1070
   256
1070
   177
1070
   256
1070
   178
1070
   256
1070
   271
1070
     0
1070
   272
1070
     0
1070
   273
1070
     8
1070
   274
1070
     4
1070
   288
1070
     1
1070
   340
1005
2BF5
1070
   341
1005
2A96
1070
   342
1005
2A96
1070
   371
1070
    -1
1070
   372
1070
    -1
1002
}
  0
MTEXT
  5
3441
102
{ACAD_REACTORS
330
3440
102
}
330
1A
100
AcDbEntity
  8
sunpou
100
AcDbMText
 10
1108.442652961495
 20
1389.635407540959
 30
0.0
 40
30.0
 41
0.0
 71
     9
 72
     1
  1
敷き砂
  7
BIGFONT
 73
     1
 44
1.0
  0
LINE
  5
3442
330
1A
100
AcDbEntity
  8
sunpou
100
AcDbLine
 10
1114.692652961495
 20
1380.681850988124
 30
0.0
 11
998.1012429107394
 21
1380.681850988124
 31
0.0
  0
LINE
  5
3443
330
1A
100
AcDbEntity
  8
sunpou
100
AcDbLine
 10
1073.960613121917
 20
1919.102854435885
 30
0.0
 11
893.4188331420145
 21
1919.102854435885
 31
0.0
  0
LINE
  5
3444
330
1A
100
AcDbEntity
  8
sunpou
100
AcDbLine
 10
1167.93155537576
 20
1577.752762032303
 30
0.0
 11
835.4794646929594
 21
1577.752762032303
 31
0.0
  0
MTEXT
  5
3445
102
{ACAD_REACTORS
330
3446
102
}
330
1A
100
AcDbEntity
  8
sunpou
100
AcDbMText
 10
1067.710613121917
 20
1928.05641098872
 30
0.0
 40
30.0
 41
0.0
 71
     9
 72
     1
  1
単粒度砕石
  7
BIGFONT
 73
     1
 44
1.0
  0
LEADER
  5
3446
330
1A
100
AcDbEntity
  8
sunpou
100
AcDbLeader
  3
ISO-25
 73
     0
 75
     1
 40
30.0
 41
172.0
 76
     3
 10
1299.849697801672
 20
2155.033261420923
 30
0.0
 10
1098.960613121917
 20
1919.102854435885
 30
0.0
 10
1073.960613121917
 20
1919.102854435885
 30
0.0
340
3445
213
0.0
223
-8.953556552835834
233
0.0
1001
ACAD
1000
DSTYLE
1002
{
1070
   147
1040
0.625
1070
    77
1070
     0
1070
    40
1040
10.0
1070
    73
1070
     0
1070
   140
1040
3.0
1070
   171
1070
     4
1070
   176
1070
   256
1070
   177
1070
   256
1070
   178
1070
   256
1070
   271
1070
     0
1070
   272
1070
     0
1070
   273
1070
     8
1070
   274
1070
     4
1070
   288
1070
     1
1070
   340
1005
2BF5
1070
   341
1005
2A96
1070
   342
1005
2A96
1070
   371
1070
    -1
1070
   372
1070
    -1
1002
}
  0
LINE
  5
3447
330
1A
100
AcDbEntity
  8
sunpou
100
AcDbLine
 10
1084.223820412621
 20
1775.053412796766
 30
0.0
 11
903.682040432719
 21
1775.053412796766
 31
0.0
  0
MTEXT
  5
3448
102
{ACAD_REACTORS
330
3449
102
}
330
1A
100
AcDbEntity
  8
sunpou
100
AcDbMText
 10
1077.973820412621
 20
1784.006969349602
 30
0.0
 40
30.0
 41
0.0
 71
     9
 72
     1
  1
EX-300
  7
BIGFONT
 73
     1
 44
1.0
  0
LEADER
  5
3449
330
1A
100
AcDbEntity
  8
sunpou
100
AcDbLeader
  3
ISO-25
 73
     0
 75
     1
 40
30.00000000000001
 41
170.0
 76
     3
 10
1355.209406065826
 20
2029.711867341413
 30
0.0
 10
1109.223820412621
 20
1775.053412796766
 30
0.0
 10
1084.223820412621
 20
1775.053412796766
 30
0.0
340
3448
213
0.0
223
-8.953556552835834
233
0.0
1001
ACAD
1000
DSTYLE
1002
{
1070
   147
1040
0.625
1070
    77
1070
     0
1070
    40
1040
10.0
1070
    73
1070
     0
1070
   140
1040
3.0
1070
   171
1070
     4
1070
   176
1070
   256
1070
   177
1070
   256
1070
   178
1070
   256
1070
   271
1070
     0
1070
   272
1070
     0
1070
   273
1070
     8
1070
   274
1070
     4
1070
   288
1070
     1
1070
   340
1005
2BF5
1070
   341
1005
2A96
1070
   342
1005
2A96
1070
   371
1070
    -1
1070
   372
1070
    -1
1002
}
  0
DIMENSION
  5
3460
330
1A
100
AcDbEntity
  8
sunpou
 48
3.0
100
AcDbDimension
  2
*D22
 10
2058.788003101706
 20
1804.348378690987
 30
0.0
 11
2037.538003101705
 21
1854.348378690988
 31
0.0
 70
    32
 71
     5
 42
100.0000000000009
  3
ISO-25
100
AcDbAlignedDimension
 13
1966.472914565648
 23
1904.348378690988
 33
0.0
 14
1972.722914565649
 24
1804.348378690987
 34
0.0
 50
90.0
100
AcDbRotatedDimension
1001
ACAD
1000
DSTYLE
1002
{
1070
    40
1040
10.0
1070
    73
1070
     0
1070
   140
1040
3.0
1070
   171
1070
     4
1070
   176
1070
   256
1070
   177
1070
   256
1070
   178
1070
   256
1070
   271
1070
     0
1070
   272
1070
     0
1070
   273
1070
     8
1070
   274
1070
     4
1070
   288
1070
     1
1070
   340
1005
2BF5
1070
   341
1005
2A96
1070
   342
1005
2A96
1070
   371
1070
    -1
1070
   372
1070
    -1
1002
}
  0
DIMENSION
  5
3488
330
1A
100
AcDbEntity
  8
sunpou
 48
3.0
100
AcDbDimension
  2
*D23
 10
2058.788003101705
 20
1904.348378690988
 30
0.0
 11
2037.538003101705
 21
2073.091039618129
 31
0.0
 70
    32
 71
     5
 42
337.4853218542812
  3
ISO-25
100
AcDbAlignedDimension
 13
1966.472914565646
 23
2241.833700545269
 33
0.0
 14
1972.722914565648
 24
1904.348378690988
 34
0.0
 50
90.0
100
AcDbRotatedDimension
1001
ACAD
1000
DSTYLE
1002
{
1070
    40
1040
10.0
1070
    73
1070
     0
1070
   140
1040
3.0
1070
   171
1070
     4
1070
   176
1070
   256
1070
   177
1070
   256
1070
   178
1070
   256
1070
   271
1070
     0
1070
   272
1070
     0
1070
   273
1070
     8
1070
   274
1070
     4
1070
   288
1070
     1
1070
   340
1005
2BF5
1070
   341
1005
2A96
1070
   342
1005
2A96
1070
   371
1070
    -1
1070
   372
1070
    -1
1002
}
  0
DIMENSION
  5
34A7
330
1A
100
AcDbEntity
  8
sunpou
100
AcDbDimension
  2
*D24
 10
1811.472914565646
 20
2467.910312408525
 30
0.0
 11
1575.269667422399
 21
2467.910312408525
 31
0.0
 70
   160
 71
     5
 42
459.999999999999
  3
ISO-25
100
AcDbAlignedDimension
 13
1351.472914565647
 23
2381.83370054527
 33
0.0
 14
1811.472914565646
 24
2381.83370054527
 34
0.0
100
AcDbRotatedDimension
1001
ACAD
1000
DSTYLE
1002
{
1070
    40
1040
10.0
1070
    73
1070
     0
1070
   140
1040
3.0
1070
   171
1070
     4
1070
   176
1070
   256
1070
   177
1070
   256
1070
   178
1070
   256
1070
   271
1070
     0
1070
   272
1070
     0
1070
   273
1070
     8
1070
   274
1070
     4
1070
   288
1070
     1
1070
   340
1005
2BF5
1070
   341
1005
2A96
1070
   342
1005
2A96
1070
   371
1070
    -1
1070
   372
1070
    -1
1002
}
  0
DIMENSION
  5
34B4
330
1A
100
AcDbEntity
  8
sunpou
100
AcDbDimension
  2
*D25
 10
1728.517710811638
 20
2237.229424022047
 30
0.0
 11
1589.266959960094
 21
2237.229424022047
 31
0.0
 70
   160
 71
     5
 42
294.0895924919828
  3
ISO-25
100
AcDbAlignedDimension
 13
1434.428118319656
 23
2245.244303610811
 33
0.0
 14
1728.517710811638
 24
2245.24430361081
 34
0.0
100
AcDbRotatedDimension
1001
ACAD
1000
DSTYLE
1002
{
1070
    40
1040
10.0
1070
    73
1070
     0
1070
   140
1040
3.0
1070
   171
1070
     4
1070
   176
1070
   256
1070
   177
1070
   256
1070
   178
1070
   256
1070
   271
1070
     0
1070
   272
1070
     0
1070
   273
1070
     8
1070
   274
1070
     4
1070
   288
1070
     1
1070
   340
1005
2BF5
1070
   341
1005
2A96
1070
   342
1005
2A96
1070
   371
1070
    -1
1070
   372
1070
    -1
1002
}
  0
LINE
  5
34C2
330
1A
100
AcDbEntity
  8
CT1
100
AcDbLine
 10
1581.472914565646
 20
1380.828871123639
 30
0.0
 11
1581.472914565646
 21
2429.463494151981
 31
0.0
  0
DIMENSION
  5
34C3
330
1A
100
AcDbEntity
  8
sunpou
100
AcDbDimension
  2
*D26
 10
1668.001731716613
 20
2304.348378690988
 30
0.0
 11
1668.001731716613
 21
2347.327117627113
 31
0.0
 70
   160
 71
     5
 42
87.48532185428121
  3
ISO-25
100
AcDbAlignedDimension
 13
1584.048158068517
 23
2391.833700545269
 33
0.0
 14
1581.472914565646
 24
2304.348378690988
 34
0.0
 50
90.0
100
AcDbRotatedDimension
1001
ACAD
1000
DSTYLE
1002
{
1070
    40
1040
10.0
1070
    73
1070
     0
1070
   140
1040
3.0
1070
   171
1070
     4
1070
   176
1070
   256
1070
   177
1070
   256
1070
   178
1070
   256
1070
   271
1070
     0
1070
   272
1070
     0
1070
   273
1070
     8
1070
   274
1070
     4
1070
   288
1070
     1
1070
   340
1005
2BF5
1070
   341
1005
2A96
1070
   342
1005
2A96
1070
   371
1070
    -1
1070
   372
1070
    -1
1002
}
  0
DIMENSION
  5
34D2
330
1A
100
AcDbEntity
  8
sunpou
100
AcDbDimension
  2
*D27
 10
1668.001731716614
 20
1974.348378690988
 30
0.0
 11
1646.751731716614
 21
2139.348378690989
 31
0.0
 70
    32
 71
     5
 42
330.0
  3
ISO-25
100
AcDbAlignedDimension
 13
1581.472914565646
 23
2304.348378690988
 33
0.0
 14
1581.472914565648
 24
1974.348378690988
 34
0.0
 50
90.0
100
AcDbRotatedDimension
1001
ACAD
1000
DSTYLE
1002
{
1070
   279
1070
     1
1070
    40
1040
10.0
1070
    73
1070
     0
1070
   140
1040
3.0
1070
   171
1070
     4
1070
   176
1070
   256
1070
   177
1070
   256
1070
   178
1070
   256
1070
   271
1070
     0
1070
   272
1070
     0
1070
   273
1070
     8
1070
   274
1070
     4
1070
   288
1070
     1
1070
   340
1005
2BF5
1070
   341
1005
2A96
1070
   342
1005
2A96
1070
   371
1070
    -1
1070
   372
1070
    -1
1002
}
  0
MTEXT
  5
351A
330
1A
100
AcDbEntity
  8
0
 62
     1
100
AcDbMText
 10
1608.738364353678
 20
1150.072749250203
 30
0.0
 40
30.0
 41
570.2380491354796
 71
     1
 72
     5
  1
製品接続の際のﾎﾞﾙﾄ締めは、対角上を最低限接続する。
 73
     1
 44
1.0
  0
DIMENSION
  5
3525
330
1A
100
AcDbEntity
  8
sunpou
100
AcDbDimension
  2
*D28
 10
1881.472914565646
 20
1351.956937035087
 30
0.0
 11
1581.763066027364
 21
1351.956937035087
 31
0.0
 70
   160
 71
     5
 42
600.0
  3
ISO-25
100
AcDbAlignedDimension
 13
1281.472914565646
 23
1432.505206764674
 33
0.0
 14
1881.472914565646
 24
1432.505206764674
 34
0.0
100
AcDbRotatedDimension
1001
ACAD
1000
DSTYLE
1002
{
1070
    40
1040
10.0
1070
    73
1070
     0
1070
   140
1040
3.0
1070
   171
1070
     4
1070
   176
1070
   256
1070
   177
1070
   256
1070
   178
1070
   256
1070
   271
1070
     0
1070
   272
1070
     0
1070
   273
1070
     8
1070
   274
1070
     4
1070
   288
1070
     1
1070
   340
1005
2BF5
1070
   341
1005
2A96
1070
   342
1005
2A96
1070
   371
1070
    -1
1070
   372
1070
    -1
1002
}
  0
MTEXT
  5
3562
330
1A
100
AcDbEntity
  8
0
100
AcDbMText
 10
1631.578209893513
 20
1023.131257851844
 30
0.0
 40
30.0
 41
371.0
 71
     1
 72
     5
  1
{\C1;製品長 Ｌ＝2.000ｍ}
  7
BIGFONT
 73
     1
 44
1.0
  0
LEADER
  5
3563
330
1A
100
AcDbEntity
  8
sunpou
100
AcDbLeader
  3
ISO-25
 73
     0
 75
     1
 40
30.0
 41
166.0
 76
     3
 10
1196.472914565647
 20
2188.579566887183
 30
0.0
 10
1081.055471994062
 20
2071.403341882284
 30
0.0
 10
1056.055471994062
 20
2071.403341882284
 30
0.0
340
3564
213
0.0
223
-8.953556552835834
233
0.0
1001
ACAD
1000
DSTYLE
1002
{
1070
   147
1040
0.625
1070
    77
1070
     0
1070
    40
1040
10.0
1070
    73
1070
     0
1070
   140
1040
3.0
1070
   171
1070
     4
1070
   176
1070
   256
1070
   177
1070
   256
1070
   178
1070
   256
1070
   271
1070
     0
1070
   272
1070
     0
1070
   273
1070
     8
1070
   274
1070
     4
1070
   288
1070
     1
1070
   340
1005
2BF5
1070
   341
1005
2A96
1070
   342
1005
2A96
1070
   371
1070
    -1
1070
   372
1070
    -1
1002
}
  0
MTEXT
  5
3564
102
{ACAD_REACTORS
330
3563
102
}
330
1A
100
AcDbEntity
  8
sunpou
100
AcDbMText
 10
1049.805471994062
 20
2080.35689843512
 30
0.0
 40
30.0
 41
0.0
 71
     9
 72
     1
  1
透水シート
  7
BIGFONT
 73
     1
 44
1.0
  0
LINE
  5
3565
330
1A
100
AcDbEntity
  8
sunpou
100
AcDbLine
 10
1056.055471994062
 20
2071.403341882284
 30
0.0
 11
875.5136920141595
 21
2071.403341882284
 31
0.0
  0
LINE
  5
35CC
330
1A
100
AcDbEntity
  8
0
 48
3.0
100
AcDbLine
 10
1206.472914565651
 20
1491.83370054527
 30
0.0
 11
1956.472914565651
 21
1491.833700545269
 31
0.0
  0
LINE
  5
35E6
330
1A
100
AcDbEntity
  8
TB
 48
3.0
100
AcDbLine
 10
1196.472914565652
 20
1426.83370054527
 30
0.0
 11
1256.472914565651
 21
1426.83370054527
 31
0.0
  0
LINE
  5
35E7
330
1A
100
AcDbEntity
  8
TB
 48
3.0
100
AcDbLine
 10
1906.472914565651
 20
1426.833700545269
 30
0.0
 11
1966.472914565652
 21
1426.833700545269
 31
0.0
  0
HATCH
  5
361E
330
1A
100
AcDbEntity
  8
saiseki
100
AcDbHatch
 10
0.0
 20
0.0
 30
0.0
210
0.0
220
0.0
230
1.0
  2
AR-SAND
 70
     0
 71
     0
 91
        3
 92
        7
 72
     0
 73
     1
 93
        4
 10
1581.472914565646
 20
1441.833700545269
 10
1581.472914565646
 20
1491.83370054527
 10
1206.472914565651
 20
1491.83370054527
 10
1206.472914565651
 20
1441.833700545269
 97
        0
 92
        7
 72
     0
 73
     1
 93
        4
 10
1581.472914565646
 20
1441.833700545269
 10
1631.270359856008
 20
1441.833700545269
 10
1654.782087745946
 20
1491.83370054527
 10
1581.472914565646
 20
1491.83370054527
 97
        0
 92
        7
 72
     0
 73
     1
 93
        4
 10
1956.472914565651
 20
1441.833700545269
 10
1956.47291456565
 20
1491.83370054527
 10
1654.782087745947
 20
1491.83370054527
 10
1631.270359856008
 20
1441.833700545269
 97
        0
 75
     0
 76
     1
 52
0.0
 41
1.0
 77
     0
 78
     4
 53
37.5
 43
1206.472914565651
 44
1441.833700545269
 45
-1.600031295984045
 46
48.94132373293423
 79
     6
 49
0.0
 49
-38.60800000000001
 49
0.0
 49
-43.18
 49
0.0
 49
-41.275
 53
7.499999999999999
 43
1206.472914565651
 44
1441.833700545269
 45
44.95232831380026
 46
71.68251005683543
 79
     6
 49
0.0
 49
-20.828
 49
0.0
 49
-34.798
 49
0.0
 49
-13.335
 53
327.5
 43
1175.230914565651
 44
1441.833700545269
 45
79.09923702414579
 46
0.1437184678545691
 79
     6
 49
0.0
 49
-12.7
 49
0.0
 49
-45.72
 49
0.0
 49
-59.69
 53
317.5
 43
1175.230914565651
 44
1441.833700545269
 45
76.35564524722972
 46
22.29293232572162
 79
     6
 49
0.0
 49
-6.349999999999999
 49
0.0
 49
-29.972
 49
0.0
 49
-34.29
 47
2.55660062799489
 98
        3
 10
1412.122159409087
 20
1463.723449576645
 10
1596.289266264482
 20
1468.836653651762
 10
1703.720076137166
 20
1456.053648023622
1001
ACAD
1010
3566.430064839579
1020
2607.159478145195
1030
0.0
  0
HATCH
  5
3642
330
1A
100
AcDbEntity
  8
saiseki
100
AcDbHatch
 10
0.0
 20
0.0
 30
0.0
210
0.0
220
0.0
230
1.0
  2
HONEY
 70
     0
 71
     0
 91
        1
 92
        7
 72
     0
 73
     1
 93
        4
 10
1351.472914565647
 20
2241.833700545269
 10
1206.472914565647
 20
2241.833700545269
 10
1206.472914565648
 20
2006.98499346278
 10
1351.472914565647
 20
2033.205461234706
 97
        0
 75
     0
 76
     1
 52
15.0
 41
7.0
 77
     0
 78
     3
 53
15.0
 43
1206.472914565647
 44
2006.98499346278
 45
27.2199559570151
 46
27.21995032427976
 79
     2
 49
22.225
 49
-44.44999999999999
 53
135.0
 43
1206.472914565647
 44
2006.98499346278
 45
-37.1831464490843
 46
9.963198186528776
 79
     2
 49
22.225
 49
-44.44999999999999
 53
74.99999999999999
 43
1206.472914565647
 44
2006.98499346278
 45
-9.963190492069182
 46
37.18314851080852
 79
     2
 49
-44.44999999999999
 49
22.225
 47
2.55660062799489
 98
        1
 10
1302.133472232424
 20
2154.005621266281
1001
ACAD
1010
3566.430064839575
1020
3172.310771062706
1030
0.0
  0
HATCH
  5
3668
330
1A
100
AcDbEntity
  8
saiseki
100
AcDbHatch
 10
0.0
 20
0.0
 30
0.0
210
0.0
220
0.0
230
1.0
  2
HONEY
 70
     0
 71
     0
 91
        1
 92
        7
 72
     0
 73
     1
 93
        4
 10
1956.47291456565
 20
1785.733645028746
 10
1749.761852851015
 20
1693.817505286639
 10
1654.782087745946
 20
1491.83370054527
 10
1956.47291456565
 20
1491.833700545269
 97
        0
 75
     0
 76
     1
 52
15.0
 41
7.0
 77
     0
 78
     3
 53
15.0
 43
1654.782087745946
 44
1491.833700545269
 45
27.2199559570151
 46
27.21995032427976
 79
     2
 49
22.225
 49
-44.44999999999999
 53
135.0
 43
1654.782087745946
 44
1491.833700545269
 45
-37.1831464490843
 46
9.963198186528776
 79
     2
 49
22.225
 49
-44.44999999999999
 53
74.99999999999999
 43
1654.782087745946
 44
1491.833700545269
 45
-9.963190492069182
 46
37.18314851080852
 79
     2
 49
-44.44999999999999
 49
22.225
 47
2.55660062799489
 98
        1
 10
1846.961153507781
 20
1642.685496453037
1001
ACAD
1010
4014.739238019873
1020
2657.159478145195
1030
0.0
  0
LWPOLYLINE
  5
36AA
330
1A
100
AcDbEntity
  8
KL
  6
ByBlock
 62
     0
 48
2.0
100
AcDbPolyline
 90
        4
 70
     1
 43
0.0
 10
2841.472914565647
 20
3617.794807789668
 10
2841.472914565646
 20
53.79480778966876
 10
321.4729145656456
 20
53.79480778966876
 10
321.4729145656465
 20
3617.794807789668
  0
TEXT
  5
3854
330
1A
100
AcDbEntity
  8
0
100
AcDbText
 10
3557.156883117604
 20
2921.726595336326
 30
0.0
 40
50.0
  1
浸透性管渠型側溝　EXM-300 構造図
  7
BIGFONT
100
AcDbText
  0
TEXT
  5
3855
330
1A
100
AcDbEntity
  8
0
100
AcDbText
 10
4745.164113073788
 20
2926.141711297467
 30
0.0
 40
40.0
  1
S=1/10
  7
BIGFONT
100
AcDbText
  0
LINE
  5
3857
330
1A
100
AcDbEntity
  8
TB
 48
3.0
100
AcDbLine
 10
4486.472914565641
 20
2246.829275689696
 30
0.0
 11
4486.472914565647
 21
1421.829275689695
 31
0.0
  0
LINE
  5
3858
330
1A
100
AcDbEntity
  8
TB
 48
3.0
100
AcDbLine
 10
3716.472914565643
 20
2246.829275689696
 30
0.0
 11
3716.472914565648
 21
1421.829275689696
 31
0.0
  0
DIMENSION
  5
3859
330
1A
100
AcDbEntity
  8
sunpou
 48
3.0
100
AcDbDimension
  2
*D29
 10
4746.172994796842
 20
1436.829275689695
 30
0.0
 11
4746.172994796842
 21
1856.118603000915
 31
0.0
 70
   160
 71
     5
 42
800.0
  3
ISO-25
100
AcDbAlignedDimension
 13
4559.920745998724
 23
2236.829275689696
 33
0.0
 14
4559.920745998728
 24
1436.829275689696
 34
0.0
 50
90.0
100
AcDbRotatedDimension
1001
ACAD
1000
DSTYLE
1002
{
1070
    40
1040
10.0
1070
    73
1070
     0
1070
   140
1040
3.0
1070
   171
1070
     4
1070
   176
1070
   256
1070
   177
1070
   256
1070
   178
1070
   256
1070
   271
1070
     0
1070
   272
1070
     0
1070
   273
1070
     8
1070
   274
1070
     4
1070
   288
1070
     1
1070
   340
1005
2BF5
1070
   341
1005
2A96
1070
   342
1005
2A96
1070
   371
1070
    -1
1070
   372
1070
    -1
1002
}
  0
DIMENSION
  5
385A
330
1A
100
AcDbEntity
  8
sunpou
 48
3.0
100
AcDbDimension
  2
*D30
 10
4662.235834534782
 20
1486.829275689695
 30
0.0
 11
4640.985834534783
 21
1643.086614762555
 31
0.0
 70
    32
 71
     5
 42
312.5146781457179
  3
ISO-25
100
AcDbAlignedDimension
 13
4569.920745998726
 23
1799.343953835414
 33
0.0
 14
4476.472914565646
 24
1486.829275689696
 34
0.0
 50
90.0
100
AcDbRotatedDimension
1001
ACAD
1000
DSTYLE
1002
{
1070
    40
1040
10.0
1070
    73
1070
     0
1070
   140
1040
3.0
1070
   171
1070
     4
1070
   176
1070
   256
1070
   177
1070
   256
1070
   178
1070
   256
1070
   271
1070
     0
1070
   272
1070
     0
1070
   273
1070
     8
1070
   274
1070
     4
1070
   288
1070
     1
1070
   340
1005
2BF5
1070
   341
1005
2A96
1070
   342
1005
2A96
1070
   371
1070
    -1
1070
   372
1070
    -1
1002
}
  0
LINE
  5
385B
330
1A
100
AcDbEntity
  8
0
 48
3.0
100
AcDbLine
 10
3726.472914565643
 20
2236.829275689696
 30
0.0
 11
3726.472914565647
 21
1436.829275689696
 31
0.0
  0
LINE
  5
385C
330
1A
100
AcDbEntity
  8
0
 48
3.0
100
AcDbLine
 10
4476.472914565642
 20
2236.829275689696
 30
0.0
 11
4476.472914565646
 21
1436.829275689696
 31
0.0
  0
DIMENSION
  5
385E
330
1A
100
AcDbEntity
  8
sunpou
 48
3.0
100
AcDbDimension
  2
*D31
 10
3726.472914565647
 20
1076.233807317213
 30
0.0
 11
4110.478884666498
 21
1076.233807317213
 31
0.0
 70
   160
 71
     5
 42
750.0
  3
ISO-25
100
AcDbAlignedDimension
 13
4476.472914565646
 23
1436.829275689696
 33
0.0
 14
3726.472914565647
 24
1436.829275689696
 34
0.0
100
AcDbRotatedDimension
1001
ACAD
1000
DSTYLE
1002
{
1070
    40
1040
10.0
1070
    73
1070
     0
1070
   140
1040
3.0
1070
   171
1070
     4
1070
   176
1070
   256
1070
   177
1070
   256
1070
   178
1070
   256
1070
   271
1070
     0
1070
   272
1070
     0
1070
   273
1070
     8
1070
   274
1070
     4
1070
   288
1070
     1
1070
   340
1005
2BF5
1070
   341
1005
2A96
1070
   342
1005
2A96
1070
   371
1070
    -1
1070
   372
1070
    -1
1002
}
  0
LINE
  5
3860
330
1A
100
AcDbEntity
  8
0
 48
3.0
100
AcDbLine
 10
3726.472914565647
 20
1436.829275689696
 30
0.0
 11
4476.472914565646
 21
1436.829275689696
 31
0.0
  0
DIMENSION
  5
3861
330
1A
100
AcDbEntity
  8
sunpou
 48
3.0
100
AcDbDimension
  2
*D32
 10
4662.235834534782
 20
1436.829275689695
 30
0.0
 11
4640.985834534783
 21
1356.293561403982
 31
0.0
 70
    32
 71
     5
 42
50.0
  3
ISO-25
100
AcDbAlignedDimension
 13
4476.472914565646
 23
1486.829275689696
 33
0.0
 14
4559.920745998728
 24
1436.829275689696
 34
0.0
 50
90.0
100
AcDbRotatedDimension
1001
ACAD
1000
DSTYLE
1002
{
1070
    40
1040
10.0
1070
    73
1070
     0
1070
   140
1040
3.0
1070
   171
1070
     4
1070
   176
1070
   256
1070
   177
1070
   256
1070
   178
1070
   256
1070
   271
1070
     0
1070
   272
1070
     0
1070
   273
1070
     8
1070
   274
1070
     4
1070
   288
1070
     1
1070
   340
1005
2BF5
1070
   341
1005
2A96
1070
   342
1005
2A96
1070
   371
1070
    -1
1070
   372
1070
    -1
1002
}
  0
LINE
  5
3862
330
1A
100
AcDbEntity
  8
TB
 48
3.0
100
AcDbLine
 10
4331.472914565642
 20
2246.829275689696
 30
0.0
 11
4486.472914565641
 21
2246.829275689696
 31
0.0
  0
LINE
  5
3863
330
1A
100
AcDbEntity
  8
0
100
AcDbLine
 10
3801.472914565642
 20
1799.343953835414
 30
0.0
 11
4401.472914565641
 21
1799.343953835414
 31
0.0
  0
LINE
  5
3864
330
1A
100
AcDbEntity
  8
0
 48
3.0
100
AcDbLine
 10
4331.472914565642
 20
2236.829275689696
 30
0.0
 11
4476.472914565642
 21
2236.829275689696
 31
0.0
  0
DIMENSION
  5
3865
330
1A
100
AcDbEntity
  8
sunpou
 48
3.0
100
AcDbDimension
  2
*D33
 10
4662.539127500761
 20
2236.829275689696
 30
0.0
 11
4662.53912750076
 21
2310.204741913185
 31
0.0
 70
   160
 71
     5
 42
150.0
  3
ISO-25
100
AcDbAlignedDimension
 13
4405.224038964701
 23
2386.829275689696
 33
0.0
 14
4560.224038964701
 24
2236.829275689696
 34
0.0
 50
90.0
100
AcDbRotatedDimension
1001
ACAD
1000
DSTYLE
1002
{
1070
    40
1040
10.0
1070
    73
1070
     0
1070
   140
1040
3.0
1070
   171
1070
     4
1070
   176
1070
   256
1070
   177
1070
   256
1070
   178
1070
   256
1070
   271
1070
     0
1070
   272
1070
     0
1070
   273
1070
     8
1070
   274
1070
     4
1070
   288
1070
     1
1070
   340
1005
2BF5
1070
   341
1005
2A96
1070
   342
1005
2A96
1070
   371
1070
    -1
1070
   372
1070
    -1
1002
}
  0
LINE
  5
3866
330
1A
100
AcDbEntity
  8
0
 48
3.0
100
AcDbLine
 10
4296.623401571383
 20
2386.829275689696
 30
0.0
 11
4776.623401571385
 21
2386.829275689696
 31
0.0
  0
LINE
  5
3867
330
1A
100
AcDbEntity
  8
0
100
AcDbLine
 10
3801.472914565642
 20
1899.343953835414
 30
0.0
 11
4401.472914565641
 21
1899.343953835414
 31
0.0
  0
LINE
  5
3868
330
1A
100
AcDbEntity
  8
TB
 48
3.0
100
AcDbLine
 10
3716.472914565643
 20
2246.829275689696
 30
0.0
 11
3871.472914565643
 21
2246.829275689696
 31
0.0
  0
LINE
  5
3869
330
1A
100
AcDbEntity
  8
0
 48
3.0
100
AcDbLine
 10
3726.472914565643
 20
2236.829275689696
 30
0.0
 11
3871.472914565643
 21
2236.829275689696
 31
0.0
  0
LINE
  5
386A
330
1A
100
AcDbEntity
  8
0
 48
3.0
100
AcDbLine
 10
3881.472914565643
 20
2386.829275689696
 30
0.0
 11
3401.472914565644
 21
2386.829275689694
 31
0.0
  0
LINE
  5
386B
330
1A
100
AcDbEntity
  8
0
 48
3.0
100
AcDbLine
 10
3801.472914565642
 20
1899.343953835414
 30
0.0
 11
3801.472914565642
 21
1799.343953835414
 31
0.0
  0
LINE
  5
386C
330
1A
100
AcDbEntity
  8
0
 48
3.0
100
AcDbLine
 10
3603.902087773486
 20
2386.829275689696
 30
0.0
 11
3558.902087773486
 21
2341.829275689696
 31
0.0
  0
LINE
  5
386D
330
1A
100
AcDbEntity
  8
0
 48
3.0
100
AcDbLine
 10
3483.902087773486
 20
2386.829275689696
 30
0.0
 11
3438.902087773486
 21
2341.829275689694
 31
0.0
  0
LINE
  5
386E
330
1A
100
AcDbEntity
  8
0
 48
3.0
100
AcDbLine
 10
3513.902087773486
 20
2356.829275689694
 30
0.0
 11
3528.902087773486
 21
2341.829275689694
 31
0.0
  0
LINE
  5
386F
330
1A
100
AcDbEntity
  8
0
 48
3.0
100
AcDbLine
 10
3543.902087773485
 20
2386.829275689696
 30
0.0
 11
3498.902087773486
 21
2341.829275689694
 31
0.0
  0
LINE
  5
3870
330
1A
100
AcDbEntity
  8
0
 48
3.0
100
AcDbLine
 10
3513.902087773486
 20
2386.829275689696
 30
0.0
 11
3468.902087773485
 21
2341.829275689694
 31
0.0
  0
LINE
  5
3871
330
1A
100
AcDbEntity
  8
0
 48
3.0
100
AcDbLine
 10
3528.902087773486
 20
2371.829275689696
 30
0.0
 11
3558.902087773486
 21
2341.829275689694
 31
0.0
  0
LINE
  5
3872
330
1A
100
AcDbEntity
  8
0
 48
3.0
100
AcDbLine
 10
3543.902087773485
 20
2386.829275689696
 30
0.0
 11
3573.902087773486
 21
2356.829275689696
 31
0.0
  0
LINE
  5
3873
330
1A
100
AcDbEntity
  8
0
 48
3.0
100
AcDbLine
 10
3648.902087773486
 20
2371.829275689696
 30
0.0
 11
3678.902087773486
 21
2341.829275689696
 31
0.0
  0
LINE
  5
3874
330
1A
100
AcDbEntity
  8
0
 48
3.0
100
AcDbLine
 10
3663.902087773486
 20
2386.829275689696
 30
0.0
 11
3618.902087773486
 21
2341.829275689694
 31
0.0
  0
LINE
  5
3875
330
1A
100
AcDbEntity
  8
0
 48
3.0
100
AcDbLine
 10
3633.902087773486
 20
2356.829275689694
 30
0.0
 11
3648.902087773485
 21
2341.829275689696
 31
0.0
  0
LINE
  5
3876
330
1A
100
AcDbEntity
  8
0
 48
3.0
100
AcDbLine
 10
3633.902087773486
 20
2386.829275689696
 30
0.0
 11
3588.902087773486
 21
2341.829275689694
 31
0.0
  0
LINE
  5
3877
330
1A
100
AcDbEntity
  8
0
 48
3.0
100
AcDbLine
 10
3663.902087773486
 20
2386.829275689696
 30
0.0
 11
3708.902087773485
 21
2341.829275689696
 31
0.0
  0
LINE
  5
3878
330
1A
100
AcDbEntity
  8
0
100
AcDbLine
 10
4331.472914565642
 20
2376.829275689696
 30
0.0
 11
4331.472914565642
 21
1963.843953835413
 31
0.0
  0
LINE
  5
3879
330
1A
100
AcDbEntity
  8
0
100
AcDbLine
 10
4273.486519283579
 20
2238.991438331639
 30
0.0
 11
4263.344139112599
 21
2036.143834912054
 31
0.0
  0
LINE
  5
387A
330
1A
100
AcDbEntity
  8
0
100
AcDbLine
 10
4258.505234200412
 20
2239.740502585798
 30
0.0
 11
4248.362854029432
 21
2036.892899166213
 31
0.0
  0
LINE
  5
387B
330
1A
100
AcDbEntity
  8
0
100
AcDbLine
 10
4248.517710811634
 20
2240.239878755236
 30
0.0
 11
4236.472914565641
 21
1999.343953835414
 31
0.0
  0
LINE
  5
387C
330
1A
100
AcDbEntity
  8
0
100
AcDbLine
 10
3871.472914565643
 20
2376.829275689696
 30
0.0
 11
3871.472914565643
 21
1963.843953835413
 31
0.0
  0
LINE
  5
387D
330
1A
100
AcDbEntity
  8
0
100
AcDbLine
 10
3944.440594930873
 20
2239.740502585798
 30
0.0
 11
3954.582975101853
 21
2036.892899166211
 31
0.0
  0
LINE
  5
387E
330
1A
100
AcDbEntity
  8
0
100
AcDbLine
 10
3929.459309847704
 20
2238.991438331639
 30
0.0
 11
3939.601690018685
 21
2036.143834912054
 31
0.0
  0
LINE
  5
387F
330
1A
100
AcDbEntity
  8
0
100
AcDbLine
 10
3954.428118319651
 20
2240.239878755236
 30
0.0
 11
3966.472914565644
 21
1999.343953835414
 31
0.0
  0
HATCH
  5
3880
330
1A
100
AcDbEntity
  8
saiseki
100
AcDbHatch
 10
0.0
 20
0.0
 30
0.0
210
0.0
220
0.0
230
1.0
  2
HONEY
 70
     0
 71
     0
 91
        2
 92
        7
 72
     0
 73
     1
 93
        5
 10
4331.472914565642
 20
2246.84707298822
 10
4248.848070523282
 20
2246.84707298822
 10
4238.348070523282
 20
2036.84707298822
 10
4330.046125510103
 20
2036.84707298822
 10
4331.472914565642
 20
2039.343953835415
 97
        0
 92
        7
 72
     0
 73
     1
 93
        5
 10
3954.097758608002
 20
2246.84707298822
 10
3871.472914565642
 20
2246.84707298822
 10
3871.472914565642
 20
2039.343953835413
 10
3872.899703621182
 20
2036.84707298822
 10
3964.597758608004
 20
2036.84707298822
 97
        0
 75
     0
 76
     1
 52
15.0
 41
100.0
 77
     0
 78
     3
 53
15.0
 43
3001.471284989323
 44
999.3439538354136
 45
15.30931090463842
 46
15.30931084670127
 79
     2
 49
12.5
 49
-25.0
 53
135.0
 43
3001.471284989323
 44
999.3439538354136
 45
-20.91290755999516
 46
5.603596734500367
 79
     2
 49
12.5
 49
-25.0
 53
74.99999999999999
 43
3001.471284989323
 44
999.3439538354136
 45
-5.603596655356741
 46
20.91290758120164
 79
     2
 49
-25.0
 49
12.5
 47
1.947723445783793
 98
        2
 10
4283.247053188786
 20
2137.167099672407
 10
3918.772149701363
 20
2162.487504814061
  0
LINE
  5
3881
330
1A
100
AcDbEntity
  8
0
100
AcDbLine
 10
4204.707498033161
 20
1966.67512666905
 30
0.0
 11
4101.472914565643
 21
1943.734108120711
 31
0.0
  0
LINE
  5
3882
330
1A
100
AcDbEntity
  8
0
100
AcDbLine
 10
4201.453541165882
 20
1981.317932571809
 30
0.0
 11
4101.472914565643
 21
1959.100015549534
 31
0.0
  0
LINE
  5
3883
330
1A
100
AcDbEntity
  8
0
100
AcDbLine
 10
4236.472914565641
 20
1999.343953835414
 30
0.0
 11
4101.472914565643
 21
1969.343953835414
 31
0.0
  0
LWPOLYLINE
  5
3884
330
1A
100
AcDbEntity
  8
TB
100
AcDbPolyline
 90
        9
 70
     0
 43
0.0
 10
3890.371336082895
 20
1998.533319475457
 10
3922.796906679898
 20
1928.693628958824
 10
3940.505744639053
 20
1957.699483172239
 42
0.198912
 10
3941.098135940089
 20
1961.480188541918
 10
3935.827266535914
 20
1983.275945807835
 42
0.09902
 10
3935.001399043925
 20
1985.054737329042
 10
3922.431544809223
 20
2002.220022144175
 42
0.294108
 10
3917.37752029085
 20
2004.160816772241
 10
3890.371336082895
 20
1998.533319475457
  0
LINE
  5
3885
330
1A
100
AcDbEntity
  8
0
100
AcDbLine
 10
3966.472914565644
 20
1999.343953835414
 30
0.0
 11
4101.472914565642
 21
1969.343953835414
 31
0.0
  0
ARC
  5
3886
330
1A
100
AcDbEntity
  8
0
100
AcDbCircle
 10
4014.508115434523
 20
2039.889156182846
 30
0.0
 40
75.0
100
AcDbArc
 50
182.8624052260997
 51
257.4711922908156
  0
LINE
  5
3887
330
1A
100
AcDbEntity
  8
0
100
AcDbLine
 10
3936.472914565642
 20
1899.343953835414
 30
0.0
 11
3871.472914565643
 21
2039.343953835413
 31
0.0
  0
ARC
  5
3888
330
1A
100
AcDbEntity
  8
0
100
AcDbCircle
 10
4014.508115434523
 20
2039.889156182846
 30
0.0
 40
60.0
100
AcDbArc
 50
182.8624052260997
 51
257.4711922908156
  0
ARC
  5
3889
330
1A
100
AcDbEntity
  8
0
100
AcDbCircle
 10
4014.508115434523
 20
2039.889156182846
 30
0.0
 40
50.0
100
AcDbArc
 50
182.8624052260997
 51
257.4711922908156
  0
LWPOLYLINE
  5
388A
330
1A
100
AcDbEntity
  8
TB
100
AcDbPolyline
 90
        7
 70
     0
 43
0.0
 10
3898.372450905533
 20
1981.300149088236
 10
3909.321344873351
 20
1957.717915926776
 10
3924.865821961073
 20
1969.503797251742
 42
0.352819
 10
3926.379988886538
 20
1975.593610041448
 10
3923.036219408776
 20
1982.795575070474
 42
0.352819
 10
3917.407052178907
 20
1985.56883985949
 10
3898.372450905533
 20
1981.300149088236
  0
LINE
  5
388B
330
1A
100
AcDbEntity
  8
0
100
AcDbLine
 10
3871.472914565642
 20
1963.843953835413
 30
0.0
 11
3911.16934313707
 21
1953.843953835413
 31
0.0
  0
LINE
  5
388C
330
1A
100
AcDbEntity
  8
0
100
AcDbLine
 10
4001.492287965404
 20
1981.317932571809
 30
0.0
 11
4101.472914565643
 21
1959.100015549534
 31
0.0
  0
LINE
  5
388D
330
1A
100
AcDbEntity
  8
0
100
AcDbLine
 10
3998.238331098124
 20
1966.67512666905
 30
0.0
 11
4101.472914565643
 21
1943.734108120711
 31
0.0
  0
LWPOLYLINE
  5
388E
330
1A
100
AcDbEntity
  8
TB
100
AcDbPolyline
 90
        9
 70
     0
 43
0.0
 10
4312.574493048389
 20
1998.533319475457
 10
4280.148922451386
 20
1928.693628958824
 10
4262.440084492231
 20
1957.699483172239
 42
-0.198912
 10
4261.847693191195
 20
1961.480188541918
 10
4267.11856259537
 20
1983.275945807835
 42
-0.09902
 10
4267.944430087359
 20
1985.054737329042
 10
4280.514284322061
 20
2002.220022144175
 42
-0.294108
 10
4285.568308840434
 20
2004.160816772241
 10
4312.574493048389
 20
1998.533319475457
  0
ARC
  5
388F
330
1A
100
AcDbEntity
  8
0
100
AcDbCircle
 10
4188.437713696762
 20
2039.889156182846
 30
0.0
 40
75.0
100
AcDbArc
 50
282.5288077091844
 51
357.1375947739003
  0
ARC
  5
3890
330
1A
100
AcDbEntity
  8
0
100
AcDbCircle
 10
4188.437713696762
 20
2039.889156182846
 30
0.0
 40
60.0
100
AcDbArc
 50
282.5288077091844
 51
357.1375947739003
  0
ARC
  5
3891
330
1A
100
AcDbEntity
  8
0
100
AcDbCircle
 10
4188.437713696762
 20
2039.889156182846
 30
0.0
 40
50.0
100
AcDbArc
 50
282.5288077091844
 51
357.1375947739003
  0
LINE
  5
3892
330
1A
100
AcDbEntity
  8
0
100
AcDbLine
 10
4266.472914565642
 20
1899.343953835414
 30
0.0
 11
4331.472914565641
 21
2039.343953835413
 31
0.0
  0
LWPOLYLINE
  5
3893
330
1A
100
AcDbEntity
  8
TB
100
AcDbPolyline
 90
        7
 70
     0
 43
0.0
 10
4304.573378225751
 20
1981.300149088236
 10
4293.624484257932
 20
1957.717915926776
 10
4278.080007170211
 20
1969.503797251742
 42
-0.352819
 10
4276.565840244746
 20
1975.593610041448
 10
4279.909609722508
 20
1982.795575070474
 42
-0.352819
 10
4285.538776952376
 20
1985.56883985949
 10
4304.573378225751
 20
1981.300149088236
  0
LINE
  5
3894
330
1A
100
AcDbEntity
  8
0
100
AcDbLine
 10
4331.472914565645
 20
1963.843953835413
 30
0.0
 11
4291.776485994215
 21
1953.843953835413
 31
0.0
  0
LINE
  5
3895
330
1A
100
AcDbEntity
  8
0
100
AcDbLine
 10
4331.472914565642
 20
2344.829275689696
 30
0.0
 11
3871.472914565643
 21
2344.829275689696
 31
0.0
  0
LINE
  5
3896
330
1A
100
AcDbEntity
  8
0
100
AcDbLine
 10
4331.472914565642
 20
2334.829275689696
 30
0.0
 11
3871.472914565643
 21
2334.829275689696
 31
0.0
  0
LINE
  5
3897
330
1A
100
AcDbEntity
  8
0
100
AcDbLine
 10
4321.472914565641
 20
2386.829275689696
 30
0.0
 11
4031.472914565642
 21
2369.829275689696
 31
0.0
  0
LINE
  5
3898
330
1A
100
AcDbEntity
  8
0
100
AcDbLine
 10
4101.472914565639
 20
2324.399819202673
 30
0.0
 11
4203.58563082934
 21
2317.569537178345
 31
0.0
  0
LINE
  5
3899
330
1A
100
AcDbEntity
  8
0
100
AcDbLine
 10
4101.472914565643
 20
2309.366299982318
 30
0.0
 11
4202.58452343702
 21
2302.602981663162
 31
0.0
  0
LINE
  5
389A
330
1A
100
AcDbEntity
  8
0
100
AcDbLine
 10
4101.472914565642
 20
2299.343953835415
 30
0.0
 11
4201.917118508807
 21
2292.625277986374
 31
0.0
  0
ARC
  5
389B
330
1A
100
AcDbEntity
  8
0
100
AcDbCircle
 10
4004.365735263543
 20
2242.736759602432
 30
0.0
 40
75.0
100
AcDbArc
 50
93.82679309814784
 51
182.8624052260997
  0
ARC
  5
389C
330
1A
100
AcDbEntity
  8
0
100
AcDbCircle
 10
4004.365735263543
 20
2242.736759602432
 30
0.0
 40
60.0
100
AcDbArc
 50
93.82679309814784
 51
182.8624052260997
  0
ARC
  5
389D
330
1A
100
AcDbEntity
  8
0
100
AcDbCircle
 10
4004.365735263543
 20
2242.736759602432
 30
0.0
 40
50.0
100
AcDbArc
 50
93.82679309814784
 51
182.8624052260997
  0
LINE
  5
389E
330
1A
100
AcDbEntity
  8
0
100
AcDbLine
 10
4031.472914565639
 20
2369.829275689696
 30
0.0
 11
3911.472914565642
 21
2386.829275689696
 31
0.0
  0
LWPOLYLINE
  5
389F
330
1A
100
AcDbEntity
  8
TB
100
AcDbPolyline
 90
        7
 70
     0
 43
0.0
 10
3871.472914565642
 20
2327.848603070346
 10
3871.472914565642
 20
2301.848603070347
 10
3890.535062565642
 20
2305.992548070346
 42
0.352819
 10
3894.472914565642
 20
2310.878430070345
 10
3894.472914565642
 20
2318.818776070346
 42
0.352819
 10
3890.535062565642
 20
2323.704658070345
 10
3871.472914565642
 20
2327.848603070346
  0
LWPOLYLINE
  5
38A0
330
1A
100
AcDbEntity
  8
TB
100
AcDbPolyline
 90
        9
 70
     0
 43
0.0
 10
3871.472914565642
 20
2346.848603070347
 10
3871.472914565642
 20
2269.848603070347
 10
3899.749682565642
 20
2288.699781070347
 42
0.198912
 10
3901.879084565642
 20
2291.879452070345
 10
3906.276798565642
 20
2313.868022070345
 42
0.09902
 10
3906.276798565642
 20
2315.829184070347
 10
3902.104323565641
 20
2336.691559070345
 42
0.294108
 10
3898.337568565642
 20
2340.580184070347
 10
3871.472914565642
 20
2346.848603070347
  0
LINE
  5
38A1
330
1A
100
AcDbEntity
  8
0
100
AcDbLine
 10
3911.472914565641
 20
2386.829275689696
 30
0.0
 11
3881.472914565643
 21
2386.829275689696
 31
0.0
  0
LINE
  5
38A2
330
1A
100
AcDbEntity
  8
0
100
AcDbLine
 10
3871.472914565643
 20
2376.829275689696
 30
0.0
 11
3881.472914565643
 21
2386.829275689696
 31
0.0
  0
LINE
  5
38A3
330
1A
100
AcDbEntity
  8
0
100
AcDbLine
 10
4101.472914565643
 20
2309.366299982318
 30
0.0
 11
4000.361305694264
 21
2302.602981663162
 31
0.0
  0
LINE
  5
38A4
330
1A
100
AcDbEntity
  8
0
100
AcDbLine
 10
4101.472914565642
 20
2299.343953835415
 30
0.0
 11
4001.028710622477
 21
2292.625277986374
 31
0.0
  0
LINE
  5
38A5
330
1A
100
AcDbEntity
  8
0
100
AcDbLine
 10
4101.472914565639
 20
2324.399819202673
 30
0.0
 11
3999.360198301944
 21
2317.569537178345
 31
0.0
  0
ARC
  5
38A6
330
1A
100
AcDbEntity
  8
0
100
AcDbCircle
 10
4198.580093867741
 20
2242.736759602432
 30
0.0
 40
75.0
100
AcDbArc
 50
357.1375947739003
 51
86.17320690185215
  0
ARC
  5
38A7
330
1A
100
AcDbEntity
  8
0
100
AcDbCircle
 10
4198.580093867741
 20
2242.736759602432
 30
0.0
 40
60.0
100
AcDbArc
 50
357.1375947739003
 51
86.17320690185215
  0
ARC
  5
38A8
330
1A
100
AcDbEntity
  8
0
100
AcDbCircle
 10
4198.580093867741
 20
2242.736759602432
 30
0.0
 40
50.0
100
AcDbArc
 50
357.1375947739003
 51
86.17320690185215
  0
LWPOLYLINE
  5
38A9
330
1A
100
AcDbEntity
  8
TB
100
AcDbPolyline
 90
        7
 70
     0
 43
0.0
 10
4331.472914565642
 20
2327.848603070346
 10
4331.472914565642
 20
2301.848603070347
 10
4312.410766565641
 20
2305.992548070346
 42
-0.352819
 10
4308.472914565641
 20
2310.878430070345
 10
4308.472914565641
 20
2318.818776070346
 42
-0.352819
 10
4312.410766565641
 20
2323.704658070345
 10
4331.472914565642
 20
2327.848603070346
  0
LWPOLYLINE
  5
38AA
330
1A
100
AcDbEntity
  8
TB
100
AcDbPolyline
 90
        9
 70
     0
 43
0.0
 10
4331.472914565642
 20
2346.848603070347
 10
4331.472914565642
 20
2269.848603070347
 10
4303.196146565642
 20
2288.699781070347
 42
-0.198912
 10
4301.066744565641
 20
2291.879452070345
 10
4296.669030565642
 20
2313.868022070345
 42
-0.09902
 10
4296.669030565642
 20
2315.829184070347
 10
4300.841505565641
 20
2336.691559070345
 42
-0.294108
 10
4304.608260565642
 20
2340.580184070347
 10
4331.472914565642
 20
2346.848603070347
  0
LINE
  5
38AB
330
1A
100
AcDbEntity
  8
0
100
AcDbLine
 10
4331.472914565642
 20
2376.829275689696
 30
0.0
 11
4321.472914565641
 21
2386.829275689696
 31
0.0
  0
LINE
  5
38AC
330
1A
100
AcDbEntity
  8
0
 48
3.0
100
AcDbLine
 10
4401.472914565641
 20
1899.343953835414
 30
0.0
 11
4401.472914565641
 21
1799.343953835414
 31
0.0
  0
LEADER
  5
38AD
330
1A
100
AcDbEntity
  8
sunpou
100
AcDbLeader
  3
ISO-25
 73
     0
 75
     1
 40
30.0
 41
316.0
 76
     3
 10
3960.260446639657
 20
1855.818530689306
 30
0.0
 10
3712.931555375757
 20
1572.74833717673
 30
0.0
 10
3687.931555375757
 20
1572.74833717673
 30
0.0
340
38AE
213
0.0
223
-8.953556552835834
233
0.0
1001
ACAD
1000
DSTYLE
1002
{
1070
   147
1040
0.625
1070
    77
1070
     0
1070
    40
1040
10.0
1070
    73
1070
     0
1070
   140
1040
3.0
1070
   171
1070
     4
1070
   176
1070
   256
1070
   177
1070
   256
1070
   178
1070
   256
1070
   271
1070
     0
1070
   272
1070
     0
1070
   273
1070
     8
1070
   274
1070
     4
1070
   288
1070
     1
1070
   340
1005
2BF5
1070
   341
1005
2A96
1070
   342
1005
2A96
1070
   371
1070
    -1
1070
   372
1070
    -1
1002
}
  0
MTEXT
  5
38AE
102
{ACAD_REACTORS
330
38AD
102
}
330
1A
100
AcDbEntity
  8
sunpou
100
AcDbMText
 10
3681.681555375757
 20
1581.701893729565
 30
0.0
 40
30.0
 41
0.0
 71
     9
 72
     1
  1
受け台と単粒度砕石
  7
BIGFONT
 73
     1
 44
1.0
  0
LEADER
  5
38AF
330
1A
100
AcDbEntity
  8
sunpou
100
AcDbLeader
  3
ISO-25
 73
     0
 75
     1
 40
30.0
 41
100.0
 76
     3
 10
3775.110095533077
 20
1466.896909999138
 30
0.0
 10
3659.692652961491
 20
1339.14461348418
 30
0.0
 10
3634.692652961491
 20
1339.14461348418
 30
0.0
340
38B0
213
0.0
223
-8.953556552835834
233
0.0
1001
ACAD
1000
DSTYLE
1002
{
1070
   147
1040
0.625
1070
    77
1070
     0
1070
    40
1040
10.0
1070
    73
1070
     0
1070
   140
1040
3.0
1070
   171
1070
     4
1070
   176
1070
   256
1070
   177
1070
   256
1070
   178
1070
   256
1070
   271
1070
     0
1070
   272
1070
     0
1070
   273
1070
     8
1070
   274
1070
     4
1070
   288
1070
     1
1070
   340
1005
2BF5
1070
   341
1005
2A96
1070
   342
1005
2A96
1070
   371
1070
    -1
1070
   372
1070
    -1
1002
}
  0
MTEXT
  5
38B0
102
{ACAD_REACTORS
330
38AF
102
}
330
1A
100
AcDbEntity
  8
sunpou
100
AcDbMText
 10
3628.442652961491
 20
1348.098170037016
 30
0.0
 40
30.0
 41
0.0
 71
     9
 72
     1
  1
敷き砂
  7
BIGFONT
 73
     1
 44
1.0
  0
LINE
  5
38B1
330
1A
100
AcDbEntity
  8
sunpou
100
AcDbLine
 10
3634.692652961491
 20
1339.14461348418
 30
0.0
 11
3518.101242910735
 21
1339.14461348418
 31
0.0
  0
LINE
  5
38B2
330
1A
100
AcDbEntity
  8
sunpou
100
AcDbLine
 10
3576.055471994057
 20
1691.674170863686
 30
0.0
 11
3395.513692014155
 21
1691.674170863686
 31
0.0
  0
LINE
  5
38B3
330
1A
100
AcDbEntity
  8
sunpou
100
AcDbLine
 10
3687.931555375757
 20
1572.74833717673
 30
0.0
 11
3355.479464692955
 21
1572.74833717673
 31
0.0
  0
MTEXT
  5
38B4
102
{ACAD_REACTORS
330
38B5
102
}
330
1A
100
AcDbEntity
  8
sunpou
100
AcDbMText
 10
3569.805471994057
 20
1700.627727416522
 30
0.0
 40
30.0
 41
0.0
 71
     9
 72
     1
  1
単粒度砕石
  7
BIGFONT
 73
     1
 44
1.0
  0
LEADER
  5
38B5
330
1A
100
AcDbEntity
  8
sunpou
100
AcDbLeader
  3
ISO-25
 73
     0
 75
     1
 40
30.0
 41
172.0
 76
     3
 10
3801.944556673812
 20
1927.604577848724
 30
0.0
 10
3601.055471994057
 20
1691.674170863686
 30
0.0
 10
3576.055471994057
 20
1691.674170863686
 30
0.0
340
38B4
213
0.0
223
-8.953556552835834
233
0.0
1001
ACAD
1000
DSTYLE
1002
{
1070
   147
1040
0.625
1070
    77
1070
     0
1070
    40
1040
10.0
1070
    73
1070
     0
1070
   140
1040
3.0
1070
   171
1070
     4
1070
   176
1070
   256
1070
   177
1070
   256
1070
   178
1070
   256
1070
   271
1070
     0
1070
   272
1070
     0
1070
   273
1070
     8
1070
   274
1070
     4
1070
   288
1070
     1
1070
   340
1005
2BF5
1070
   341
1005
2A96
1070
   342
1005
2A96
1070
   371
1070
    -1
1070
   372
1070
    -1
1002
}
  0
LINE
  5
38B6
330
1A
100
AcDbEntity
  8
sunpou
100
AcDbLine
 10
3576.055471994057
 20
2048.771285450274
 30
0.0
 11
3395.513692014155
 21
2048.771285450274
 31
0.0
  0
MTEXT
  5
38B7
102
{ACAD_REACTORS
330
38B8
102
}
330
1A
100
AcDbEntity
  8
sunpou
100
AcDbMText
 10
3569.805471994057
 20
2057.72484200311
 30
0.0
 40
30.0
 41
0.0
 71
     9
 72
     1
  1
透水シート
  7
BIGFONT
 73
     1
 44
1.0
  0
LEADER
  5
38B8
330
1A
100
AcDbEntity
  8
sunpou
100
AcDbLeader
  3
ISO-25
 73
     0
 75
     1
 40
30.0
 41
166.0
 76
     3
 10
3716.472914565643
 20
2165.947510455174
 30
0.0
 10
3601.055471994057
 20
2048.771285450274
 30
0.0
 10
3576.055471994057
 20
2048.771285450274
 30
0.0
340
38B7
213
0.0
223
-8.953556552835834
233
0.0
1001
ACAD
1000
DSTYLE
1002
{
1070
   147
1040
0.625
1070
    77
1070
     0
1070
    40
1040
10.0
1070
    73
1070
     0
1070
   140
1040
3.0
1070
   171
1070
     4
1070
   176
1070
   256
1070
   177
1070
   256
1070
   178
1070
   256
1070
   271
1070
     0
1070
   272
1070
     0
1070
   273
1070
     8
1070
   274
1070
     4
1070
   288
1070
     1
1070
   340
1005
2BF5
1070
   341
1005
2A96
1070
   342
1005
2A96
1070
   371
1070
    -1
1070
   372
1070
    -1
1002
}
  0
DIMENSION
  5
38B9
330
1A
100
AcDbEntity
  8
sunpou
 48
3.0
100
AcDbDimension
  2
*D34
 10
4662.235834534782
 20
1799.343953835413
 30
0.0
 11
4640.985834534783
 21
1849.343953835415
 31
0.0
 70
    32
 71
     5
 42
100.0000000000009
  3
ISO-25
100
AcDbAlignedDimension
 13
4569.920745998725
 23
1899.343953835414
 33
0.0
 14
4576.170745998726
 24
1799.343953835414
 34
0.0
 50
90.0
100
AcDbRotatedDimension
1001
ACAD
1000
DSTYLE
1002
{
1070
    40
1040
10.0
1070
    73
1070
     0
1070
   140
1040
3.0
1070
   171
1070
     4
1070
   176
1070
   256
1070
   177
1070
   256
1070
   178
1070
   256
1070
   271
1070
     0
1070
   272
1070
     0
1070
   273
1070
     8
1070
   274
1070
     4
1070
   288
1070
     1
1070
   340
1005
2BF5
1070
   341
1005
2A96
1070
   342
1005
2A96
1070
   371
1070
    -1
1070
   372
1070
    -1
1002
}
  0
DIMENSION
  5
38BA
330
1A
100
AcDbEntity
  8
sunpou
 48
3.0
100
AcDbDimension
  2
*D35
 10
4662.235834534782
 20
1899.343953835414
 30
0.0
 11
4640.985834534782
 21
2068.086614762556
 31
0.0
 70
    32
 71
     5
 42
337.4853218542812
  3
ISO-25
100
AcDbAlignedDimension
 13
4569.920745998723
 23
2236.829275689696
 33
0.0
 14
4576.170745998726
 24
1899.343953835414
 34
0.0
 50
90.0
100
AcDbRotatedDimension
1001
ACAD
1000
DSTYLE
1002
{
1070
    40
1040
10.0
1070
    73
1070
     0
1070
   140
1040
3.0
1070
   171
1070
     4
1070
   176
1070
   256
1070
   177
1070
   256
1070
   178
1070
   256
1070
   271
1070
     0
1070
   272
1070
     0
1070
   273
1070
     8
1070
   274
1070
     4
1070
   288
1070
     1
1070
   340
1005
2BF5
1070
   341
1005
2A96
1070
   342
1005
2A96
1070
   371
1070
    -1
1070
   372
1070
    -1
1002
}
  0
DIMENSION
  5
38BB
330
1A
100
AcDbEntity
  8
sunpou
100
AcDbDimension
  2
*D36
 10
4331.472914565642
 20
2462.905887552951
 30
0.0
 11
4095.269667422394
 21
2462.905887552951
 31
0.0
 70
   160
 71
     5
 42
459.999999999999
  3
ISO-25
100
AcDbAlignedDimension
 13
3871.472914565643
 23
2376.829275689696
 33
0.0
 14
4331.472914565642
 24
2376.829275689696
 34
0.0
100
AcDbRotatedDimension
1001
ACAD
1000
DSTYLE
1002
{
1070
    40
1040
10.0
1070
    73
1070
     0
1070
   140
1040
3.0
1070
   171
1070
     4
1070
   176
1070
   256
1070
   177
1070
   256
1070
   178
1070
   256
1070
   271
1070
     0
1070
   272
1070
     0
1070
   273
1070
     8
1070
   274
1070
     4
1070
   288
1070
     1
1070
   340
1005
2BF5
1070
   341
1005
2A96
1070
   342
1005
2A96
1070
   371
1070
    -1
1070
   372
1070
    -1
1002
}
  0
DIMENSION
  5
38BC
330
1A
100
AcDbEntity
  8
sunpou
100
AcDbDimension
  2
*D37
 10
4248.517710811634
 20
2232.224999166473
 30
0.0
 11
4109.266959960089
 21
2232.224999166473
 31
0.0
 70
   160
 71
     5
 42
294.0895924919823
  3
ISO-25
100
AcDbAlignedDimension
 13
3954.428118319652
 23
2240.239878755237
 33
0.0
 14
4248.517710811634
 24
2240.239878755236
 34
0.0
100
AcDbRotatedDimension
1001
ACAD
1000
DSTYLE
1002
{
1070
    40
1040
10.0
1070
    73
1070
     0
1070
   140
1040
3.0
1070
   171
1070
     4
1070
   176
1070
   256
1070
   177
1070
   256
1070
   178
1070
   256
1070
   271
1070
     0
1070
   272
1070
     0
1070
   273
1070
     8
1070
   274
1070
     4
1070
   288
1070
     1
1070
   340
1005
2BF5
1070
   341
1005
2A96
1070
   342
1005
2A96
1070
   371
1070
    -1
1070
   372
1070
    -1
1002
}
  0
DIMENSION
  5
38BD
330
1A
100
AcDbEntity
  8
sunpou
100
AcDbDimension
  2
*D38
 10
4188.001731716609
 20
2299.343953835415
 30
0.0
 11
4188.001731716608
 21
2342.322692771539
 31
0.0
 70
   160
 71
     5
 42
87.48532185428121
  3
ISO-25
100
AcDbAlignedDimension
 13
4104.048158068513
 23
2386.829275689696
 33
0.0
 14
4101.472914565642
 24
2299.343953835415
 34
0.0
 50
90.0
100
AcDbRotatedDimension
1001
ACAD
1000
DSTYLE
1002
{
1070
    40
1040
10.0
1070
    73
1070
     0
1070
   140
1040
3.0
1070
   171
1070
     4
1070
   176
1070
   256
1070
   177
1070
   256
1070
   178
1070
   256
1070
   271
1070
     0
1070
   272
1070
     0
1070
   273
1070
     8
1070
   274
1070
     4
1070
   288
1070
     1
1070
   340
1005
2BF5
1070
   341
1005
2A96
1070
   342
1005
2A96
1070
   371
1070
    -1
1070
   372
1070
    -1
1002
}
  0
DIMENSION
  5
38BE
330
1A
100
AcDbEntity
  8
sunpou
100
AcDbDimension
  2
*D39
 10
4188.001731716609
 20
1969.343953835414
 30
0.0
 11
4166.751731716609
 21
2134.343953835415
 31
0.0
 70
    32
 71
     5
 42
330.0
  3
ISO-25
100
AcDbAlignedDimension
 13
4101.472914565642
 23
2299.343953835415
 33
0.0
 14
4101.472914565643
 24
1969.343953835414
 34
0.0
 50
90.0
100
AcDbRotatedDimension
1001
ACAD
1000
DSTYLE
1002
{
1070
   279
1070
     1
1070
    40
1040
10.0
1070
    73
1070
     0
1070
   140
1040
3.0
1070
   171
1070
     4
1070
   176
1070
   256
1070
   177
1070
   256
1070
   178
1070
   256
1070
   271
1070
     0
1070
   272
1070
     0
1070
   273
1070
     8
1070
   274
1070
     4
1070
   288
1070
     1
1070
   340
1005
2BF5
1070
   341
1005
2A96
1070
   342
1005
2A96
1070
   371
1070
    -1
1070
   372
1070
    -1
1002
}
  0
MTEXT
  5
38BF
330
1A
100
AcDbEntity
  8
0
 62
     1
100
AcDbMText
 10
4115.533064336172
 20
1009.887235152453
 30
0.0
 40
30.0
 41
570.2380491354796
 71
     1
 72
     5
  1
製品接続の際のﾎﾞﾙﾄ締めは、１か２どちらかで接続を行う
 73
     1
 44
1.0
  0
DIMENSION
  5
38C0
330
1A
100
AcDbEntity
  8
sunpou
100
AcDbDimension
  2
*D40
 10
4401.472914565641
 20
1184.285454530637
 30
0.0
 11
4106.014682123496
 21
1184.285454530637
 31
0.0
 70
   160
 71
     5
 42
600.0
  3
ISO-25
100
AcDbAlignedDimension
 13
3801.472914565642
 23
1436.829275689696
 33
0.0
 14
4401.472914565641
 24
1436.829275689696
 34
0.0
100
AcDbRotatedDimension
1001
ACAD
1000
DSTYLE
1002
{
1070
    40
1040
10.0
1070
    73
1070
     0
1070
   140
1040
3.0
1070
   171
1070
     4
1070
   176
1070
   256
1070
   177
1070
   256
1070
   178
1070
   256
1070
   271
1070
     0
1070
   272
1070
     0
1070
   273
1070
     8
1070
   274
1070
     4
1070
   288
1070
     1
1070
   340
1005
2BF5
1070
   341
1005
2A96
1070
   342
1005
2A96
1070
   371
1070
    -1
1070
   372
1070
    -1
1002
}
  0
DIMENSION
  5
38C1
330
1A
100
AcDbEntity
  8
sunpou
100
AcDbDimension
  2
*D41
 10
4574.913321867591
 20
1899.343953835414
 30
0.0
 11
4553.663321867591
 21
1799.398516871423
 31
0.0
 70
    32
 71
     5
 42
199.8908739279832
  3
ISO-25
100
AcDbAlignedDimension
 13
4475.05682092667
 23
1699.453079907431
 33
0.0
 14
4493.97834233365
 24
1899.343953835414
 34
0.0
 50
90.0
100
AcDbRotatedDimension
1001
ACAD
1000
DSTYLE
1002
{
1070
   279
1070
     1
1070
    40
1040
10.0
1070
    73
1070
     0
1070
   140
1040
3.0
1070
   171
1070
     4
1070
   176
1070
   256
1070
   177
1070
   256
1070
   178
1070
   256
1070
   271
1070
     0
1070
   272
1070
     0
1070
   273
1070
     8
1070
   274
1070
     4
1070
   288
1070
     1
1070
   340
1005
2BF5
1070
   341
1005
2A96
1070
   342
1005
2A96
1070
   371
1070
    -1
1070
   372
1070
    -1
1002
}
  0
DIMENSION
  5
38C2
330
1A
100
AcDbEntity
  8
sunpou
100
AcDbDimension
  2
*D42
 10
4574.913321867591
 20
1699.453079907431
 30
0.0
 11
4574.913321867591
 21
1655.231152261624
 31
0.0
 70
   160
 71
     5
 42
90.0
  3
ISO-25
100
AcDbAlignedDimension
 13
4466.45031998575
 23
1609.453079907431
 33
0.0
 14
4475.05682092667
 24
1699.453079907431
 34
0.0
 50
90.0
100
AcDbRotatedDimension
1001
ACAD
1000
DSTYLE
1002
{
1070
    40
1040
10.0
1070
    73
1070
     0
1070
   140
1040
3.0
1070
   171
1070
     4
1070
   176
1070
   256
1070
   177
1070
   256
1070
   178
1070
   256
1070
   271
1070
     0
1070
   272
1070
     0
1070
   273
1070
     8
1070
   274
1070
     4
1070
   288
1070
     1
1070
   340
1005
2BF5
1070
   341
1005
2A96
1070
   342
1005
2A96
1070
   371
1070
    -1
1070
   372
1070
    -1
1002
}
  0
LINE
  5
38C3
330
1A
100
AcDbEntity
  8
TB
 48
3.0
100
AcDbLine
 10
4231.528827043784
 20
1899.35803885015
 30
0.0
 11
4221.528827043783
 21
1699.35803885015
 31
0.0
  0
LINE
  5
38C4
330
1A
100
AcDbEntity
  8
KIJUN
100
AcDbLine
 10
3871.528827043786
 20
1609.35803885015
 30
0.0
 11
4331.528827043785
 21
1609.35803885015
 31
0.0
  0
LINE
  5
38C5
330
1A
100
AcDbEntity
  8
TB
 48
3.0
100
AcDbLine
 10
3981.528827043788
 20
1699.35803885015
 30
0.0
 11
4221.528827043783
 21
1699.35803885015
 31
0.0
  0
LINE
  5
38C6
330
1A
100
AcDbEntity
  8
TB
 48
3.0
100
AcDbLine
 10
3971.528827043788
 20
1899.35803885015
 30
0.0
 11
3981.528827043788
 21
1699.35803885015
 31
0.0
  0
LINE
  5
38C7
330
1A
100
AcDbEntity
  8
KIJUN
100
AcDbLine
 10
3871.528827043786
 20
1953.858038850149
 30
0.0
 11
3871.528827043786
 21
1609.35803885015
 31
0.0
  0
LINE
  5
38C8
330
1A
100
AcDbEntity
  8
KIJUN
100
AcDbLine
 10
4331.528827043785
 20
1953.858038850149
 30
0.0
 11
4331.528827043785
 21
1609.35803885015
 31
0.0
  0
LINE
  5
38C9
330
1A
100
AcDbEntity
  8
KIJUN
100
AcDbLine
 10
3911.225255615215
 20
1953.858038850149
 30
0.0
 11
3871.528827043786
 21
1953.858038850149
 31
0.0
  0
LINE
  5
38CA
330
1A
100
AcDbEntity
  8
KIJUN
100
AcDbLine
 10
4291.832398472356
 20
1953.858038850149
 30
0.0
 11
4331.528827043785
 21
1953.858038850149
 31
0.0
  0
LINE
  5
38CB
330
1A
100
AcDbEntity
  8
TB
 48
3.0
100
AcDbLine
 10
4238.431243118796
 20
2037.406360350386
 30
0.0
 11
4231.528827043784
 21
1899.35803885015
 31
0.0
  0
LINE
  5
38CC
330
1A
100
AcDbEntity
  8
TB
 48
3.0
100
AcDbLine
 10
3964.626410968776
 20
2037.406360350386
 30
0.0
 11
3971.528827043788
 21
1899.35803885015
 31
0.0
  0
LEADER
  5
38CD
330
1A
100
AcDbEntity
  8
sunpou
100
AcDbLeader
  3
ISO-25
 73
     0
 75
     1
 40
30.0
 41
100.0
 76
     3
 10
3901.542811290261
 20
1675.471603440176
 30
0.0
 10
3700.653726610505
 20
1496.349879622728
 30
0.0
 10
3675.653726610505
 20
1496.349879622728
 30
0.0
340
38CE
213
0.0
223
-8.953556552835834
233
0.0
1001
ACAD
1000
DSTYLE
1002
{
1070
   147
1040
0.625
1070
    77
1070
     0
1070
    40
1040
10.0
1070
    73
1070
     0
1070
   140
1040
3.0
1070
   171
1070
     4
1070
   176
1070
   256
1070
   177
1070
   256
1070
   178
1070
   256
1070
   271
1070
     0
1070
   272
1070
     0
1070
   273
1070
     8
1070
   274
1070
     4
1070
   288
1070
     1
1070
   340
1005
2BF5
1070
   341
1005
2A96
1070
   342
1005
2A96
1070
   371
1070
    -1
1070
   372
1070
    -1
1002
}
  0
MTEXT
  5
38CE
102
{ACAD_REACTORS
330
38CD
102
}
330
1A
100
AcDbEntity
  8
sunpou
100
AcDbMText
 10
3669.403726610505
 20
1505.303436175564
 30
0.0
 40
30.0
 41
0.0
 71
     9
 72
     1
  1
側溝桝
  7
BIGFONT
 73
     1
 44
1.0
  0
LINE
  5
38CF
330
1A
100
AcDbEntity
  8
sunpou
100
AcDbLine
 10
3675.653726610505
 20
1496.349879622728
 30
0.0
 11
3545.264318510165
 21
1496.349879622728
 31
0.0
  0
DIMENSION
  5
38D0
330
1A
100
AcDbEntity
  8
sunpou
100
AcDbDimension
  2
*D43
 10
4331.528827043785
 20
1266.533719848345
 30
0.0
 11
4276.528827043785
 21
1287.783719848345
 31
0.0
 70
    32
 71
     5
 42
110.0000000000018
  3
ISO-25
100
AcDbAlignedDimension
 13
4221.528827043783
 23
1424.375088586926
 33
0.0
 14
4331.528827043785
 24
1436.829275689696
 34
0.0
100
AcDbRotatedDimension
1001
ACAD
1000
DSTYLE
1002
{
1070
   279
1070
     1
1070
    40
1040
10.0
1070
    73
1070
     0
1070
   140
1040
3.0
1070
   171
1070
     4
1070
   176
1070
   256
1070
   177
1070
   256
1070
   178
1070
   256
1070
   271
1070
     0
1070
   272
1070
     0
1070
   273
1070
     8
1070
   274
1070
     4
1070
   288
1070
     1
1070
   340
1005
2BF5
1070
   341
1005
2A96
1070
   342
1005
2A96
1070
   371
1070
    -1
1070
   372
1070
    -1
1002
}
  0
DIMENSION
  5
38D1
330
1A
100
AcDbEntity
  8
sunpou
100
AcDbDimension
  2
*D44
 10
4221.528827043783
 20
1266.533719848345
 30
0.0
 11
4101.528827043785
 21
1287.783719848345
 31
0.0
 70
    32
 71
     5
 42
239.9999999999963
  3
ISO-25
100
AcDbAlignedDimension
 13
3981.528827043788
 23
1424.375088586926
 33
0.0
 14
4221.528827043783
 24
1424.375088586926
 34
0.0
100
AcDbRotatedDimension
1001
ACAD
1000
DSTYLE
1002
{
1070
   279
1070
     1
1070
    40
1040
10.0
1070
    73
1070
     0
1070
   140
1040
3.0
1070
   171
1070
     4
1070
   176
1070
   256
1070
   177
1070
   256
1070
   178
1070
   256
1070
   271
1070
     0
1070
   272
1070
     0
1070
   273
1070
     8
1070
   274
1070
     4
1070
   288
1070
     1
1070
   340
1005
2BF5
1070
   341
1005
2A96
1070
   342
1005
2A96
1070
   371
1070
    -1
1070
   372
1070
    -1
1002
}
  0
DIMENSION
  5
38D2
330
1A
100
AcDbEntity
  8
sunpou
100
AcDbDimension
  2
*D45
 10
3981.528827043788
 20
1266.533719848345
 30
0.0
 11
3921.947469295592
 21
1266.533719848345
 31
0.0
 70
   160
 71
     5
 42
110.0000000000018
  3
ISO-25
100
AcDbAlignedDimension
 13
3871.528827043786
 23
1436.829275689696
 33
0.0
 14
3981.528827043788
 24
1424.375088586926
 34
0.0
100
AcDbRotatedDimension
1001
ACAD
1000
DSTYLE
1002
{
1070
    40
1040
10.0
1070
    73
1070
     0
1070
   140
1040
3.0
1070
   171
1070
     4
1070
   176
1070
   256
1070
   177
1070
   256
1070
   178
1070
   256
1070
   271
1070
     0
1070
   272
1070
     0
1070
   273
1070
     8
1070
   274
1070
     4
1070
   288
1070
     1
1070
   340
1005
2BF5
1070
   341
1005
2A96
1070
   342
1005
2A96
1070
   371
1070
    -1
1070
   372
1070
    -1
1002
}
  0
MTEXT
  5
38D3
330
1A
100
AcDbEntity
  8
0
100
AcDbMText
 10
4105.303597848286
 20
894.6071916558253
 30
0.0
 40
30.0
 41
371.0
 71
     1
 72
     5
  1
{\C1;製品長 Ｌ＝2.000ｍ}
  7
BIGFONT
 73
     1
 44
1.0
  0
MTEXT
  5
38D4
102
{ACAD_REACTORS
330
38D6
102
}
330
1A
100
AcDbEntity
  8
sunpou
100
AcDbMText
 10
3599.221641144794
 20
1926.946874880146
 30
0.0
 40
30.0
 41
0.0
 71
     9
 72
     1
  1
EXM-300
  7
BIGFONT
 73
     1
 44
1.0
  0
LINE
  5
38D5
330
1A
100
AcDbEntity
  8
sunpou
100
AcDbLine
 10
3605.471641144794
 20
1917.99331832731
 30
0.0
 11
3389.079432008475
 21
1917.99331832731
 31
0.0
  0
LEADER
  5
38D6
330
1A
100
AcDbEntity
  8
sunpou
100
AcDbLeader
  3
ISO-25
 73
     0
 75
     1
 40
30.00000000000001
 41
200.0
 76
     3
 10
3913.391994425715
 20
2187.871205191207
 30
0.0
 10
3630.471641144794
 20
1917.99331832731
 30
0.0
 10
3605.471641144794
 20
1917.99331832731
 30
0.0
340
38D4
213
0.0
223
-8.953556552835834
233
0.0
1001
ACAD
1000
DSTYLE
1002
{
1070
   147
1040
0.625
1070
    77
1070
     0
1070
    40
1040
10.0
1070
    73
1070
     0
1070
   140
1040
3.0
1070
   171
1070
     4
1070
   176
1070
   256
1070
   177
1070
   256
1070
   178
1070
   256
1070
   271
1070
     0
1070
   272
1070
     0
1070
   273
1070
     8
1070
   274
1070
     4
1070
   288
1070
     1
1070
   340
1005
2BF5
1070
   341
1005
2A96
1070
   342
1005
2A96
1070
   371
1070
    -1
1070
   372
1070
    -1
1002
}
  0
LINE
  5
38D7
330
1A
100
AcDbEntity
  8
KIJUN
 48
3.0
100
AcDbLine
 10
3319.335918587869
 20
458.0415455362883
 30
0.0
 11
3579.335918587869
 21
458.0415455362883
 31
0.0
  0
LINE
  5
38D8
330
1A
100
AcDbEntity
  8
KIJUN
100
AcDbLine
 10
3664.344487472828
 20
539.7489444019586
 30
0.0
 11
3379.335918587868
 21
523.0415455362884
 31
0.0
  0
LINE
  5
38D9
330
1A
100
AcDbEntity
  8
KIJUN
100
AcDbLine
 10
3229.33591858787
 20
535.0415455362884
 30
0.0
 11
3234.335918587869
 21
540.0415455362884
 31
0.0
  0
LINE
  5
38DA
330
1A
100
AcDbEntity
  8
KIJUN
100
AcDbLine
 10
3379.335918587866
 20
523.0415455362884
 30
0.0
 11
3259.335918587868
 21
540.0415455362884
 31
0.0
  0
LINE
  5
38DB
330
1A
100
AcDbEntity
  8
KIJUN
 48
3.0
100
AcDbLine
 10
3289.335918587869
 20
433.0415455362888
 30
0.0
 11
3299.335918587869
 21
433.0415455362888
 31
0.0
  0
LINE
  5
38DC
330
1A
100
AcDbEntity
  8
KIJUN
 48
3.0
100
AcDbLine
 10
3299.335918587869
 20
433.0415455362888
 30
0.0
 11
3234.335918587869
 21
433.0415455362883
 31
0.0
  0
LINE
  5
38DD
330
1A
100
AcDbEntity
  8
KIJUN
 48
3.0
100
AcDbLine
 10
3228.166127709663
 20
497.6317941582867
 30
0.0
 11
3229.342598297898
 21
473.6317941582867
 31
0.0
  0
LINE
  5
38DE
330
1A
100
AcDbEntity
  8
KIJUN
 48
3.0
100
AcDbLine
 10
3229.33591858787
 20
535.0415455362884
 30
0.0
 11
3234.335918587869
 21
433.0415455362883
 31
0.0
  0
CIRCLE
  5
38DF
330
1A
100
AcDbEntity
  8
KIJUN
 48
3.0
100
AcDbCircle
 10
3265.585918587869
 20
485.2915455362883
 30
0.0
 40
12.0
  0
CIRCLE
  5
38E0
330
1A
100
AcDbEntity
  8
KIJUN
 48
3.0
100
AcDbCircle
 10
3265.585918587869
 20
485.2915455362883
 30
0.0
 40
15.0
  0
LINE
  5
38E1
330
1A
100
AcDbEntity
  8
KIJUN
 48
3.0
100
AcDbLine
 10
3289.26167009384
 20
428.0415455362888
 30
0.0
 11
3239.335918587869
 21
428.0415455362883
 31
0.0
  0
LINE
  5
38E2
330
1A
100
AcDbEntity
  8
KIJUN
 48
3.0
100
AcDbLine
 10
3229.342598297898
 20
473.6317941582867
 30
0.0
 11
3232.346200518163
 21
473.6317941582867
 31
0.0
  0
LINE
  5
38E3
330
1A
100
AcDbEntity
  8
KIJUN
 48
3.0
100
AcDbLine
 10
3239.335918587869
 20
433.0415455362883
 30
0.0
 11
3239.335918587869
 21
427.7865258862723
 31
0.0
  0
LINE
  5
38E4
330
1A
100
AcDbEntity
  8
KIJUN
 48
3.0
100
AcDbLine
 10
3289.335918587869
 20
433.0415455362883
 30
0.0
 11
3289.335918587869
 21
428.1867736522465
 31
0.0
  0
LINE
  5
38E5
330
1A
100
AcDbEntity
  8
KIJUN
 48
3.0
100
AcDbLine
 10
3228.166127709663
 20
497.6317941582867
 30
0.0
 11
3231.169729929928
 21
497.6317941582867
 31
0.0
  0
LINE
  5
38E6
330
1A
100
AcDbEntity
  8
TB
 48
3.0
100
AcDbLine
 10
3324.335918587868
 20
530.8332122029549
 30
0.0
 11
3319.335918587869
 21
458.0415455362883
 31
0.0
  0
LINE
  5
38E7
330
1A
100
AcDbEntity
  8
KIJUN
 48
3.0
100
AcDbLine
 10
3319.335918587869
 20
458.0415455362883
 30
0.0
 11
3299.335918587869
 21
433.0415455362888
 31
0.0
  0
LINE
  5
38E8
330
1A
100
AcDbEntity
  8
KIJUN
100
AcDbLine
 10
3259.335918587867
 20
540.0415455362884
 30
0.0
 11
3234.335918587869
 21
540.0415455362884
 31
0.0
  0
LINE
  5
38E9
330
1A
100
AcDbEntity
  8
KIJUN
 48
3.0
100
AcDbLine
 10
3246.835918587867
 20
540.0415455362884
 30
0.0
 11
3234.335918587869
 21
540.0415455362884
 31
0.0
  0
LINE
  5
38EA
330
1A
100
AcDbEntity
  8
TB
 48
3.0
100
AcDbLine
 10
3424.335918587868
 20
525.6794765707711
 30
0.0
 11
3429.335918587868
 21
458.0415455362883
 31
0.0
  0
LINE
  5
38EB
330
1A
100
AcDbEntity
  8
TB
 48
3.0
100
AcDbLine
 10
3474.335918587869
 20
528.6105110535301
 30
0.0
 11
3469.335918587869
 21
458.0415455362883
 31
0.0
  0
LINE
  5
38EC
330
1A
100
AcDbEntity
  8
KIJUN
100
AcDbLine
 10
3664.344487472828
 20
539.7489444019586
 30
0.0
 11
3669.335918587869
 21
535.0415455362884
 31
0.0
  0
CIRCLE
  5
38ED
330
1A
100
AcDbEntity
  8
KIJUN
 48
3.0
100
AcDbCircle
 10
3633.088060809109
 20
485.2183952527059
 30
0.0
 40
12.0
  0
CIRCLE
  5
38EE
330
1A
100
AcDbEntity
  8
KIJUN
 48
3.0
100
AcDbCircle
 10
3633.088060809109
 20
485.2183952527059
 30
0.0
 40
15.0
  0
LINE
  5
38EF
330
1A
100
AcDbEntity
  8
KIJUN
 48
3.0
100
AcDbLine
 10
3659.335918587869
 20
428.0415455362883
 30
0.0
 11
3609.335918587869
 21
428.0415455362883
 31
0.0
  0
LINE
  5
38F0
330
1A
100
AcDbEntity
  8
KIJUN
 48
3.0
100
AcDbLine
 10
3652.620032835384
 20
433.0415455362883
 30
0.0
 11
3599.335918587868
 21
433.0415455362883
 31
0.0
  0
LINE
  5
38F1
330
1A
100
AcDbEntity
  8
TB
 48
3.0
100
AcDbLine
 10
3574.335918587869
 20
534.4725800190474
 30
0.0
 11
3579.335918587869
 21
458.0415455362883
 31
0.0
  0
LINE
  5
38F2
330
1A
100
AcDbEntity
  8
KIJUN
 48
3.0
100
AcDbLine
 10
3579.335918587869
 20
458.0415455362883
 30
0.0
 11
3599.335918587868
 21
433.0415455362883
 31
0.0
  0
LINE
  5
38F3
330
1A
100
AcDbEntity
  8
KIJUN
 48
3.0
100
AcDbLine
 10
3609.335918587869
 20
433.0415455362883
 30
0.0
 11
3609.335918587869
 21
428.0415455362883
 31
0.0
  0
LINE
  5
38F4
330
1A
100
AcDbEntity
  8
KIJUN
 48
3.0
100
AcDbLine
 10
3670.505709466073
 20
497.6317941582895
 30
0.0
 11
3669.329238877839
 21
473.6317941582894
 31
0.0
  0
LINE
  5
38F5
330
1A
100
AcDbEntity
  8
KIJUN
 48
3.0
100
AcDbLine
 10
3664.335918587869
 20
433.0415455362883
 30
0.0
 11
3669.335918587869
 21
535.0415455362884
 31
0.0
  0
LINE
  5
38F6
330
1A
100
AcDbEntity
  8
KIJUN
 48
3.0
100
AcDbLine
 10
3669.329238877839
 20
473.6317941582894
 30
0.0
 11
3666.325636657575
 21
473.6317941582894
 31
0.0
  0
LINE
  5
38F7
330
1A
100
AcDbEntity
  8
KIJUN
 48
3.0
100
AcDbLine
 10
3652.620032835384
 20
433.0415455362883
 30
0.0
 11
3664.335918587869
 21
433.0415455362883
 31
0.0
  0
LINE
  5
38F8
330
1A
100
AcDbEntity
  8
KIJUN
 48
3.0
100
AcDbLine
 10
3659.335918587869
 20
433.0415455362883
 30
0.0
 11
3659.335918587869
 21
428.0415455362883
 31
0.0
  0
LINE
  5
38F9
330
1A
100
AcDbEntity
  8
KIJUN
100
AcDbLine
 10
3669.335918587869
 20
451.4739263589619
 30
0.0
 11
3669.335918587869
 21
450.7175975561515
 31
0.0
  0
LINE
  5
38FA
330
1A
100
AcDbEntity
  8
KIJUN
 48
3.0
100
AcDbLine
 10
3670.505709466073
 20
497.6317941582895
 30
0.0
 11
3667.502107245809
 21
497.6317941582895
 31
0.0
  0
DIMENSION
  5
38FB
330
1A
100
AcDbEntity
  8
sunpou
100
AcDbDimension
  2
*D46
 10
3679.335918587868
 20
616.1181573995434
 30
0.0
 11
3443.132671444621
 21
616.1181573995434
 31
0.0
 70
   160
 71
     5
 42
459.999999999999
  3
ISO-25
100
AcDbAlignedDimension
 13
3219.335918587869
 23
530.0415455362879
 33
0.0
 14
3679.335918587868
 24
530.0415455362879
 34
0.0
100
AcDbRotatedDimension
1001
ACAD
1000
DSTYLE
1002
{
1070
    40
1040
10.0
1070
    73
1070
     0
1070
   140
1040
3.0
1070
   171
1070
     4
1070
   176
1070
   256
1070
   177
1070
   256
1070
   178
1070
   256
1070
   271
1070
     0
1070
   272
1070
     0
1070
   273
1070
     8
1070
   274
1070
     4
1070
   288
1070
     1
1070
   340
1005
2BF5
1070
   341
1005
2A96
1070
   342
1005
2A96
1070
   371
1070
    -1
1070
   372
1070
    -1
1002
}
  0
LINE
  5
38FC
330
1A
100
AcDbEntity
  8
CT1
100
AcDbLine
 10
3449.335918587868
 20
261.2754630267744
 30
0.0
 11
3449.335918587868
 21
577.6713391429991
 31
0.0
  0
LINE
  5
38FD
330
1A
100
AcDbEntity
  8
0
 48
3.0
100
AcDbLine
 10
3229.33591858787
 20
540.0415455362879
 30
0.0
 11
3109.335918587869
 21
540.0415455362874
 31
0.0
  0
ARC
  5
38FE
330
1A
100
AcDbEntity
  8
0
100
AcDbCircle
 10
3352.228739285769
 20
395.949029449024
 30
0.0
 40
50.0
100
AcDbArc
 50
140.4501054210236
 51
182.8624052260997
  0
ARC
  5
38FF
330
1A
100
AcDbEntity
  8
0
100
AcDbCircle
 10
3352.228739285769
 20
395.949029449024
 30
0.0
 40
60.0
100
AcDbArc
 50
147.9523107230447
 51
182.8624052260997
  0
ARC
  5
3900
330
1A
100
AcDbEntity
  8
0
100
AcDbCircle
 10
3352.228739285769
 20
395.949029449024
 30
0.0
 40
75.0
100
AcDbArc
 50
154.8809838575042
 51
182.8624052260997
  0
LINE
  5
3901
330
1A
100
AcDbEntity
  8
0
100
AcDbLine
 10
3219.335918587869
 20
530.0415455362879
 30
0.0
 11
3219.335918587869
 21
323.5488846091464
 31
0.0
  0
LINE
  5
3902
330
1A
100
AcDbEntity
  8
0
100
AcDbLine
 10
3259.335918587867
 20
540.0415455362879
 30
0.0
 11
3229.33591858787
 21
540.0415455362879
 31
0.0
  0
LINE
  5
3903
330
1A
100
AcDbEntity
  8
0
100
AcDbLine
 10
3219.335918587869
 20
530.0415455362879
 30
0.0
 11
3229.33591858787
 21
540.0415455362879
 31
0.0
  0
LINE
  5
3904
330
1A
100
AcDbEntity
  8
0
 48
3.0
100
AcDbLine
 10
3644.486405593609
 20
540.0415455362879
 30
0.0
 11
3764.48640559361
 21
540.0415455362879
 31
0.0
  0
ARC
  5
3905
330
1A
100
AcDbEntity
  8
0
100
AcDbCircle
 10
3546.443097889967
 20
395.949029449024
 30
0.0
 40
50.0
100
AcDbArc
 50
357.1375947739003
 51
39.54989457897634
  0
ARC
  5
3906
330
1A
100
AcDbEntity
  8
0
100
AcDbCircle
 10
3546.443097889967
 20
395.949029449024
 30
0.0
 40
60.0
100
AcDbArc
 50
357.1375947739003
 51
32.04768927695527
  0
ARC
  5
3907
330
1A
100
AcDbEntity
  8
0
100
AcDbCircle
 10
3546.443097889967
 20
395.949029449024
 30
0.0
 40
75.0
100
AcDbArc
 50
357.1375947739003
 51
25.11901614249575
  0
LINE
  5
3908
330
1A
100
AcDbEntity
  8
0
100
AcDbLine
 10
3679.335918587868
 20
530.0415455362879
 30
0.0
 11
3679.335918587868
 21
323.5488846091464
 31
0.0
  0
LINE
  5
3909
330
1A
100
AcDbEntity
  8
0
100
AcDbLine
 10
3679.335918587868
 20
530.0415455362879
 30
0.0
 11
3669.335918587869
 21
540.0415455362879
 31
0.0
  0
LINE
  5
390A
330
1A
100
AcDbEntity
  8
0
100
AcDbLine
 10
3229.335918587868
 20
427.7865258862719
 30
0.0
 11
3313.675220372338
 21
427.7865258862719
 31
0.0
  0
LINE
  5
390B
330
1A
100
AcDbEntity
  8
0
100
AcDbLine
 10
3229.33591858787
 20
540.0415455362879
 30
0.0
 11
3229.335918587868
 21
427.7865258862714
 31
0.0
  0
LINE
  5
390C
330
1A
100
AcDbEntity
  8
0
100
AcDbLine
 10
3669.335918587869
 20
540.0415455362879
 30
0.0
 11
3669.335918587869
 21
427.7865258862719
 31
0.0
  0
LINE
  5
390D
330
1A
100
AcDbEntity
  8
0
100
AcDbLine
 10
3584.996616803398
 20
427.7865258862719
 30
0.0
 11
3669.335918587867
 21
427.7865258862719
 31
0.0
  0
LINE
  5
390E
330
1A
100
AcDbEntity
  8
0
100
AcDbLine
 10
3596.38071483386
 20
393.4521486018282
 30
0.0
 11
3592.885551634225
 21
323.5488846091469
 31
0.0
  0
LINE
  5
390F
330
1A
100
AcDbEntity
  8
0
100
AcDbLine
 10
3606.368238222638
 20
392.9527724323896
 30
0.0
 11
3602.898043831475
 21
323.5488846091469
 31
0.0
  0
LINE
  5
3910
330
1A
100
AcDbEntity
  8
0
100
AcDbLine
 10
3621.349523305806
 20
392.2037081782317
 30
0.0
 11
3617.916782127352
 21
323.5488846091469
 31
0.0
  0
LINE
  5
3911
330
1A
100
AcDbEntity
  8
0
100
AcDbLine
 10
3302.291122341877
 20
393.4521486018282
 30
0.0
 11
3305.786285541512
 21
323.5488846091469
 31
0.0
  0
LINE
  5
3912
330
1A
100
AcDbEntity
  8
0
100
AcDbLine
 10
3292.303598953098
 20
392.9527724323896
 30
0.0
 11
3295.77379334426
 21
323.5488846091469
 31
0.0
  0
LINE
  5
3913
330
1A
100
AcDbEntity
  8
0
100
AcDbLine
 10
3277.322313869931
 20
392.2037081782317
 30
0.0
 11
3280.755055048386
 21
323.5488846091469
 31
0.0
  0
LWPOLYLINE
  5
3914
330
1A
100
AcDbEntity
  8
0
100
AcDbPolyline
 90
        4
 70
     1
 43
0.0
 10
3080.748738354954
 20
681.8208132890872
 10
3795.428319927591
 20
681.8208132890872
 10
3795.428319927591
 20
241.24900836141
 10
3080.748738354954
 20
241.24900836141
  0
TEXT
  5
3915
330
1A
100
AcDbEntity
  8
0
100
AcDbText
 10
3229.25201661195
 20
762.632341860512
 30
0.0
 40
50.0
  1
蓋　取付け部分
  7
BIGFONT
100
AcDbText
  0
LWPOLYLINE
  5
3916
330
1A
100
AcDbEntity
  8
KL
  6
ByBlock
 62
     0
 48
2.0
100
AcDbPolyline
 90
        4
 70
     1
 43
0.0
 10
5361.472914565647
 20
3617.794807789667
 10
5361.472914565645
 20
53.79480778966876
 10
2841.472914565646
 20
53.79480778966876
 10
2841.472914565647
 20
3617.794807789668
  0
HATCH
  5
419E
330
1A
100
AcDbEntity
  8
saiseki
100
AcDbHatch
 10
0.0
 20
0.0
 30
0.0
210
0.0
220
0.0
230
1.0
  2
AR-SAND
 70
     0
 71
     0
 91
        3
 92
        7
 72
     0
 73
     1
 93
        4
 10
4101.472914565642
 20
1436.829275689696
 10
4101.472914565642
 20
1486.829275689696
 10
3726.472914565647
 20
1486.829275689697
 10
3726.472914565647
 20
1436.829275689696
 97
        0
 92
        7
 72
     0
 73
     1
 93
        4
 10
4101.472914565642
 20
1436.829275689696
 10
4151.270359856003
 20
1436.829275689696
 10
4174.782087745941
 20
1486.829275689696
 10
4101.472914565642
 20
1486.829275689696
 97
        0
 92
        7
 72
     0
 73
     1
 93
        4
 10
4476.472914565646
 20
1436.829275689696
 10
4476.472914565646
 20
1486.829275689696
 10
4174.782087745941
 20
1486.829275689697
 10
4151.270359856003
 20
1436.829275689696
 97
        0
 75
     0
 76
     1
 52
0.0
 41
1.0
 77
     0
 78
     4
 53
37.5
 43
3726.472914565647
 44
1436.829275689695
 45
-1.600031295984045
 46
48.94132373293423
 79
     6
 49
0.0
 49
-38.60800000000001
 49
0.0
 49
-43.18
 49
0.0
 49
-41.275
 53
7.499999999999999
 43
3726.472914565647
 44
1436.829275689695
 45
44.95232831380026
 46
71.68251005683543
 79
     6
 49
0.0
 49
-20.828
 49
0.0
 49
-34.798
 49
0.0
 49
-13.335
 53
327.5
 43
3695.230914565647
 44
1436.829275689695
 45
79.09923702414579
 46
0.1437184678545691
 79
     6
 49
0.0
 49
-12.7
 49
0.0
 49
-45.72
 49
0.0
 49
-59.69
 53
317.5
 43
3695.230914565647
 44
1436.829275689695
 45
76.35564524722972
 46
22.29293232572162
 79
     6
 49
0.0
 49
-6.349999999999999
 49
0.0
 49
-29.972
 49
0.0
 49
-34.29
 47
2.55660062799489
 98
        3
 10
3932.122159409083
 20
1458.719024721071
 10
4116.289266264477
 20
1463.832228796188
 10
4223.720076137161
 20
1451.049223168048
1001
ACAD
1010
3566.430064839579
1020
2607.159478145195
1030
0.0
  0
HATCH
  5
419F
330
1A
100
AcDbEntity
  8
saiseki
100
AcDbHatch
 10
0.0
 20
0.0
 30
0.0
210
0.0
220
0.0
230
1.0
  2
HONEY
 70
     0
 71
     0
 91
        1
 92
        7
 72
     0
 73
     1
 93
        4
 10
3871.472914565643
 20
2236.829275689696
 10
3726.472914565643
 20
2236.829275689696
 10
3726.472914565644
 20
2001.980568607207
 10
3871.472914565643
 20
2028.201036379133
 97
        0
 75
     0
 76
     1
 52
15.0
 41
7.0
 77
     0
 78
     3
 53
15.0
 43
3726.472914565643
 44
2001.980568607207
 45
27.2199559570151
 46
27.21995032427976
 79
     2
 49
22.225
 49
-44.44999999999999
 53
135.0
 43
3726.472914565643
 44
2001.980568607207
 45
-37.1831464490843
 46
9.963198186528776
 79
     2
 49
22.225
 49
-44.44999999999999
 53
74.99999999999999
 43
3726.472914565643
 44
2001.980568607207
 45
-9.963190492069182
 46
37.18314851080852
 79
     2
 49
-44.44999999999999
 49
22.225
 47
2.55660062799489
 98
        1
 10
3822.13347223242
 20
2149.001196410707
1001
ACAD
1010
3566.430064839575
1020
3172.310771062706
1030
0.0
  0
HATCH
  5
41A0
330
1A
100
AcDbEntity
  8
saiseki
100
AcDbHatch
 10
0.0
 20
0.0
 30
0.0
210
0.0
220
0.0
230
1.0
  2
HONEY
 70
     0
 71
     0
 91
        1
 92
        7
 72
     0
 73
     1
 93
        4
 10
4476.472914565646
 20
1780.729220173173
 10
4269.761852851011
 20
1688.813080431065
 10
4174.782087745941
 20
1486.829275689696
 10
4476.472914565646
 20
1486.829275689696
 97
        0
 75
     0
 76
     1
 52
15.0
 41
7.0
 77
     0
 78
     3
 53
15.0
 43
4174.782087745941
 44
1486.829275689696
 45
27.2199559570151
 46
27.21995032427976
 79
     2
 49
22.225
 49
-44.44999999999999
 53
135.0
 43
4174.782087745941
 44
1486.829275689696
 45
-37.1831464490843
 46
9.963198186528776
 79
     2
 49
22.225
 49
-44.44999999999999
 53
74.99999999999999
 43
4174.782087745941
 44
1486.829275689696
 45
-9.963190492069182
 46
37.18314851080852
 79
     2
 49
-44.44999999999999
 49
22.225
 47
2.55660062799489
 98
        1
 10
4366.961153507776
 20
1637.681071597463
1001
ACAD
1010
4014.739238019873
1020
2657.159478145195
1030
0.0
  0
LINE
  5
41A1
330
1A
100
AcDbEntity
  8
0
 48
3.0
100
AcDbLine
 10
3726.472914565647
 20
1486.829275689697
 30
0.0
 11
4476.472914565646
 21
1486.829275689696
 31
0.0
  0
LINE
  5
41A2
330
1A
100
AcDbEntity
  8
0
 48
3.0
100
AcDbLine
 10
3726.472914565647
 20
1436.829275689696
 30
0.0
 11
4476.472914565646
 21
1436.829275689696
 31
0.0
  0
LINE
  5
41A3
330
1A
100
AcDbEntity
  8
TB
 48
3.0
100
AcDbLine
 10
3716.472914565648
 20
1421.829275689696
 30
0.0
 11
3776.472914565647
 21
1421.829275689696
 31
0.0
  0
LINE
  5
41A4
330
1A
100
AcDbEntity
  8
TB
 48
3.0
100
AcDbLine
 10
4426.472914565646
 20
1421.829275689695
 30
0.0
 11
4486.472914565647
 21
1421.829275689695
 31
0.0
  0
VIEWPORT
  5
22
330
17
100
AcDbEntity
 67
     1
  8
0
100
AcDbViewport
 10
261.5176991150442
 20
148.6493963782696
 30
0.0
 40
523.0353982300885
 41
297.2987927565393
 68
     1
 69
     1
 12
261.5176991150442
 22
148.6493963782696
 13
0.0
 23
0.0
 14
1.0
 24
1.0
 15
10.0
 25
10.0
 16
0.0
 26
0.0
 36
1.0
 17
0.0
 27
0.0
 37
0.0
 42
50.0
 43
0.0
 44
0.0
 45
297.2987927565393
 50
0.0
 51
0.0
 72
   100
 90
    32800
  1

281
     0
 71
     1
 74
     0
110
0.0
120
0.0
130
0.0
111
1.0
121
0.0
131
0.0
112
0.0
122
1.0
132
0.0
 79
     0
146
0.0
170
     0
  0
ENDSEC
  0
SECTION
  2
OBJECTS
  0
DICTIONARY
  5
C
330
0
100
AcDbDictionary
281
     1
  3
ACAD_COLOR
350
359A
  3
ACAD_GROUP
350
D
  3
ACAD_LAYOUT
350
2540
  3
ACAD_MATERIAL
350
3570
  3
ACAD_MLEADERSTYLE
350
35BF
  3
ACAD_MLINESTYLE
350
E
  3
ACAD_PLOTSETTINGS
350
2541
  3
ACAD_PLOTSTYLENAME
350
253E
  3
ACAD_SCALELIST
350
359D
  3
ACAD_TABLESTYLE
350
359B
  3
ACAD_VISUALSTYLE
350
3589
  3
ACDB_RECOMPOSE_DATA
350
3687
  3
ACDBVARIABLEDICTIONARY
350
D40
  0
DICTIONARY
  5
3671
330
F
100
AcDbDictionary
280
     1
281
     1
  3
ADSK_XREC_LAYER_RECONCILED
360
3672
  0
DICTIONARY
  5
3673
330
63
100
AcDbDictionary
280
     1
281
     1
  3
ADSK_XREC_LAYER_RECONCILED
360
3674
  0
DICTIONARY
  5
3675
330
36A
100
AcDbDictionary
280
     1
281
     1
  3
ADSK_XREC_LAYER_RECONCILED
360
3676
  0
DICTIONARY
  5
3677
330
267D
100
AcDbDictionary
280
     1
281
     1
  3
ADSK_XREC_LAYER_RECONCILED
360
3678
  0
DICTIONARY
  5
3679
330
267E
100
AcDbDictionary
280
     1
281
     1
  3
ADSK_XREC_LAYER_RECONCILED
360
367A
  0
DICTIONARY
  5
367B
330
267F
100
AcDbDictionary
280
     1
281
     1
  3
ADSK_XREC_LAYER_RECONCILED
360
367C
  0
DICTIONARY
  5
36A0
330
369F
100
AcDbDictionary
280
     1
281
     1
  0
DICTIONARY
  5
36A2
330
36A1
100
AcDbDictionary
280
     1
281
     1
  0
DICTIONARY
  5
378C
330
378B
100
AcDbDictionary
280
     1
281
     1
  0
DICTIONARY
  5
35CD
330
1A
100
AcDbDictionary
280
     1
281
     1
  3
ACAD_SORTENTS
360
35CE
  0
DICTIONARY
  5
359A
102
{ACAD_REACTORS
330
C
102
}
330
C
100
AcDbDictionary
281
     1
  0
DICTIONARY
  5
D
102
{ACAD_REACTORS
330
C
102
}
330
C
100
AcDbDictionary
281
     1
  0
DICTIONARY
  5
2540
102
{ACAD_REACTORS
330
C
102
}
330
C
100
AcDbDictionary
281
     1
  3
Model
350
2542
  3
ﾚｲｱｳﾄ1
350
2543
  0
DICTIONARY
  5
3570
102
{ACAD_REACTORS
330
C
102
}
330
C
100
AcDbDictionary
281
     1
  3
ByBlock
350
3579
  3
ByLayer
350
3571
  3
Global
350
3581
  0
DICTIONARY
  5
35BF
102
{ACAD_REACTORS
330
C
102
}
330
C
100
AcDbDictionary
281
     1
  3
Standard
350
35C0
  0
DICTIONARY
  5
E
102
{ACAD_REACTORS
330
C
102
}
330
C
100
AcDbDictionary
281
     1
  3
STANDARD
350
13
  0
DICTIONARY
  5
2541
102
{ACAD_REACTORS
330
C
102
}
330
C
100
AcDbDictionary
281
     1
  0
ACDBDICTIONARYWDFLT
  5
253E
102
{ACAD_REACTORS
330
C
102
}
330
C
100
AcDbDictionary
281
     1
  3
Normal
350
253F
100
AcDbDictionaryWithDefault
340
253F
  0
DICTIONARY
  5
359D
102
{ACAD_REACTORS
330
C
102
}
330
C
100
AcDbDictionary
281
     1
  3
A0
350
359E
  3
A1
350
359F
  3
A2
350
35A0
  3
A3
350
35A1
  3
A4
350
35A2
  3
A5
350
35A3
  3
A6
350
35A4
  3
A7
350
35A5
  3
A8
350
35A6
  3
A9
350
35A7
  3
B0
350
35A8
  3
B1
350
35A9
  3
B2
350
35AA
  3
B3
350
35AB
  3
B4
350
35AC
  3
B5
350
35AD
  3
B6
350
35AE
  3
B7
350
35AF
  3
B8
350
35B0
  3
B9
350
35B1
  3
C0
350
35B2
  3
C1
350
35B3
  3
C2
350
35B4
  3
C3
350
35B5
  3
C4
350
35B6
  3
C5
350
35B7
  3
C6
350
35B8
  3
C7
350
35B9
  3
C8
350
35BA
  3
C9
350
35BB
  3
D0
350
35BC
  3
D1
350
35BD
  3
D2
350
35BE
  0
DICTIONARY
  5
359B
102
{ACAD_REACTORS
330
C
102
}
330
C
100
AcDbDictionary
281
     1
  3
Standard
350
359C
  0
DICTIONARY
  5
3589
102
{ACAD_REACTORS
330
C
102
}
330
C
100
AcDbDictionary
281
     1
  3
2dWireframe
350
358F
  3
3D Hidden
350
3591
  3
3dWireframe
350
3590
  3
Basic
350
358E
  3
Brighten
350
3595
  3
ColorChange
350
3599
  3
Conceptual
350
3592
  3
Dim
350
3594
  3
Facepattern
350
3598
  3
Flat
350
358A
  3
FlatWithEdges
350
358B
  3
Gouraud
350
358C
  3
GouraudWithEdges
350
358D
  3
Linepattern
350
3597
  3
Realistic
350
3593
  3
Thicken
350
3596
  0
XRECORD
  5
3687
102
{ACAD_REACTORS
330
C
102
}
330
C
100
AcDbXrecord
280
     1
 90
        1
330
359C
  0
DICTIONARY
  5
D40
102
{ACAD_REACTORS
330
C
102
}
330
C
100
AcDbDictionary
281
     1
  3
CANNOSCALE
350
368B
  3
CMLEADERSTYLE
350
3689
  3
CTABLESTYLE
350
3688
  3
LIGHTINGUNITS
350
368C
  3
MSLTSCALE
350
368A
  3
SORTENTS
350
D41
  0
XRECORD
  5
3672
102
{ACAD_REACTORS
330
3671
102
}
330
3671
100
AcDbXrecord
280
     1
290
     1
  0
XRECORD
  5
3674
102
{ACAD_REACTORS
330
3673
102
}
330
3673
100
AcDbXrecord
280
     1
290
     1
  0
XRECORD
  5
3676
102
{ACAD_REACTORS
330
3675
102
}
330
3675
100
AcDbXrecord
280
     1
290
     1
  0
XRECORD
  5
3678
102
{ACAD_REACTORS
330
3677
102
}
330
3677
100
AcDbXrecord
280
     1
290
     1
  0
XRECORD
  5
367A
102
{ACAD_REACTORS
330
3679
102
}
330
3679
100
AcDbXrecord
280
     1
290
     1
  0
XRECORD
  5
367C
102
{ACAD_REACTORS
330
367B
102
}
330
367B
100
AcDbXrecord
280
     1
290
     1
  0
SORTENTSTABLE
  5
35CE
102
{ACAD_REACTORS
330
35CD
102
}
330
35CD
100
AcDbSortentsTable
330
1A
331
3279
  5
328A
331
3297
  5
32A8
331
32B5
  5
3448
331
35E6
  5
327F
331
34D2
  5
35E7
331
32A6
  5
32B7
331
3440
  5
34E8
331
3289
  5
329A
331
3460
  5
3564
331
327A
  5
328B
331
3298
  5
32A9
331
2D46
  5
2D46
331
32B6
  5
3449
331
35E7
  5
3280
331
3441
  5
34E9
331
32A7
  5
32B8
331
328A
  5
329B
331
32A8
  5
32B9
331
326C
  5
327C
331
3265
  5
3265
331
327B
  5
328C
331
3299
  5
32AA
331
32B7
  5
3460
331
3488
  5
3565
331
3442
  5
34EA
331
328B
  5
329C
331
32A9
  5
32BA
331
327C
  5
328D
331
329A
  5
32AB
331
32B8
  5
3488
331
2D80
  5
2D80
331
3266
  5
3266
331
3443
  5
34EC
331
328C
  5
329D
331
32AA
  5
32BB
331
326E
  5
327E
331
3668
  5
327A
331
327D
  5
328E
331
329B
  5
32AC
331
32B9
  5
34A7
331
3267
  5
3267
331
3444
  5
34ED
331
328D
  5
329E
331
32AB
  5
343E
331
326F
  5
3281
331
327E
  5
328F
331
329C
  5
32AD
331
32BA
  5
34B4
331
3445
  5
34F0
331
3525
  5
361F
331
328E
  5
329F
331
32AC
  5
343F
331
3270
  5
3282
331
35CC
  5
327D
331
327F
  5
3290
331
329D
  5
32AE
331
32BB
  5
34C2
331
3446
  5
351A
331
32AD
  5
3440
331
3271
  5
3283
331
328F
  5
32A0
331
3280
  5
3291
331
329E
  5
32AF
331
34C2
  5
35E5
331
3447
  5
3525
331
32AE
  5
3441
331
3272
  5
3284
331
3290
  5
32A1
331
3448
  5
3562
331
3281
  5
3292
331
329F
  5
32B0
331
34C3
  5
35E6
331
34B4
  5
35E4
331
361E
  5
326E
331
32AF
  5
3442
331
3273
  5
3285
331
3291
  5
32A2
331
3449
  5
3563
331
351A
  5
3606
331
3282
  5
3293
331
32A0
  5
32B1
331
32B0
  5
3443
331
3274
  5
3286
331
3292
  5
32A3
331
32A1
  5
32B2
331
34A7
  5
35CC
331
3283
  5
3294
331
32B1
  5
3444
331
3293
  5
32A4
331
32A2
  5
32B3
331
3562
  5
3620
331
3284
  5
3295
331
32B2
  5
3445
331
3276
  5
3287
331
3294
  5
32A5
331
32A3
  5
32B4
331
3563
  5
3631
331
3285
  5
3296
331
3268
  5
3268
331
3642
  5
3274
331
3277
  5
3288
331
3295
  5
32A6
331
32B3
  5
3446
331
3564
  5
3632
331
32A4
  5
32B5
331
3286
  5
3297
331
343E
  5
34C3
331
3269
  5
3276
331
3278
  5
3289
331
3296
  5
32A7
331
32B4
  5
3447
331
3565
  5
3643
331
32A5
  5
32B6
331
3287
  5
3298
331
343F
  5
34D2
331
3288
  5
3299
331
326A
  5
327B
  0
LAYOUT
  5
2542
102
{ACAD_REACTORS
330
2540
102
}
330
2540
100
AcDbPlotSettings
  1

  2
D:\ACADLT20\plotters\DWF ePlot.pc3
  4

  6

 40
0.0
 41
0.0
 42
0.0
 43
0.0
 44
0.0
 45
0.0
 46
0.0
 47
0.0
 48
0.0
 49
0.0
140
0.0
141
0.0
142
1.0
143
1.0
 70
  1712
 72
     0
 73
     0
 74
     0
  7

 75
     0
147
1.0
 76
     0
 77
     2
 78
   300
148
0.0
149
0.0
100
AcDbLayout
  1
Model
 70
     1
 71
     0
 10
0.0
 20
0.0
 11
12.0
 21
9.0
 12
0.0
 22
0.0
 32
0.0
 14
0.0
 24
0.0
 34
0.0
 15
0.0
 25
0.0
 35
0.0
146
0.0
 13
0.0
 23
0.0
 33
0.0
 16
1.0
 26
0.0
 36
0.0
 17
0.0
 27
1.0
 37
0.0
 76
     0
330
1A
331
356E
  0
LAYOUT
  5
2543
102
{ACAD_REACTORS
330
2540
102
}
330
2540
100
AcDbPlotSettings
  1

  2
D:\ACADLT20\plotters\DWF ePlot.pc3
  4

  6

 40
0.0
 41
0.0
 42
0.0
 43
0.0
 44
0.0
 45
0.0
 46
0.0
 47
0.0
 48
0.0
 49
0.0
140
0.0
141
0.0
142
1.0
143
1.0
 70
   688
 72
     0
 73
     0
 74
     5
  7

 75
    16
147
1.0
 76
     0
 77
     2
 78
   300
148
0.0
149
0.0
100
AcDbLayout
  1
ﾚｲｱｳﾄ1
 70
     1
 71
     1
 10
0.0
 20
0.0
 11
840.0
 21
594.0
 12
0.0
 22
0.0
 32
0.0
 14
1.000000000000000E+20
 24
1.000000000000000E+20
 34
1.000000000000000E+20
 15
-1.000000000000000E+20
 25
-1.000000000000000E+20
 35
-1.000000000000000E+20
146
0.0
 13
0.0
 23
0.0
 33
0.0
 16
1.0
 26
0.0
 36
0.0
 17
0.0
 27
1.0
 37
0.0
 76
     0
330
17
331
22
  0
MATERIAL
  5
3579
102
{ACAD_XDICTIONARY
360
357A
102
}
102
{ACAD_REACTORS
330
3570
102
}
330
3570
100
AcDbMaterial
  1
ByBlock
 72
     0
 43
0.0208333333333333
 43
0.0
 43
0.0
 43
0.0
 43
0.0
 43
0.0208333333333333
 43
0.0
 43
0.0
 43
0.0
 43
0.0
 43
1.0
 43
0.0
 43
0.0
 43
0.0
 43
0.0
 43
1.0
 77
     0
 47
0.0208333333333333
 47
0.0
 47
0.0
 47
0.0
 47
0.0
 47
0.0208333333333333
 47
0.0
 47
0.0
 47
0.0
 47
0.0
 47
1.0
 47
0.0
 47
0.0
 47
0.0
 47
0.0
 47
1.0
171
     0
 49
0.0208333333333333
 49
0.0
 49
0.0
 49
0.0
 49
0.0
 49
0.0208333333333333
 49
0.0
 49
0.0
 49
0.0
 49
0.0
 49
1.0
 49
0.0
 49
0.0
 49
0.0
 49
0.0
 49
1.0
175
     0
142
0.0208333333333333
142
0.0
142
0.0
142
0.0
142
0.0
142
0.0208333333333333
142
0.0
142
0.0
142
0.0
142
0.0
142
1.0
142
0.0
142
0.0
142
0.0
142
0.0
142
1.0
179
     0
144
0.0208333333333333
144
0.0
144
0.0
144
0.0
144
0.0
144
0.0208333333333333
144
0.0
144
0.0
144
0.0
144
0.0
144
1.0
144
0.0
144
0.0
144
0.0
144
0.0
144
1.0
147
0.0208333333333333
147
0.0
147
0.0
147
0.0
147
0.0
147
0.0208333333333333
147
0.0
147
0.0
147
0.0
147
0.0
147
1.0
147
0.0
147
0.0
147
0.0
147
0.0
147
1.0
  0
MATERIAL
  5
3571
102
{ACAD_XDICTIONARY
360
3572
102
}
102
{ACAD_REACTORS
330
3570
102
}
330
3570
100
AcDbMaterial
  1
ByLayer
 72
     0
 43
0.0208333333333333
 43
0.0
 43
0.0
 43
0.0
 43
0.0
 43
0.0208333333333333
 43
0.0
 43
0.0
 43
0.0
 43
0.0
 43
1.0
 43
0.0
 43
0.0
 43
0.0
 43
0.0
 43
1.0
 77
     0
 47
0.0208333333333333
 47
0.0
 47
0.0
 47
0.0
 47
0.0
 47
0.0208333333333333
 47
0.0
 47
0.0
 47
0.0
 47
0.0
 47
1.0
 47
0.0
 47
0.0
 47
0.0
 47
0.0
 47
1.0
171
     0
 49
0.0208333333333333
 49
0.0
 49
0.0
 49
0.0
 49
0.0
 49
0.0208333333333333
 49
0.0
 49
0.0
 49
0.0
 49
0.0
 49
1.0
 49
0.0
 49
0.0
 49
0.0
 49
0.0
 49
1.0
175
     0
142
0.0208333333333333
142
0.0
142
0.0
142
0.0
142
0.0
142
0.0208333333333333
142
0.0
142
0.0
142
0.0
142
0.0
142
1.0
142
0.0
142
0.0
142
0.0
142
0.0
142
1.0
179
     0
144
0.0208333333333333
144
0.0
144
0.0
144
0.0
144
0.0
144
0.0208333333333333
144
0.0
144
0.0
144
0.0
144
0.0
144
1.0
144
0.0
144
0.0
144
0.0
144
0.0
144
1.0
147
0.0208333333333333
147
0.0
147
0.0
147
0.0
147
0.0
147
0.0208333333333333
147
0.0
147
0.0
147
0.0
147
0.0
147
1.0
147
0.0
147
0.0
147
0.0
147
0.0
147
1.0
  0
MATERIAL
  5
3581
102
{ACAD_XDICTIONARY
360
3582
102
}
102
{ACAD_REACTORS
330
3570
102
}
330
3570
100
AcDbMaterial
  1
Global
 72
     0
 43
0.0208333333333333
 43
0.0
 43
0.0
 43
0.0
 43
0.0
 43
0.0208333333333333
 43
0.0
 43
0.0
 43
0.0
 43
0.0
 43
1.0
 43
0.0
 43
0.0
 43
0.0
 43
0.0
 43
1.0
 77
     0
 47
0.0208333333333333
 47
0.0
 47
0.0
 47
0.0
 47
0.0
 47
0.0208333333333333
 47
0.0
 47
0.0
 47
0.0
 47
0.0
 47
1.0
 47
0.0
 47
0.0
 47
0.0
 47
0.0
 47
1.0
171
     0
 49
0.0208333333333333
 49
0.0
 49
0.0
 49
0.0
 49
0.0
 49
0.0208333333333333
 49
0.0
 49
0.0
 49
0.0
 49
0.0
 49
1.0
 49
0.0
 49
0.0
 49
0.0
 49
0.0
 49
1.0
175
     0
142
0.0208333333333333
142
0.0
142
0.0
142
0.0
142
0.0
142
0.0208333333333333
142
0.0
142
0.0
142
0.0
142
0.0
142
1.0
142
0.0
142
0.0
142
0.0
142
0.0
142
1.0
179
     0
144
0.0208333333333333
144
0.0
144
0.0
144
0.0
144
0.0
144
0.0208333333333333
144
0.0
144
0.0
144
0.0
144
0.0
144
1.0
144
0.0
144
0.0
144
0.0
144
0.0
144
1.0
147
0.0208333333333333
147
0.0
147
0.0
147
0.0
147
0.0
147
0.0208333333333333
147
0.0
147
0.0
147
0.0
147
0.0
147
1.0
147
0.0
147
0.0
147
0.0
147
0.0
147
1.0
  0
MLEADERSTYLE
  5
35C0
102
{ACAD_REACTORS
330
35BF
102
}
330
35BF
100
AcDbMLeaderStyle
170
     2
171
     1
172
     0
 90
        2
 40
0.0
 41
0.0
173
     1
 91
-1056964608
340
14
 92
       -2
290
     1
 42
2.0
291
     1
 43
0.36
  3
Standard
 44
4.0
300

342
10
174
     1
178
     6
175
     1
176
     0
 93
-1056964608
 45
4.0
292
     0
297
     0
 46
4.0
 94
-1056964608
 47
1.0
 49
1.0
140
1.0
293
     1
141
0.0
294
     1
177
     0
142
1.0
295
     0
296
     0
143
0.125
1001
ACAD_MLEADERVER
1070
     2
  0
MLINESTYLE
  5
13
102
{ACAD_REACTORS
330
E
102
}
330
E
100
AcDbMlineStyle
  2
STANDARD
 70
     0
  3

 62
     0
 51
90.0
 52
90.0
 71
     2
 49
0.5
 62
   256
  6
BYLAYER
 49
-0.5
 62
   256
  6
BYLAYER
  0
ACDBPLACEHOLDER
  5
253F
102
{ACAD_REACTORS
330
253E
102
}
330
253E
  0
SCALE
  5
359E
102
{ACAD_REACTORS
330
359D
102
}
330
359D
100
AcDbScale
 70
     0
300
1:1
140
1.0
141
1.0
290
     1
  0
SCALE
  5
359F
102
{ACAD_REACTORS
330
359D
102
}
330
359D
100
AcDbScale
 70
     0
300
1:2
140
1.0
141
2.0
290
     0
  0
SCALE
  5
35A0
102
{ACAD_REACTORS
330
359D
102
}
330
359D
100
AcDbScale
 70
     0
300
1:4
140
1.0
141
4.0
290
     0
  0
SCALE
  5
35A1
102
{ACAD_REACTORS
330
359D
102
}
330
359D
100
AcDbScale
 70
     0
300
1:5
140
1.0
141
5.0
290
     0
  0
SCALE
  5
35A2
102
{ACAD_REACTORS
330
359D
102
}
330
359D
100
AcDbScale
 70
     0
300
1:8
140
1.0
141
8.0
290
     0
  0
SCALE
  5
35A3
102
{ACAD_REACTORS
330
359D
102
}
330
359D
100
AcDbScale
 70
     0
300
1:10
140
1.0
141
10.0
290
     0
  0
SCALE
  5
35A4
102
{ACAD_REACTORS
330
359D
102
}
330
359D
100
AcDbScale
 70
     0
300
1:16
140
1.0
141
16.0
290
     0
  0
SCALE
  5
35A5
102
{ACAD_REACTORS
330
359D
102
}
330
359D
100
AcDbScale
 70
     0
300
1:20
140
1.0
141
20.0
290
     0
  0
SCALE
  5
35A6
102
{ACAD_REACTORS
330
359D
102
}
330
359D
100
AcDbScale
 70
     0
300
1:30
140
1.0
141
30.0
290
     0
  0
SCALE
  5
35A7
102
{ACAD_REACTORS
330
359D
102
}
330
359D
100
AcDbScale
 70
     0
300
1:40
140
1.0
141
40.0
290
     0
  0
SCALE
  5
35A8
102
{ACAD_REACTORS
330
359D
102
}
330
359D
100
AcDbScale
 70
     0
300
1:50
140
1.0
141
50.0
290
     0
  0
SCALE
  5
35A9
102
{ACAD_REACTORS
330
359D
102
}
330
359D
100
AcDbScale
 70
     0
300
1:100
140
1.0
141
100.0
290
     0
  0
SCALE
  5
35AA
102
{ACAD_REACTORS
330
359D
102
}
330
359D
100
AcDbScale
 70
     0
300
2:1
140
2.0
141
1.0
290
     0
  0
SCALE
  5
35AB
102
{ACAD_REACTORS
330
359D
102
}
330
359D
100
AcDbScale
 70
     0
300
4:1
140
4.0
141
1.0
290
     0
  0
SCALE
  5
35AC
102
{ACAD_REACTORS
330
359D
102
}
330
359D
100
AcDbScale
 70
     0
300
8:1
140
8.0
141
1.0
290
     0
  0
SCALE
  5
35AD
102
{ACAD_REACTORS
330
359D
102
}
330
359D
100
AcDbScale
 70
     0
300
10:1
140
10.0
141
1.0
290
     0
  0
SCALE
  5
35AE
102
{ACAD_REACTORS
330
359D
102
}
330
359D
100
AcDbScale
 70
     0
300
100:1
140
100.0
141
1.0
290
     0
  0
SCALE
  5
35AF
102
{ACAD_REACTORS
330
359D
102
}
330
359D
100
AcDbScale
 70
     0
300
1/128" = 1'-0"
140
0.0078125
141
12.0
290
     0
  0
SCALE
  5
35B0
102
{ACAD_REACTORS
330
359D
102
}
330
359D
100
AcDbScale
 70
     0
300
1/64" = 1'-0"
140
0.015625
141
12.0
290
     0
  0
SCALE
  5
35B1
102
{ACAD_REACTORS
330
359D
102
}
330
359D
100
AcDbScale
 70
     0
300
1/32" = 1'-0"
140
0.03125
141
12.0
290
     0
  0
SCALE
  5
35B2
102
{ACAD_REACTORS
330
359D
102
}
330
359D
100
AcDbScale
 70
     0
300
1/16" = 1'-0"
140
0.0625
141
12.0
290
     0
  0
SCALE
  5
35B3
102
{ACAD_REACTORS
330
359D
102
}
330
359D
100
AcDbScale
 70
     0
300
3/32" = 1'-0"
140
0.09375
141
12.0
290
     0
  0
SCALE
  5
35B4
102
{ACAD_REACTORS
330
359D
102
}
330
359D
100
AcDbScale
 70
     0
300
1/8" = 1'-0"
140
0.125
141
12.0
290
     0
  0
SCALE
  5
35B5
102
{ACAD_REACTORS
330
359D
102
}
330
359D
100
AcDbScale
 70
     0
300
3/16" = 1'-0"
140
0.1875
141
12.0
290
     0
  0
SCALE
  5
35B6
102
{ACAD_REACTORS
330
359D
102
}
330
359D
100
AcDbScale
 70
     0
300
1/4" = 1'-0"
140
0.25
141
12.0
290
     0
  0
SCALE
  5
35B7
102
{ACAD_REACTORS
330
359D
102
}
330
359D
100
AcDbScale
 70
     0
300
3/8" = 1'-0"
140
0.375
141
12.0
290
     0
  0
SCALE
  5
35B8
102
{ACAD_REACTORS
330
359D
102
}
330
359D
100
AcDbScale
 70
     0
300
1/2" = 1'-0"
140
0.5
141
12.0
290
     0
  0
SCALE
  5
35B9
102
{ACAD_REACTORS
330
359D
102
}
330
359D
100
AcDbScale
 70
     0
300
3/4" = 1'-0"
140
0.75
141
12.0
290
     0
  0
SCALE
  5
35BA
102
{ACAD_REACTORS
330
359D
102
}
330
359D
100
AcDbScale
 70
     0
300
1" = 1'-0"
140
1.0
141
12.0
290
     0
  0
SCALE
  5
35BB
102
{ACAD_REACTORS
330
359D
102
}
330
359D
100
AcDbScale
 70
     0
300
1-1/2" = 1'-0"
140
1.5
141
12.0
290
     0
  0
SCALE
  5
35BC
102
{ACAD_REACTORS
330
359D
102
}
330
359D
100
AcDbScale
 70
     0
300
3" = 1'-0"
140
3.0
141
12.0
290
     0
  0
SCALE
  5
35BD
102
{ACAD_REACTORS
330
359D
102
}
330
359D
100
AcDbScale
 70
     0
300
6" = 1'-0"
140
6.0
141
12.0
290
     0
  0
SCALE
  5
35BE
102
{ACAD_REACTORS
330
359D
102
}
330
359D
100
AcDbScale
 70
     0
300
1'-0" = 1'-0"
140
12.0
141
12.0
290
     0
  0
TABLESTYLE
  5
359C
102
{ACAD_XDICTIONARY
360
3685
102
}
102
{ACAD_REACTORS
330
359B
102
}
330
359B
100
AcDbTableStyle
  3
Standard
 70
     0
 71
     0
 40
1.5
 41
1.5
280
     0
281
     0
  7
STANDARD
140
4.5
170
     2
 62
     0
 63
     7
283
     0
274
    -2
284
     1
 64
     0
275
    -2
285
     1
 65
     0
276
    -2
286
     1
 66
     0
277
    -2
287
     1
 67
     0
278
    -2
288
     1
 68
     0
279
    -2
289
     1
 69
     0
  7
STANDARD
140
6.0
170
     5
 62
     0
 63
     7
283
     0
274
    -2
284
     1
 64
     0
275
    -2
285
     1
 65
     0
276
    -2
286
     1
 66
     0
277
    -2
287
     1
 67
     0
278
    -2
288
     1
 68
     0
279
    -2
289
     1
 69
     0
  7
STANDARD
140
4.5
170
     5
 62
     0
 63
     7
283
     0
274
    -2
284
     1
 64
     0
275
    -2
285
     1
 65
     0
276
    -2
286
     1
 66
     0
277
    -2
287
     1
 67
     0
278
    -2
288
     1
 68
     0
279
    -2
289
     1
 69
     0
  0
VISUALSTYLE
  5
358F
102
{ACAD_REACTORS
330
3589
102
}
330
3589
100
AcDbVisualStyle
  2
2dWireframe
 70
     4
 71
     0
 72
     2
 73
     0
 90
        0
 40
-0.6
 41
-30.0
 62
     5
 63
     7
421
 16777215
 74
     1
 91
        4
 64
     7
 65
   257
 75
     1
175
     1
 42
1.0
 92
        0
 66
   257
 43
1.0
 76
     1
 77
     6
 78
     2
 67
     7
 79
     5
170
     0
171
     0
290
     0
174
     0
 93
        1
 44
0.0
173
     0
291
     0
 45
0.0
1001
ACAD
1000
AcDbSavedByObjectVersion
1070
     0
  0
VISUALSTYLE
  5
3591
102
{ACAD_REACTORS
330
3589
102
}
330
3589
100
AcDbVisualStyle
  2
3D Hidden
 70
     6
 71
     1
 72
     2
 73
     2
 90
        0
 40
-0.6
 41
-30.0
 62
     5
 63
     7
421
 16777215
 74
     2
 91
        2
 64
     7
 65
   257
 75
     2
175
     1
 42
40.0
 92
        0
 66
   257
 43
1.0
 76
     1
 77
     6
 78
     2
 67
     7
 79
     3
170
     0
171
     0
290
     0
174
     0
 93
        1
 44
0.0
173
     0
291
     0
 45
0.0
1001
ACAD
1000
AcDbSavedByObjectVersion
1070
     0
  0
VISUALSTYLE
  5
3590
102
{ACAD_REACTORS
330
3589
102
}
330
3589
100
AcDbVisualStyle
  2
3dWireframe
 70
     5
 71
     0
 72
     2
 73
     0
 90
        0
 40
-0.6
 41
-30.0
 62
     5
 63
     7
421
 16777215
 74
     1
 91
        4
 64
     7
 65
   257
 75
     1
175
     1
 42
1.0
 92
        0
 66
   257
 43
1.0
 76
     1
 77
     6
 78
     2
 67
     7
 79
     5
170
     0
171
     0
290
     0
174
     0
 93
        1
 44
0.0
173
     0
291
     0
 45
0.0
1001
ACAD
1000
AcDbSavedByObjectVersion
1070
     0
  0
VISUALSTYLE
  5
358E
102
{ACAD_REACTORS
330
3589
102
}
330
3589
100
AcDbVisualStyle
  2
Basic
 70
     7
 71
     1
 72
     0
 73
     1
 90
        0
 40
-0.6
 41
-30.0
 62
     5
 63
     7
421
 16777215
 74
     0
 91
        4
 64
     7
 65
   257
 75
     1
175
     1
 42
1.0
 92
        8
 66
     7
 43
1.0
 76
     1
 77
     6
 78
     2
 67
     7
 79
     5
170
     0
171
     0
290
     0
174
     0
 93
        1
 44
0.0
173
     0
291
     1
 45
0.0
1001
ACAD
1000
AcDbSavedByObjectVersion
1070
     0
  0
VISUALSTYLE
  5
3595
102
{ACAD_REACTORS
330
3589
102
}
330
3589
100
AcDbVisualStyle
  2
Brighten
 70
    12
 71
     2
 72
     2
 73
     0
 90
        0
 40
-0.6
 41
-30.0
 62
     5
 63
     7
421
 16777215
 74
     1
 91
        4
 64
     7
 65
   257
 75
     1
175
     1
 42
1.0
 92
        8
 66
     7
 43
1.0
 76
     1
 77
     6
 78
     2
 67
     7
 79
     5
170
     0
171
     0
290
     0
174
     0
 93
        1
 44
50.0
173
     0
291
     1
 45
0.0
1001
ACAD
1000
AcDbSavedByObjectVersion
1070
     0
  0
VISUALSTYLE
  5
3599
102
{ACAD_REACTORS
330
3589
102
}
330
3589
100
AcDbVisualStyle
  2
ColorChange
 70
    16
 71
     2
 72
     2
 73
     3
 90
        0
 40
-0.6
 41
-30.0
 62
     5
 63
     8
421
  8421504
 74
     1
 91
        4
 64
     7
 65
   257
 75
     1
175
     1
 42
1.0
 92
        8
 66
     8
424
  8421504
 43
1.0
 76
     1
 77
     6
 78
     2
 67
     7
 79
     5
170
     0
171
     0
290
     0
174
     0
 93
        1
 44
0.0
173
     0
291
     1
 45
0.0
1001
ACAD
1000
AcDbSavedByObjectVersion
1070
     0
  0
VISUALSTYLE
  5
3592
102
{ACAD_REACTORS
330
3589
102
}
330
3589
100
AcDbVisualStyle
  2
Conceptual
 70
     9
 71
     3
 72
     2
 73
     0
 90
        0
 40
-0.6
 41
-30.0
 62
     5
 63
     7
421
 16777215
 74
     2
 91
        2
 64
     7
 65
   257
 75
     1
175
     1
 42
40.0
 92
        8
 66
     7
 43
1.0
 76
     1
 77
     6
 78
     2
 67
     7
 79
     3
170
     0
171
     0
290
     0
174
     0
 93
        1
 44
0.0
173
     0
291
     0
 45
0.0
1001
ACAD
1000
AcDbSavedByObjectVersion
1070
     0
  0
VISUALSTYLE
  5
3594
102
{ACAD_REACTORS
330
3589
102
}
330
3589
100
AcDbVisualStyle
  2
Dim
 70
    11
 71
     2
 72
     2
 73
     0
 90
        0
 40
-0.6
 41
-30.0
 62
     5
 63
     7
421
 16777215
 74
     1
 91
        4
 64
     7
 65
   257
 75
     1
175
     1
 42
1.0
 92
        8
 66
     7
 43
1.0
 76
     1
 77
     6
 78
     2
 67
     7
 79
     5
170
     0
171
     0
290
     0
174
     0
 93
        1
 44
-50.0
173
     0
291
     1
 45
0.0
1001
ACAD
1000
AcDbSavedByObjectVersion
1070
     0
  0
VISUALSTYLE
  5
3598
102
{ACAD_REACTORS
330
3589
102
}
330
3589
100
AcDbVisualStyle
  2
Facepattern
 70
    15
 71
     2
 72
     2
 73
     0
 90
        0
 40
-0.6
 41
-30.0
 62
     5
 63
     7
421
 16777215
 74
     1
 91
        4
 64
     7
 65
   257
 75
     1
175
     1
 42
1.0
 92
        8
 66
     7
 43
1.0
 76
     1
 77
     6
 78
     2
 67
     7
 79
     5
170
     0
171
     0
290
     0
174
     0
 93
        1
 44
0.0
173
     0
291
     1
 45
0.0
1001
ACAD
1000
AcDbSavedByObjectVersion
1070
     0
  0
VISUALSTYLE
  5
358A
102
{ACAD_REACTORS
330
3589
102
}
330
3589
100
AcDbVisualStyle
  2
Flat
 70
     0
 71
     2
 72
     1
 73
     1
 90
        2
 40
-0.6
 41
30.0
 62
     5
 63
     7
421
 16777215
 74
     0
 91
        4
 64
     7
 65
   257
 75
     1
175
     1
 42
1.0
 92
        8
 66
     7
 43
1.0
 76
     1
 77
     6
 78
     2
 67
     7
 79
     5
170
     0
171
     0
290
     0
174
     0
 93
       13
 44
0.0
173
     0
291
     1
 45
0.0
1001
ACAD
1000
AcDbSavedByObjectVersion
1070
     0
  0
VISUALSTYLE
  5
358B
102
{ACAD_REACTORS
330
3589
102
}
330
3589
100
AcDbVisualStyle
  2
FlatWithEdges
 70
     1
 71
     2
 72
     1
 73
     1
 90
        2
 40
-0.6
 41
30.0
 62
     5
 63
     7
421
 16777215
 74
     1
 91
        4
 64
     7
 65
   257
 75
     1
175
     1
 42
1.0
 92
        0
 66
   257
 43
1.0
 76
     1
 77
     6
 78
     2
 67
     7
 79
     5
170
     0
171
     0
290
     0
174
     0
 93
       13
 44
0.0
173
     0
291
     1
 45
0.0
1001
ACAD
1000
AcDbSavedByObjectVersion
1070
     0
  0
VISUALSTYLE
  5
358C
102
{ACAD_REACTORS
330
3589
102
}
330
3589
100
AcDbVisualStyle
  2
Gouraud
 70
     2
 71
     2
 72
     2
 73
     1
 90
        2
 40
-0.6
 41
30.0
 62
     5
 63
     7
421
 16777215
 74
     0
 91
        4
 64
     7
 65
   257
 75
     1
175
     1
 42
1.0
 92
        0
 66
     7
 43
1.0
 76
     1
 77
     6
 78
     2
 67
     7
 79
     5
170
     0
171
     0
290
     0
174
     0
 93
       13
 44
0.0
173
     0
291
     1
 45
0.0
1001
ACAD
1000
AcDbSavedByObjectVersion
1070
     0
  0
VISUALSTYLE
  5
358D
102
{ACAD_REACTORS
330
3589
102
}
330
3589
100
AcDbVisualStyle
  2
GouraudWithEdges
 70
     3
 71
     2
 72
     2
 73
     1
 90
        2
 40
-0.6
 41
30.0
 62
     5
 63
     7
421
 16777215
 74
     1
 91
        4
 64
     7
 65
   257
 75
     1
175
     1
 42
1.0
 92
        0
 66
   257
 43
1.0
 76
     1
 77
     6
 78
     2
 67
     7
 79
     5
170
     0
171
     0
290
     0
174
     0
 93
       13
 44
0.0
173
     0
291
     1
 45
0.0
1001
ACAD
1000
AcDbSavedByObjectVersion
1070
     0
  0
VISUALSTYLE
  5
3597
102
{ACAD_REACTORS
330
3589
102
}
330
3589
100
AcDbVisualStyle
  2
Linepattern
 70
    14
 71
     2
 72
     2
 73
     0
 90
        0
 40
-0.6
 41
-30.0
 62
     5
 63
     7
421
 16777215
 74
     1
 91
        4
 64
     7
 65
   257
 75
     7
175
     7
 42
1.0
 92
        8
 66
     7
 43
1.0
 76
     1
 77
     6
 78
     2
 67
     7
 79
     5
170
     0
171
     0
290
     0
174
     0
 93
        1
 44
0.0
173
     0
291
     1
 45
0.0
1001
ACAD
1000
AcDbSavedByObjectVersion
1070
     0
  0
VISUALSTYLE
  5
3593
102
{ACAD_REACTORS
330
3589
102
}
330
3589
100
AcDbVisualStyle
  2
Realistic
 70
     8
 71
     2
 72
     2
 73
     0
 90
        0
 40
-0.6
 41
-30.0
 62
     5
 63
     7
421
 16777215
 74
     1
 91
        0
 64
     7
 65
   257
 75
     1
175
     1
 42
1.0
 92
        8
 66
     8
424
  7895160
 43
1.0
 76
     1
 77
     6
 78
     2
 67
     7
 79
     5
170
     0
171
     0
290
     0
174
     0
 93
       13
 44
0.0
173
     0
291
     0
 45
0.0
1001
ACAD
1000
AcDbSavedByObjectVersion
1070
     0
  0
VISUALSTYLE
  5
3596
102
{ACAD_REACTORS
330
3589
102
}
330
3589
100
AcDbVisualStyle
  2
Thicken
 70
    13
 71
     2
 72
     2
 73
     0
 90
        0
 40
-0.6
 41
-30.0
 62
     5
 63
     7
421
 16777215
 74
     1
 91
        4
 64
     7
 65
   257
 75
     1
175
     1
 42
1.0
 92
       12
 66
     7
 43
1.0
 76
     1
 77
     6
 78
     2
 67
     7
 79
     5
170
     0
171
     0
290
     0
174
     0
 93
        1
 44
0.0
173
     0
291
     1
 45
0.0
1001
ACAD
1000
AcDbSavedByObjectVersion
1070
     0
  0
DICTIONARYVAR
  5
368B
102
{ACAD_REACTORS
330
D40
102
}
330
D40
100
DictionaryVariables
280
     0
  1
1:1
  0
DICTIONARYVAR
  5
3689
102
{ACAD_REACTORS
330
D40
102
}
330
D40
100
DictionaryVariables
280
     0
  1
STANDARD
  0
DICTIONARYVAR
  5
3688
102
{ACAD_REACTORS
330
D40
102
}
330
D40
100
DictionaryVariables
280
     0
  1
STANDARD
  0
DICTIONARYVAR
  5
368C
102
{ACAD_REACTORS
330
D40
102
}
330
D40
100
DictionaryVariables
280
     0
  1
0
  0
DICTIONARYVAR
  5
368A
102
{ACAD_REACTORS
330
D40
102
}
330
D40
100
DictionaryVariables
280
     0
  1
0
  0
DICTIONARYVAR
  5
D41
102
{ACAD_REACTORS
330
D40
102
}
330
D40
100
DictionaryVariables
280
     0
  1
96
  0
DICTIONARY
  5
357A
330
3579
100
AcDbDictionary
280
     1
281
     1
  3
ACAD_XREC_ROUNDTRIP
360
41C5
  3
BUMPTILE
360
357C
  3
DIFFUSETILE
360
357B
  3
OPACITYTILE
360
357F
  3
REFLECTIONTILE
360
357E
  3
REFRACTIONTILE
360
3580
  3
SPECULARTILE
360
357D
  0
DICTIONARY
  5
3572
330
3571
100
AcDbDictionary
280
     1
281
     1
  3
ACAD_XREC_ROUNDTRIP
360
41C4
  3
BUMPTILE
360
3574
  3
DIFFUSETILE
360
3573
  3
OPACITYTILE
360
3577
  3
REFLECTIONTILE
360
3576
  3
REFRACTIONTILE
360
3578
  3
SPECULARTILE
360
3575
  0
DICTIONARY
  5
3582
330
3581
100
AcDbDictionary
280
     1
281
     1
  3
ACAD_XREC_ROUNDTRIP
360
41C6
  3
BUMPTILE
360
3584
  3
DIFFUSETILE
360
3583
  3
OPACITYTILE
360
3587
  3
REFLECTIONTILE
360
3586
  3
REFRACTIONTILE
360
3588
  3
SPECULARTILE
360
3585
  0
DICTIONARY
  5
3685
330
359C
100
AcDbDictionary
280
     1
281
     1
  3
ACAD_ROUNDTRIP_2008_TABLESTYLE_CELLSTYLEMAP
360
41C3
  3
ACAD_XREC_ROUNDTRIP
360
41C7
  0
XRECORD
  5
41C5
102
{ACAD_REACTORS
330
357A
102
}
330
357A
100
AcDbXrecord
280
     1
102
MATERIAL
148
0.0
149
0.0
149
0.0
 93
        0
 94
      127
282
     0
 72
     0
 77
     0
171
     0
175
     0
179
     0
273
     0
  0
XRECORD
  5
357C
102
{ACAD_REACTORS
330
357A
102
}
330
357A
100
AcDbXrecord
280
     1
270
     1
271
     1
  0
XRECORD
  5
357B
102
{ACAD_REACTORS
330
357A
102
}
330
357A
100
AcDbXrecord
280
     1
270
     1
271
     1
  0
XRECORD
  5
357F
102
{ACAD_REACTORS
330
357A
102
}
330
357A
100
AcDbXrecord
280
     1
270
     1
271
     1
  0
XRECORD
  5
357E
102
{ACAD_REACTORS
330
357A
102
}
330
357A
100
AcDbXrecord
280
     1
270
     1
271
     1
  0
XRECORD
  5
3580
102
{ACAD_REACTORS
330
357A
102
}
330
357A
100
AcDbXrecord
280
     1
270
     1
271
     1
  0
XRECORD
  5
357D
102
{ACAD_REACTORS
330
357A
102
}
330
357A
100
AcDbXrecord
280
     1
270
     1
271
     1
  0
XRECORD
  5
41C4
102
{ACAD_REACTORS
330
3572
102
}
330
3572
100
AcDbXrecord
280
     1
102
MATERIAL
148
0.0
149
0.0
149
0.0
 93
        0
 94
      127
282
     0
 72
     0
 77
     0
171
     0
175
     0
179
     0
273
     0
  0
XRECORD
  5
3574
102
{ACAD_REACTORS
330
3572
102
}
330
3572
100
AcDbXrecord
280
     1
270
     1
271
     1
  0
XRECORD
  5
3573
102
{ACAD_REACTORS
330
3572
102
}
330
3572
100
AcDbXrecord
280
     1
270
     1
271
     1
  0
XRECORD
  5
3577
102
{ACAD_REACTORS
330
3572
102
}
330
3572
100
AcDbXrecord
280
     1
270
     1
271
     1
  0
XRECORD
  5
3576
102
{ACAD_REACTORS
330
3572
102
}
330
3572
100
AcDbXrecord
280
     1
270
     1
271
     1
  0
XRECORD
  5
3578
102
{ACAD_REACTORS
330
3572
102
}
330
3572
100
AcDbXrecord
280
     1
270
     1
271
     1
  0
XRECORD
  5
3575
102
{ACAD_REACTORS
330
3572
102
}
330
3572
100
AcDbXrecord
280
     1
270
     1
271
     1
  0
XRECORD
  5
41C6
102
{ACAD_REACTORS
330
3582
102
}
330
3582
100
AcDbXrecord
280
     1
102
MATERIAL
148
0.0
149
0.0
149
0.0
 93
        0
 94
      127
282
     0
 72
     0
 77
     0
171
     0
175
     0
179
     0
273
     0
  0
XRECORD
  5
3584
102
{ACAD_REACTORS
330
3582
102
}
330
3582
100
AcDbXrecord
280
     1
270
     1
271
     1
  0
XRECORD
  5
3583
102
{ACAD_REACTORS
330
3582
102
}
330
3582
100
AcDbXrecord
280
     1
270
     1
271
     1
  0
XRECORD
  5
3587
102
{ACAD_REACTORS
330
3582
102
}
330
3582
100
AcDbXrecord
280
     1
270
     1
271
     1
  0
XRECORD
  5
3586
102
{ACAD_REACTORS
330
3582
102
}
330
3582
100
AcDbXrecord
280
     1
270
     1
271
     1
  0
XRECORD
  5
3588
102
{ACAD_REACTORS
330
3582
102
}
330
3582
100
AcDbXrecord
280
     1
270
     1
271
     1
  0
XRECORD
  5
3585
102
{ACAD_REACTORS
330
3582
102
}
330
3582
100
AcDbXrecord
280
     1
270
     1
271
     1
  0
CELLSTYLEMAP
  5
41C3
102
{ACAD_REACTORS
330
3685
102
}
330
3685
100
AcDbCellStyleMap
 90
        3
300
CELLSTYLE
  1
TABLEFORMAT_BEGIN
 90
        5
170
     1
 91
        0
 92
    32768
 62
   257
 93
        1
300
CONTENTFORMAT
  1
CONTENTFORMAT_BEGIN
 90
        0
 91
        0
 92
      512
 93
        0
300

 40
0.0
140
1.0
 94
        5
 62
     0
340
10
144
6.0
309
CONTENTFORMAT_END
171
     1
301
MARGIN
  1
CELLMARGIN_BEGIN
 40
1.5
 40
1.5
 40
1.5
 40
1.5
 40
4.5
 40
4.5
309
CELLMARGIN_END
 94
        6
 95
        1
302
GRIDFORMAT
  1
GRIDFORMAT_BEGIN
 90
        0
 91
        1
 62
     0
 92
       -2
340
0
 93
        0
 40
1.125
309
GRIDFORMAT_END
 95
        2
302
GRIDFORMAT
  1
GRIDFORMAT_BEGIN
 90
        0
 91
        1
 62
     0
 92
       -2
340
0
 93
        0
 40
1.125
309
GRIDFORMAT_END
 95
        4
302
GRIDFORMAT
  1
GRIDFORMAT_BEGIN
 90
        0
 91
        1
 62
     0
 92
       -2
340
0
 93
        0
 40
1.125
309
GRIDFORMAT_END
 95
        8
302
GRIDFORMAT
  1
GRIDFORMAT_BEGIN
 90
        0
 91
        1
 62
     0
 92
       -2
340
0
 93
        0
 40
1.125
309
GRIDFORMAT_END
 95
       16
302
GRIDFORMAT
  1
GRIDFORMAT_BEGIN
 90
        0
 91
        1
 62
     0
 92
       -2
340
0
 93
        0
 40
1.125
309
GRIDFORMAT_END
 95
       32
302
GRIDFORMAT
  1
GRIDFORMAT_BEGIN
 90
        0
 91
        1
 62
     0
 92
       -2
340
0
 93
        0
 40
1.125
309
GRIDFORMAT_END
309
TABLEFORMAT_END
  1
CELLSTYLE_BEGIN
 90
        1
 91
        1
300
_TITLE
309
CELLSTYLE_END
300
CELLSTYLE
  1
TABLEFORMAT_BEGIN
 90
        5
170
     1
 91
        0
 92
        0
 62
   257
 93
        1
300
CONTENTFORMAT
  1
CONTENTFORMAT_BEGIN
 90
        0
 91
        0
 92
      512
 93
        0
300

 40
0.0
140
1.0
 94
        5
 62
     0
340
10
144
4.5
309
CONTENTFORMAT_END
171
     1
301
MARGIN
  1
CELLMARGIN_BEGIN
 40
1.5
 40
1.5
 40
1.5
 40
1.5
 40
4.5
 40
4.5
309
CELLMARGIN_END
 94
        6
 95
        1
302
GRIDFORMAT
  1
GRIDFORMAT_BEGIN
 90
        0
 91
        1
 62
     0
 92
       -2
340
0
 93
        0
 40
1.125
309
GRIDFORMAT_END
 95
        2
302
GRIDFORMAT
  1
GRIDFORMAT_BEGIN
 90
        0
 91
        1
 62
     0
 92
       -2
340
0
 93
        0
 40
1.125
309
GRIDFORMAT_END
 95
        4
302
GRIDFORMAT
  1
GRIDFORMAT_BEGIN
 90
        0
 91
        1
 62
     0
 92
       -2
340
0
 93
        0
 40
1.125
309
GRIDFORMAT_END
 95
        8
302
GRIDFORMAT
  1
GRIDFORMAT_BEGIN
 90
        0
 91
        1
 62
     0
 92
       -2
340
0
 93
        0
 40
1.125
309
GRIDFORMAT_END
 95
       16
302
GRIDFORMAT
  1
GRIDFORMAT_BEGIN
 90
        0
 91
        1
 62
     0
 92
       -2
340
0
 93
        0
 40
1.125
309
GRIDFORMAT_END
 95
       32
302
GRIDFORMAT
  1
GRIDFORMAT_BEGIN
 90
        0
 91
        1
 62
     0
 92
       -2
340
0
 93
        0
 40
1.125
309
GRIDFORMAT_END
309
TABLEFORMAT_END
  1
CELLSTYLE_BEGIN
 90
        2
 91
        1
300
_HEADER
309
CELLSTYLE_END
300
CELLSTYLE
  1
TABLEFORMAT_BEGIN
 90
        5
170
     1
 91
        0
 92
        0
 62
   257
 93
        1
300
CONTENTFORMAT
  1
CONTENTFORMAT_BEGIN
 90
        0
 91
        0
 92
      512
 93
        0
300

 40
0.0
140
1.0
 94
        2
 62
     0
340
10
144
4.5
309
CONTENTFORMAT_END
171
     1
301
MARGIN
  1
CELLMARGIN_BEGIN
 40
1.5
 40
1.5
 40
1.5
 40
1.5
 40
4.5
 40
4.5
309
CELLMARGIN_END
 94
        6
 95
        1
302
GRIDFORMAT
  1
GRIDFORMAT_BEGIN
 90
        0
 91
        1
 62
     0
 92
       -2
340
0
 93
        0
 40
1.125
309
GRIDFORMAT_END
 95
        2
302
GRIDFORMAT
  1
GRIDFORMAT_BEGIN
 90
        0
 91
        1
 62
     0
 92
       -2
340
0
 93
        0
 40
1.125
309
GRIDFORMAT_END
 95
        4
302
GRIDFORMAT
  1
GRIDFORMAT_BEGIN
 90
        0
 91
        1
 62
     0
 92
       -2
340
0
 93
        0
 40
1.125
309
GRIDFORMAT_END
 95
        8
302
GRIDFORMAT
  1
GRIDFORMAT_BEGIN
 90
        0
 91
        1
 62
     0
 92
       -2
340
0
 93
        0
 40
1.125
309
GRIDFORMAT_END
 95
       16
302
GRIDFORMAT
  1
GRIDFORMAT_BEGIN
 90
        0
 91
        1
 62
     0
 92
       -2
340
0
 93
        0
 40
1.125
309
GRIDFORMAT_END
 95
       32
302
GRIDFORMAT
  1
GRIDFORMAT_BEGIN
 90
        0
 91
        1
 62
     0
 92
       -2
340
0
 93
        0
 40
1.125
309
GRIDFORMAT_END
309
TABLEFORMAT_END
  1
CELLSTYLE_BEGIN
 90
        3
 91
        2
300
_DATA
309
CELLSTYLE_END
  0
XRECORD
  5
41C7
102
{ACAD_REACTORS
330
3685
102
}
330
3685
100
AcDbXrecord
280
     1
102
ACAD_ROUNDTRIP_PRE2007_TABLESTYLE
 90
      512
 91
        0
  1

 92
      512
 93
        0
  2

 94
      512
 95
        0
  3

  0
ENDSEC
  0
EOF
