  0
SECTION
  2
HEADER
  9
$ACADVER
  1
AC1018
  9
$ACADMAINTVER
 70
   104
  9
$DWGCODEPAGE
  3
ANSI_932
  9
$LASTSAVEDBY
  1
poracon
  9
$INSBASE
 10
0.0
 20
0.0
 30
0.0
  9
$EXTMIN
 10
-119.9435375901023
 20
-789.7933969106309
 30
0.0
  9
$EXTMAX
 10
4920.056462409899
 20
2774.206603089369
 30
0.0
  9
$LIMMIN
 10
0.0
 20
0.0
  9
$LIMMAX
 10
420.0
 20
297.0
  9
$ORTHOMODE
 70
     1
  9
$REGENMODE
 70
     1
  9
$FILLMODE
 70
     1
  9
$QTEXTMODE
 70
     0
  9
$MIRRTEXT
 70
     1
  9
$LTSCALE
 40
1.0
  9
$ATTMODE
 70
     1
  9
$TEXTSIZE
 40
50.0
  9
$TRACEWID
 40
1.0
  9
$TEXTSTYLE
  7
STANDARD
  9
$CLAYER
  8
0
  9
$CELTYPE
  6
BYLAYER
  9
$CECOLOR
 62
   256
  9
$CELTSCALE
 40
1.0
  9
$DISPSILH
 70
     0
  9
$DIMSCALE
 40
10.0
  9
$DIMASZ
 40
2.5
  9
$DIMEXO
 40
0.625
  9
$DIMDLI
 40
3.75
  9
$DIMRND
 40
0.0
  9
$DIMDLE
 40
0.0
  9
$DIMEXE
 40
1.25
  9
$DIMTP
 40
0.0
  9
$DIMTM
 40
0.0
  9
$DIMTXT
 40
3.0
  9
$DIMCEN
 40
2.5
  9
$DIMTSZ
 40
0.0
  9
$DIMTOL
 70
     0
  9
$DIMLIM
 70
     0
  9
$DIMTIH
 70
     0
  9
$DIMTOH
 70
     0
  9
$DIMSE1
 70
     0
  9
$DIMSE2
 70
     0
  9
$DIMTAD
 70
     1
  9
$DIMZIN
 70
     8
  9
$DIMBLK
  1
Open
  9
$DIMASO
 70
     1
  9
$DIMSHO
 70
     1
  9
$DIMPOST
  1

  9
$DIMAPOST
  1

  9
$DIMALT
 70
     0
  9
$DIMALTD
 70
     4
  9
$DIMALTF
 40
0.0394
  9
$DIMLFAC
 40
1.0
  9
$DIMTOFL
 70
     1
  9
$DIMTVP
 40
1.0
  9
$DIMTIX
 70
     0
  9
$DIMSOXD
 70
     0
  9
$DIMSAH
 70
     0
  9
$DIMBLK1
  1

  9
$DIMBLK2
  1

  9
$DIMSTYLE
  2
ISO-25
  9
$DIMCLRD
 70
   256
  9
$DIMCLRE
 70
   256
  9
$DIMCLRT
 70
   256
  9
$DIMTFAC
 40
1.0
  9
$DIMGAP
 40
0.625
  9
$DIMJUST
 70
     0
  9
$DIMSD1
 70
     0
  9
$DIMSD2
 70
     0
  9
$DIMTOLJ
 70
     1
  9
$DIMTZIN
 70
     0
  9
$DIMALTZ
 70
     0
  9
$DIMALTTZ
 70
     0
  9
$DIMUPT
 70
     1
  9
$DIMDEC
 70
     0
  9
$DIMTDEC
 70
     0
  9
$DIMALTU
 70
     8
  9
$DIMALTTD
 70
     4
  9
$DIMTXSTY
  7
BIGFONT
  9
$DIMAUNIT
 70
     0
  9
$DIMADEC
 70
     0
  9
$DIMALTRND
 40
0.0
  9
$DIMAZIN
 70
     0
  9
$DIMDSEP
 70
    46
  9
$DIMATFIT
 70
     3
  9
$DIMFRAC
 70
     0
  9
$DIMLDRBLK
  1
Open
  9
$DIMLUNIT
 70
     2
  9
$DIMLWD
 70
    -1
  9
$DIMLWE
 70
    -1
  9
$DIMTMOVE
 70
     0
  9
$LUNITS
 70
     2
  9
$LUPREC
 70
     4
  9
$SKETCHINC
 40
1.0
  9
$FILLETRAD
 40
0.0
  9
$AUNITS
 70
     0
  9
$AUPREC
 70
     0
  9
$MENU
  1
.
  9
$ELEVATION
 40
0.0
  9
$PELEVATION
 40
0.0
  9
$THICKNESS
 40
0.0
  9
$LIMCHECK
 70
     0
  9
$CHAMFERA
 40
10.0
  9
$CHAMFERB
 40
10.0
  9
$CHAMFERC
 40
0.0
  9
$CHAMFERD
 40
0.0
  9
$SKPOLY
 70
     1
  9
$TDCREATE
 40
2450199.456126991
  9
$TDUCREATE
 40
2450199.081126991
  9
$TDUPDATE
 40
2457339.986225289
  9
$TDUUPDATE
 40
2457339.611225290
  9
$TDINDWG
 40
0.4696694792
  9
$TDUSRTIMER
 40
0.4696694792
  9
$USRTIMER
 70
     1
  9
$ANGBASE
 50
0.0
  9
$ANGDIR
 70
     0
  9
$PDMODE
 70
     0
  9
$PDSIZE
 40
0.0
  9
$PLINEWID
 40
0.0
  9
$SPLFRAME
 70
     0
  9
$SPLINETYPE
 70
     6
  9
$SPLINESEGS
 70
     8
  9
$HANDSEED
  5
4B2A
  9
$SURFTAB1
 70
     6
  9
$SURFTAB2
 70
     6
  9
$SURFTYPE
 70
     6
  9
$SURFU
 70
     6
  9
$SURFV
 70
     6
  9
$UCSBASE
  2

  9
$UCSNAME
  2

  9
$UCSORG
 10
0.0
 20
0.0
 30
0.0
  9
$UCSXDIR
 10
1.0
 20
0.0
 30
0.0
  9
$UCSYDIR
 10
0.0
 20
1.0
 30
0.0
  9
$UCSORTHOREF
  2

  9
$UCSORTHOVIEW
 70
     0
  9
$UCSORGTOP
 10
0.0
 20
0.0
 30
0.0
  9
$UCSORGBOTTOM
 10
0.0
 20
0.0
 30
0.0
  9
$UCSORGLEFT
 10
0.0
 20
0.0
 30
0.0
  9
$UCSORGRIGHT
 10
0.0
 20
0.0
 30
0.0
  9
$UCSORGFRONT
 10
0.0
 20
0.0
 30
0.0
  9
$UCSORGBACK
 10
0.0
 20
0.0
 30
0.0
  9
$PUCSBASE
  2

  9
$PUCSNAME
  2

  9
$PUCSORG
 10
0.0
 20
0.0
 30
0.0
  9
$PUCSXDIR
 10
1.0
 20
0.0
 30
0.0
  9
$PUCSYDIR
 10
0.0
 20
1.0
 30
0.0
  9
$PUCSORTHOREF
  2

  9
$PUCSORTHOVIEW
 70
     0
  9
$PUCSORGTOP
 10
0.0
 20
0.0
 30
0.0
  9
$PUCSORGBOTTOM
 10
0.0
 20
0.0
 30
0.0
  9
$PUCSORGLEFT
 10
0.0
 20
0.0
 30
0.0
  9
$PUCSORGRIGHT
 10
0.0
 20
0.0
 30
0.0
  9
$PUCSORGFRONT
 10
0.0
 20
0.0
 30
0.0
  9
$PUCSORGBACK
 10
0.0
 20
0.0
 30
0.0
  9
$USERI1
 70
     0
  9
$USERI2
 70
     0
  9
$USERI3
 70
     0
  9
$USERI4
 70
     0
  9
$USERI5
 70
     0
  9
$USERR1
 40
0.0
  9
$USERR2
 40
0.0
  9
$USERR3
 40
0.0
  9
$USERR4
 40
0.0
  9
$USERR5
 40
0.0
  9
$WORLDVIEW
 70
     1
  9
$SHADEDGE
 70
     3
  9
$SHADEDIF
 70
    70
  9
$TILEMODE
 70
     1
  9
$MAXACTVP
 70
    48
  9
$PINSBASE
 10
0.0
 20
0.0
 30
0.0
  9
$PLIMCHECK
 70
     0
  9
$PEXTMIN
 10
1.000000000000000E+20
 20
1.000000000000000E+20
 30
1.000000000000000E+20
  9
$PEXTMAX
 10
-1.000000000000000E+20
 20
-1.000000000000000E+20
 30
-1.000000000000000E+20
  9
$PLIMMIN
 10
0.0
 20
0.0
  9
$PLIMMAX
 10
840.0
 20
594.0
  9
$UNITMODE
 70
     0
  9
$VISRETAIN
 70
     0
  9
$PLINEGEN
 70
     0
  9
$PSLTSCALE
 70
     1
  9
$TREEDEPTH
 70
  3020
  9
$CMLSTYLE
  2
STANDARD
  9
$CMLJUST
 70
     0
  9
$CMLSCALE
 40
1.0
  9
$PROXYGRAPHICS
 70
     1
  9
$MEASUREMENT
 70
     1
  9
$CELWEIGHT
370
    -1
  9
$ENDCAPS
280
     0
  9
$JOINSTYLE
280
     0
  9
$LWDISPLAY
290
     0
  9
$INSUNITS
 70
     0
  9
$HYPERLINKBASE
  1

  9
$STYLESHEET
  1

  9
$XEDIT
290
     1
  9
$CEPSNTYPE
380
     0
  9
$PSTYLEMODE
290
     1
  9
$FINGERPRINTGUID
  2
{36C49202-8B86-4C76-9948-2C2D4D06F5DC}
  9
$VERSIONGUID
  2
{1123A99A-D0F9-4826-BF81-3031D66B3A8B}
  9
$EXTNAMES
290
     1
  9
$PSVPSCALE
 40
0.0
  9
$OLESTARTUP
290
     0
  9
$SORTENTS
280
    96
  9
$INDEXCTL
280
     0
  9
$HIDETEXT
280
     0
  9
$XCLIPFRAME
290
     0
  9
$HALOGAP
280
     0
  9
$OBSCOLOR
 70
   257
  9
$OBSLTYPE
280
     0
  9
$INTERSECTIONDISPLAY
280
     0
  9
$INTERSECTIONCOLOR
 70
   257
  9
$DIMASSOC
280
     1
  9
$PROJECTNAME
  1

  0
ENDSEC
  0
SECTION
  2
CLASSES
  0
CLASS
  1
DICTIONARYVAR
  2
AcDbDictionaryVar
  3
ObjectDBX Classes
 90
        0
 91
        6
280
     0
281
     0
  0
CLASS
  1
ACDBDICTIONARYWDFLT
  2
AcDbDictionaryWithDefault
  3
ObjectDBX Classes
 90
        0
 91
        1
280
     0
281
     0
  0
CLASS
  1
MATERIAL
  2
AcDbMaterial
  3
ObjectDBX Classes
 90
     1153
 91
        3
280
     0
281
     0
  0
CLASS
  1
VISUALSTYLE
  2
AcDbVisualStyle
  3
ObjectDBX Classes
 90
     4095
 91
       16
280
     0
281
     0
  0
CLASS
  1
TABLESTYLE
  2
AcDbTableStyle
  3
ObjectDBX Classes
 90
     4095
 91
        1
280
     0
281
     0
  0
CLASS
  1
SCALE
  2
AcDbScale
  3
ObjectDBX Classes
 90
     1153
 91
       33
280
     0
281
     0
  0
CLASS
  1
MLEADERSTYLE
  2
AcDbMLeaderStyle
  3
ACDB_MLEADERSTYLE_CLASS
 90
     4095
 91
        1
280
     0
281
     0
  0
CLASS
  1
SORTENTSTABLE
  2
AcDbSortentsTable
  3
ObjectDBX Classes
 90
        0
 91
        1
280
     0
281
     0
  0
CLASS
  1
CELLSTYLEMAP
  2
AcDbCellStyleMap
  3
ObjectDBX Classes
 90
     1152
 91
        3
280
     0
281
     0
  0
ENDSEC
  0
SECTION
  2
TABLES
  0
TABLE
  2
VPORT
  5
8
330
0
100
AcDbSymbolTable
 70
     1
  0
VPORT
  5
3F18
330
8
100
AcDbSymbolTableRecord
100
AcDbViewportTableRecord
  2
*Active
 70
     0
 10
0.0
 20
0.0
 11
1.0
 21
1.0
 12
2400.132421067515
 22
992.1788436170517
 13
0.0
 23
0.0
 14
50.0
 24
50.0
 15
0.0
 25
0.0
 16
0.0
 26
0.0
 36
1.0
 17
0.0
 27
0.0
 37
0.0
 40
3592.773642595242
 41
1.669761273209549
 42
50.0
 43
0.0
 44
0.0
 50
0.0
 51
0.0
 71
     0
 72
   100
 73
     1
 74
     1
 75
     0
 76
     0
 77
     0
 78
     0
281
     0
 65
     1
110
0.0
120
0.0
130
0.0
111
1.0
121
0.0
131
0.0
112
0.0
122
1.0
132
0.0
 79
     0
146
0.0
  0
ENDTAB
  0
TABLE
  2
LTYPE
  5
5
330
0
100
AcDbSymbolTable
 70
     5
  0
LTYPE
  5
14
330
5
100
AcDbSymbolTableRecord
100
AcDbLinetypeTableRecord
  2
BYBLOCK
 70
     0
  3

 72
    65
 73
     0
 40
0.0
  0
LTYPE
  5
15
330
5
100
AcDbSymbolTableRecord
100
AcDbLinetypeTableRecord
  2
BYLAYER
 70
     0
  3

 72
    65
 73
     0
 40
0.0
  0
LTYPE
  5
16
330
5
100
AcDbSymbolTableRecord
100
AcDbLinetypeTableRecord
  2
CONTINUOUS
 70
     0
  3
Solid line
 72
    65
 73
     0
 40
0.0
  0
LTYPE
  5
2C36
330
5
100
AcDbSymbolTableRecord
100
AcDbLinetypeTableRecord
  2
CENTERX2
 70
     0
  3
Center (2x) ________  __  ________  __  _____
 72
    65
 73
     4
 40
101.6
 49
63.5
 74
     0
 49
-12.7
 74
     0
 49
12.7
 74
     0
 49
-12.7
 74
     0
  0
LTYPE
  5
2F47
330
5
100
AcDbSymbolTableRecord
100
AcDbLinetypeTableRecord
  2
HIDDEN2
 70
     0
  3
Hidden (.5x) _ _ _ _ _ _ _ _ _ _ _ _ _ _ _ _ _
 72
    65
 73
     2
 40
4.762499999999999
 49
3.174999999999999
 74
     0
 49
-1.587499999999999
 74
     0
  0
LTYPE
  5
3091
330
5
100
AcDbSymbolTableRecord
100
AcDbLinetypeTableRecord
  2
DASHED
 70
     0
  3
__ __ __ __ __ __ __ __ __ __ __ __ __ __ __ __
 72
    65
 73
     2
 40
0.75
 49
0.5
 74
     0
 49
-0.25
 74
     0
  0
LTYPE
  5
410A
330
5
100
AcDbSymbolTableRecord
100
AcDbLinetypeTableRecord
  2
HIDDEN
 70
     0
  3
__ __ __ __ __ __ __ __ __ __ __ __ __ __ __ __
 72
    65
 73
     2
 40
0.375
 49
0.25
 74
     0
 49
-0.125
 74
     0
  0
ENDTAB
  0
TABLE
  2
LAYER
  5
2
330
0
100
AcDbSymbolTable
 70
    10
  0
LAYER
  5
F
102
{ACAD_XDICTIONARY
360
3FB3
102
}
330
2
100
AcDbSymbolTableRecord
100
AcDbLayerTableRecord
  2
0
 70
     0
 62
   250
  6
CONTINUOUS
370
    -3
390
253F
  0
LAYER
  5
63
102
{ACAD_XDICTIONARY
360
3FB5
102
}
330
2
100
AcDbSymbolTableRecord
100
AcDbLayerTableRecord
  2
TB
 70
     0
 62
     5
  6
HIDDEN2
370
    -3
390
253F
  0
LAYER
  5
36A
102
{ACAD_XDICTIONARY
360
3FB7
102
}
330
2
100
AcDbSymbolTableRecord
100
AcDbLayerTableRecord
  2
KEIKAKU
 70
     0
 62
     7
  6
CONTINUOUS
370
    -3
390
253F
  0
LAYER
  5
36B
330
2
100
AcDbSymbolTableRecord
100
AcDbLayerTableRecord
  2
DEFPOINTS
 70
     0
 62
     7
  6
CONTINUOUS
290
     0
370
    -3
390
253F
  0
LAYER
  5
267D
102
{ACAD_XDICTIONARY
360
3FB9
102
}
330
2
100
AcDbSymbolTableRecord
100
AcDbLayerTableRecord
  2
sunpou
 70
     0
 62
     3
  6
CONTINUOUS
370
    -3
390
253F
  0
LAYER
  5
267E
102
{ACAD_XDICTIONARY
360
3FBB
102
}
330
2
100
AcDbSymbolTableRecord
100
AcDbLayerTableRecord
  2
CT1
 70
     0
 62
     1
  6
CENTERX2
370
    -3
390
253F
  0
LAYER
  5
267F
102
{ACAD_XDICTIONARY
360
3FBD
102
}
330
2
100
AcDbSymbolTableRecord
100
AcDbLayerTableRecord
  2
saiseki
 70
     0
 62
     4
  6
CONTINUOUS
370
    -3
390
253F
  0
LAYER
  5
3092
102
{ACAD_XDICTIONARY
360
3FBF
102
}
330
2
100
AcDbSymbolTableRecord
100
AcDbLayerTableRecord
  2
SUNPO
 70
     0
 62
   250
  6
CONTINUOUS
370
    -3
390
253F
  0
LAYER
  5
3093
102
{ACAD_XDICTIONARY
360
3FC1
102
}
330
2
100
AcDbSymbolTableRecord
100
AcDbLayerTableRecord
  2
KIJUN
 70
     0
 62
     6
  6
DASHED
370
    -3
390
253F
  0
LAYER
  5
410B
102
{ACAD_XDICTIONARY
360
410C
102
}
330
2
100
AcDbSymbolTableRecord
100
AcDbLayerTableRecord
  2
KL
 70
     0
 62
     5
  6
HIDDEN
370
    -3
390
253F
  0
ENDTAB
  0
TABLE
  2
STYLE
  5
3
330
0
100
AcDbSymbolTable
 70
     4
  0
STYLE
  5
10
330
3
100
AcDbSymbolTableRecord
100
AcDbTextStyleTableRecord
  2
STANDARD
 70
     0
 40
0.0
 41
1.0
 50
0.0
 71
     0
 42
50.0
  3
isocp.shx
  4
bigfont.shx
  0
STYLE
  5
9A
330
3
100
AcDbSymbolTableRecord
100
AcDbTextStyleTableRecord
  2
ISOCP
 70
     0
 40
0.0
 41
1.0
 50
0.0
 71
     0
 42
2.5
  3
isocp.shx
  4

  0
STYLE
  5
2BF5
330
3
100
AcDbSymbolTableRecord
100
AcDbTextStyleTableRecord
  2
BIGFONT
 70
     0
 40
0.0
 41
1.0
 50
0.0
 71
     0
 42
50.0
  3
simplex
  4
bigfont
  0
STYLE
  5
2C35
330
3
100
AcDbSymbolTableRecord
100
AcDbTextStyleTableRecord
  2

 70
     1
 40
0.0
 41
1.0
 50
0.0
 71
     0
 42
50.0
  3
ltypeshp.shx
  4

  0
ENDTAB
  0
TABLE
  2
VIEW
  5
6
330
0
100
AcDbSymbolTable
 70
     0
  0
ENDTAB
  0
TABLE
  2
UCS
  5
7
330
0
100
AcDbSymbolTable
 70
     0
  0
ENDTAB
  0
TABLE
  2
APPID
  5
9
330
0
100
AcDbSymbolTable
 70
     2
  0
APPID
  5
11
330
9
100
AcDbSymbolTableRecord
100
AcDbRegAppTableRecord
  2
ACAD
 70
     0
  0
APPID
  5
3F6B
330
9
100
AcDbSymbolTableRecord
100
AcDbRegAppTableRecord
  2
ACAD_MLEADERVER
 70
     0
  0
ENDTAB
  0
TABLE
  2
DIMSTYLE
  5
A
330
0
100
AcDbSymbolTable
 70
     7
100
AcDbDimStyleTable
 71
     2
340
24
340
28
  0
DIMSTYLE
105
1D
102
{ACAD_REACTORS
330
372
330
375
330
376
330
37B
330
385
330
386
330
38B
330
38C
330
38D
330
390
330
391
330
394
330
397
102
}
330
A
100
AcDbSymbolTableRecord
100
AcDbDimStyleTableRecord
  2
STANDARD
 70
     0
340
10
  0
DIMSTYLE
105
24
102
{ACAD_REACTORS
330
34A7
330
34C3
330
34D2
330
361E
330
361D
330
3661
330
3638
330
369C
330
37B5
330
37EB
330
3908
330
3927
330
4870
330
4873
330
4874
330
4878
330
4879
330
4889
330
48AB
330
48E2
330
48FC
330
48FD
330
48FE
330
48FF
330
4900
330
4901
330
4903
330
4907
330
490D
102
}
330
A
100
AcDbSymbolTableRecord
100
AcDbDimStyleTableRecord
  2
ISO-25
 70
     0
 41
2.5
 42
0.625
 43
3.75
 44
1.25
 74
     0
 77
     1
 78
     8
140
2.5
141
2.5
143
0.0394
145
1.0
147
0.625
172
     1
340
10
  0
DIMSTYLE
105
28
330
A
100
AcDbSymbolTableRecord
100
AcDbDimStyleTableRecord
  2
ISO1
 70
     0
 41
10.0
 42
2.5
 43
15.0
 44
5.0
 74
     0
 77
     1
 78
     8
140
10.0
141
10.0
143
0.0394
145
4.0
147
2.5
172
     1
340
10
  0
DIMSTYLE
105
29
330
A
100
AcDbSymbolTableRecord
100
AcDbDimStyleTableRecord
  2
ISO1-4
 70
     0
 41
14.0
 42
3.5
 43
21.0
 44
7.0
 74
     0
 77
     1
 78
     8
140
14.0
141
14.0
143
0.0394
145
5.599999999999999
147
3.5
172
     1
340
10
  0
DIMSTYLE
105
2A
330
A
100
AcDbSymbolTableRecord
100
AcDbDimStyleTableRecord
  2
ISO2
 70
     0
 41
20.0
 42
5.0
 43
30.0
 44
10.0
 74
     0
 77
     1
 78
     8
140
20.0
141
20.0
143
0.0394
145
8.0
147
5.0
172
     1
340
10
  0
DIMSTYLE
105
2BF6
330
A
100
AcDbSymbolTableRecord
100
AcDbDimStyleTableRecord
  2
P1
 70
     0
 40
10.0
 41
2.0
 42
1.0
 43
10.0
 44
1.0
 73
     0
 74
     0
 77
     2
140
3.0
141
0.0
147
1.0
172
     1
173
     1
271
     0
272
     0
279
     2
288
     1
340
2BF5
341
2BEF
343
2BEF
344
2BEF
  0
DIMSTYLE
105
3094
330
A
100
AcDbSymbolTableRecord
100
AcDbDimStyleTableRecord
  2
STYLE10
 70
     0
 40
10.0
 41
2.0
 42
3.0
 43
0.0
 44
0.0
 73
     0
 74
     0
 77
     1
 78
    12
140
2.5
141
0.0
147
1.0
172
     1
173
     1
176
     4
177
     4
178
     2
340
10
341
2A9C
343
2A9C
344
2A9C
  0
ENDTAB
  0
TABLE
  2
BLOCK_RECORD
  5
1
330
0
100
AcDbSymbolTable
 70
    81
  0
BLOCK_RECORD
  5
1A
102
{ACAD_XDICTIONARY
360
3F77
102
}
330
1
100
AcDbSymbolTableRecord
100
AcDbBlockTableRecord
  2
*MODEL_SPACE
340
2542
  0
BLOCK_RECORD
  5
17
330
1
100
AcDbSymbolTableRecord
100
AcDbBlockTableRecord
  2
*PAPER_SPACE
340
2543
  0
BLOCK_RECORD
  5
2D3
330
1
100
AcDbSymbolTableRecord
100
AcDbBlockTableRecord
  2
*D0
340
0
  0
BLOCK_RECORD
  5
2DF
330
1
100
AcDbSymbolTableRecord
100
AcDbBlockTableRecord
  2
*D1
340
0
  0
BLOCK_RECORD
  5
2EB
330
1
100
AcDbSymbolTableRecord
100
AcDbBlockTableRecord
  2
*D2
340
0
  0
BLOCK_RECORD
  5
2F7
330
1
100
AcDbSymbolTableRecord
100
AcDbBlockTableRecord
  2
*D3
340
0
  0
BLOCK_RECORD
  5
303
330
1
100
AcDbSymbolTableRecord
100
AcDbBlockTableRecord
  2
*D4
340
0
  0
BLOCK_RECORD
  5
30F
330
1
100
AcDbSymbolTableRecord
100
AcDbBlockTableRecord
  2
*D5
340
0
  0
BLOCK_RECORD
  5
31B
330
1
100
AcDbSymbolTableRecord
100
AcDbBlockTableRecord
  2
*D6
340
0
  0
BLOCK_RECORD
  5
326
330
1
100
AcDbSymbolTableRecord
100
AcDbBlockTableRecord
  2
*D7
340
0
  0
BLOCK_RECORD
  5
331
330
1
100
AcDbSymbolTableRecord
100
AcDbBlockTableRecord
  2
*D8
340
0
  0
BLOCK_RECORD
  5
33D
330
1
100
AcDbSymbolTableRecord
100
AcDbBlockTableRecord
  2
*D9
340
0
  0
BLOCK_RECORD
  5
348
330
1
100
AcDbSymbolTableRecord
100
AcDbBlockTableRecord
  2
*D10
340
0
  0
BLOCK_RECORD
  5
353
330
1
100
AcDbSymbolTableRecord
100
AcDbBlockTableRecord
  2
*D11
340
0
  0
BLOCK_RECORD
  5
35E
330
1
100
AcDbSymbolTableRecord
100
AcDbBlockTableRecord
  2
*D12
340
0
  0
BLOCK_RECORD
  5
36C
330
1
100
AcDbSymbolTableRecord
100
AcDbBlockTableRecord
  2
A$C75D85E54
340
0
  0
BLOCK_RECORD
  5
2A96
330
1
100
AcDbSymbolTableRecord
100
AcDbBlockTableRecord
  2
_Open
340
0
102
{BLKREFS
331
45CC
331
45CD
331
45D5
331
45D6
331
45DE
331
45DF
331
45E7
331
45E8
331
45F0
331
45F1
331
45FB
331
45FC
331
4604
331
4605
331
460D
331
460E
331
4616
331
4617
331
461F
331
4620
331
4628
331
4629
331
4631
331
4632
331
463A
331
463B
331
4643
331
4644
331
464C
331
464D
331
4655
331
4656
331
465E
331
465F
331
4667
331
4668
331
4670
331
4671
331
4679
331
467A
331
4682
331
4683
331
468B
331
468C
331
4694
331
4695
331
469D
331
469E
331
46A6
331
46A7
331
46AF
331
46B0
331
46B8
331
46B9
331
46C1
331
46C2
331
46CA
331
46CB
331
46DE
331
46DF
331
46EA
331
46EB
331
46F6
331
46F7
331
4702
331
4703
331
470E
331
470F
331
471A
331
471B
331
4728
331
4729
331
4734
331
4735
331
4740
331
4741
331
474C
331
474D
331
4758
331
4759
331
4764
331
4765
331
4770
331
4771
331
477C
331
477D
331
4788
331
4789
331
4794
331
4795
331
47A0
331
47A1
331
4A83
331
4A84
331
4A8C
331
4A8D
331
4A95
331
4A96
331
4A9E
331
4A9F
331
4AA7
331
4AA8
331
4AB0
331
4AB1
331
4ABB
331
4ABC
331
4AC4
331
4AC5
331
4ACD
331
4ACE
331
4AD6
331
4AD7
331
4ADF
331
4AE0
331
4AE8
331
4AE9
331
4AF1
331
4AF2
331
4AFA
331
4AFB
331
4B03
331
4B04
331
4B0C
331
4B0D
331
4B15
331
4B16
102
}
  0
BLOCK_RECORD
  5
2A9C
330
1
100
AcDbSymbolTableRecord
100
AcDbBlockTableRecord
  2
_Closed
340
0
  0
BLOCK_RECORD
  5
2BEF
330
1
100
AcDbSymbolTableRecord
100
AcDbBlockTableRecord
  2
ARROW
340
0
  0
BLOCK_RECORD
  5
34A8
330
1
100
AcDbSymbolTableRecord
100
AcDbBlockTableRecord
  2
*D17
340
0
  0
BLOCK_RECORD
  5
34C4
330
1
100
AcDbSymbolTableRecord
100
AcDbBlockTableRecord
  2
*D18
340
0
  0
BLOCK_RECORD
  5
34D3
330
1
100
AcDbSymbolTableRecord
100
AcDbBlockTableRecord
  2
*D19
340
0
  0
BLOCK_RECORD
  5
36A9
330
1
100
AcDbSymbolTableRecord
100
AcDbBlockTableRecord
  2
*D20
340
0
  0
BLOCK_RECORD
  5
36B5
330
1
100
AcDbSymbolTableRecord
100
AcDbBlockTableRecord
  2
*D21
340
0
  0
BLOCK_RECORD
  5
36C1
330
1
100
AcDbSymbolTableRecord
100
AcDbBlockTableRecord
  2
*D22
340
0
  0
BLOCK_RECORD
  5
36CD
330
1
100
AcDbSymbolTableRecord
100
AcDbBlockTableRecord
  2
*D23
340
0
  0
BLOCK_RECORD
  5
36D8
330
1
100
AcDbSymbolTableRecord
100
AcDbBlockTableRecord
  2
*D24
340
0
  0
BLOCK_RECORD
  5
37B6
330
1
100
AcDbSymbolTableRecord
100
AcDbBlockTableRecord
  2
*D25
340
0
  0
BLOCK_RECORD
  5
37EC
330
1
100
AcDbSymbolTableRecord
100
AcDbBlockTableRecord
  2
*D26
340
0
  0
BLOCK_RECORD
  5
3909
330
1
100
AcDbSymbolTableRecord
100
AcDbBlockTableRecord
  2
*D27
340
0
  0
BLOCK_RECORD
  5
3928
330
1
100
AcDbSymbolTableRecord
100
AcDbBlockTableRecord
  2
*D28
340
0
  0
BLOCK_RECORD
  5
3EFC
330
1
100
AcDbSymbolTableRecord
100
AcDbBlockTableRecord
  2
A$C0F7954E8
340
0
  0
BLOCK_RECORD
  5
4917
330
1
100
AcDbSymbolTableRecord
100
AcDbBlockTableRecord
  2
*D64
340
0
  0
BLOCK_RECORD
  5
4923
330
1
100
AcDbSymbolTableRecord
100
AcDbBlockTableRecord
  2
*D65
340
0
  0
BLOCK_RECORD
  5
492F
330
1
100
AcDbSymbolTableRecord
100
AcDbBlockTableRecord
  2
*D66
340
0
  0
BLOCK_RECORD
  5
493B
330
1
100
AcDbSymbolTableRecord
100
AcDbBlockTableRecord
  2
*D67
340
0
  0
BLOCK_RECORD
  5
4947
330
1
100
AcDbSymbolTableRecord
100
AcDbBlockTableRecord
  2
*D68
340
0
  0
BLOCK_RECORD
  5
4953
330
1
100
AcDbSymbolTableRecord
100
AcDbBlockTableRecord
  2
*D69
340
0
  0
BLOCK_RECORD
  5
495F
330
1
100
AcDbSymbolTableRecord
100
AcDbBlockTableRecord
  2
*D70
340
0
  0
BLOCK_RECORD
  5
496D
330
1
100
AcDbSymbolTableRecord
100
AcDbBlockTableRecord
  2
*D71
340
0
  0
BLOCK_RECORD
  5
4979
330
1
100
AcDbSymbolTableRecord
100
AcDbBlockTableRecord
  2
*D72
340
0
  0
BLOCK_RECORD
  5
4985
330
1
100
AcDbSymbolTableRecord
100
AcDbBlockTableRecord
  2
*D73
340
0
  0
BLOCK_RECORD
  5
4991
330
1
100
AcDbSymbolTableRecord
100
AcDbBlockTableRecord
  2
*D74
340
0
  0
BLOCK_RECORD
  5
499D
330
1
100
AcDbSymbolTableRecord
100
AcDbBlockTableRecord
  2
*D75
340
0
  0
BLOCK_RECORD
  5
49A9
330
1
100
AcDbSymbolTableRecord
100
AcDbBlockTableRecord
  2
*D76
340
0
  0
BLOCK_RECORD
  5
49B5
330
1
100
AcDbSymbolTableRecord
100
AcDbBlockTableRecord
  2
*D77
340
0
  0
BLOCK_RECORD
  5
49C1
330
1
100
AcDbSymbolTableRecord
100
AcDbBlockTableRecord
  2
*D78
340
0
  0
BLOCK_RECORD
  5
49CD
330
1
100
AcDbSymbolTableRecord
100
AcDbBlockTableRecord
  2
*D79
340
0
  0
BLOCK_RECORD
  5
49D9
330
1
100
AcDbSymbolTableRecord
100
AcDbBlockTableRecord
  2
*D80
340
0
  0
ENDTAB
  0
ENDSEC
  0
SECTION
  2
BLOCKS
  0
BLOCK
  5
1B
330
1A
100
AcDbEntity
  8
0
100
AcDbBlockBegin
  2
*MODEL_SPACE
 70
     0
 10
0.0
 20
0.0
 30
0.0
  3
*MODEL_SPACE
  1

  0
ENDBLK
  5
1C
330
1A
100
AcDbEntity
  8
0
100
AcDbBlockEnd
  0
BLOCK
  5
18
330
17
100
AcDbEntity
 67
     1
  8
0
100
AcDbBlockBegin
  2
*PAPER_SPACE
 70
     0
 10
0.0
 20
0.0
 30
0.0
  3
*PAPER_SPACE
  1

  0
ENDBLK
  5
19
330
17
100
AcDbEntity
 67
     1
  8
0
100
AcDbBlockEnd
  0
BLOCK
  5
2DD
330
2D3
100
AcDbEntity
  8
0
100
AcDbBlockBegin
  2
*D0
 70
     1
 10
0.0
 20
0.0
 30
0.0
  3
*D0
  1

  0
LINE
  5
2D4
330
2D3
100
AcDbEntity
  8
0
  6
ByBlock
 62
     7
100
AcDbLine
 10
1363.75
 20
2200.0
 30
0.0
 11
1307.5
 21
2200.0
 31
0.0
  0
LINE
  5
2D5
330
2D3
100
AcDbEntity
  8
0
  6
ByBlock
 62
     7
100
AcDbLine
 10
1363.75
 20
2105.0
 30
0.0
 11
1307.5
 21
2105.0
 31
0.0
  0
LINE
  5
2D6
330
2D3
100
AcDbEntity
  8
0
  6
ByBlock
 62
     7
100
AcDbLine
 10
1320.0
 20
2175.0
 30
0.0
 11
1320.0
 21
2130.0
 31
0.0
  0
SOLID
  5
2D7
330
2D3
100
AcDbEntity
  8
0
  6
ByBlock
 62
     7
100
AcDbTrace
 10
1315.833333333333
 20
2175.0
 30
0.0
 11
1324.166666666666
 21
2175.0
 31
0.0
 12
1320.0
 22
2200.0
 32
0.0
 13
1320.0
 23
2200.0
 33
0.0
  0
SOLID
  5
2D8
330
2D3
100
AcDbEntity
  8
0
  6
ByBlock
 62
     7
100
AcDbTrace
 10
1315.833333333333
 20
2130.0
 30
0.0
 11
1324.166666666666
 21
2130.0
 31
0.0
 12
1320.0
 22
2105.0
 32
0.0
 13
1320.0
 23
2105.0
 33
0.0
  0
MTEXT
  5
2D9
330
2D3
100
AcDbEntity
  8
0
  6
ByBlock
 62
     7
100
AcDbMText
 10
1302.5
 20
2152.5
 30
0.0
 40
30.0
 41
0.0
 71
     5
 72
     1
  1
\A1;95
 11
0.0000000000000001
 21
1.0
 31
0.0
 73
     1
 44
1.0
  0
POINT
  5
2DA
330
2D3
100
AcDbEntity
  8
DEFPOINTS
  6
ByBlock
 62
     0
100
AcDbPoint
 10
1370.0
 20
2200.0
 30
0.0
  0
POINT
  5
2DB
330
2D3
100
AcDbEntity
  8
DEFPOINTS
  6
ByBlock
 62
     0
100
AcDbPoint
 10
1370.0
 20
2105.0
 30
0.0
  0
POINT
  5
2DC
330
2D3
100
AcDbEntity
  8
DEFPOINTS
  6
ByBlock
 62
     0
100
AcDbPoint
 10
1320.0
 20
2105.0
 30
0.0
  0
ENDBLK
  5
2DE
330
2D3
100
AcDbEntity
  8
0
100
AcDbBlockEnd
  0
BLOCK
  5
2E9
330
2DF
100
AcDbEntity
  8
0
100
AcDbBlockBegin
  2
*D1
 70
     1
 10
0.0
 20
0.0
 30
0.0
  3
*D1
  1

  0
LINE
  5
2E0
330
2DF
100
AcDbEntity
  8
0
  6
ByBlock
 62
     7
100
AcDbLine
 10
1478.75
 20
2105.0
 30
0.0
 11
1387.5
 21
2105.0
 31
0.0
  0
LINE
  5
2E1
330
2DF
100
AcDbEntity
  8
0
  6
ByBlock
 62
     7
100
AcDbLine
 10
1513.75
 20
1505.0
 30
0.0
 11
1387.5
 21
1505.0
 31
0.0
  0
LINE
  5
2E2
330
2DF
100
AcDbEntity
  8
0
  6
ByBlock
 62
     7
100
AcDbLine
 10
1400.0
 20
2080.0
 30
0.0
 11
1400.0
 21
1530.0
 31
0.0
  0
SOLID
  5
2E3
330
2DF
100
AcDbEntity
  8
0
  6
ByBlock
 62
     7
100
AcDbTrace
 10
1395.833333333333
 20
2080.0
 30
0.0
 11
1404.166666666667
 21
2080.0
 31
0.0
 12
1400.0
 22
2105.0
 32
0.0
 13
1400.0
 23
2105.0
 33
0.0
  0
SOLID
  5
2E4
330
2DF
100
AcDbEntity
  8
0
  6
ByBlock
 62
     7
100
AcDbTrace
 10
1395.833333333333
 20
1530.0
 30
0.0
 11
1404.166666666666
 21
1530.0
 31
0.0
 12
1400.0
 22
1505.0
 32
0.0
 13
1400.0
 23
1505.0
 33
0.0
  0
MTEXT
  5
2E5
330
2DF
100
AcDbEntity
  8
0
  6
ByBlock
 62
     7
100
AcDbMText
 10
1382.5
 20
1805.0
 30
0.0
 40
30.0
 41
0.0
 71
     5
 72
     1
  1
\A1;H
 11
0.0000000000000001
 21
1.0
 31
0.0
 73
     1
 44
1.0
  0
POINT
  5
2E6
330
2DF
100
AcDbEntity
  8
DEFPOINTS
  6
ByBlock
 62
     0
100
AcDbPoint
 10
1485.0
 20
2105.0
 30
0.0
  0
POINT
  5
2E7
330
2DF
100
AcDbEntity
  8
DEFPOINTS
  6
ByBlock
 62
     0
100
AcDbPoint
 10
1520.0
 20
1505.0
 30
0.0
  0
POINT
  5
2E8
330
2DF
100
AcDbEntity
  8
DEFPOINTS
  6
ByBlock
 62
     0
100
AcDbPoint
 10
1400.0
 20
1505.0
 30
0.0
  0
ENDBLK
  5
2EA
330
2DF
100
AcDbEntity
  8
0
100
AcDbBlockEnd
  0
BLOCK
  5
2F5
330
2EB
100
AcDbEntity
  8
0
100
AcDbBlockBegin
  2
*D2
 70
     1
 10
0.0
 20
0.0
 30
0.0
  3
*D2
  1

  0
LINE
  5
2EC
330
2EB
100
AcDbEntity
  8
0
  6
ByBlock
 62
     7
100
AcDbLine
 10
1095.0
 20
1328.75
 30
0.0
 11
1095.0
 21
1197.5
 31
0.0
  0
LINE
  5
2ED
330
2EB
100
AcDbEntity
  8
0
  6
ByBlock
 62
     7
100
AcDbLine
 10
1645.0
 20
1328.75
 30
0.0
 11
1645.0
 21
1197.5
 31
0.0
  0
LINE
  5
2EE
330
2EB
100
AcDbEntity
  8
0
  6
ByBlock
 62
     7
100
AcDbLine
 10
1120.0
 20
1210.0
 30
0.0
 11
1620.0
 21
1210.0
 31
0.0
  0
SOLID
  5
2EF
330
2EB
100
AcDbEntity
  8
0
  6
ByBlock
 62
     7
100
AcDbTrace
 10
1120.0
 20
1214.166666666667
 30
0.0
 11
1120.0
 21
1205.833333333333
 31
0.0
 12
1095.0
 22
1210.0
 32
0.0
 13
1095.0
 23
1210.0
 33
0.0
  0
SOLID
  5
2F0
330
2EB
100
AcDbEntity
  8
0
  6
ByBlock
 62
     7
100
AcDbTrace
 10
1620.0
 20
1214.166666666667
 30
0.0
 11
1620.0
 21
1205.833333333333
 31
0.0
 12
1645.0
 22
1210.0
 32
0.0
 13
1645.0
 23
1210.0
 33
0.0
  0
MTEXT
  5
2F1
330
2EB
100
AcDbEntity
  8
0
  6
ByBlock
 62
     7
100
AcDbMText
 10
1370.0
 20
1227.5
 30
0.0
 40
30.0
 41
0.0
 71
     5
 72
     1
  1
\A1;550
 73
     1
 44
1.0
  0
POINT
  5
2F2
330
2EB
100
AcDbEntity
  8
DEFPOINTS
  6
ByBlock
 62
     0
100
AcDbPoint
 10
1095.0
 20
1335.0
 30
0.0
  0
POINT
  5
2F3
330
2EB
100
AcDbEntity
  8
DEFPOINTS
  6
ByBlock
 62
     0
100
AcDbPoint
 10
1645.0
 20
1335.0
 30
0.0
  0
POINT
  5
2F4
330
2EB
100
AcDbEntity
  8
DEFPOINTS
  6
ByBlock
 62
     0
100
AcDbPoint
 10
1645.0
 20
1210.0
 30
0.0
  0
ENDBLK
  5
2F6
330
2EB
100
AcDbEntity
  8
0
100
AcDbBlockEnd
  0
BLOCK
  5
301
330
2F7
100
AcDbEntity
  8
0
100
AcDbBlockBegin
  2
*D3
 70
     1
 10
0.0
 20
0.0
 30
0.0
  3
*D3
  1

  0
LINE
  5
2F8
330
2F7
100
AcDbEntity
  8
0
  6
ByBlock
 62
     7
100
AcDbLine
 10
1070.0
 20
1328.75
 30
0.0
 11
1070.0
 21
1117.5
 31
0.0
  0
LINE
  5
2F9
330
2F7
100
AcDbEntity
  8
0
  6
ByBlock
 62
     7
100
AcDbLine
 10
1670.0
 20
1328.75
 30
0.0
 11
1670.0
 21
1117.5
 31
0.0
  0
LINE
  5
2FA
330
2F7
100
AcDbEntity
  8
0
  6
ByBlock
 62
     7
100
AcDbLine
 10
1095.0
 20
1130.0
 30
0.0
 11
1645.0
 21
1130.0
 31
0.0
  0
SOLID
  5
2FB
330
2F7
100
AcDbEntity
  8
0
  6
ByBlock
 62
     7
100
AcDbTrace
 10
1095.0
 20
1134.166666666666
 30
0.0
 11
1095.0
 21
1125.833333333333
 31
0.0
 12
1070.0
 22
1130.0
 32
0.0
 13
1070.0
 23
1130.0
 33
0.0
  0
SOLID
  5
2FC
330
2F7
100
AcDbEntity
  8
0
  6
ByBlock
 62
     7
100
AcDbTrace
 10
1645.0
 20
1134.166666666666
 30
0.0
 11
1645.0
 21
1125.833333333333
 31
0.0
 12
1670.0
 22
1130.0
 32
0.0
 13
1670.0
 23
1130.0
 33
0.0
  0
MTEXT
  5
2FD
330
2F7
100
AcDbEntity
  8
0
  6
ByBlock
 62
     7
100
AcDbMText
 10
1370.0
 20
1147.5
 30
0.0
 40
30.0
 41
0.0
 71
     5
 72
     1
  1
\A1;600
 73
     1
 44
1.0
  0
POINT
  5
2FE
330
2F7
100
AcDbEntity
  8
DEFPOINTS
  6
ByBlock
 62
     0
100
AcDbPoint
 10
1070.0
 20
1335.0
 30
0.0
  0
POINT
  5
2FF
330
2F7
100
AcDbEntity
  8
DEFPOINTS
  6
ByBlock
 62
     0
100
AcDbPoint
 10
1670.0
 20
1335.0
 30
0.0
  0
POINT
  5
300
330
2F7
100
AcDbEntity
  8
DEFPOINTS
  6
ByBlock
 62
     0
100
AcDbPoint
 10
1670.0
 20
1130.0
 30
0.0
  0
ENDBLK
  5
302
330
2F7
100
AcDbEntity
  8
0
100
AcDbBlockEnd
  0
BLOCK
  5
30D
330
303
100
AcDbEntity
  8
0
100
AcDbBlockBegin
  2
*D4
 70
     1
 10
0.0
 20
0.0
 30
0.0
  3
*D4
  1

  0
LINE
  5
304
330
303
100
AcDbEntity
  8
0
  6
ByBlock
 62
     7
100
AcDbLine
 10
1108.75
 20
2200.0
 30
0.0
 11
947.4999999999999
 21
2200.0
 31
0.0
  0
LINE
  5
305
330
303
100
AcDbEntity
  8
0
  6
ByBlock
 62
     7
100
AcDbLine
 10
1128.75
 20
1900.0
 30
0.0
 11
947.4999999999999
 21
1900.0
 31
0.0
  0
LINE
  5
306
330
303
100
AcDbEntity
  8
0
  6
ByBlock
 62
     7
100
AcDbLine
 10
960.0
 20
2175.0
 30
0.0
 11
960.0
 21
1925.0
 31
0.0
  0
SOLID
  5
307
330
303
100
AcDbEntity
  8
0
  6
ByBlock
 62
     7
100
AcDbTrace
 10
955.8333333333333
 20
2175.0
 30
0.0
 11
964.1666666666665
 21
2175.0
 31
0.0
 12
960.0
 22
2200.0
 32
0.0
 13
960.0
 23
2200.0
 33
0.0
  0
SOLID
  5
308
330
303
100
AcDbEntity
  8
0
  6
ByBlock
 62
     7
100
AcDbTrace
 10
955.8333333333333
 20
1925.0
 30
0.0
 11
964.1666666666665
 21
1925.0
 31
0.0
 12
960.0
 22
1900.0
 32
0.0
 13
960.0
 23
1900.0
 33
0.0
  0
MTEXT
  5
309
330
303
100
AcDbEntity
  8
0
  6
ByBlock
 62
     7
100
AcDbMText
 10
942.5
 20
2050.0
 30
0.0
 40
30.0
 41
0.0
 71
     5
 72
     1
  1
\A1;300
 11
0.0000000000000001
 21
1.0
 31
0.0
 73
     1
 44
1.0
  0
POINT
  5
30A
330
303
100
AcDbEntity
  8
DEFPOINTS
  6
ByBlock
 62
     0
100
AcDbPoint
 10
1115.0
 20
2200.0
 30
0.0
  0
POINT
  5
30B
330
303
100
AcDbEntity
  8
DEFPOINTS
  6
ByBlock
 62
     0
100
AcDbPoint
 10
1135.0
 20
1900.0
 30
0.0
  0
POINT
  5
30C
330
303
100
AcDbEntity
  8
DEFPOINTS
  6
ByBlock
 62
     0
100
AcDbPoint
 10
960.0
 20
1900.0
 30
0.0
  0
ENDBLK
  5
30E
330
303
100
AcDbEntity
  8
0
100
AcDbBlockEnd
  0
BLOCK
  5
319
330
30F
100
AcDbEntity
  8
0
100
AcDbBlockBegin
  2
*D5
 70
     1
 10
0.0
 20
0.0
 30
0.0
  3
*D5
  1

  0
LINE
  5
310
330
30F
100
AcDbEntity
  8
0
  6
ByBlock
 62
     7
100
AcDbLine
 10
1135.0
 20
1906.25
 30
0.0
 11
1135.0
 21
1942.5
 31
0.0
  0
LINE
  5
311
330
30F
100
AcDbEntity
  8
0
  6
ByBlock
 62
     7
100
AcDbLine
 10
1220.0
 20
1793.75
 30
0.0
 11
1220.0
 21
1942.5
 31
0.0
  0
LINE
  5
312
330
30F
100
AcDbEntity
  8
0
  6
ByBlock
 62
     7
100
AcDbLine
 10
1160.0
 20
1930.0
 30
0.0
 11
1195.0
 21
1930.0
 31
0.0
  0
SOLID
  5
313
330
30F
100
AcDbEntity
  8
0
  6
ByBlock
 62
     7
100
AcDbTrace
 10
1160.0
 20
1934.166666666667
 30
0.0
 11
1160.0
 21
1925.833333333333
 31
0.0
 12
1135.0
 22
1930.0
 32
0.0
 13
1135.0
 23
1930.0
 33
0.0
  0
SOLID
  5
314
330
30F
100
AcDbEntity
  8
0
  6
ByBlock
 62
     7
100
AcDbTrace
 10
1195.0
 20
1934.166666666667
 30
0.0
 11
1195.0
 21
1925.833333333333
 31
0.0
 12
1220.0
 22
1930.0
 32
0.0
 13
1220.0
 23
1930.0
 33
0.0
  0
MTEXT
  5
315
330
30F
100
AcDbEntity
  8
0
  6
ByBlock
 62
     7
100
AcDbMText
 10
1177.5
 20
1947.5
 30
0.0
 40
30.0
 41
0.0
 71
     5
 72
     1
  1
\A1;ｅ
 73
     1
 44
1.0
  0
POINT
  5
316
330
30F
100
AcDbEntity
  8
DEFPOINTS
  6
ByBlock
 62
     0
100
AcDbPoint
 10
1135.0
 20
1900.0
 30
0.0
  0
POINT
  5
317
330
30F
100
AcDbEntity
  8
DEFPOINTS
  6
ByBlock
 62
     0
100
AcDbPoint
 10
1220.0
 20
1787.5
 30
0.0
  0
POINT
  5
318
330
30F
100
AcDbEntity
  8
DEFPOINTS
  6
ByBlock
 62
     0
100
AcDbPoint
 10
1220.0
 20
1930.0
 30
0.0
  0
ENDBLK
  5
31A
330
30F
100
AcDbEntity
  8
0
100
AcDbBlockEnd
  0
BLOCK
  5
324
330
31B
100
AcDbEntity
  8
0
100
AcDbBlockBegin
  2
*D6
 70
     1
 10
0.0
 20
0.0
 30
0.0
  3
*D6
  1

  0
LINE
  5
31C
330
31B
100
AcDbEntity
  8
0
  6
ByBlock
 62
     7
100
AcDbLine
 10
1520.0
 20
1793.75
 30
0.0
 11
1520.0
 21
1942.5
 31
0.0
  0
LINE
  5
31D
330
31B
100
AcDbEntity
  8
0
  6
ByBlock
 62
     7
100
AcDbLine
 10
1245.0
 20
1930.0
 30
0.0
 11
1495.0
 21
1930.0
 31
0.0
  0
SOLID
  5
31E
330
31B
100
AcDbEntity
  8
0
  6
ByBlock
 62
     7
100
AcDbTrace
 10
1245.0
 20
1934.166666666667
 30
0.0
 11
1245.0
 21
1925.833333333333
 31
0.0
 12
1220.0
 22
1930.0
 32
0.0
 13
1220.0
 23
1930.0
 33
0.0
  0
SOLID
  5
31F
330
31B
100
AcDbEntity
  8
0
  6
ByBlock
 62
     7
100
AcDbTrace
 10
1495.0
 20
1934.166666666667
 30
0.0
 11
1495.0
 21
1925.833333333333
 31
0.0
 12
1520.0
 22
1930.0
 32
0.0
 13
1520.0
 23
1930.0
 33
0.0
  0
MTEXT
  5
320
330
31B
100
AcDbEntity
  8
0
  6
ByBlock
 62
     7
100
AcDbMText
 10
1370.0
 20
1947.5
 30
0.0
 40
30.0
 41
0.0
 71
     5
 72
     1
  1
\A1;B
 73
     1
 44
1.0
  0
POINT
  5
321
330
31B
100
AcDbEntity
  8
DEFPOINTS
  6
ByBlock
 62
     0
100
AcDbPoint
 10
1220.0
 20
1787.5
 30
0.0
  0
POINT
  5
322
330
31B
100
AcDbEntity
  8
DEFPOINTS
  6
ByBlock
 62
     0
100
AcDbPoint
 10
1520.0
 20
1787.5
 30
0.0
  0
POINT
  5
323
330
31B
100
AcDbEntity
  8
DEFPOINTS
  6
ByBlock
 62
     0
100
AcDbPoint
 10
1520.0
 20
1930.0
 30
0.0
  0
ENDBLK
  5
325
330
31B
100
AcDbEntity
  8
0
100
AcDbBlockEnd
  0
BLOCK
  5
32F
330
326
100
AcDbEntity
  8
0
100
AcDbBlockBegin
  2
*D7
 70
     1
 10
0.0
 20
0.0
 30
0.0
  3
*D7
  1

  0
LINE
  5
327
330
326
100
AcDbEntity
  8
0
  6
ByBlock
 62
     7
100
AcDbLine
 10
1605.0
 20
1906.25
 30
0.0
 11
1605.0
 21
1942.5
 31
0.0
  0
LINE
  5
328
330
326
100
AcDbEntity
  8
0
  6
ByBlock
 62
     7
100
AcDbLine
 10
1545.0
 20
1930.0
 30
0.0
 11
1580.0
 21
1930.0
 31
0.0
  0
SOLID
  5
329
330
326
100
AcDbEntity
  8
0
  6
ByBlock
 62
     7
100
AcDbTrace
 10
1545.0
 20
1934.166666666667
 30
0.0
 11
1545.0
 21
1925.833333333333
 31
0.0
 12
1520.0
 22
1930.0
 32
0.0
 13
1520.0
 23
1930.0
 33
0.0
  0
SOLID
  5
32A
330
326
100
AcDbEntity
  8
0
  6
ByBlock
 62
     7
100
AcDbTrace
 10
1580.0
 20
1934.166666666667
 30
0.0
 11
1580.0
 21
1925.833333333333
 31
0.0
 12
1605.0
 22
1930.0
 32
0.0
 13
1605.0
 23
1930.0
 33
0.0
  0
MTEXT
  5
32B
330
326
100
AcDbEntity
  8
0
  6
ByBlock
 62
     7
100
AcDbMText
 10
1562.5
 20
1947.5
 30
0.0
 40
30.0
 41
0.0
 71
     5
 72
     1
  1
\A1;ｅ
 73
     1
 44
1.0
  0
POINT
  5
32C
330
326
100
AcDbEntity
  8
DEFPOINTS
  6
ByBlock
 62
     0
100
AcDbPoint
 10
1520.0
 20
1787.5
 30
0.0
  0
POINT
  5
32D
330
326
100
AcDbEntity
  8
DEFPOINTS
  6
ByBlock
 62
     0
100
AcDbPoint
 10
1605.0
 20
1900.0
 30
0.0
  0
POINT
  5
32E
330
326
100
AcDbEntity
  8
DEFPOINTS
  6
ByBlock
 62
     0
100
AcDbPoint
 10
1605.0
 20
1930.0
 30
0.0
  0
ENDBLK
  5
330
330
326
100
AcDbEntity
  8
0
100
AcDbBlockEnd
  0
BLOCK
  5
33B
330
331
100
AcDbEntity
  8
0
100
AcDbBlockBegin
  2
*D8
 70
     1
 10
0.0
 20
0.0
 30
0.0
  3
*D8
  1

  0
LINE
  5
332
330
331
100
AcDbEntity
  8
0
  6
ByBlock
 62
     7
100
AcDbLine
 10
1088.75
 20
1505.0
 30
0.0
 11
937.5
 21
1505.0
 31
0.0
  0
LINE
  5
333
330
331
100
AcDbEntity
  8
0
  6
ByBlock
 62
     7
100
AcDbLine
 10
1063.75
 20
1435.0
 30
0.0
 11
937.5
 21
1435.0
 31
0.0
  0
LINE
  5
334
330
331
100
AcDbEntity
  8
0
  6
ByBlock
 62
     7
100
AcDbLine
 10
950.0
 20
1480.0
 30
0.0
 11
950.0
 21
1460.0
 31
0.0
  0
SOLID
  5
335
330
331
100
AcDbEntity
  8
0
  6
ByBlock
 62
     7
100
AcDbTrace
 10
945.8333333333333
 20
1480.0
 30
0.0
 11
954.1666666666666
 21
1480.0
 31
0.0
 12
950.0
 22
1505.0
 32
0.0
 13
950.0
 23
1505.0
 33
0.0
  0
SOLID
  5
336
330
331
100
AcDbEntity
  8
0
  6
ByBlock
 62
     7
100
AcDbTrace
 10
945.8333333333333
 20
1460.0
 30
0.0
 11
954.1666666666666
 21
1460.0
 31
0.0
 12
950.0
 22
1435.0
 32
0.0
 13
950.0
 23
1435.0
 33
0.0
  0
MTEXT
  5
337
330
331
100
AcDbEntity
  8
0
  6
ByBlock
 62
     7
100
AcDbMText
 10
932.5000000000001
 20
1470.0
 30
0.0
 40
30.0
 41
0.0
 71
     5
 72
     1
  1
\A1;70
 11
0.0000000000000001
 21
1.0
 31
0.0
 73
     1
 44
1.0
  0
POINT
  5
338
330
331
100
AcDbEntity
  8
DEFPOINTS
  6
ByBlock
 62
     0
100
AcDbPoint
 10
1095.0
 20
1505.0
 30
0.0
  0
POINT
  5
339
330
331
100
AcDbEntity
  8
DEFPOINTS
  6
ByBlock
 62
     0
100
AcDbPoint
 10
1070.0
 20
1435.0
 30
0.0
  0
POINT
  5
33A
330
331
100
AcDbEntity
  8
DEFPOINTS
  6
ByBlock
 62
     0
100
AcDbPoint
 10
950.0
 20
1435.0
 30
0.0
  0
ENDBLK
  5
33C
330
331
100
AcDbEntity
  8
0
100
AcDbBlockEnd
  0
BLOCK
  5
346
330
33D
100
AcDbEntity
  8
0
100
AcDbBlockBegin
  2
*D9
 70
     1
 10
0.0
 20
0.0
 30
0.0
  3
*D9
  1

  0
LINE
  5
33E
330
33D
100
AcDbEntity
  8
0
  6
ByBlock
 62
     7
100
AcDbLine
 10
1063.75
 20
1335.0
 30
0.0
 11
937.5
 21
1335.0
 31
0.0
  0
LINE
  5
33F
330
33D
100
AcDbEntity
  8
0
  6
ByBlock
 62
     7
100
AcDbLine
 10
950.0
 20
1410.0
 30
0.0
 11
950.0
 21
1360.0
 31
0.0
  0
SOLID
  5
340
330
33D
100
AcDbEntity
  8
0
  6
ByBlock
 62
     7
100
AcDbTrace
 10
945.8333333333333
 20
1410.0
 30
0.0
 11
954.1666666666666
 21
1410.0
 31
0.0
 12
950.0
 22
1435.0
 32
0.0
 13
950.0
 23
1435.0
 33
0.0
  0
SOLID
  5
341
330
33D
100
AcDbEntity
  8
0
  6
ByBlock
 62
     7
100
AcDbTrace
 10
945.8333333333333
 20
1360.0
 30
0.0
 11
954.1666666666666
 21
1360.0
 31
0.0
 12
950.0
 22
1335.0
 32
0.0
 13
950.0
 23
1335.0
 33
0.0
  0
MTEXT
  5
342
330
33D
100
AcDbEntity
  8
0
  6
ByBlock
 62
     7
100
AcDbMText
 10
932.5000000000001
 20
1385.0
 30
0.0
 40
30.0
 41
0.0
 71
     5
 72
     1
  1
\A1;100
 11
0.0000000000000001
 21
1.0
 31
0.0
 73
     1
 44
1.0
  0
POINT
  5
343
330
33D
100
AcDbEntity
  8
DEFPOINTS
  6
ByBlock
 62
     0
100
AcDbPoint
 10
1070.0
 20
1435.0
 30
0.0
  0
POINT
  5
344
330
33D
100
AcDbEntity
  8
DEFPOINTS
  6
ByBlock
 62
     0
100
AcDbPoint
 10
1070.0
 20
1335.0
 30
0.0
  0
POINT
  5
345
330
33D
100
AcDbEntity
  8
DEFPOINTS
  6
ByBlock
 62
     0
100
AcDbPoint
 10
950.0
 20
1335.0
 30
0.0
  0
ENDBLK
  5
347
330
33D
100
AcDbEntity
  8
0
100
AcDbBlockEnd
  0
BLOCK
  5
351
330
348
100
AcDbEntity
  8
0
100
AcDbBlockBegin
  2
*D10
 70
     1
 10
0.0
 20
0.0
 30
0.0
  3
*D10
  1

  0
LINE
  5
349
330
348
100
AcDbEntity
  8
0
  6
ByBlock
 62
     7
100
AcDbLine
 10
1363.75
 20
1585.0
 30
0.0
 11
1307.5
 21
1585.0
 31
0.0
  0
LINE
  5
34A
330
348
100
AcDbEntity
  8
0
  6
ByBlock
 62
     7
100
AcDbLine
 10
1320.0
 20
2080.0
 30
0.0
 11
1320.0
 21
1610.0
 31
0.0
  0
SOLID
  5
34B
330
348
100
AcDbEntity
  8
0
  6
ByBlock
 62
     7
100
AcDbTrace
 10
1315.833333333333
 20
2080.0
 30
0.0
 11
1324.166666666666
 21
2080.0
 31
0.0
 12
1320.0
 22
2105.0
 32
0.0
 13
1320.0
 23
2105.0
 33
0.0
  0
SOLID
  5
34C
330
348
100
AcDbEntity
  8
0
  6
ByBlock
 62
     7
100
AcDbTrace
 10
1315.833333333333
 20
1610.0
 30
0.0
 11
1324.166666666666
 21
1610.0
 31
0.0
 12
1320.0
 22
1585.0
 32
0.0
 13
1320.0
 23
1585.0
 33
0.0
  0
MTEXT
  5
34D
330
348
100
AcDbEntity
  8
0
  6
ByBlock
 62
     7
100
AcDbMText
 10
1302.5
 20
1845.0
 30
0.0
 40
30.0
 41
0.0
 71
     5
 72
     1
  1
\A1;H－80
 11
0.0000000000000001
 21
1.0
 31
0.0
 73
     1
 44
1.0
  0
POINT
  5
34E
330
348
100
AcDbEntity
  8
DEFPOINTS
  6
ByBlock
 62
     0
100
AcDbPoint
 10
1370.0
 20
2105.0
 30
0.0
  0
POINT
  5
34F
330
348
100
AcDbEntity
  8
DEFPOINTS
  6
ByBlock
 62
     0
100
AcDbPoint
 10
1370.0
 20
1585.0
 30
0.0
  0
POINT
  5
350
330
348
100
AcDbEntity
  8
DEFPOINTS
  6
ByBlock
 62
     0
100
AcDbPoint
 10
1320.0
 20
1585.0
 30
0.0
  0
ENDBLK
  5
352
330
348
100
AcDbEntity
  8
0
100
AcDbBlockEnd
  0
BLOCK
  5
35C
330
353
100
AcDbEntity
  8
0
100
AcDbBlockBegin
  2
*D11
 70
     1
 10
0.0
 20
0.0
 30
0.0
  3
*D11
  1

  0
LINE
  5
354
330
353
100
AcDbEntity
  8
0
  6
ByBlock
 62
     7
100
AcDbLine
 10
1363.75
 20
1505.0
 30
0.0
 11
1307.5
 21
1505.0
 31
0.0
  0
LINE
  5
355
330
353
100
AcDbEntity
  8
0
  6
ByBlock
 62
     7
100
AcDbLine
 10
1320.0
 20
1560.0
 30
0.0
 11
1320.0
 21
1530.0
 31
0.0
  0
SOLID
  5
356
330
353
100
AcDbEntity
  8
0
  6
ByBlock
 62
     7
100
AcDbTrace
 10
1315.833333333333
 20
1560.0
 30
0.0
 11
1324.166666666666
 21
1560.0
 31
0.0
 12
1320.0
 22
1585.0
 32
0.0
 13
1320.0
 23
1585.0
 33
0.0
  0
SOLID
  5
357
330
353
100
AcDbEntity
  8
0
  6
ByBlock
 62
     7
100
AcDbTrace
 10
1315.833333333333
 20
1530.0
 30
0.0
 11
1324.166666666666
 21
1530.0
 31
0.0
 12
1320.0
 22
1505.0
 32
0.0
 13
1320.0
 23
1505.0
 33
0.0
  0
MTEXT
  5
358
330
353
100
AcDbEntity
  8
0
  6
ByBlock
 62
     7
100
AcDbMText
 10
1302.5
 20
1545.0
 30
0.0
 40
30.0
 41
0.0
 71
     5
 72
     1
  1
\A1;80
 11
0.0000000000000001
 21
1.0
 31
0.0
 73
     1
 44
1.0
  0
POINT
  5
359
330
353
100
AcDbEntity
  8
DEFPOINTS
  6
ByBlock
 62
     0
100
AcDbPoint
 10
1370.0
 20
1585.0
 30
0.0
  0
POINT
  5
35A
330
353
100
AcDbEntity
  8
DEFPOINTS
  6
ByBlock
 62
     0
100
AcDbPoint
 10
1370.0
 20
1505.0
 30
0.0
  0
POINT
  5
35B
330
353
100
AcDbEntity
  8
DEFPOINTS
  6
ByBlock
 62
     0
100
AcDbPoint
 10
1320.0
 20
1505.0
 30
0.0
  0
ENDBLK
  5
35D
330
353
100
AcDbEntity
  8
0
100
AcDbBlockEnd
  0
BLOCK
  5
368
330
35E
100
AcDbEntity
  8
0
100
AcDbBlockBegin
  2
*D12
 70
     1
 10
0.0
 20
0.0
 30
0.0
  3
*D12
  1

  0
LINE
  5
35F
330
35E
100
AcDbEntity
  8
0
  6
ByBlock
 62
     7
100
AcDbLine
 10
1035.0
 20
1511.25
 30
0.0
 11
1035.0
 21
1772.5
 31
0.0
  0
LINE
  5
360
330
35E
100
AcDbEntity
  8
0
  6
ByBlock
 62
     7
100
AcDbLine
 10
1135.0
 20
1511.25
 30
0.0
 11
1135.0
 21
1772.5
 31
0.0
  0
LINE
  5
361
330
35E
100
AcDbEntity
  8
0
  6
ByBlock
 62
     7
100
AcDbLine
 10
1060.0
 20
1760.0
 30
0.0
 11
1110.0
 21
1760.0
 31
0.0
  0
SOLID
  5
362
330
35E
100
AcDbEntity
  8
0
  6
ByBlock
 62
     7
100
AcDbTrace
 10
1060.0
 20
1764.166666666667
 30
0.0
 11
1060.0
 21
1755.833333333333
 31
0.0
 12
1035.0
 22
1760.0
 32
0.0
 13
1035.0
 23
1760.0
 33
0.0
  0
SOLID
  5
363
330
35E
100
AcDbEntity
  8
0
  6
ByBlock
 62
     7
100
AcDbTrace
 10
1110.0
 20
1764.166666666667
 30
0.0
 11
1110.0
 21
1755.833333333333
 31
0.0
 12
1135.0
 22
1760.0
 32
0.0
 13
1135.0
 23
1760.0
 33
0.0
  0
MTEXT
  5
364
330
35E
100
AcDbEntity
  8
0
  6
ByBlock
 62
     7
100
AcDbMText
 10
1085.0
 20
1777.5
 30
0.0
 40
30.0
 41
0.0
 71
     5
 72
     1
  1
\A1;100
 73
     1
 44
1.0
  0
POINT
  5
365
330
35E
100
AcDbEntity
  8
DEFPOINTS
  6
ByBlock
 62
     0
100
AcDbPoint
 10
1035.0
 20
1505.0
 30
0.0
  0
POINT
  5
366
330
35E
100
AcDbEntity
  8
DEFPOINTS
  6
ByBlock
 62
     0
100
AcDbPoint
 10
1135.0
 20
1505.0
 30
0.0
  0
POINT
  5
367
330
35E
100
AcDbEntity
  8
DEFPOINTS
  6
ByBlock
 62
     0
100
AcDbPoint
 10
1135.0
 20
1760.0
 30
0.0
  0
ENDBLK
  5
369
330
35E
100
AcDbEntity
  8
0
100
AcDbBlockEnd
  0
BLOCK
  5
3F5
330
36C
100
AcDbEntity
  8
0
100
AcDbBlockBegin
  2
A$C75D85E54
 70
     0
 10
0.0
 20
0.0
 30
0.0
  3
A$C75D85E54
  1

  0
LINE
  5
36D
330
36C
100
AcDbEntity
  8
KEIKAKU
 62
     2
100
AcDbLine
 10
980.0000002818743
 20
882.5000040224113
 30
0.0
 11
1490.000000281874
 21
882.5000040224113
 31
0.0
  0
LINE
  5
36E
330
36C
100
AcDbEntity
  8
KEIKAKU
 62
     2
100
AcDbLine
 10
1000.000000281874
 20
982.5000040224113
 30
0.0
 11
1490.000000281874
 21
982.5000040224113
 31
0.0
  0
LINE
  5
36F
330
36C
100
AcDbEntity
  8
KEIKAKU
 62
     2
100
AcDbLine
 10
1000.000000281874
 20
1082.500004022411
 30
0.0
 11
1490.000000281874
 21
1082.500004022411
 31
0.0
  0
MTEXT
  5
370
102
{ACAD_REACTORS
330
371
102
}
330
36C
100
AcDbEntity
  8
KEIKAKU
 62
     7
100
AcDbMText
 10
1160.574378761648
 20
331.1331966929429
 30
0.0
 40
30.0
 41
0.0
 71
     4
 72
     1
  1
\A1;ｲﾝﾊﾞｰﾄｺﾝｸﾘｰﾄ
 73
     1
 44
1.0
  0
LEADER
  5
371
330
36C
100
AcDbEntity
  8
KEIKAKU
 62
     7
100
AcDbLeader
  3
STANDARD
 73
     0
 74
     0
 75
     1
 40
30.37913385826775
 41
244.3045275590551
 76
     3
 10
855.7870114666075
 20
417.7610145783947
 30
0.0
 10
1133.074378761648
 20
313.4436297638091
 30
0.0
 10
1158.074378761648
 20
313.4436297638091
 30
0.0
340
370
1001
ACAD
1000
DSTYLE
1002
{
1070
    78
1070
     8
1070
   288
1070
     1
1070
   140
1040
3.0
1070
    74
1070
     0
1070
   172
1070
     1
1070
    73
1070
     0
1070
   272
1070
     0
1070
    77
1070
     1
1070
    40
1040
10.0
1070
   147
1040
0.25
1070
   287
1070
     5
1070
    42
1040
0.625
1070
    44
1040
1.25
1070
    43
1040
3.75
1070
   271
1070
     0
1070
   178
1070
     7
1070
   177
1070
     7
1070
   176
1070
     7
1070
   141
1040
2.5
1070
    41
1040
2.5
1070
   273
1070
     8
1070
   274
1070
     4
1070
   143
1040
0.0394
1070
   171
1070
     4
1002
}
  0
DIMENSION
  5
372
330
36C
100
AcDbEntity
  8
KEIKAKU
 62
     2
100
AcDbDimension
  2
*D8
 10
325.0000002818743
 20
317.5000040224113
 30
0.0
 11
307.5000002818742
 21
352.5000040224113
 31
0.0
 12
-624.9999997181257
 22
-1117.499995977588
 32
0.0
 71
     5
 42
-1.0
  3
STANDARD
100
AcDbAlignedDimension
 13
470.0000002818742
 23
387.5000040224113
 33
0.0
 14
445.0000002818742
 24
317.5000040224113
 34
0.0
 50
90.0
100
AcDbRotatedDimension
1001
ACAD
1000
DSTYLE
1002
{
1070
    40
1040
10.0
1070
    41
1040
2.5
1070
    42
1040
0.625
1070
    43
1040
3.75
1070
    44
1040
1.25
1070
    73
1070
     0
1070
    74
1070
     0
1070
    77
1070
     1
1070
    78
1070
     8
1070
   140
1040
3.0
1070
   141
1040
2.5
1070
   143
1040
0.0394
1070
   147
1040
0.25
1070
   171
1070
     4
1070
   172
1070
     1
1070
   176
1070
     7
1070
   177
1070
     7
1070
   178
1070
     7
1070
   271
1070
     0
1070
   272
1070
     0
1070
   273
1070
     8
1070
   274
1070
     4
1070
   279
1070
     2
1070
   288
1070
     1
1002
}
  0
LINE
  5
373
330
36C
100
AcDbEntity
  8
KEIKAKU
 62
     2
100
AcDbLine
 10
470.0000002818742
 20
387.5000040224113
 30
0.0
 11
470.0000002818742
 21
317.5000040224113
 31
0.0
  0
LINE
  5
374
330
36C
100
AcDbEntity
  8
KEIKAKU
 62
     2
100
AcDbLine
 10
1020.000000281874
 20
387.5000040224113
 30
0.0
 11
1020.000000281874
 21
317.5000040224113
 31
0.0
  0
DIMENSION
  5
375
330
36C
100
AcDbEntity
  8
KEIKAKU
 62
     2
100
AcDbDimension
  2
*D3
 10
1045.000000281874
 20
12.5000040224113
 30
0.0
 11
745.0000002818742
 21
30.00000402241131
 31
0.0
 12
-624.9999997181257
 22
-1117.499995977588
 32
0.0
 71
     5
 42
-1.0
  3
STANDARD
100
AcDbAlignedDimension
 13
445.0000002818742
 23
217.5000040224113
 33
0.0
 14
1045.000000281874
 24
217.5000040224113
 34
0.0
100
AcDbRotatedDimension
1001
ACAD
1000
DSTYLE
1002
{
1070
    40
1040
10.0
1070
    41
1040
2.5
1070
    42
1040
0.625
1070
    43
1040
3.75
1070
    44
1040
1.25
1070
    73
1070
     0
1070
    74
1070
     0
1070
    77
1070
     1
1070
    78
1070
     8
1070
   140
1040
3.0
1070
   141
1040
2.5
1070
   143
1040
0.0394
1070
   147
1040
0.25
1070
   171
1070
     4
1070
   172
1070
     1
1070
   176
1070
     7
1070
   177
1070
     7
1070
   178
1070
     7
1070
   271
1070
     0
1070
   272
1070
     0
1070
   273
1070
     8
1070
   274
1070
     4
1070
   279
1070
     2
1070
   288
1070
     1
1002
}
  0
DIMENSION
  5
376
330
36C
100
AcDbEntity
  8
KEIKAKU
 62
     2
100
AcDbDimension
  2
*D2
 10
1020.000000281874
 20
92.50000402241131
 30
0.0
 11
745.0000002818742
 21
110.0000040224113
 31
0.0
 12
-624.9999997181257
 22
-1117.499995977588
 32
0.0
 71
     5
 42
-1.0
  3
STANDARD
100
AcDbAlignedDimension
 13
470.0000002818742
 23
217.5000040224113
 33
0.0
 14
1020.000000281874
 24
217.5000040224113
 34
0.0
100
AcDbRotatedDimension
1001
ACAD
1000
DSTYLE
1002
{
1070
    40
1040
10.0
1070
    41
1040
2.5
1070
    42
1040
0.625
1070
    43
1040
3.75
1070
    44
1040
1.25
1070
    73
1070
     0
1070
    74
1070
     0
1070
    77
1070
     1
1070
    78
1070
     8
1070
   140
1040
3.0
1070
   141
1040
2.5
1070
   143
1040
0.0394
1070
   147
1040
0.25
1070
   171
1070
     4
1070
   172
1070
     1
1070
   176
1070
     7
1070
   177
1070
     7
1070
   178
1070
     7
1070
   271
1070
     0
1070
   272
1070
     0
1070
   273
1070
     8
1070
   274
1070
     4
1070
   279
1070
     2
1070
   288
1070
     1
1002
}
  0
LINE
  5
377
330
36C
100
AcDbEntity
  8
KEIKAKU
 62
     2
100
AcDbLine
 10
445.0000002818742
 20
217.5000040224113
 30
0.0
 11
1045.000000281874
 21
217.5000040224113
 31
0.0
  0
LINE
  5
378
330
36C
100
AcDbEntity
  8
KEIKAKU
 62
     2
100
AcDbLine
 10
445.0000002818742
 20
317.5000040224113
 30
0.0
 11
1045.000000281874
 21
317.5000040224113
 31
0.0
  0
MTEXT
  5
379
102
{ACAD_REACTORS
330
37A
102
}
330
36C
100
AcDbEntity
  8
KEIKAKU
 62
     7
100
AcDbMText
 10
382.5116235181558
 20
120.6925149917933
 30
0.0
 40
30.0
 41
0.0
 71
     6
 72
     1
  1
\A1;切込砕石
 73
     1
 44
1.0
  0
LEADER
  5
37A
330
36C
100
AcDbEntity
  8
KEIKAKU
 62
     7
100
AcDbLeader
  3
STANDARD
 73
     0
 75
     1
 40
30.0
 41
76.30452755905512
 76
     3
 10
533.6775499736758
 20
259.3115617252497
 30
0.0
 10
410.0116235181558
 20
103.1925149917933
 30
0.0
 10
385.0116235181559
 20
103.1925149917933
 30
0.0
340
379
1001
ACAD
1000
DSTYLE
1002
{
1070
    78
1070
     8
1070
   288
1070
     1
1070
   140
1040
3.0
1070
    74
1070
     0
1070
   172
1070
     1
1070
    73
1070
     0
1070
   272
1070
     0
1070
    77
1070
     1
1070
    40
1040
10.0
1070
   147
1040
0.25
1070
   287
1070
     5
1070
    42
1040
0.625
1070
    44
1040
1.25
1070
    43
1040
3.75
1070
   271
1070
     0
1070
   178
1070
     7
1070
   177
1070
     7
1070
   176
1070
     7
1070
   141
1040
2.5
1070
    41
1040
2.5
1070
   273
1070
     8
1070
   274
1070
     4
1070
   143
1040
0.0394
1070
   171
1070
     4
1002
}
  0
DIMENSION
  5
37B
330
36C
100
AcDbEntity
  8
KEIKAKU
 62
     2
100
AcDbDimension
  2
*D9
 10
325.0000002818743
 20
217.5000040224113
 30
0.0
 11
307.5000002818742
 21
267.5000040224113
 31
0.0
 12
-624.9999997181257
 22
-1117.499995977588
 32
0.0
 71
     5
 42
-1.0
  3
STANDARD
100
AcDbAlignedDimension
 13
445.0000002818742
 23
317.5000040224113
 33
0.0
 14
445.0000002818742
 24
217.5000040224113
 34
0.0
 50
90.0
100
AcDbRotatedDimension
1001
ACAD
1000
DSTYLE
1002
{
1070
    40
1040
10.0
1070
    41
1040
2.5
1070
    42
1040
0.625
1070
    43
1040
3.75
1070
    44
1040
1.25
1070
    73
1070
     0
1070
    74
1070
     0
1070
    75
1070
     1
1070
    77
1070
     1
1070
    78
1070
     8
1070
   140
1040
3.0
1070
   141
1040
2.5
1070
   143
1040
0.0394
1070
   147
1040
0.25
1070
   171
1070
     4
1070
   172
1070
     1
1070
   176
1070
     7
1070
   177
1070
     7
1070
   178
1070
     7
1070
   271
1070
     0
1070
   272
1070
     0
1070
   273
1070
     8
1070
   274
1070
     4
1070
   279
1070
     2
1070
   288
1070
     1
1002
}
  0
LINE
  5
37C
330
36C
100
AcDbEntity
  8
KEIKAKU
 62
     2
100
AcDbLine
 10
445.0000002818742
 20
317.5000040224113
 30
0.0
 11
445.0000002818742
 21
217.5000040224113
 31
0.0
  0
MTEXT
  5
37D
102
{ACAD_REACTORS
330
37E
102
}
330
36C
100
AcDbEntity
  8
KEIKAKU
 62
     7
100
AcDbMText
 10
1130.841200802922
 20
227.1507389969356
 30
0.0
 40
30.0
 41
0.0
 71
     4
 72
     1
  1
\A1;ﾍﾞｰｽｺﾝｸﾘｰﾄ
 73
     1
 44
1.0
  0
LEADER
  5
37E
330
36C
100
AcDbEntity
  8
KEIKAKU
 62
     7
100
AcDbLeader
  3
STANDARD
 73
     0
 74
     0
 75
     1
 40
30.22913385826774
 41
202.3045275590552
 76
     3
 10
912.7756285230061
 20
343.4878365034965
 30
0.0
 10
1103.341200802923
 20
209.5361720678017
 30
0.0
 10
1128.341200802922
 20
209.5361720678017
 30
0.0
340
37D
1001
ACAD
1000
DSTYLE
1002
{
1070
    78
1070
     8
1070
   288
1070
     1
1070
   140
1040
3.0
1070
    74
1070
     0
1070
   172
1070
     1
1070
    73
1070
     0
1070
   272
1070
     0
1070
    77
1070
     1
1070
    40
1040
10.0
1070
   147
1040
0.25
1070
   287
1070
     5
1070
    42
1040
0.625
1070
    44
1040
1.25
1070
    43
1040
3.75
1070
   271
1070
     0
1070
   178
1070
     7
1070
   177
1070
     7
1070
   176
1070
     7
1070
   141
1040
2.5
1070
    41
1040
2.5
1070
   273
1070
     8
1070
   274
1070
     4
1070
   143
1040
0.0394
1070
   171
1070
     4
1002
}
  0
LINE
  5
37F
330
36C
100
AcDbEntity
  8
KEIKAKU
 62
     2
100
AcDbLine
 10
1045.000000281874
 20
317.5000040224113
 30
0.0
 11
1045.000000281874
 21
217.5000040224113
 31
0.0
  0
LINE
  5
380
330
36C
100
AcDbEntity
  8
KEIKAKU
 62
     2
100
AcDbLine
 10
510.0000002818742
 20
882.5000040224113
 30
0.0
 11
0.000000281874236
 21
882.5000040224113
 31
0.0
  0
LINE
  5
381
330
36C
100
AcDbEntity
  8
KEIKAKU
 62
     2
100
AcDbLine
 10
490.0000002818742
 20
982.5000040224113
 30
0.0
 11
0.000000281874236
 21
982.5000040224113
 31
0.0
  0
LINE
  5
382
330
36C
100
AcDbEntity
  8
KEIKAKU
 62
     2
100
AcDbLine
 10
490.0000002818742
 20
1082.500004022411
 30
0.0
 11
0.000000281874236
 21
1082.500004022411
 31
0.0
  0
LINE
  5
383
330
36C
100
AcDbEntity
  8
KEIKAKU
 62
     2
100
AcDbLine
 10
595.0000002818742
 20
467.500004022411
 30
0.0
 11
895.0000002818741
 21
467.500004022411
 31
0.0
  0
HATCH
  5
384
330
36C
100
AcDbEntity
  8
KEIKAKU
 62
     2
100
AcDbHatch
 10
0.0
 20
0.0
 30
0.0
210
0.0
220
0.0
230
1.0
  2
HONEY
 70
     0
 71
     0
 91
        6
 92
        7
 72
     0
 73
     1
 93
        5
 10
595.0000002818742
 20
882.5000040224111
 10
510.0000002818742
 20
882.5000040224113
 10
510.0000002818742
 20
724.7343482929077
 10
555.9774380254559
 20
732.1841539755512
 10
595.0000002818742
 20
753.3507990274336
 97
        0
 92
        7
 72
     0
 73
     1
 93
        5
 10
980.0000002818739
 20
882.5000040224113
 10
895.0000002818741
 20
882.5000040224113
 10
895.0000002818745
 20
743.1085421836492
 10
947.4643391966742
 20
759.4176567985887
 10
980.0000002818745
 20
783.5913834906334
 97
        0
 92
        7
 72
     0
 73
     1
 93
        5
 10
980.0000002818745
 20
558.9627317655478
 10
940.0310309587849
 20
536.598112084956
 10
895.0000002818741
 20
503.0565161747335
 10
895.0000002818741
 20
417.5000040224112
 10
980.0000002818743
 20
417.5000040224112
 97
        0
 92
        7
 72
     0
 73
     1
 93
        5
 10
595.000000281874
 20
469.4364361641146
 10
555.977438025457
 20
499.4615125585714
 10
510.0000002818742
 20
515.2535491010755
 10
510.0000002818742
 20
417.5000040224112
 10
595.0000002818742
 20
417.5000040224112
 97
        0
 92
       24
 93
        4
 72
     1
 10
534.8750002818742
 20
852.5000040224112
 11
570.1250002818742
 21
852.5000040224112
 72
     1
 10
570.1250002818742
 20
852.5000040224112
 11
570.1250002818742
 21
807.5000040224113
 72
     1
 10
570.1250002818742
 20
807.5000040224113
 11
534.8750002818742
 21
807.5000040224113
 72
     1
 10
534.8750002818742
 20
807.5000040224113
 11
534.8750002818742
 21
852.5000040224112
 97
        0
 92
       24
 93
        4
 72
     1
 10
919.8750002818742
 20
852.5000040224112
 11
955.1250002818742
 21
852.5000040224112
 72
     1
 10
955.1250002818742
 20
852.5000040224112
 11
955.1250002818742
 21
807.5000040224113
 72
     1
 10
955.1250002818742
 20
807.5000040224113
 11
919.8750002818742
 21
807.5000040224113
 72
     1
 10
919.8750002818742
 20
807.5000040224113
 11
919.8750002818742
 21
852.5000040224112
 97
        0
 75
     0
 76
     1
 52
0.0
 41
3.5
 77
     0
 78
     3
 53
0.0
 43
-624.9999997181257
 44
-1117.499995977588
 45
16.66875
 46
9.623704999999999
 79
     2
 49
11.1125
 49
-22.225
 53
120.0
 43
-624.9999997181257
 44
-1117.499995977588
 45
-16.66874800852732
 46
9.623708449331868
 79
     2
 49
11.1125
 49
-22.225
 53
60.0
 43
-624.9999997181257
 44
-1117.499995977588
 45
0.0000019914726814
 46
19.24741344933186
 79
     2
 49
-22.225
 49
11.1125
 47
2.475772716849693
 98
        4
 10
555.9774380254566
 20
781.6996060254841
 10
942.5088064817318
 20
794.0784690379678
 10
930.1199838598405
 20
494.5099694513646
 10
555.9774380254566
 20
447.4702837105687
  0
DIMENSION
  5
385
330
36C
100
AcDbEntity
  8
KEIKAKU
 62
     2
100
AcDbDimension
  2
*D6
 10
895.0000002818741
 20
812.5000040224113
 30
0.0
 11
745.0000002818742
 21
830.0000040224112
 31
0.0
 12
-624.9999997181257
 22
-1117.499995977588
 32
0.0
  1
B
 71
     5
 42
-1.0
  3
STANDARD
100
AcDbAlignedDimension
 13
595.0000002818742
 23
670.0000040224113
 33
0.0
 14
895.0000002818741
 24
670.0000040224113
 34
0.0
100
AcDbRotatedDimension
1001
ACAD
1000
DSTYLE
1002
{
1070
    40
1040
10.0
1070
    41
1040
2.5
1070
    42
1040
0.625
1070
    43
1040
3.75
1070
    44
1040
1.25
1070
    73
1070
     0
1070
    74
1070
     0
1070
    75
1070
     1
1070
    77
1070
     1
1070
    78
1070
     8
1070
   140
1040
3.0
1070
   141
1040
2.5
1070
   143
1040
0.0394
1070
   147
1040
0.25
1070
   171
1070
     4
1070
   172
1070
     1
1070
   176
1070
     7
1070
   177
1070
     7
1070
   178
1070
     7
1070
   271
1070
     0
1070
   272
1070
     0
1070
   273
1070
     8
1070
   274
1070
     4
1070
   279
1070
     2
1070
   288
1070
     1
1002
}
  0
DIMENSION
  5
386
330
36C
100
AcDbEntity
  8
KEIKAKU
 62
     2
100
AcDbDimension
  2
*D1
 10
775.0000002818742
 20
387.5000040224113
 30
0.0
 11
757.5000002818742
 21
687.5000040224112
 31
0.0
 12
-624.9999997181257
 22
-1117.499995977588
 32
0.0
  1
H
 71
     5
 42
-1.0
  3
STANDARD
100
AcDbAlignedDimension
 13
860.0000002818742
 23
987.5000040224113
 33
0.0
 14
895.0000002818741
 24
387.5000040224113
 34
0.0
 50
90.0
100
AcDbRotatedDimension
1001
ACAD
1000
DSTYLE
1002
{
1070
    40
1040
10.0
1070
    41
1040
2.5
1070
    42
1040
0.625
1070
    43
1040
3.75
1070
    44
1040
1.25
1070
    73
1070
     0
1070
    74
1070
     0
1070
    77
1070
     1
1070
    78
1070
     8
1070
   140
1040
3.0
1070
   141
1040
2.5
1070
   143
1040
0.0394
1070
   147
1040
0.25
1070
   171
1070
     4
1070
   172
1070
     1
1070
   176
1070
     7
1070
   177
1070
     7
1070
   178
1070
     7
1070
   271
1070
     0
1070
   272
1070
     0
1070
   273
1070
     8
1070
   274
1070
     4
1070
   279
1070
     2
1070
   288
1070
     1
1002
}
  0
LINE
  5
387
330
36C
100
AcDbEntity
  8
KEIKAKU
 62
     2
100
AcDbLine
 10
410.0000002818742
 20
387.5000040224113
 30
0.0
 11
1080.000000281874
 21
387.5000040224113
 31
0.0
  0
LINE
  5
388
330
36C
100
AcDbEntity
  8
KEIKAKU
 62
     2
100
AcDbLine
 10
630.0000002818742
 20
987.5000040224113
 30
0.0
 11
860.0000002818742
 21
987.5000040224113
 31
0.0
  0
LINE
  5
389
330
36C
100
AcDbEntity
  8
KEIKAKU
 62
     2
100
AcDbLine
 10
490.0000002818742
 20
1082.500004022411
 30
0.0
 11
1000.000000281874
 21
1082.500004022411
 31
0.0
  0
LINE
  5
38A
330
36C
100
AcDbEntity
  8
KEIKAKU
 62
     2
100
AcDbLine
 10
410.0000002818742
 20
882.5000040224113
 30
0.0
 11
410.0000002818742
 21
387.5000040224113
 31
0.0
  0
DIMENSION
  5
38B
330
36C
100
AcDbEntity
  8
KEIKAKU
 62
     2
100
AcDbDimension
  2
*D10
 10
695.000000281874
 20
467.500004022411
 30
0.0
 11
677.500000281874
 21
727.5000040224113
 31
0.0
 12
-624.9999997181257
 22
-1117.499995977588
 32
0.0
  1
H－80
 71
     5
 42
-1.0
  3
STANDARD
100
AcDbAlignedDimension
 13
745.0000002818742
 23
987.5000040224113
 33
0.0
 14
745.0000002818742
 24
467.500004022411
 34
0.0
 50
90.0
100
AcDbRotatedDimension
1001
ACAD
1000
DSTYLE
1002
{
1070
    40
1040
10.0
1070
    41
1040
2.5
1070
    42
1040
0.625
1070
    43
1040
3.75
1070
    44
1040
1.25
1070
    73
1070
     0
1070
    74
1070
     0
1070
    75
1070
     1
1070
    77
1070
     1
1070
    78
1070
     8
1070
   140
1040
3.0
1070
   141
1040
2.5
1070
   143
1040
0.0394
1070
   147
1040
0.25
1070
   171
1070
     4
1070
   172
1070
     1
1070
   176
1070
     7
1070
   177
1070
     7
1070
   178
1070
     7
1070
   271
1070
     0
1070
   272
1070
     0
1070
   273
1070
     8
1070
   274
1070
     4
1070
   279
1070
     2
1070
   288
1070
     1
1002
}
  0
DIMENSION
  5
38C
330
36C
100
AcDbEntity
  8
KEIKAKU
 62
     2
100
AcDbDimension
  2
*D5
 10
595.0000002818742
 20
812.5000040224113
 30
0.0
 11
552.5000002818742
 21
830.0000040224112
 31
0.0
 12
-624.9999997181257
 22
-1117.499995977588
 32
0.0
  1
ｅ
 71
     5
 42
-1.0
  3
STANDARD
100
AcDbAlignedDimension
 13
510.0000002818742
 23
782.5000040224113
 33
0.0
 14
595.0000002818742
 24
670.0000040224113
 34
0.0
100
AcDbRotatedDimension
1001
ACAD
1000
DSTYLE
1002
{
1070
    40
1040
10.0
1070
    41
1040
2.5
1070
    42
1040
0.625
1070
    43
1040
3.75
1070
    44
1040
1.25
1070
    73
1070
     0
1070
    74
1070
     0
1070
    77
1070
     1
1070
    78
1070
     8
1070
   140
1040
3.0
1070
   141
1040
2.5
1070
   143
1040
0.0394
1070
   147
1040
0.25
1070
   171
1070
     4
1070
   172
1070
     1
1070
   176
1070
     7
1070
   177
1070
     7
1070
   178
1070
     7
1070
   271
1070
     0
1070
   272
1070
     0
1070
   273
1070
     8
1070
   274
1070
     4
1070
   279
1070
     2
1070
   288
1070
     1
1002
}
  0
DIMENSION
  5
38D
330
36C
100
AcDbEntity
  8
KEIKAKU
 62
     2
100
AcDbDimension
  2
*D4
 10
335.0000002818742
 20
782.5000040224113
 30
0.0
 11
317.5000002818742
 21
932.5000040224113
 31
0.0
 12
-624.9999997181257
 22
-1117.499995977588
 32
0.0
 71
     5
 42
-1.0
  3
STANDARD
100
AcDbAlignedDimension
 13
490.0000002818742
 23
1082.500004022411
 33
0.0
 14
510.0000002818742
 24
782.5000040224113
 34
0.0
 50
90.0
100
AcDbRotatedDimension
1001
ACAD
1000
DSTYLE
1002
{
1070
    40
1040
10.0
1070
    41
1040
2.5
1070
    42
1040
0.625
1070
    43
1040
3.75
1070
    44
1040
1.25
1070
    73
1070
     0
1070
    74
1070
     0
1070
    77
1070
     1
1070
    78
1070
     8
1070
   140
1040
3.0
1070
   141
1040
2.5
1070
   143
1040
0.0394
1070
   147
1040
0.25
1070
   171
1070
     4
1070
   172
1070
     1
1070
   176
1070
     7
1070
   177
1070
     7
1070
   178
1070
     7
1070
   271
1070
     0
1070
   272
1070
     0
1070
   273
1070
     8
1070
   274
1070
     4
1070
   279
1070
     2
1070
   288
1070
     1
1002
}
  0
LINE
  5
38E
330
36C
100
AcDbEntity
  8
KEIKAKU
 62
     2
100
AcDbLine
 10
510.0000002818742
 20
887.5000040224113
 30
0.0
 11
510.0000002818742
 21
387.5000040224113
 31
0.0
  0
LINE
  5
38F
330
36C
100
AcDbEntity
  8
KEIKAKU
 62
     2
100
AcDbLine
 10
595.0000002818742
 20
952.5000040224112
 30
0.0
 11
595.0000002818742
 21
387.5000040224113
 31
0.0
  0
DIMENSION
  5
390
330
36C
100
AcDbEntity
  8
KEIKAKU
 62
     2
100
AcDbDimension
  2
*D12
 10
510.0000002818742
 20
642.5000040224112
 30
0.0
 11
460.0000002818742
 21
660.0000040224113
 31
0.0
 12
-624.9999997181257
 22
-1117.499995977588
 32
0.0
 71
     5
 42
-1.0
  3
STANDARD
100
AcDbAlignedDimension
 13
410.0000002818742
 23
387.5000040224113
 33
0.0
 14
510.0000002818742
 24
387.5000040224113
 34
0.0
100
AcDbRotatedDimension
1001
ACAD
1000
DSTYLE
1002
{
1070
    40
1040
10.0
1070
    41
1040
2.5
1070
    42
1040
0.625
1070
    43
1040
3.75
1070
    44
1040
1.25
1070
    73
1070
     0
1070
    74
1070
     0
1070
    77
1070
     1
1070
    78
1070
     8
1070
   140
1040
3.0
1070
   141
1040
2.5
1070
   143
1040
0.0394
1070
   147
1040
0.25
1070
   171
1070
     4
1070
   172
1070
     1
1070
   176
1070
     7
1070
   177
1070
     7
1070
   178
1070
     7
1070
   271
1070
     0
1070
   272
1070
     0
1070
   273
1070
     8
1070
   274
1070
     4
1070
   279
1070
     2
1070
   288
1070
     1
1002
}
  0
DIMENSION
  5
391
330
36C
100
AcDbEntity
  8
KEIKAKU
 62
     2
100
AcDbDimension
  2
*D11
 10
695.000000281874
 20
387.5000040224113
 30
0.0
 11
677.500000281874
 21
427.5000040224113
 31
0.0
 12
-624.9999997181257
 22
-1117.499995977588
 32
0.0
 71
     5
 42
-1.0
  3
STANDARD
100
AcDbAlignedDimension
 13
745.0000002818742
 23
467.500004022411
 33
0.0
 14
745.0000002818742
 24
387.5000040224113
 34
0.0
 50
90.0
100
AcDbRotatedDimension
1001
ACAD
1000
DSTYLE
1002
{
1070
    40
1040
10.0
1070
    41
1040
2.5
1070
    42
1040
0.625
1070
    43
1040
3.75
1070
    44
1040
1.25
1070
    73
1070
     0
1070
    74
1070
     0
1070
    75
1070
     1
1070
    77
1070
     1
1070
    78
1070
     8
1070
   140
1040
3.0
1070
   141
1040
2.5
1070
   143
1040
0.0394
1070
   147
1040
0.25
1070
   171
1070
     4
1070
   172
1070
     1
1070
   176
1070
     7
1070
   177
1070
     7
1070
   178
1070
     7
1070
   271
1070
     0
1070
   272
1070
     0
1070
   273
1070
     8
1070
   274
1070
     4
1070
   279
1070
     2
1070
   288
1070
     1
1002
}
  0
LINE
  5
392
330
36C
100
AcDbEntity
  8
KEIKAKU
 62
     2
100
AcDbLine
 10
490.0000002818742
 20
987.5000040224113
 30
0.0
 11
510.0000002818742
 21
887.5000040224113
 31
0.0
  0
LINE
  5
393
330
36C
100
AcDbEntity
  8
KEIKAKU
 62
     2
100
AcDbLine
 10
490.0000002818742
 20
1082.500004022411
 30
0.0
 11
490.0000002818742
 21
987.5000040224113
 31
0.0
  0
DIMENSION
  5
394
330
36C
100
AcDbEntity
  8
KEIKAKU
 62
     2
100
AcDbDimension
  2
*D0
 10
695.0000002818742
 20
987.5000040224113
 30
0.0
 11
677.5000002818742
 21
1035.000004022411
 31
0.0
 12
-624.9999997181257
 22
-1117.499995977588
 32
0.0
 71
     5
 42
-1.0
  3
STANDARD
100
AcDbAlignedDimension
 13
745.0000002818742
 23
1082.500004022411
 33
0.0
 14
745.0000002818742
 24
987.5000040224113
 34
0.0
 50
90.0
100
AcDbRotatedDimension
1001
ACAD
1000
DSTYLE
1002
{
1070
    40
1040
10.0
1070
    41
1040
2.5
1070
    42
1040
0.625
1070
    43
1040
3.75
1070
    44
1040
1.25
1070
    73
1070
     0
1070
    74
1070
     0
1070
    77
1070
     1
1070
    78
1070
     8
1070
   140
1040
3.0
1070
   141
1040
2.5
1070
   143
1040
0.0394
1070
   147
1040
0.25
1070
   171
1070
     4
1070
   172
1070
     1
1070
   176
1070
     7
1070
   177
1070
     7
1070
   178
1070
     7
1070
   271
1070
     0
1070
   272
1070
     0
1070
   273
1070
     8
1070
   274
1070
     4
1070
   279
1070
     2
1070
   288
1070
     1
1002
}
  0
LINE
  5
395
330
36C
100
AcDbEntity
  8
KEIKAKU
 62
     2
100
AcDbLine
 10
630.0000002818742
 20
987.5000040224113
 30
0.0
 11
595.0000002818742
 21
952.5000040224112
 31
0.0
  0
LINE
  5
396
330
36C
100
AcDbEntity
  8
KEIKAKU
 62
     2
100
AcDbLine
 10
1080.000000281874
 20
882.5000040224113
 30
0.0
 11
1080.000000281874
 21
387.5000040224113
 31
0.0
  0
DIMENSION
  5
397
330
36C
100
AcDbEntity
  8
KEIKAKU
 62
     2
100
AcDbDimension
  2
*D7
 10
980.0000002818743
 20
812.5000040224113
 30
0.0
 11
937.5000002818742
 21
830.0000040224112
 31
0.0
 12
-624.9999997181257
 22
-1117.499995977588
 32
0.0
  1
ｅ
 71
     5
 42
-1.0
  3
STANDARD
100
AcDbAlignedDimension
 13
895.0000002818741
 23
670.0000040224113
 33
0.0
 14
980.0000002818743
 24
782.5000040224113
 34
0.0
100
AcDbRotatedDimension
1001
ACAD
1000
DSTYLE
1002
{
1070
    40
1040
10.0
1070
    41
1040
2.5
1070
    42
1040
0.625
1070
    43
1040
3.75
1070
    44
1040
1.25
1070
    73
1070
     0
1070
    74
1070
     0
1070
    75
1070
     1
1070
    77
1070
     1
1070
    78
1070
     8
1070
   140
1040
3.0
1070
   141
1040
2.5
1070
   143
1040
0.0394
1070
   147
1040
0.25
1070
   171
1070
     4
1070
   172
1070
     1
1070
   176
1070
     7
1070
   177
1070
     7
1070
   178
1070
     7
1070
   271
1070
     0
1070
   272
1070
     0
1070
   273
1070
     8
1070
   274
1070
     4
1070
   279
1070
     2
1070
   288
1070
     1
1002
}
  0
LINE
  5
398
330
36C
100
AcDbEntity
  8
KEIKAKU
 62
     2
100
AcDbLine
 10
980.0000002818743
 20
887.5000040224113
 30
0.0
 11
980.0000002818743
 21
387.5000040224113
 31
0.0
  0
LINE
  5
399
330
36C
100
AcDbEntity
  8
KEIKAKU
 62
     2
100
AcDbLine
 10
895.0000002818741
 20
952.5000040224112
 30
0.0
 11
895.0000002818741
 21
387.5000040224113
 31
0.0
  0
MTEXT
  5
39A
102
{ACAD_REACTORS
330
39B
102
}
330
36C
100
AcDbEntity
  8
KEIKAKU
 62
     7
100
AcDbMText
 10
1137.500000281874
 20
485.0000040224113
 30
0.0
 40
30.0
 41
0.0
 71
     4
 72
     1
  1
\A1;フィルター砂（荒目）
 73
     1
 44
1.0
  0
LEADER
  5
39B
330
36C
100
AcDbEntity
  8
KEIKAKU
 62
     7
100
AcDbLeader
  3
STANDARD
 73
     0
 74
     0
 75
     1
 40
30.22913385826774
 41
202.3371288760957
 76
     3
 10
1037.107893487655
 20
583.4263818742756
 30
0.0
 10
1110.000000281874
 20
467.3854370932773
 30
0.0
 10
1135.000000281874
 20
467.3854370932773
 30
0.0
340
39A
1001
ACAD
1000
DSTYLE
1002
{
1070
    78
1070
     8
1070
   288
1070
     1
1070
   140
1040
3.0
1070
    74
1070
     0
1070
   172
1070
     1
1070
    73
1070
     0
1070
   272
1070
     0
1070
    77
1070
     1
1070
    40
1040
10.0
1070
   147
1040
0.25
1070
   287
1070
     5
1070
    42
1040
0.625
1070
    44
1040
1.25
1070
    43
1040
3.75
1070
   271
1070
     0
1070
   178
1070
     7
1070
   177
1070
     7
1070
   176
1070
     7
1070
   141
1040
2.5
1070
    41
1040
2.5
1070
   273
1070
     8
1070
   274
1070
     4
1070
   143
1040
0.0394
1070
   171
1070
     4
1002
}
  0
LINE
  5
39C
330
36C
100
AcDbEntity
  8
KEIKAKU
 62
     2
100
AcDbLine
 10
1000.000000281874
 20
1082.500004022411
 30
0.0
 11
1000.000000281874
 21
987.5000040224113
 31
0.0
  0
LINE
  5
39D
330
36C
100
AcDbEntity
  8
KEIKAKU
 62
     2
100
AcDbLine
 10
1000.000000281874
 20
987.5000040224113
 30
0.0
 11
980.0000002818743
 21
887.5000040224113
 31
0.0
  0
LINE
  5
39E
330
36C
100
AcDbEntity
  8
KEIKAKU
 62
     2
100
AcDbLine
 10
860.0000002818742
 20
987.5000040224113
 30
0.0
 11
895.0000002818741
 21
952.5000040224112
 31
0.0
  0
TEXT
  5
39F
330
36C
100
AcDbEntity
  8
KEIKAKU
 62
     2
100
AcDbText
 10
2995.246555399985
 20
347.5000040224113
 30
0.0
 40
30.0
  1
0.600
 41
0.675
 72
     2
 11
3055.000000281874
 21
362.5000040224113
 31
0.0
100
AcDbText
 73
     2
  0
TEXT
  5
3A0
330
36C
100
AcDbEntity
  8
KEIKAKU
 62
     2
100
AcDbText
 10
2595.246555399985
 20
347.5000040224113
 30
0.0
 40
30.0
  1
0.600
 41
0.675
 72
     2
 11
2655.000000281874
 21
362.5000040224113
 31
0.0
100
AcDbText
 73
     2
  0
TEXT
  5
3A1
330
36C
100
AcDbEntity
  8
KEIKAKU
 62
     2
100
AcDbText
 10
2795.246555399985
 20
347.5000040224113
 30
0.0
 40
30.0
  1
0.600
 41
0.675
 72
     2
 11
2855.000000281874
 21
362.5000040224113
 31
0.0
100
AcDbText
 73
     2
  0
TEXT
  5
3A2
330
36C
100
AcDbEntity
  8
KEIKAKU
 62
     2
100
AcDbText
 10
2395.246555399985
 20
347.5000040224113
 30
0.0
 40
30.0
  1
0.600
 41
0.675
 72
     2
 11
2455.000000281874
 21
362.5000040224113
 31
0.0
100
AcDbText
 73
     2
  0
TEXT
  5
3A3
330
36C
100
AcDbEntity
  8
KEIKAKU
 62
     2
100
AcDbText
 10
2195.246555399985
 20
347.5000040224113
 30
0.0
 40
30.0
  1
0.600
 41
0.675
 72
     2
 11
2255.000000281874
 21
362.5000040224113
 31
0.0
100
AcDbText
 73
     2
  0
TEXT
  5
3A4
330
36C
100
AcDbEntity
  8
KEIKAKU
 62
     2
100
AcDbText
 10
1935.000000281874
 20
347.5000040224113
 30
0.0
 40
30.0
  1
切込砕石
 41
0.675
 11
1935.000000281874
 21
362.5000040224113
 31
0.0
100
AcDbText
 73
     2
  0
LINE
  5
3A5
330
36C
100
AcDbEntity
  8
KEIKAKU
 62
     2
100
AcDbLine
 10
3095.000000281875
 20
82.50000402241131
 30
0.0
 11
3095.000000281875
 21
962.5000040224113
 31
0.0
  0
LINE
  5
3A6
330
36C
100
AcDbEntity
  8
KEIKAKU
 62
     2
100
AcDbLine
 10
2895.000000281874
 20
82.50000402241131
 30
0.0
 11
2895.000000281875
 21
962.5000040224113
 31
0.0
  0
LINE
  5
3A7
330
36C
100
AcDbEntity
  8
KEIKAKU
 62
     2
100
AcDbLine
 10
2695.000000281874
 20
82.50000402241131
 30
0.0
 11
2695.000000281874
 21
962.5000040224113
 31
0.0
  0
LINE
  5
3A8
330
36C
100
AcDbEntity
  8
KEIKAKU
 62
     2
100
AcDbLine
 10
2495.000000281875
 20
82.50000402241131
 30
0.0
 11
2495.000000281875
 21
962.5000040224113
 31
0.0
  0
LINE
  5
3A9
330
36C
100
AcDbEntity
  8
KEIKAKU
 62
     2
100
AcDbLine
 10
2295.000000281874
 20
82.50000402241131
 30
0.0
 11
2295.000000281874
 21
962.5000040224113
 31
0.0
  0
LINE
  5
3AA
330
36C
100
AcDbEntity
  8
KEIKAKU
 62
     2
100
AcDbLine
 10
2095.000000281874
 20
82.50000402241131
 30
0.0
 11
2095.000000281874
 21
962.5000040224113
 31
0.0
  0
LINE
  5
3AB
330
36C
100
AcDbEntity
  8
KEIKAKU
 62
     2
100
AcDbLine
 10
1875.000000281874
 20
962.5000040224113
 30
0.0
 11
1875.000000281874
 21
82.50000402241131
 31
0.0
  0
LINE
  5
3AC
330
36C
100
AcDbEntity
  8
KEIKAKU
 62
     2
100
AcDbLine
 10
1875.000000281874
 20
82.50000402241131
 30
0.0
 11
3095.000000281874
 21
82.50000402241131
 31
0.0
  0
TEXT
  5
3AD
330
36C
100
AcDbEntity
  8
KEIKAKU
 62
     2
100
AcDbText
 10
2783.596555399985
 20
187.5000040224113
 30
0.0
 40
30.0
  1
5.0
 41
0.675
 72
     2
 11
2815.000000281875
 21
202.5000040224113
 31
0.0
100
AcDbText
 73
     2
  0
TEXT
  5
3AE
330
36C
100
AcDbEntity
  8
KEIKAKU
 62
     2
100
AcDbText
 10
2773.471555399984
 20
107.5000040224113
 30
0.0
 40
30.0
  1
10.0
 41
0.675
 72
     2
 11
2815.000000281875
 21
122.5000040224113
 31
0.0
100
AcDbText
 73
     2
  0
LINE
  5
3AF
330
36C
100
AcDbEntity
  8
KEIKAKU
 62
     2
100
AcDbLine
 10
1875.000000281874
 20
162.5000040224113
 30
0.0
 11
3095.000000281874
 21
162.5000040224113
 31
0.0
  0
LINE
  5
3B0
330
36C
100
AcDbEntity
  8
KEIKAKU
 62
     2
100
AcDbLine
 10
1875.000000281874
 20
242.5000040224113
 30
0.0
 11
3095.000000281874
 21
242.5000040224113
 31
0.0
  0
LINE
  5
3B1
330
36C
100
AcDbEntity
  8
KEIKAKU
 62
     2
100
AcDbLine
 10
1875.000000281874
 20
322.5000040224113
 30
0.0
 11
3095.000000281874
 21
322.5000040224113
 31
0.0
  0
TEXT
  5
3B2
330
36C
100
AcDbEntity
  8
KEIKAKU
 62
     2
100
AcDbText
 10
1935.000000281874
 20
107.5000040224113
 30
0.0
 40
30.0
  1
側溝蓋
 41
0.675
 11
1935.000000281874
 21
122.5000040224113
 31
0.0
100
AcDbText
 73
     2
  0
TEXT
  5
3B3
330
36C
100
AcDbEntity
  8
KEIKAKU
 62
     2
100
AcDbText
 10
1906.104562047625
 20
267.5000040224113
 30
0.0
 40
30.0
  1
フィルター砂
 41
0.675
 11
1906.104562047625
 21
282.5000040224113
 31
0.0
100
AcDbText
 73
     2
  0
TEXT
  5
3B4
330
36C
100
AcDbEntity
  8
KEIKAKU
 62
     2
100
AcDbText
 10
1935.000000281874
 20
187.5000040224113
 30
0.0
 40
30.0
  1
側溝本体
 41
0.675
 11
1935.000000281874
 21
202.5000040224113
 31
0.0
100
AcDbText
 73
     2
  0
TEXT
  5
3B5
330
36C
100
AcDbEntity
  8
KEIKAKU
 62
     2
100
AcDbText
 10
2373.471555399985
 20
107.5000040224113
 30
0.0
 40
30.0
  1
10.0
 41
0.675
 72
     2
 11
2415.000000281875
 21
122.5000040224113
 31
0.0
100
AcDbText
 73
     2
  0
TEXT
  5
3B6
330
36C
100
AcDbEntity
  8
KEIKAKU
 62
     2
100
AcDbText
 10
2173.471555399984
 20
107.5000040224113
 30
0.0
 40
30.0
  1
10.0
 41
0.675
 72
     2
 11
2215.000000281874
 21
122.5000040224113
 31
0.0
100
AcDbText
 73
     2
  0
TEXT
  5
3B7
330
36C
100
AcDbEntity
  8
KEIKAKU
 62
     2
100
AcDbText
 10
2183.596555399985
 20
187.5000040224113
 30
0.0
 40
30.0
  1
5.0
 41
0.675
 72
     2
 11
2215.000000281874
 21
202.5000040224113
 31
0.0
100
AcDbText
 73
     2
  0
TEXT
  5
3B8
330
36C
100
AcDbEntity
  8
KEIKAKU
 62
     2
100
AcDbText
 10
2193.221555399984
 20
267.5000040224113
 30
0.0
 40
30.0
  1
0.400
 41
0.675
 72
     2
 11
2255.000000281874
 21
282.5000040224113
 31
0.0
100
AcDbText
 73
     2
  0
TEXT
  5
3B9
330
36C
100
AcDbEntity
  8
KEIKAKU
 62
     2
100
AcDbText
 10
2383.596555399984
 20
187.5000040224113
 30
0.0
 40
30.0
  1
5.0
 41
0.675
 72
     2
 11
2415.000000281875
 21
202.5000040224113
 31
0.0
100
AcDbText
 73
     2
  0
TEXT
  5
3BA
330
36C
100
AcDbEntity
  8
KEIKAKU
 62
     2
100
AcDbText
 10
2395.246555399985
 20
267.5000040224113
 30
0.0
 40
30.0
  1
0.600
 41
0.675
 72
     2
 11
2455.000000281874
 21
282.5000040224113
 31
0.0
100
AcDbText
 73
     2
  0
TEXT
  5
3BB
330
36C
100
AcDbEntity
  8
KEIKAKU
 62
     2
100
AcDbText
 10
2573.471555399985
 20
107.5000040224113
 30
0.0
 40
30.0
  1
10.0
 41
0.675
 72
     2
 11
2615.000000281874
 21
122.5000040224113
 31
0.0
100
AcDbText
 73
     2
  0
TEXT
  5
3BC
330
36C
100
AcDbEntity
  8
KEIKAKU
 62
     2
100
AcDbText
 10
2595.246555399985
 20
267.5000040224113
 30
0.0
 40
30.0
  1
0.800
 41
0.675
 72
     2
 11
2655.000000281874
 21
282.5000040224113
 31
0.0
100
AcDbText
 73
     2
  0
TEXT
  5
3BD
330
36C
100
AcDbEntity
  8
KEIKAKU
 62
     2
100
AcDbText
 10
2583.596555399985
 20
187.5000040224113
 30
0.0
 40
30.0
  1
5.0
 41
0.675
 72
     2
 11
2615.000000281874
 21
202.5000040224113
 31
0.0
100
AcDbText
 73
     2
  0
TEXT
  5
3BE
330
36C
100
AcDbEntity
  8
KEIKAKU
 62
     2
100
AcDbText
 10
2973.471555399985
 20
107.5000040224113
 30
0.0
 40
30.0
  1
10.0
 41
0.675
 72
     2
 11
3015.000000281875
 21
122.5000040224113
 31
0.0
100
AcDbText
 73
     2
  0
TEXT
  5
3BF
330
36C
100
AcDbEntity
  8
KEIKAKU
 62
     2
100
AcDbText
 10
2799.296555399985
 20
267.5000040224113
 30
0.0
 40
30.0
  1
1.000
 41
0.675
 72
     2
 11
2855.000000281874
 21
282.5000040224113
 31
0.0
100
AcDbText
 73
     2
  0
TEXT
  5
3C0
330
36C
100
AcDbEntity
  8
KEIKAKU
 62
     2
100
AcDbText
 10
2983.596555399985
 20
187.5000040224113
 30
0.0
 40
30.0
  1
5.0
 41
0.675
 72
     2
 11
3015.000000281875
 21
202.5000040224113
 31
0.0
100
AcDbText
 73
     2
  0
TEXT
  5
3C1
330
36C
100
AcDbEntity
  8
KEIKAKU
 62
     2
100
AcDbText
 10
2999.296555399985
 20
267.5000040224113
 30
0.0
 40
30.0
  1
1.200
 41
0.675
 72
     2
 11
3055.000000281874
 21
282.5000040224113
 31
0.0
100
AcDbText
 73
     2
  0
TEXT
  5
3C2
330
36C
100
AcDbEntity
  8
KEIKAKU
 62
     2
100
AcDbText
 10
2793.221555399985
 20
507.5000040224113
 30
0.0
 40
30.0
  1
0.240
 41
0.675
 72
     2
 11
2855.000000281874
 21
522.5000040224113
 31
0.0
100
AcDbText
 73
     2
  0
TEXT
  5
3C3
330
36C
100
AcDbEntity
  8
KEIKAKU
 62
     2
100
AcDbText
 10
2777.037500281875
 20
587.5000040224112
 30
0.0
 40
30.0
  1
0.0044
 41
0.675
 72
     2
 11
2855.000000281874
 21
602.5000040224113
 31
0.0
100
AcDbText
 73
     2
  0
TEXT
  5
3C4
330
36C
100
AcDbEntity
  8
KEIKAKU
 62
     2
100
AcDbText
 10
2794.423717818069
 20
427.5000040224113
 30
0.0
 40
30.0
  1
0.385
 41
0.675
 72
     2
 11
2855.000000281874
 21
442.5000040224112
 31
0.0
100
AcDbText
 73
     2
  0
TEXT
  5
3C5
330
36C
100
AcDbEntity
  8
KEIKAKU
 62
     2
100
AcDbText
 10
2775.496555399985
 20
827.5000040224112
 30
0.0
 40
30.0
  1
300
 41
0.675
 72
     2
 11
2815.000000281875
 21
842.5000040224112
 31
0.0
100
AcDbText
 73
     2
  0
TEXT
  5
3C6
330
36C
100
AcDbEntity
  8
KEIKAKU
 62
     2
100
AcDbText
 10
2788.848717818069
 20
667.5000040224112
 30
0.0
 40
30.0
  1
85
 41
0.675
 72
     2
 11
2815.000000281875
 21
682.5000040224113
 31
0.0
100
AcDbText
 73
     2
  0
TEXT
  5
3C7
330
36C
100
AcDbEntity
  8
KEIKAKU
 62
     2
100
AcDbText
 10
2775.496555399985
 20
747.5000040224113
 30
0.0
 40
30.0
  1
600
 41
0.675
 72
     2
 11
2815.000000281875
 21
762.5000040224112
 31
0.0
100
AcDbText
 73
     2
  0
LINE
  5
3C8
330
36C
100
AcDbEntity
  8
KEIKAKU
 62
     2
100
AcDbLine
 10
1875.000000281874
 20
402.5000040224113
 30
0.0
 11
3095.000000281874
 21
402.5000040224113
 31
0.0
  0
LINE
  5
3C9
330
36C
100
AcDbEntity
  8
KEIKAKU
 62
     2
100
AcDbLine
 10
1875.000000281874
 20
482.5000040224113
 30
0.0
 11
3095.000000281874
 21
482.5000040224113
 31
0.0
  0
LINE
  5
3CA
330
36C
100
AcDbEntity
  8
KEIKAKU
 62
     2
100
AcDbLine
 10
1875.000000281874
 20
562.5000040224112
 30
0.0
 11
3095.000000281874
 21
562.5000040224112
 31
0.0
  0
LINE
  5
3CB
330
36C
100
AcDbEntity
  8
KEIKAKU
 62
     2
100
AcDbLine
 10
1875.000000281874
 20
642.5000040224112
 30
0.0
 11
3095.000000281874
 21
642.5000040224112
 31
0.0
  0
LINE
  5
3CC
330
36C
100
AcDbEntity
  8
KEIKAKU
 62
     2
100
AcDbLine
 10
1875.000000281874
 20
722.5000040224113
 30
0.0
 11
3095.000000281874
 21
722.5000040224113
 31
0.0
  0
LINE
  5
3CD
330
36C
100
AcDbEntity
  8
KEIKAKU
 62
     2
100
AcDbLine
 10
1875.000000281874
 20
802.5000040224112
 30
0.0
 11
3095.000000281874
 21
802.5000040224112
 31
0.0
  0
LINE
  5
3CE
330
36C
100
AcDbEntity
  8
KEIKAKU
 62
     2
100
AcDbLine
 10
1875.000000281874
 20
882.5000040224113
 30
0.0
 11
3095.000000281874
 21
882.5000040224113
 31
0.0
  0
LINE
  5
3CF
330
36C
100
AcDbEntity
  8
KEIKAKU
 62
     2
100
AcDbLine
 10
1875.000000281874
 20
962.5000040224113
 30
0.0
 11
3095.000000281875
 21
962.5000040224113
 31
0.0
  0
TEXT
  5
3D0
330
36C
100
AcDbEntity
  8
KEIKAKU
 62
     2
100
AcDbText
 10
2735.000000281874
 20
907.5000040224113
 30
0.0
 40
30.0
  1
300×600
 41
0.675
 11
2735.000000281874
 21
922.5000040224113
 31
0.0
100
AcDbText
 73
     2
  0
TEXT
  5
3D1
330
36C
100
AcDbEntity
  8
KEIKAKU
 62
     2
100
AcDbText
 10
1935.000000281874
 20
827.5000040224112
 30
0.0
 40
30.0
  1
側溝幅Ｂ
 41
0.675
 11
1935.000000281874
 21
842.5000040224112
 31
0.0
100
AcDbText
 73
     2
  0
TEXT
  5
3D2
330
36C
100
AcDbEntity
  8
KEIKAKU
 62
     2
100
AcDbText
 10
1895.000000281874
 20
587.5000040224112
 30
0.0
 40
30.0
  1
目地部モルタル
 41
0.675
 11
1895.000000281874
 21
602.5000040224113
 31
0.0
100
AcDbText
 73
     2
  0
TEXT
  5
3D3
330
36C
100
AcDbEntity
  8
KEIKAKU
 62
     2
100
AcDbText
 10
1922.960232232377
 20
507.5000040224113
 30
0.0
 40
30.0
  1
ｲﾝﾊﾞｰﾄｺﾝｸﾘｰﾄ
 41
0.675
 11
1922.960232232377
 21
522.5000040224113
 31
0.0
100
AcDbText
 73
     2
  0
TEXT
  5
3D4
330
36C
100
AcDbEntity
  8
KEIKAKU
 62
     2
100
AcDbText
 10
1935.000000281874
 20
427.5000040224113
 30
0.0
 40
30.0
  1
ﾍﾞｰｽｺﾝｸﾘｰﾄ
 41
0.675
 11
1935.000000281874
 21
442.5000040224112
 31
0.0
100
AcDbText
 73
     2
  0
TEXT
  5
3D5
330
36C
100
AcDbEntity
  8
KEIKAKU
 62
     2
100
AcDbText
 10
1935.000000281874
 20
667.5000040224112
 30
0.0
 40
30.0
  1
側壁厚ｅ
 41
0.675
 11
1935.000000281874
 21
682.5000040224113
 31
0.0
100
AcDbText
 73
     2
  0
TEXT
  5
3D6
330
36C
100
AcDbEntity
  8
KEIKAKU
 62
     2
100
AcDbText
 10
1935.000000281874
 20
747.5000040224113
 30
0.0
 40
30.0
  1
側溝深Ｈ
 41
0.675
 11
1935.000000281874
 21
762.5000040224112
 31
0.0
100
AcDbText
 73
     2
  0
TEXT
  5
3D7
330
36C
100
AcDbEntity
  8
KEIKAKU
 62
     2
100
AcDbText
 10
1935.000000281874
 20
907.5000040224113
 30
0.0
 40
30.0
  1
形    状
 41
0.675
 11
1935.000000281874
 21
922.5000040224113
 31
0.0
100
AcDbText
 73
     2
  0
TEXT
  5
3D8
330
36C
100
AcDbEntity
  8
KEIKAKU
 62
     2
100
AcDbText
 10
2575.496555399985
 20
827.5000040224112
 30
0.0
 40
30.0
  1
300
 41
0.675
 72
     2
 11
2615.000000281874
 21
842.5000040224112
 31
0.0
100
AcDbText
 73
     2
  0
TEXT
  5
3D9
330
36C
100
AcDbEntity
  8
KEIKAKU
 62
     2
100
AcDbText
 10
2375.496555399985
 20
827.5000040224112
 30
0.0
 40
30.0
  1
300
 41
0.675
 72
     2
 11
2415.000000281875
 21
842.5000040224112
 31
0.0
100
AcDbText
 73
     2
  0
TEXT
  5
3DA
330
36C
100
AcDbEntity
  8
KEIKAKU
 62
     2
100
AcDbText
 10
2175.496555399984
 20
827.5000040224112
 30
0.0
 40
30.0
  1
300
 41
0.675
 72
     2
 11
2215.000000281874
 21
842.5000040224112
 31
0.0
100
AcDbText
 73
     2
  0
TEXT
  5
3DB
330
36C
100
AcDbEntity
  8
KEIKAKU
 62
     2
100
AcDbText
 10
2379.871304415733
 20
587.5000040224112
 30
0.0
 40
30.0
  1
0.0032
 41
0.675
 72
     2
 11
2455.000000281874
 21
602.5000040224113
 31
0.0
100
AcDbText
 73
     2
  0
TEXT
  5
3DC
330
36C
100
AcDbEntity
  8
KEIKAKU
 62
     2
100
AcDbText
 10
2180.248717818069
 20
587.5000040224112
 30
0.0
 40
30.0
  1
0.0025
 41
0.675
 72
     2
 11
2255.000000281874
 21
602.5000040224113
 31
0.0
100
AcDbText
 73
     2
  0
TEXT
  5
3DD
330
36C
100
AcDbEntity
  8
KEIKAKU
 62
     2
100
AcDbText
 10
2194.423717818069
 20
427.5000040224113
 30
0.0
 40
30.0
  1
0.385
 41
0.675
 72
     2
 11
2255.000000281874
 21
442.5000040224112
 31
0.0
100
AcDbText
 73
     2
  0
TEXT
  5
3DE
330
36C
100
AcDbEntity
  8
KEIKAKU
 62
     2
100
AcDbText
 10
2193.221555399984
 20
507.5000040224113
 30
0.0
 40
30.0
  1
0.240
 41
0.675
 72
     2
 11
2255.000000281874
 21
522.5000040224113
 31
0.0
100
AcDbText
 73
     2
  0
TEXT
  5
3DF
330
36C
100
AcDbEntity
  8
KEIKAKU
 62
     2
100
AcDbText
 10
2394.423717818069
 20
427.5000040224113
 30
0.0
 40
30.0
  1
0.385
 41
0.675
 72
     2
 11
2455.000000281874
 21
442.5000040224112
 31
0.0
100
AcDbText
 73
     2
  0
TEXT
  5
3E0
330
36C
100
AcDbEntity
  8
KEIKAKU
 62
     2
100
AcDbText
 10
2393.221555399985
 20
507.5000040224113
 30
0.0
 40
30.0
  1
0.240
 41
0.675
 72
     2
 11
2455.000000281874
 21
522.5000040224113
 31
0.0
100
AcDbText
 73
     2
  0
TEXT
  5
3E1
330
36C
100
AcDbEntity
  8
KEIKAKU
 62
     2
100
AcDbText
 10
2188.848717818069
 20
667.5000040224112
 30
0.0
 40
30.0
  1
75
 41
0.675
 72
     2
 11
2215.000000281874
 21
682.5000040224113
 31
0.0
100
AcDbText
 73
     2
  0
TEXT
  5
3E2
330
36C
100
AcDbEntity
  8
KEIKAKU
 62
     2
100
AcDbText
 10
2175.496555399984
 20
747.5000040224113
 30
0.0
 40
30.0
  1
300
 41
0.675
 72
     2
 11
2215.000000281874
 21
762.5000040224112
 31
0.0
100
AcDbText
 73
     2
  0
TEXT
  5
3E3
330
36C
100
AcDbEntity
  8
KEIKAKU
 62
     2
100
AcDbText
 10
2388.848717818069
 20
667.5000040224112
 30
0.0
 40
30.0
  1
75
 41
0.675
 72
     2
 11
2415.000000281875
 21
682.5000040224113
 31
0.0
100
AcDbText
 73
     2
  0
TEXT
  5
3E4
330
36C
100
AcDbEntity
  8
KEIKAKU
 62
     2
100
AcDbText
 10
2373.471555399985
 20
747.5000040224113
 30
0.0
 40
30.0
  1
400
 41
0.675
 72
     2
 11
2415.000000281875
 21
762.5000040224112
 31
0.0
100
AcDbText
 73
     2
  0
TEXT
  5
3E5
330
36C
100
AcDbEntity
  8
KEIKAKU
 62
     2
100
AcDbText
 10
2581.087500281875
 20
587.5000040224112
 30
0.0
 40
30.0
  1
0.0038
 41
0.675
 72
     2
 11
2655.000000281874
 21
602.5000040224113
 31
0.0
100
AcDbText
 73
     2
  0
TEXT
  5
3E6
330
36C
100
AcDbEntity
  8
KEIKAKU
 62
     2
100
AcDbText
 10
2593.221555399985
 20
507.5000040224113
 30
0.0
 40
30.0
  1
0.240
 41
0.675
 72
     2
 11
2655.000000281874
 21
522.5000040224113
 31
0.0
100
AcDbText
 73
     2
  0
TEXT
  5
3E7
330
36C
100
AcDbEntity
  8
KEIKAKU
 62
     2
100
AcDbText
 10
2594.423717818069
 20
427.5000040224113
 30
0.0
 40
30.0
  1
0.385
 41
0.675
 72
     2
 11
2655.000000281874
 21
442.5000040224112
 31
0.0
100
AcDbText
 73
     2
  0
TEXT
  5
3E8
330
36C
100
AcDbEntity
  8
KEIKAKU
 62
     2
100
AcDbText
 10
2588.848717818069
 20
667.5000040224112
 30
0.0
 40
30.0
  1
75
 41
0.675
 72
     2
 11
2615.000000281874
 21
682.5000040224113
 31
0.0
100
AcDbText
 73
     2
  0
TEXT
  5
3E9
330
36C
100
AcDbEntity
  8
KEIKAKU
 62
     2
100
AcDbText
 10
2575.496555399985
 20
747.5000040224113
 30
0.0
 40
30.0
  1
500
 41
0.675
 72
     2
 11
2615.000000281874
 21
762.5000040224112
 31
0.0
100
AcDbText
 73
     2
  0
TEXT
  5
3EA
330
36C
100
AcDbEntity
  8
KEIKAKU
 62
     2
100
AcDbText
 10
2335.000000281874
 20
907.5000040224113
 30
0.0
 40
30.0
  1
300×400
 41
0.675
 11
2335.000000281874
 21
922.5000040224113
 31
0.0
100
AcDbText
 73
     2
  0
TEXT
  5
3EB
330
36C
100
AcDbEntity
  8
KEIKAKU
 62
     2
100
AcDbText
 10
2135.000000281874
 20
907.5000040224113
 30
0.0
 40
30.0
  1
300×300
 41
0.675
 11
2135.000000281874
 21
922.5000040224113
 31
0.0
100
AcDbText
 73
     2
  0
TEXT
  5
3EC
330
36C
100
AcDbEntity
  8
KEIKAKU
 62
     2
100
AcDbText
 10
2535.000000281874
 20
907.5000040224113
 30
0.0
 40
30.0
  1
300×500
 41
0.675
 11
2535.000000281874
 21
922.5000040224113
 31
0.0
100
AcDbText
 73
     2
  0
TEXT
  5
3ED
330
36C
100
AcDbEntity
  8
KEIKAKU
 62
     2
100
AcDbText
 10
2975.496555399985
 20
827.5000040224112
 30
0.0
 40
30.0
  1
300
 41
0.675
 72
     2
 11
3015.000000281875
 21
842.5000040224112
 31
0.0
100
AcDbText
 73
     2
  0
TEXT
  5
3EE
330
36C
100
AcDbEntity
  8
KEIKAKU
 62
     2
100
AcDbText
 10
2985.137500281874
 20
587.5000040224112
 30
0.0
 40
30.0
  1
0.0051
 41
0.675
 72
     2
 11
3055.000000281874
 21
602.5000040224113
 31
0.0
100
AcDbText
 73
     2
  0
TEXT
  5
3EF
330
36C
100
AcDbEntity
  8
KEIKAKU
 62
     2
100
AcDbText
 10
2994.423717818069
 20
427.5000040224113
 30
0.0
 40
30.0
  1
0.385
 41
0.675
 72
     2
 11
3055.000000281874
 21
442.5000040224112
 31
0.0
100
AcDbText
 73
     2
  0
TEXT
  5
3F0
330
36C
100
AcDbEntity
  8
KEIKAKU
 62
     2
100
AcDbText
 10
2993.221555399985
 20
507.5000040224113
 30
0.0
 40
30.0
  1
0.240
 41
0.675
 72
     2
 11
3055.000000281874
 21
522.5000040224113
 31
0.0
100
AcDbText
 73
     2
  0
TEXT
  5
3F1
330
36C
100
AcDbEntity
  8
KEIKAKU
 62
     2
100
AcDbText
 10
2988.848717818069
 20
667.5000040224112
 30
0.0
 40
30.0
  1
85
 41
0.675
 72
     2
 11
3015.000000281875
 21
682.5000040224113
 31
0.0
100
AcDbText
 73
     2
  0
TEXT
  5
3F2
330
36C
100
AcDbEntity
  8
KEIKAKU
 62
     2
100
AcDbText
 10
2975.496555399985
 20
747.5000040224113
 30
0.0
 40
30.0
  1
700
 41
0.675
 72
     2
 11
3015.000000281875
 21
762.5000040224112
 31
0.0
100
AcDbText
 73
     2
  0
TEXT
  5
3F3
330
36C
100
AcDbEntity
  8
KEIKAKU
 62
     2
100
AcDbText
 10
2935.000000281874
 20
907.5000040224113
 30
0.0
 40
30.0
  1
300×700
 41
0.675
 11
2935.000000281874
 21
922.5000040224113
 31
0.0
100
AcDbText
 73
     2
  0
TEXT
  5
3F4
330
36C
100
AcDbEntity
  8
KEIKAKU
 62
     2
100
AcDbText
 10
2951.833128532875
 20
1000.094021018316
 30
0.0
 40
30.0
  1
10m当
 41
0.675
100
AcDbText
  0
ENDBLK
  5
3F6
330
36C
100
AcDbEntity
  8
0
100
AcDbBlockEnd
  0
BLOCK
  5
2A9A
330
2A96
100
AcDbEntity
  8
0
100
AcDbBlockBegin
  2
_Open
 70
     0
 10
0.0
 20
0.0
 30
0.0
  3
_Open
  1

  0
LINE
  5
2A97
330
2A96
100
AcDbEntity
  8
0
 62
     0
370
    -2
100
AcDbLine
 10
-1.0
 20
0.1666666666666666
 30
0.0
 11
0.0
 21
0.0
 31
0.0
  0
LINE
  5
2A98
330
2A96
100
AcDbEntity
  8
0
 62
     0
370
    -2
100
AcDbLine
 10
-1.0
 20
-0.1666666666666666
 30
0.0
 11
0.0
 21
0.0
 31
0.0
  0
LINE
  5
2A99
330
2A96
100
AcDbEntity
  8
0
 62
     0
370
    -2
100
AcDbLine
 10
0.0
 20
0.0
 30
0.0
 11
-1.0
 21
0.0
 31
0.0
  0
ENDBLK
  5
2A9B
330
2A96
100
AcDbEntity
  8
0
100
AcDbBlockEnd
  0
BLOCK
  5
2AA1
330
2A9C
100
AcDbEntity
  8
0
100
AcDbBlockBegin
  2
_Closed
 70
     0
 10
0.0
 20
0.0
 30
0.0
  3
_Closed
  1

  0
LINE
  5
2A9D
330
2A9C
100
AcDbEntity
  8
0
 62
     0
370
    -2
100
AcDbLine
 10
-1.0
 20
0.1666666666666666
 30
0.0
 11
0.0
 21
0.0
 31
0.0
  0
LINE
  5
2A9E
330
2A9C
100
AcDbEntity
  8
0
 62
     0
370
    -2
100
AcDbLine
 10
0.0
 20
0.0
 30
0.0
 11
-1.0
 21
-0.1666666666666666
 31
0.0
  0
LINE
  5
2A9F
330
2A9C
100
AcDbEntity
  8
0
 62
     0
370
    -2
100
AcDbLine
 10
-1.0
 20
0.1666666666666666
 30
0.0
 11
-1.0
 21
-0.1666666666666666
 31
0.0
  0
LINE
  5
2AA0
330
2A9C
100
AcDbEntity
  8
0
 62
     0
370
    -2
100
AcDbLine
 10
0.0
 20
0.0
 30
0.0
 11
-1.0
 21
0.0
 31
0.0
  0
ENDBLK
  5
2AA2
330
2A9C
100
AcDbEntity
  8
0
100
AcDbBlockEnd
  0
BLOCK
  5
2BF3
330
2BEF
100
AcDbEntity
  8
0
100
AcDbBlockBegin
  2
ARROW
 70
     0
 10
0.0
 20
0.0
 30
0.0
  3
ARROW
  1

  0
LINE
  5
2BF0
330
2BEF
100
AcDbEntity
  8
0
100
AcDbLine
 10
-0.9999999999999992
 20
0.1666666667000003
 30
0.0
 11
0.0
 21
0.0
 31
0.0
  0
LINE
  5
2BF1
330
2BEF
100
AcDbEntity
  8
0
100
AcDbLine
 10
-0.9999999999999992
 20
0.0
 30
0.0
 11
0.0
 21
0.0
 31
0.0
  0
LINE
  5
2BF2
330
2BEF
100
AcDbEntity
  8
0
100
AcDbLine
 10
-0.9999999999999992
 20
-0.1666666667000003
 30
0.0
 11
0.0
 21
0.0
 31
0.0
  0
ENDBLK
  5
2BF4
330
2BEF
100
AcDbEntity
  8
0
100
AcDbBlockEnd
  0
BLOCK
  5
34B2
330
34A8
100
AcDbEntity
  8
0
100
AcDbBlockBegin
  2
*D17
 70
     1
 10
0.0
 20
0.0
 30
0.0
  3
*D17
  1

  0
LINE
  5
46C7
330
34A8
100
AcDbEntity
  8
sunpou
100
AcDbLine
 10
941.9580774197884
 20
1406.695748668107
 30
0.0
 11
941.9580774197884
 21
1348.471197283026
 31
0.0
  0
LINE
  5
46C8
330
34A8
100
AcDbEntity
  8
sunpou
100
AcDbLine
 10
1338.156870013496
 20
1367.221197283026
 30
0.0
 11
1338.156870013496
 21
1373.471197283026
 31
0.0
  0
LINE
  5
46C9
330
34A8
100
AcDbEntity
  8
sunpou
100
AcDbLine
 10
966.9580774197884
 20
1360.971197283026
 30
0.0
 11
1313.156870013497
 21
1360.971197283026
 31
0.0
  0
INSERT
  5
46CA
330
34A8
100
AcDbEntity
  8
sunpou
100
AcDbBlockReference
  2
_Open
 10
941.9580774197884
 20
1360.971197283026
 30
0.0
 41
25.0
 42
25.0
 43
25.0
 50
180.0
  0
INSERT
  5
46CB
330
34A8
100
AcDbEntity
  8
sunpou
100
AcDbBlockReference
  2
_Open
 10
1338.156870013496
 20
1360.971197283026
 30
0.0
 41
25.0
 42
25.0
 43
25.0
  0
MTEXT
  5
46CC
330
34A8
100
AcDbEntity
  8
sunpou
100
AcDbMText
 10
1140.058698291068
 20
1382.221197283026
 30
0.0
 40
30.0
 41
0.0
 71
     5
 72
     1
  1
\A1;396
  7
BIGFONT
 73
     1
 44
1.0
  0
POINT
  5
46CD
330
34A8
100
AcDbEntity
  8
DEFPOINTS
 62
     0
100
AcDbPoint
 10
941.9580774197884
 20
1412.945748668107
 30
0.0
  0
POINT
  5
46CE
330
34A8
100
AcDbEntity
  8
DEFPOINTS
 62
     0
100
AcDbPoint
 10
1338.156870013496
 20
1360.971197283026
 30
0.0
  0
POINT
  5
46CF
330
34A8
100
AcDbEntity
  8
DEFPOINTS
 62
     0
100
AcDbPoint
 10
1338.156870013496
 20
1360.971197283026
 30
0.0
  0
ENDBLK
  5
34B3
330
34A8
100
AcDbEntity
  8
0
100
AcDbBlockEnd
  0
BLOCK
  5
34D0
330
34C4
100
AcDbEntity
  8
0
100
AcDbBlockBegin
  2
*D18
 70
     1
 10
0.0
 20
0.0
 30
0.0
  3
*D18
  1

  0
LINE
  5
45C9
330
34C4
100
AcDbEntity
  8
sunpou
100
AcDbLine
 10
1146.308698291068
 20
1586.199164936625
 30
0.0
 11
1190.415841148211
 21
1586.199164936625
 31
0.0
  0
LINE
  5
45CA
330
34C4
100
AcDbEntity
  8
sunpou
100
AcDbLine
 10
1146.308698291068
 20
1478.586644110468
 30
0.0
 11
1190.41584114821
 21
1478.586644110468
 31
0.0
  0
LINE
  5
45CB
330
34C4
100
AcDbEntity
  8
sunpou
100
AcDbLine
 10
1177.915841148211
 20
1561.199164936625
 30
0.0
 11
1177.91584114821
 21
1503.586644110468
 31
0.0
  0
INSERT
  5
45CC
330
34C4
100
AcDbEntity
  8
sunpou
100
AcDbBlockReference
  2
_Open
 10
1177.915841148211
 20
1586.199164936625
 30
0.0
 41
25.0
 42
25.0
 43
25.0
 50
90.0
  0
INSERT
  5
45CD
330
34C4
100
AcDbEntity
  8
sunpou
100
AcDbBlockReference
  2
_Open
 10
1177.91584114821
 20
1478.586644110468
 30
0.0
 41
25.0
 42
25.0
 43
25.0
 50
270.0
  0
MTEXT
  5
45CE
330
34C4
100
AcDbEntity
  8
sunpou
100
AcDbMText
 10
1156.66584114821
 20
1528.58671649328
 30
0.0
 40
30.0
 41
0.0
 71
     5
 72
     1
  1
\A1;108
  7
BIGFONT
 11
0.0000000000000001
 21
1.0
 31
0.0
 73
     1
 44
1.0
  0
POINT
  5
45CF
330
34C4
100
AcDbEntity
  8
DEFPOINTS
 62
     0
100
AcDbPoint
 10
1140.058698291068
 20
1586.199164936625
 30
0.0
  0
POINT
  5
45D0
330
34C4
100
AcDbEntity
  8
DEFPOINTS
 62
     0
100
AcDbPoint
 10
1140.058698291068
 20
1478.586644110468
 30
0.0
  0
POINT
  5
45D1
330
34C4
100
AcDbEntity
  8
DEFPOINTS
 62
     0
100
AcDbPoint
 10
1177.91584114821
 20
1478.586644110468
 30
0.0
  0
ENDBLK
  5
34D1
330
34C4
100
AcDbEntity
  8
0
100
AcDbBlockEnd
  0
BLOCK
  5
34DD
330
34D3
100
AcDbEntity
  8
0
100
AcDbBlockBegin
  2
*D19
 70
     1
 10
0.0
 20
0.0
 30
0.0
  3
*D19
  1

  0
LINE
  5
45D2
330
34D3
100
AcDbEntity
  8
sunpou
100
AcDbLine
 10
1146.308698291068
 20
1478.586644110468
 30
0.0
 11
1190.733928790659
 21
1478.586644110468
 31
0.0
  0
LINE
  5
45D3
330
34D3
100
AcDbEntity
  8
sunpou
100
AcDbLine
 10
1146.308698291068
 20
1038.586417360054
 30
0.0
 11
1190.733928790659
 21
1038.586417360054
 31
0.0
  0
LINE
  5
45D4
330
34D3
100
AcDbEntity
  8
sunpou
100
AcDbLine
 10
1178.233928790659
 20
1453.586644110468
 30
0.0
 11
1178.233928790659
 21
1063.586417360054
 31
0.0
  0
INSERT
  5
45D5
330
34D3
100
AcDbEntity
  8
sunpou
100
AcDbBlockReference
  2
_Open
 10
1178.233928790659
 20
1478.586644110468
 30
0.0
 41
25.0
 42
25.0
 43
25.0
 50
90.0
  0
INSERT
  5
45D6
330
34D3
100
AcDbEntity
  8
sunpou
100
AcDbBlockReference
  2
_Open
 10
1178.233928790659
 20
1038.586417360054
 30
0.0
 41
25.0
 42
25.0
 43
25.0
 50
270.0
  0
MTEXT
  5
45D7
330
34D3
100
AcDbEntity
  8
sunpou
100
AcDbMText
 10
1156.983928790658
 20
1258.586530735262
 30
0.0
 40
30.0
 41
0.0
 71
     5
 72
     1
  1
\A1;440
  7
BIGFONT
 11
0.0000000000000001
 21
1.0
 31
0.0
 73
     1
 44
1.0
  0
POINT
  5
45D8
330
34D3
100
AcDbEntity
  8
DEFPOINTS
 62
     0
100
AcDbPoint
 10
1140.058698291068
 20
1478.586644110468
 30
0.0
  0
POINT
  5
45D9
330
34D3
100
AcDbEntity
  8
DEFPOINTS
 62
     0
100
AcDbPoint
 10
1140.058698291068
 20
1038.586417360054
 30
0.0
  0
POINT
  5
45DA
330
34D3
100
AcDbEntity
  8
DEFPOINTS
 62
     0
100
AcDbPoint
 10
1178.233928790659
 20
1038.586417360054
 30
0.0
  0
ENDBLK
  5
34DE
330
34D3
100
AcDbEntity
  8
0
100
AcDbBlockEnd
  0
BLOCK
  5
36B3
330
36A9
100
AcDbEntity
  8
0
100
AcDbBlockBegin
  2
*D20
 70
     1
 10
0.0
 20
0.0
 30
0.0
  3
*D20
  1

  0
LINE
  5
45DB
330
36A9
100
AcDbEntity
  8
sunpou
  6
ByBlock
 48
3.0
100
AcDbLine
 10
1665.293114549548
 20
1396.199164936625
 30
0.0
 11
1858.825933764758
 21
1396.199164936625
 31
0.0
  0
LINE
  5
45DC
330
36A9
100
AcDbEntity
  8
sunpou
  6
ByBlock
 48
3.0
100
AcDbLine
 10
1665.293114549548
 20
496.1991649366258
 30
0.0
 11
1858.825933764758
 21
496.1991649366258
 31
0.0
  0
LINE
  5
45DD
330
36A9
100
AcDbEntity
  8
sunpou
  6
ByBlock
 48
3.0
100
AcDbLine
 10
1846.325933764758
 20
1371.199164936625
 30
0.0
 11
1846.325933764758
 21
521.1991649366258
 31
0.0
  0
INSERT
  5
45DE
330
36A9
100
AcDbEntity
  8
sunpou
  6
ByBlock
 48
3.0
100
AcDbBlockReference
  2
_Open
 10
1846.325933764758
 20
1396.199164936625
 30
0.0
 41
25.0
 42
25.0
 43
25.0
 50
90.0
  0
INSERT
  5
45DF
330
36A9
100
AcDbEntity
  8
sunpou
  6
ByBlock
 48
3.0
100
AcDbBlockReference
  2
_Open
 10
1846.325933764758
 20
496.1991649366258
 30
0.0
 41
25.0
 42
25.0
 43
25.0
 50
270.0
  0
MTEXT
  5
45E0
330
36A9
100
AcDbEntity
  8
sunpou
  6
ByBlock
 48
3.0
100
AcDbMText
 10
1825.075933764758
 20
925.7863236524004
 30
0.0
 40
30.0
 41
0.0
 71
     5
 72
     1
  1
\A1;900
  7
BIGFONT
 11
0.0000000000000001
 21
1.0
 31
0.0
 73
     1
 44
1.0
  0
POINT
  5
45E1
330
36A9
100
AcDbEntity
  8
DEFPOINTS
  6
ByBlock
 62
     0
 48
3.0
100
AcDbPoint
 10
1659.043114549549
 20
1396.199164936625
 30
0.0
  0
POINT
  5
45E2
330
36A9
100
AcDbEntity
  8
DEFPOINTS
  6
ByBlock
 62
     0
 48
3.0
100
AcDbPoint
 10
1659.043114549549
 20
496.1991649366259
 30
0.0
  0
POINT
  5
45E3
330
36A9
100
AcDbEntity
  8
DEFPOINTS
  6
ByBlock
 62
     0
 48
3.0
100
AcDbPoint
 10
1846.325933764758
 20
496.1991649366258
 30
0.0
  0
ENDBLK
  5
36B4
330
36A9
100
AcDbEntity
  8
0
100
AcDbBlockEnd
  0
BLOCK
  5
36BF
330
36B5
100
AcDbEntity
  8
0
100
AcDbBlockBegin
  2
*D21
 70
     1
 10
0.0
 20
0.0
 30
0.0
  3
*D21
  1

  0
LINE
  5
45E4
330
36B5
100
AcDbEntity
  8
sunpou
  6
ByBlock
 48
3.0
100
AcDbLine
 10
1675.293114549549
 20
858.586716493281
 30
0.0
 11
1772.784248890646
 21
858.586716493281
 31
0.0
  0
LINE
  5
45E5
330
36B5
100
AcDbEntity
  8
sunpou
  6
ByBlock
 48
3.0
100
AcDbLine
 10
1635.010936271195
 20
546.1991649366259
 30
0.0
 11
1772.784248890646
 21
546.1991649366259
 31
0.0
  0
LINE
  5
45E6
330
36B5
100
AcDbEntity
  8
sunpou
  6
ByBlock
 48
3.0
100
AcDbLine
 10
1760.284248890646
 20
833.586716493281
 30
0.0
 11
1760.284248890646
 21
571.1991649366259
 31
0.0
  0
INSERT
  5
45E7
330
36B5
100
AcDbEntity
  8
sunpou
  6
ByBlock
 48
3.0
100
AcDbBlockReference
  2
_Open
 10
1760.284248890646
 20
858.586716493281
 30
0.0
 41
25.0
 42
25.0
 43
25.0
 50
90.0
  0
INSERT
  5
45E8
330
36B5
100
AcDbEntity
  8
sunpou
  6
ByBlock
 48
3.0
100
AcDbBlockReference
  2
_Open
 10
1760.284248890646
 20
546.1991649366259
 30
0.0
 41
25.0
 42
25.0
 43
25.0
 50
270.0
  0
MTEXT
  5
45E9
330
36B5
100
AcDbEntity
  8
sunpou
  6
ByBlock
 48
3.0
100
AcDbMText
 10
1739.034248890646
 20
727.3929407149535
 30
0.0
 40
30.0
 41
0.0
 71
     5
 72
     1
  1
\A1;312
  7
BIGFONT
 11
0.0000000000000001
 21
1.0
 31
0.0
 73
     1
 44
1.0
  0
POINT
  5
45EA
330
36B5
100
AcDbEntity
  8
DEFPOINTS
  6
ByBlock
 62
     0
 48
3.0
100
AcDbPoint
 10
1669.043114549548
 20
858.586716493281
 30
0.0
  0
POINT
  5
45EB
330
36B5
100
AcDbEntity
  8
DEFPOINTS
  6
ByBlock
 62
     0
 48
3.0
100
AcDbPoint
 10
1628.760936271195
 20
546.1991649366259
 30
0.0
  0
POINT
  5
45EC
330
36B5
100
AcDbEntity
  8
DEFPOINTS
  6
ByBlock
 62
     0
 48
3.0
100
AcDbPoint
 10
1760.284248890646
 20
546.1991649366259
 30
0.0
  0
ENDBLK
  5
36C0
330
36B5
100
AcDbEntity
  8
0
100
AcDbBlockEnd
  0
BLOCK
  5
36CB
330
36C1
100
AcDbEntity
  8
0
100
AcDbBlockBegin
  2
*D22
 70
     1
 10
0.0
 20
0.0
 30
0.0
  3
*D22
  1

  0
LINE
  5
45ED
330
36C1
100
AcDbEntity
  8
sunpou
  6
ByBlock
 48
3.0
100
AcDbLine
 10
715.05869829107
 20
489.9491649366259
 30
0.0
 11
715.05869829107
 21
166.7322124802535
 31
0.0
  0
LINE
  5
45EE
330
36C1
100
AcDbEntity
  8
sunpou
  6
ByBlock
 48
3.0
100
AcDbLine
 10
1565.058698291069
 20
489.9491649366259
 30
0.0
 11
1565.058698291069
 21
166.7322124802535
 31
0.0
  0
LINE
  5
45EF
330
36C1
100
AcDbEntity
  8
sunpou
  6
ByBlock
 48
3.0
100
AcDbLine
 10
740.05869829107
 20
179.2322124802535
 30
0.0
 11
1540.058698291069
 21
179.2322124802535
 31
0.0
  0
INSERT
  5
45F0
330
36C1
100
AcDbEntity
  8
sunpou
  6
ByBlock
 48
3.0
100
AcDbBlockReference
  2
_Open
 10
715.05869829107
 20
179.2322124802535
 30
0.0
 41
25.0
 42
25.0
 43
25.0
 50
180.0
  0
INSERT
  5
45F1
330
36C1
100
AcDbEntity
  8
sunpou
  6
ByBlock
 48
3.0
100
AcDbBlockReference
  2
_Open
 10
1565.058698291069
 20
179.2322124802535
 30
0.0
 41
25.0
 42
25.0
 43
25.0
  0
MTEXT
  5
45F2
330
36C1
100
AcDbEntity
  8
sunpou
  6
ByBlock
 48
3.0
100
AcDbMText
 10
1152.557702830488
 20
200.4822124802536
 30
0.0
 40
30.0
 41
0.0
 71
     5
 72
     1
  1
\A1;850
  7
BIGFONT
 73
     1
 44
1.0
  0
POINT
  5
45F3
330
36C1
100
AcDbEntity
  8
DEFPOINTS
  6
ByBlock
 62
     0
 48
3.0
100
AcDbPoint
 10
715.05869829107
 20
496.1991649366259
 30
0.0
  0
POINT
  5
45F4
330
36C1
100
AcDbEntity
  8
DEFPOINTS
  6
ByBlock
 62
     0
 48
3.0
100
AcDbPoint
 10
1565.058698291069
 20
496.1991649366259
 30
0.0
  0
POINT
  5
45F5
330
36C1
100
AcDbEntity
  8
DEFPOINTS
  6
ByBlock
 62
     0
 48
3.0
100
AcDbPoint
 10
1565.058698291069
 20
179.2322124802535
 30
0.0
  0
ENDBLK
  5
36CC
330
36C1
100
AcDbEntity
  8
0
100
AcDbBlockEnd
  0
BLOCK
  5
36D6
330
36CD
100
AcDbEntity
  8
0
100
AcDbBlockBegin
  2
*D23
 70
     1
 10
0.0
 20
0.0
 30
0.0
  3
*D23
  1

  0
LINE
  5
45F6
330
36CD
100
AcDbEntity
  8
sunpou
  6
ByBlock
 48
3.0
100
AcDbLine
 10
1635.010936271195
 20
546.1991649366259
 30
0.0
 11
1772.784248890646
 21
546.1991649366259
 31
0.0
  0
LINE
  5
45F7
330
36CD
100
AcDbEntity
  8
sunpou
  6
ByBlock
 48
3.0
100
AcDbLine
 10
1665.293114549548
 20
496.1991649366258
 30
0.0
 11
1772.784248890645
 21
496.1991649366258
 31
0.0
  0
LINE
  5
45F8
330
36CD
100
AcDbEntity
  8
sunpou
  6
ByBlock
 48
3.0
100
AcDbLine
 10
1760.284248890646
 20
571.1991649366259
 30
0.0
 11
1760.284248890646
 21
596.1991649366259
 31
0.0
  0
LINE
  5
45F9
330
36CD
100
AcDbEntity
  8
sunpou
  6
ByBlock
 48
3.0
100
AcDbLine
 10
1760.284248890645
 20
471.1991649366258
 30
0.0
 11
1760.284248890645
 21
385.1277363651973
 31
0.0
  0
LINE
  5
45FA
330
36CD
100
AcDbEntity
  8
sunpou
  6
ByBlock
 48
3.0
100
AcDbLine
 10
1760.284248890646
 20
546.1991649366259
 30
0.0
 11
1760.284248890645
 21
496.1991649366258
 31
0.0
  0
INSERT
  5
45FB
330
36CD
100
AcDbEntity
  8
sunpou
  6
ByBlock
 48
3.0
100
AcDbBlockReference
  2
_Open
 10
1760.284248890646
 20
546.1991649366259
 30
0.0
 41
25.0
 42
25.0
 43
25.0
 50
270.0
  0
INSERT
  5
45FC
330
36CD
100
AcDbEntity
  8
sunpou
  6
ByBlock
 48
3.0
100
AcDbBlockReference
  2
_Open
 10
1760.284248890645
 20
496.1991649366258
 30
0.0
 41
25.0
 42
25.0
 43
25.0
 50
90.0
  0
MTEXT
  5
45FD
330
36CD
100
AcDbEntity
  8
sunpou
  6
ByBlock
 48
3.0
100
AcDbMText
 10
1739.034248890645
 20
415.6634506509119
 30
0.0
 40
30.0
 41
0.0
 71
     5
 72
     1
  1
\A1;50
  7
BIGFONT
 11
0.0000000000000001
 21
1.0
 31
0.0
 73
     1
 44
1.0
  0
POINT
  5
45FE
330
36CD
100
AcDbEntity
  8
DEFPOINTS
  6
ByBlock
 62
     0
 48
3.0
100
AcDbPoint
 10
1628.760936271195
 20
546.1991649366259
 30
0.0
  0
POINT
  5
45FF
330
36CD
100
AcDbEntity
  8
DEFPOINTS
  6
ByBlock
 62
     0
 48
3.0
100
AcDbPoint
 10
1659.043114549549
 20
496.1991649366259
 30
0.0
  0
POINT
  5
4600
330
36CD
100
AcDbEntity
  8
DEFPOINTS
  6
ByBlock
 62
     0
 48
3.0
100
AcDbPoint
 10
1760.284248890645
 20
496.1991649366258
 30
0.0
  0
ENDBLK
  5
36D7
330
36CD
100
AcDbEntity
  8
0
100
AcDbBlockEnd
  0
BLOCK
  5
36E2
330
36D8
100
AcDbEntity
  8
0
100
AcDbBlockBegin
  2
*D24
 70
     1
 10
0.0
 20
0.0
 30
0.0
  3
*D24
  1

  0
LINE
  5
4601
330
36D8
100
AcDbEntity
  8
sunpou
 48
3.0
100
AcDbLine
 10
1606.33328714501
 20
1586.199164936631
 30
0.0
 11
1858.825933764758
 21
1586.199164936631
 31
0.0
  0
LINE
  5
4602
330
36D8
100
AcDbEntity
  8
sunpou
 48
3.0
100
AcDbLine
 10
1751.334799423661
 20
1396.199164936631
 30
0.0
 11
1858.825933764758
 21
1396.199164936631
 31
0.0
  0
LINE
  5
4603
330
36D8
100
AcDbEntity
  8
sunpou
 48
3.0
100
AcDbLine
 10
1846.325933764758
 20
1561.199164936631
 30
0.0
 11
1846.325933764758
 21
1421.199164936631
 31
0.0
  0
INSERT
  5
4604
330
36D8
100
AcDbEntity
  8
sunpou
 48
3.0
100
AcDbBlockReference
  2
_Open
 10
1846.325933764758
 20
1586.199164936631
 30
0.0
 41
25.0
 42
25.0
 43
25.0
 50
90.0
  0
INSERT
  5
4605
330
36D8
100
AcDbEntity
  8
sunpou
 48
3.0
100
AcDbBlockReference
  2
_Open
 10
1846.325933764758
 20
1396.199164936631
 30
0.0
 41
25.0
 42
25.0
 43
25.0
 50
270.0
  0
MTEXT
  5
4606
330
36D8
100
AcDbEntity
  8
sunpou
 48
3.0
100
AcDbMText
 10
1825.075933764758
 20
1486.913879315586
 30
0.0
 40
30.0
 41
0.0
 71
     5
 72
     1
  1
\A1;190
  7
BIGFONT
 11
0.0000000000000001
 21
1.0
 31
0.0
 73
     1
 44
1.0
  0
POINT
  5
4607
330
36D8
100
AcDbEntity
  8
DEFPOINTS
 62
     0
 48
3.0
100
AcDbPoint
 10
1600.08328714501
 20
1586.199164936631
 30
0.0
  0
POINT
  5
4608
330
36D8
100
AcDbEntity
  8
DEFPOINTS
 62
     0
 48
3.0
100
AcDbPoint
 10
1745.084799423661
 20
1396.199164936631
 30
0.0
  0
POINT
  5
4609
330
36D8
100
AcDbEntity
  8
DEFPOINTS
 62
     0
 48
3.0
100
AcDbPoint
 10
1846.325933764758
 20
1396.199164936631
 30
0.0
  0
ENDBLK
  5
36E3
330
36D8
100
AcDbEntity
  8
0
100
AcDbBlockEnd
  0
BLOCK
  5
37C0
330
37B6
100
AcDbEntity
  8
0
100
AcDbBlockBegin
  2
*D25
 70
     1
 10
0.0
 20
0.0
 30
0.0
  3
*D25
  1

  0
LINE
  5
460A
330
37B6
100
AcDbEntity
  8
sunpou
  6
ByBlock
 48
3.0
100
AcDbLine
 10
1675.293114549549
 20
958.5867164932796
 30
0.0
 11
1772.784248890646
 21
958.5867164932796
 31
0.0
  0
LINE
  5
460B
330
37B6
100
AcDbEntity
  8
sunpou
  6
ByBlock
 48
3.0
100
AcDbLine
 10
1681.543114549549
 20
858.586716493281
 30
0.0
 11
1772.784248890646
 21
858.586716493281
 31
0.0
  0
LINE
  5
460C
330
37B6
100
AcDbEntity
  8
sunpou
  6
ByBlock
 48
3.0
100
AcDbLine
 10
1760.284248890646
 20
933.5867164932796
 30
0.0
 11
1760.284248890646
 21
883.586716493281
 31
0.0
  0
INSERT
  5
460D
330
37B6
100
AcDbEntity
  8
sunpou
  6
ByBlock
 48
3.0
100
AcDbBlockReference
  2
_Open
 10
1760.284248890646
 20
958.5867164932796
 30
0.0
 41
25.0
 42
25.0
 43
25.0
 50
90.0
  0
INSERT
  5
460E
330
37B6
100
AcDbEntity
  8
sunpou
  6
ByBlock
 48
3.0
100
AcDbBlockReference
  2
_Open
 10
1760.284248890646
 20
858.586716493281
 30
0.0
 41
25.0
 42
25.0
 43
25.0
 50
270.0
  0
MTEXT
  5
460F
330
37B6
100
AcDbEntity
  8
sunpou
  6
ByBlock
 48
3.0
100
AcDbMText
 10
1739.034248890646
 20
908.5867164932801
 30
0.0
 40
30.0
 41
0.0
 71
     5
 72
     1
  1
\A1;100
  7
BIGFONT
 11
0.0000000000000001
 21
1.0
 31
0.0
 73
     1
 44
1.0
  0
POINT
  5
4610
330
37B6
100
AcDbEntity
  8
DEFPOINTS
  6
ByBlock
 62
     0
 48
3.0
100
AcDbPoint
 10
1669.043114549548
 20
958.5867164932796
 30
0.0
  0
POINT
  5
4611
330
37B6
100
AcDbEntity
  8
DEFPOINTS
  6
ByBlock
 62
     0
 48
3.0
100
AcDbPoint
 10
1675.293114549549
 20
858.586716493281
 30
0.0
  0
POINT
  5
4612
330
37B6
100
AcDbEntity
  8
DEFPOINTS
  6
ByBlock
 62
     0
 48
3.0
100
AcDbPoint
 10
1760.284248890646
 20
858.586716493281
 30
0.0
  0
ENDBLK
  5
37C1
330
37B6
100
AcDbEntity
  8
0
100
AcDbBlockEnd
  0
BLOCK
  5
37F8
330
37EC
100
AcDbEntity
  8
0
100
AcDbBlockBegin
  2
*D26
 70
     1
 10
0.0
 20
0.0
 30
0.0
  3
*D26
  1

  0
LINE
  5
4613
330
37EC
100
AcDbEntity
  8
sunpou
  6
ByBlock
 48
3.0
100
AcDbLine
 10
1662.993554099419
 20
1396.199164936625
 30
0.0
 11
1772.784248890646
 21
1396.199164936625
 31
0.0
  0
LINE
  5
4614
330
37EC
100
AcDbEntity
  8
sunpou
  6
ByBlock
 48
3.0
100
AcDbLine
 10
1681.543114549549
 20
958.5867164932796
 30
0.0
 11
1772.784248890646
 21
958.5867164932796
 31
0.0
  0
LINE
  5
4615
330
37EC
100
AcDbEntity
  8
sunpou
  6
ByBlock
 48
3.0
100
AcDbLine
 10
1760.284248890646
 20
1371.199164936625
 30
0.0
 11
1760.284248890646
 21
983.5867164932796
 31
0.0
  0
INSERT
  5
4616
330
37EC
100
AcDbEntity
  8
sunpou
  6
ByBlock
 48
3.0
100
AcDbBlockReference
  2
_Open
 10
1760.284248890646
 20
1396.199164936625
 30
0.0
 41
25.0
 42
25.0
 43
25.0
 50
90.0
  0
INSERT
  5
4617
330
37EC
100
AcDbEntity
  8
sunpou
  6
ByBlock
 48
3.0
100
AcDbBlockReference
  2
_Open
 10
1760.284248890646
 20
958.5867164932796
 30
0.0
 41
25.0
 42
25.0
 43
25.0
 50
270.0
  0
MTEXT
  5
4618
330
37EC
100
AcDbEntity
  8
sunpou
  6
ByBlock
 48
3.0
100
AcDbMText
 10
1739.034248890646
 20
1177.392940714952
 30
0.0
 40
30.0
 41
0.0
 71
     5
 72
     1
  1
\A1;438
  7
BIGFONT
 11
0.0000000000000001
 21
1.0
 31
0.0
 73
     1
 44
1.0
  0
POINT
  5
4619
330
37EC
100
AcDbEntity
  8
DEFPOINTS
  6
ByBlock
 62
     0
 48
3.0
100
AcDbPoint
 10
1656.743554099419
 20
1396.199164936625
 30
0.0
  0
POINT
  5
461A
330
37EC
100
AcDbEntity
  8
DEFPOINTS
  6
ByBlock
 62
     0
 48
3.0
100
AcDbPoint
 10
1675.293114549549
 20
958.5867164932796
 30
0.0
  0
POINT
  5
461B
330
37EC
100
AcDbEntity
  8
DEFPOINTS
  6
ByBlock
 62
     0
 48
3.0
100
AcDbPoint
 10
1760.284248890646
 20
958.5867164932796
 30
0.0
  0
ENDBLK
  5
37F9
330
37EC
100
AcDbEntity
  8
0
100
AcDbBlockEnd
  0
BLOCK
  5
3913
330
3909
100
AcDbEntity
  8
0
100
AcDbBlockBegin
  2
*D27
 70
     1
 10
0.0
 20
0.0
 30
0.0
  3
*D27
  1

  0
LINE
  5
461C
330
3909
100
AcDbEntity
  8
sunpou
100
AcDbLine
 10
850.0565817149144
 20
1582.449164936807
 30
0.0
 11
850.0565817149144
 21
1709.388267381541
 31
0.0
  0
LINE
  5
461D
330
3909
100
AcDbEntity
  8
sunpou
100
AcDbLine
 10
1430.057186012418
 20
1582.449164936625
 30
0.0
 11
1430.057186012418
 21
1709.388267381541
 31
0.0
  0
LINE
  5
461E
330
3909
100
AcDbEntity
  8
sunpou
100
AcDbLine
 10
875.0565817149144
 20
1696.888267381541
 30
0.0
 11
1405.057186012418
 21
1696.888267381541
 31
0.0
  0
INSERT
  5
461F
330
3909
100
AcDbEntity
  8
sunpou
100
AcDbBlockReference
  2
_Open
 10
850.0565817149144
 20
1696.888267381541
 30
0.0
 41
25.0
 42
25.0
 43
25.0
 50
180.0
  0
INSERT
  5
4620
330
3909
100
AcDbEntity
  8
sunpou
100
AcDbBlockReference
  2
_Open
 10
1430.057186012418
 20
1696.888267381541
 30
0.0
 41
25.0
 42
25.0
 43
25.0
  0
MTEXT
  5
4621
330
3909
100
AcDbEntity
  8
sunpou
100
AcDbMText
 10
1145.361489748042
 20
1718.138267381541
 30
0.0
 40
30.0
 41
0.0
 71
     5
 72
     1
  1
\A1;580
  7
BIGFONT
 73
     1
 44
1.0
  0
POINT
  5
4622
330
3909
100
AcDbEntity
  8
DEFPOINTS
 62
     0
100
AcDbPoint
 10
850.0565817149144
 20
1576.199164936807
 30
0.0
  0
POINT
  5
4623
330
3909
100
AcDbEntity
  8
DEFPOINTS
 62
     0
100
AcDbPoint
 10
1430.057186012418
 20
1576.199164936625
 30
0.0
  0
POINT
  5
4624
330
3909
100
AcDbEntity
  8
DEFPOINTS
 62
     0
100
AcDbPoint
 10
1430.057186012418
 20
1696.888267381541
 30
0.0
  0
ENDBLK
  5
3914
330
3909
100
AcDbEntity
  8
0
100
AcDbBlockEnd
  0
BLOCK
  5
3932
330
3928
100
AcDbEntity
  8
0
100
AcDbBlockBegin
  2
*D28
 70
     1
 10
0.0
 20
0.0
 30
0.0
  3
*D28
  1

  0
LINE
  5
4625
330
3928
100
AcDbEntity
  8
sunpou
100
AcDbLine
 10
840.0586982910699
 20
489.9491649366259
 30
0.0
 11
840.0586982910699
 21
311.4596662861677
 31
0.0
  0
LINE
  5
4626
330
3928
100
AcDbEntity
  8
sunpou
100
AcDbLine
 10
1440.05869829107
 20
489.9491649366259
 30
0.0
 11
1440.05869829107
 21
311.4596662861677
 31
0.0
  0
LINE
  5
4627
330
3928
100
AcDbEntity
  8
sunpou
100
AcDbLine
 10
865.0586982910699
 20
323.9596662861677
 30
0.0
 11
1415.05869829107
 21
323.9596662861677
 31
0.0
  0
INSERT
  5
4628
330
3928
100
AcDbEntity
  8
sunpou
100
AcDbBlockReference
  2
_Open
 10
840.0586982910699
 20
323.9596662861677
 30
0.0
 41
25.0
 42
25.0
 43
25.0
 50
180.0
  0
INSERT
  5
4629
330
3928
100
AcDbEntity
  8
sunpou
100
AcDbBlockReference
  2
_Open
 10
1440.05869829107
 20
323.9596662861677
 30
0.0
 41
25.0
 42
25.0
 43
25.0
  0
MTEXT
  5
462A
330
3928
100
AcDbEntity
  8
sunpou
100
AcDbMText
 10
1139.860313641851
 20
345.2096662861677
 30
0.0
 40
30.0
 41
0.0
 71
     5
 72
     1
  1
\A1;600
  7
BIGFONT
 73
     1
 44
1.0
  0
POINT
  5
462B
330
3928
100
AcDbEntity
  8
DEFPOINTS
 62
     0
100
AcDbPoint
 10
840.0586982910699
 20
496.1991649366259
 30
0.0
  0
POINT
  5
462C
330
3928
100
AcDbEntity
  8
DEFPOINTS
 62
     0
100
AcDbPoint
 10
1440.05869829107
 20
496.1991649366259
 30
0.0
  0
POINT
  5
462D
330
3928
100
AcDbEntity
  8
DEFPOINTS
 62
     0
100
AcDbPoint
 10
1440.05869829107
 20
323.9596662861677
 30
0.0
  0
ENDBLK
  5
3933
330
3928
100
AcDbEntity
  8
0
100
AcDbBlockEnd
  0
BLOCK
  5
3F09
330
3EFC
100
AcDbEntity
  8
0
100
AcDbBlockBegin
  2
A$C0F7954E8
 70
     0
 10
0.0
 20
0.0
 30
0.0
  3
A$C0F7954E8
  1

  0
LINE
  5
3EFD
330
3EFC
100
AcDbEntity
  8
KIJUN
100
AcDbLine
 10
175.5346230103832
 20
111.4758205341736
 30
0.0
 11
755.5319037054933
 21
111.4758205341754
 31
0.0
  0
LEADER
  5
3EFE
330
3EFC
100
AcDbEntity
  8
sunpou
100
AcDbLeader
  3
ISO-25
 73
     0
 75
     1
 40
30.00000000000002
 41
107.9999999999999
 76
     3
 10
225.8890846301992
 20
179.1217227860957
 30
0.0
 10
24.99999995044436
 20
-0.0000010313519851
 30
0.0
 10
-0.0000000495556378
 20
-0.0000010313519851
 30
0.0
340
3EFF
213
0.0
223
-8.953556552835834
233
0.0
1001
ACAD
1000
DSTYLE
1002
{
1070
   147
1040
0.625
1070
    77
1070
     0
1070
    40
1040
10.0
1070
    73
1070
     0
1070
   140
1040
3.0
1070
   171
1070
     4
1070
   176
1070
   256
1070
   177
1070
   256
1070
   178
1070
   256
1070
   271
1070
     0
1070
   272
1070
     0
1070
   273
1070
     8
1070
   274
1070
     4
1070
   288
1070
     1
1070
   340
1005
2BF5
1070
   341
1005
2A96
1070
   342
1005
2A96
1070
   371
1070
    -1
1070
   372
1070
    -1
1002
}
  0
MTEXT
  5
3EFF
102
{ACAD_REACTORS
330
3EFE
102
}
330
3EFC
100
AcDbEntity
  8
sunpou
100
AcDbMText
 10
-6.250000049555637
 20
8.953555521483849
 30
0.0
 40
30.0
 41
0.0
 71
     9
 72
     1
  1
側溝桝
  7
BIGFONT
 73
     1
 44
1.0
  0
LINE
  5
3F00
330
3EFC
100
AcDbEntity
  8
TB
 48
3.0
100
AcDbLine
 10
285.1486479733221
 20
401.4758205341745
 30
0.0
 11
295.5346230103832
 21
201.4758205341741
 31
0.0
  0
LINE
  5
3F01
330
3EFC
100
AcDbEntity
  8
TB
 48
3.0
100
AcDbLine
 10
295.5346230103832
 20
201.4758205341741
 30
0.0
 11
635.5319037054924
 21
201.4758205341755
 31
0.0
  0
LINE
  5
3F02
330
3EFC
100
AcDbEntity
  8
KIJUN
100
AcDbLine
 10
716.8964602387432
 20
481.4758205341759
 30
0.0
 11
755.5319037054914
 21
481.4758205341777
 31
0.0
  0
LINE
  5
3F03
330
3EFC
100
AcDbEntity
  8
KIJUN
100
AcDbLine
 10
175.5346230103832
 20
481.4758205341759
 30
0.0
 11
175.5346230103832
 21
111.4758205341736
 31
0.0
  0
LINE
  5
3F04
330
3EFC
100
AcDbEntity
  8
KIJUN
100
AcDbLine
 10
214.1700664771306
 20
481.4758205341759
 30
0.0
 11
175.5346230103832
 21
481.4758205341759
 31
0.0
  0
LINE
  5
3F05
330
3EFC
100
AcDbEntity
  8
TB
 48
3.0
100
AcDbLine
 10
645.9178787425526
 20
401.4758205341754
 30
0.0
 11
635.5319037054924
 21
201.4758205341755
 31
0.0
  0
LINE
  5
3F06
330
3EFC
100
AcDbEntity
  8
TB
 48
3.0
100
AcDbLine
 10
290.5333053518461
 20
553.423412504394
 30
0.0
 11
285.1486479733221
 21
401.4758205341745
 31
0.0
  0
LINE
  5
3F07
330
3EFC
100
AcDbEntity
  8
TB
 48
3.0
100
AcDbLine
 10
640.5333053500353
 20
553.4245385943168
 30
0.0
 11
645.9189404807448
 21
401.4769812764329
 31
0.0
  0
LINE
  5
3F08
330
3EFC
100
AcDbEntity
  8
KIJUN
100
AcDbLine
 10
755.5319037054914
 20
481.4758205341777
 30
0.0
 11
755.5319037054933
 21
111.4758205341754
 31
0.0
  0
ENDBLK
  5
3F0A
330
3EFC
100
AcDbEntity
  8
0
100
AcDbBlockEnd
  0
BLOCK
  5
4918
330
4917
100
AcDbEntity
  8
0
100
AcDbBlockBegin
  2
*D64
 70
     1
 10
0.0
 20
0.0
 30
0.0
  3
*D64
  1

  0
LINE
  5
4A80
330
4917
100
AcDbEntity
  8
sunpou
100
AcDbLine
 10
3462.005045633527
 20
1423.261728332493
 30
0.0
 11
3462.005045633527
 21
1351.504396521627
 31
0.0
  0
LINE
  5
4A81
330
4917
100
AcDbEntity
  8
sunpou
100
AcDbLine
 10
3858.203838227235
 20
1429.513003062398
 30
0.0
 11
3858.203838227235
 21
1351.504396521627
 31
0.0
  0
LINE
  5
4A82
330
4917
100
AcDbEntity
  8
sunpou
100
AcDbLine
 10
3487.005045633527
 20
1364.004396521627
 30
0.0
 11
3833.203838227235
 21
1364.004396521627
 31
0.0
  0
INSERT
  5
4A83
330
4917
100
AcDbEntity
  8
sunpou
100
AcDbBlockReference
  2
_Open
 10
3462.005045633527
 20
1364.004396521627
 30
0.0
 41
25.0
 42
25.0
 43
25.0
 50
180.0
  0
INSERT
  5
4A84
330
4917
100
AcDbEntity
  8
sunpou
100
AcDbBlockReference
  2
_Open
 10
3858.203838227235
 20
1364.004396521627
 30
0.0
 41
25.0
 42
25.0
 43
25.0
  0
MTEXT
  5
4A85
330
4917
100
AcDbEntity
  8
sunpou
100
AcDbMText
 10
3660.105666504807
 20
1385.254396521627
 30
0.0
 40
30.0
 41
0.0
 71
     5
 72
     1
  1
\A1;396
  7
BIGFONT
 73
     1
 44
1.0
  0
POINT
  5
4A86
330
4917
100
AcDbEntity
  8
DEFPOINTS
 62
     0
100
AcDbPoint
 10
3462.005045633527
 20
1429.511728332493
 30
0.0
  0
POINT
  5
4A87
330
4917
100
AcDbEntity
  8
DEFPOINTS
 62
     0
100
AcDbPoint
 10
3858.203838227235
 20
1435.763003062398
 30
0.0
  0
POINT
  5
4A88
330
4917
100
AcDbEntity
  8
DEFPOINTS
 62
     0
100
AcDbPoint
 10
3858.203838227235
 20
1364.004396521627
 30
0.0
  0
ENDBLK
  5
4919
330
4917
100
AcDbEntity
  8
0
100
AcDbBlockEnd
  0
BLOCK
  5
4924
330
4923
100
AcDbEntity
  8
0
100
AcDbBlockBegin
  2
*D65
 70
     1
 10
0.0
 20
0.0
 30
0.0
  3
*D65
  1

  0
LINE
  5
4A89
330
4923
100
AcDbEntity
  8
sunpou
100
AcDbLine
 10
3666.355666504806
 20
1602.765144601011
 30
0.0
 11
3710.462809361949
 21
1602.765144601011
 31
0.0
  0
LINE
  5
4A8A
330
4923
100
AcDbEntity
  8
sunpou
100
AcDbLine
 10
3666.355666504806
 20
1495.152623774854
 30
0.0
 11
3710.462809361949
 21
1495.152623774854
 31
0.0
  0
LINE
  5
4A8B
330
4923
100
AcDbEntity
  8
sunpou
100
AcDbLine
 10
3697.962809361949
 20
1577.765144601011
 30
0.0
 11
3697.962809361949
 21
1520.152623774854
 31
0.0
  0
INSERT
  5
4A8C
330
4923
100
AcDbEntity
  8
sunpou
100
AcDbBlockReference
  2
_Open
 10
3697.962809361949
 20
1602.765144601011
 30
0.0
 41
25.0
 42
25.0
 43
25.0
 50
90.0
  0
INSERT
  5
4A8D
330
4923
100
AcDbEntity
  8
sunpou
100
AcDbBlockReference
  2
_Open
 10
3697.962809361949
 20
1495.152623774854
 30
0.0
 41
25.0
 42
25.0
 43
25.0
 50
270.0
  0
MTEXT
  5
4A8E
330
4923
100
AcDbEntity
  8
sunpou
100
AcDbMText
 10
3676.712809361948
 20
1545.152696157666
 30
0.0
 40
30.0
 41
0.0
 71
     5
 72
     1
  1
\A1;108
  7
BIGFONT
 11
0.0000000000000001
 21
1.0
 31
0.0
 73
     1
 44
1.0
  0
POINT
  5
4A8F
330
4923
100
AcDbEntity
  8
DEFPOINTS
 62
     0
100
AcDbPoint
 10
3660.105666504807
 20
1602.765144601011
 30
0.0
  0
POINT
  5
4A90
330
4923
100
AcDbEntity
  8
DEFPOINTS
 62
     0
100
AcDbPoint
 10
3660.105666504807
 20
1495.152623774854
 30
0.0
  0
POINT
  5
4A91
330
4923
100
AcDbEntity
  8
DEFPOINTS
 62
     0
100
AcDbPoint
 10
3697.962809361949
 20
1495.152623774854
 30
0.0
  0
ENDBLK
  5
4925
330
4923
100
AcDbEntity
  8
0
100
AcDbBlockEnd
  0
BLOCK
  5
4930
330
492F
100
AcDbEntity
  8
0
100
AcDbBlockBegin
  2
*D66
 70
     1
 10
0.0
 20
0.0
 30
0.0
  3
*D66
  1

  0
LINE
  5
4A92
330
492F
100
AcDbEntity
  8
sunpou
100
AcDbLine
 10
3666.355666504806
 20
1495.152623774854
 30
0.0
 11
3710.780897004397
 21
1495.152623774854
 31
0.0
  0
LINE
  5
4A93
330
492F
100
AcDbEntity
  8
sunpou
100
AcDbLine
 10
3666.355666504806
 20
1055.15239702444
 30
0.0
 11
3710.780897004397
 21
1055.15239702444
 31
0.0
  0
LINE
  5
4A94
330
492F
100
AcDbEntity
  8
sunpou
100
AcDbLine
 10
3698.280897004397
 20
1470.152623774854
 30
0.0
 11
3698.280897004397
 21
1080.152397024439
 31
0.0
  0
INSERT
  5
4A95
330
492F
100
AcDbEntity
  8
sunpou
100
AcDbBlockReference
  2
_Open
 10
3698.280897004397
 20
1495.152623774854
 30
0.0
 41
25.0
 42
25.0
 43
25.0
 50
90.0
  0
INSERT
  5
4A96
330
492F
100
AcDbEntity
  8
sunpou
100
AcDbBlockReference
  2
_Open
 10
3698.280897004397
 20
1055.15239702444
 30
0.0
 41
25.0
 42
25.0
 43
25.0
 50
270.0
  0
MTEXT
  5
4A97
330
492F
100
AcDbEntity
  8
sunpou
100
AcDbMText
 10
3677.030897004396
 20
1275.152510399647
 30
0.0
 40
30.0
 41
0.0
 71
     5
 72
     1
  1
\A1;440
  7
BIGFONT
 11
0.0000000000000001
 21
1.0
 31
0.0
 73
     1
 44
1.0
  0
POINT
  5
4A98
330
492F
100
AcDbEntity
  8
DEFPOINTS
 62
     0
100
AcDbPoint
 10
3660.105666504807
 20
1495.152623774854
 30
0.0
  0
POINT
  5
4A99
330
492F
100
AcDbEntity
  8
DEFPOINTS
 62
     0
100
AcDbPoint
 10
3660.105666504807
 20
1055.15239702444
 30
0.0
  0
POINT
  5
4A9A
330
492F
100
AcDbEntity
  8
DEFPOINTS
 62
     0
100
AcDbPoint
 10
3698.280897004397
 20
1055.15239702444
 30
0.0
  0
ENDBLK
  5
4931
330
492F
100
AcDbEntity
  8
0
100
AcDbBlockEnd
  0
BLOCK
  5
493C
330
493B
100
AcDbEntity
  8
0
100
AcDbBlockBegin
  2
*D67
 70
     1
 10
0.0
 20
0.0
 30
0.0
  3
*D67
  1

  0
LINE
  5
4A9B
330
493B
100
AcDbEntity
  8
sunpou
  6
ByBlock
 48
3.0
100
AcDbLine
 10
4091.355666504806
 20
1412.765144601011
 30
0.0
 11
4378.872901978495
 21
1412.765144601011
 31
0.0
  0
LINE
  5
4A9C
330
493B
100
AcDbEntity
  8
sunpou
  6
ByBlock
 48
3.0
100
AcDbLine
 10
4185.340082763286
 20
512.7651446010113
 30
0.0
 11
4378.872901978495
 21
512.7651446010112
 31
0.0
  0
LINE
  5
4A9D
330
493B
100
AcDbEntity
  8
sunpou
  6
ByBlock
 48
3.0
100
AcDbLine
 10
4366.372901978496
 20
1387.765144601011
 30
0.0
 11
4366.372901978496
 21
537.7651446010112
 31
0.0
  0
INSERT
  5
4A9E
330
493B
100
AcDbEntity
  8
sunpou
  6
ByBlock
 48
3.0
100
AcDbBlockReference
  2
_Open
 10
4366.372901978496
 20
1412.765144601011
 30
0.0
 41
25.0
 42
25.0
 43
25.0
 50
90.0
  0
INSERT
  5
4A9F
330
493B
100
AcDbEntity
  8
sunpou
  6
ByBlock
 48
3.0
100
AcDbBlockReference
  2
_Open
 10
4366.372901978496
 20
512.7651446010112
 30
0.0
 41
25.0
 42
25.0
 43
25.0
 50
270.0
  0
MTEXT
  5
4AA0
330
493B
100
AcDbEntity
  8
sunpou
  6
ByBlock
 48
3.0
100
AcDbMText
 10
4345.122901978496
 20
942.3523033167857
 30
0.0
 40
30.0
 41
0.0
 71
     5
 72
     1
  1
\A1;900
  7
BIGFONT
 11
0.0000000000000001
 21
1.0
 31
0.0
 73
     1
 44
1.0
  0
POINT
  5
4AA1
330
493B
100
AcDbEntity
  8
DEFPOINTS
  6
ByBlock
 62
     0
 48
3.0
100
AcDbPoint
 10
4085.105666504806
 20
1412.765144601011
 30
0.0
  0
POINT
  5
4AA2
330
493B
100
AcDbEntity
  8
DEFPOINTS
  6
ByBlock
 62
     0
 48
3.0
100
AcDbPoint
 10
4179.090082763287
 20
512.7651446010113
 30
0.0
  0
POINT
  5
4AA3
330
493B
100
AcDbEntity
  8
DEFPOINTS
  6
ByBlock
 62
     0
 48
3.0
100
AcDbPoint
 10
4366.372901978496
 20
512.7651446010112
 30
0.0
  0
ENDBLK
  5
493D
330
493B
100
AcDbEntity
  8
0
100
AcDbBlockEnd
  0
BLOCK
  5
4948
330
4947
100
AcDbEntity
  8
0
100
AcDbBlockBegin
  2
*D68
 70
     1
 10
0.0
 20
0.0
 30
0.0
  3
*D68
  1

  0
LINE
  5
4AA4
330
4947
100
AcDbEntity
  8
sunpou
  6
ByBlock
 48
3.0
100
AcDbLine
 10
4195.340082763286
 20
875.1526961576665
 30
0.0
 11
4292.831217104384
 21
875.1526961576665
 31
0.0
  0
LINE
  5
4AA5
330
4947
100
AcDbEntity
  8
sunpou
  6
ByBlock
 48
3.0
100
AcDbLine
 10
4091.355666504806
 20
562.7651446010113
 30
0.0
 11
4292.831217104384
 21
562.7651446010113
 31
0.0
  0
LINE
  5
4AA6
330
4947
100
AcDbEntity
  8
sunpou
  6
ByBlock
 48
3.0
100
AcDbLine
 10
4280.331217104384
 20
850.1526961576665
 30
0.0
 11
4280.331217104384
 21
587.7651446010113
 31
0.0
  0
INSERT
  5
4AA7
330
4947
100
AcDbEntity
  8
sunpou
  6
ByBlock
 48
3.0
100
AcDbBlockReference
  2
_Open
 10
4280.331217104384
 20
875.1526961576665
 30
0.0
 41
25.0
 42
25.0
 43
25.0
 50
90.0
  0
INSERT
  5
4AA8
330
4947
100
AcDbEntity
  8
sunpou
  6
ByBlock
 48
3.0
100
AcDbBlockReference
  2
_Open
 10
4280.331217104384
 20
562.7651446010113
 30
0.0
 41
25.0
 42
25.0
 43
25.0
 50
270.0
  0
MTEXT
  5
4AA9
330
4947
100
AcDbEntity
  8
sunpou
  6
ByBlock
 48
3.0
100
AcDbMText
 10
4259.081217104384
 20
743.9589203793389
 30
0.0
 40
30.0
 41
0.0
 71
     5
 72
     1
  1
\A1;312
  7
BIGFONT
 11
0.0000000000000001
 21
1.0
 31
0.0
 73
     1
 44
1.0
  0
POINT
  5
4AAA
330
4947
100
AcDbEntity
  8
DEFPOINTS
  6
ByBlock
 62
     0
 48
3.0
100
AcDbPoint
 10
4189.090082763287
 20
875.1526961576665
 30
0.0
  0
POINT
  5
4AAB
330
4947
100
AcDbEntity
  8
DEFPOINTS
  6
ByBlock
 62
     0
 48
3.0
100
AcDbPoint
 10
4085.105666504807
 20
562.7651446010113
 30
0.0
  0
POINT
  5
4AAC
330
4947
100
AcDbEntity
  8
DEFPOINTS
  6
ByBlock
 62
     0
 48
3.0
100
AcDbPoint
 10
4280.331217104384
 20
562.7651446010113
 30
0.0
  0
ENDBLK
  5
4949
330
4947
100
AcDbEntity
  8
0
100
AcDbBlockEnd
  0
BLOCK
  5
4954
330
4953
100
AcDbEntity
  8
0
100
AcDbBlockBegin
  2
*D69
 70
     1
 10
0.0
 20
0.0
 30
0.0
  3
*D69
  1

  0
LINE
  5
4AAD
330
4953
100
AcDbEntity
  8
sunpou
  6
ByBlock
 48
3.0
100
AcDbLine
 10
3235.105666504809
 20
506.5151446010113
 30
0.0
 11
3235.105666504809
 21
110.2153029393935
 31
0.0
  0
LINE
  5
4AAE
330
4953
100
AcDbEntity
  8
sunpou
  6
ByBlock
 48
3.0
100
AcDbLine
 10
4085.105666504807
 20
506.5151446010113
 30
0.0
 11
4085.105666504807
 21
110.2153029393935
 31
0.0
  0
LINE
  5
4AAF
330
4953
100
AcDbEntity
  8
sunpou
  6
ByBlock
 48
3.0
100
AcDbLine
 10
3260.105666504808
 20
122.7153029393935
 30
0.0
 11
4060.105666504806
 21
122.7153029393935
 31
0.0
  0
INSERT
  5
4AB0
330
4953
100
AcDbEntity
  8
sunpou
  6
ByBlock
 48
3.0
100
AcDbBlockReference
  2
_Open
 10
3235.105666504809
 20
122.7153029393935
 30
0.0
 41
25.0
 42
25.0
 43
25.0
 50
180.0
  0
INSERT
  5
4AB1
330
4953
100
AcDbEntity
  8
sunpou
  6
ByBlock
 48
3.0
100
AcDbBlockReference
  2
_Open
 10
4085.105666504807
 20
122.7153029393935
 30
0.0
 41
25.0
 42
25.0
 43
25.0
  0
MTEXT
  5
4AB2
330
4953
100
AcDbEntity
  8
sunpou
  6
ByBlock
 48
3.0
100
AcDbMText
 10
3653.199114869964
 20
143.9653029393935
 30
0.0
 40
30.0
 41
0.0
 71
     5
 72
     1
  1
\A1;850
  7
BIGFONT
 73
     1
 44
1.0
  0
POINT
  5
4AB3
330
4953
100
AcDbEntity
  8
DEFPOINTS
  6
ByBlock
 62
     0
 48
3.0
100
AcDbPoint
 10
3235.105666504809
 20
512.7651446010113
 30
0.0
  0
POINT
  5
4AB4
330
4953
100
AcDbEntity
  8
DEFPOINTS
  6
ByBlock
 62
     0
 48
3.0
100
AcDbPoint
 10
4085.105666504807
 20
512.7651446010113
 30
0.0
  0
POINT
  5
4AB5
330
4953
100
AcDbEntity
  8
DEFPOINTS
  6
ByBlock
 62
     0
 48
3.0
100
AcDbPoint
 10
4085.105666504807
 20
122.7153029393935
 30
0.0
  0
ENDBLK
  5
4955
330
4953
100
AcDbEntity
  8
0
100
AcDbBlockEnd
  0
BLOCK
  5
4960
330
495F
100
AcDbEntity
  8
0
100
AcDbBlockBegin
  2
*D70
 70
     1
 10
0.0
 20
0.0
 30
0.0
  3
*D70
  1

  0
LINE
  5
4AB6
330
495F
100
AcDbEntity
  8
sunpou
  6
ByBlock
 48
3.0
100
AcDbLine
 10
4091.355666504806
 20
562.7651446010113
 30
0.0
 11
4292.831217104383
 21
562.7651446010113
 31
0.0
  0
LINE
  5
4AB7
330
495F
100
AcDbEntity
  8
sunpou
  6
ByBlock
 48
3.0
100
AcDbLine
 10
4091.355666504806
 20
512.7651446010113
 30
0.0
 11
4292.831217104383
 21
512.7651446010113
 31
0.0
  0
LINE
  5
4AB8
330
495F
100
AcDbEntity
  8
sunpou
  6
ByBlock
 48
3.0
100
AcDbLine
 10
4280.331217104383
 20
587.7651446010113
 30
0.0
 11
4280.331217104383
 21
612.7651446010113
 31
0.0
  0
LINE
  5
4AB9
330
495F
100
AcDbEntity
  8
sunpou
  6
ByBlock
 48
3.0
100
AcDbLine
 10
4280.331217104383
 20
487.7651446010112
 30
0.0
 11
4280.331217104383
 21
401.6937160295827
 31
0.0
  0
LINE
  5
4ABA
330
495F
100
AcDbEntity
  8
sunpou
  6
ByBlock
 48
3.0
100
AcDbLine
 10
4280.331217104383
 20
562.7651446010113
 30
0.0
 11
4280.331217104383
 21
512.7651446010113
 31
0.0
  0
INSERT
  5
4ABB
330
495F
100
AcDbEntity
  8
sunpou
  6
ByBlock
 48
3.0
100
AcDbBlockReference
  2
_Open
 10
4280.331217104383
 20
562.7651446010113
 30
0.0
 41
25.0
 42
25.0
 43
25.0
 50
270.0
  0
INSERT
  5
4ABC
330
495F
100
AcDbEntity
  8
sunpou
  6
ByBlock
 48
3.0
100
AcDbBlockReference
  2
_Open
 10
4280.331217104383
 20
512.7651446010113
 30
0.0
 41
25.0
 42
25.0
 43
25.0
 50
90.0
  0
MTEXT
  5
4ABD
330
495F
100
AcDbEntity
  8
sunpou
  6
ByBlock
 48
3.0
100
AcDbMText
 10
4259.081217104383
 20
432.2294303152976
 30
0.0
 40
30.0
 41
0.0
 71
     5
 72
     1
  1
\A1;50
  7
BIGFONT
 11
0.0000000000000001
 21
1.0
 31
0.0
 73
     1
 44
1.0
  0
POINT
  5
4ABE
330
495F
100
AcDbEntity
  8
DEFPOINTS
  6
ByBlock
 62
     0
 48
3.0
100
AcDbPoint
 10
4085.105666504807
 20
562.7651446010113
 30
0.0
  0
POINT
  5
4ABF
330
495F
100
AcDbEntity
  8
DEFPOINTS
  6
ByBlock
 62
     0
 48
3.0
100
AcDbPoint
 10
4085.105666504807
 20
512.7651446010113
 30
0.0
  0
POINT
  5
4AC0
330
495F
100
AcDbEntity
  8
DEFPOINTS
  6
ByBlock
 62
     0
 48
3.0
100
AcDbPoint
 10
4280.331217104383
 20
512.7651446010113
 30
0.0
  0
ENDBLK
  5
4961
330
495F
100
AcDbEntity
  8
0
100
AcDbBlockEnd
  0
BLOCK
  5
496E
330
496D
100
AcDbEntity
  8
0
100
AcDbBlockBegin
  2
*D71
 70
     1
 10
0.0
 20
0.0
 30
0.0
  3
*D71
  1

  0
LINE
  5
4AC1
330
496D
100
AcDbEntity
  8
sunpou
 48
3.0
100
AcDbLine
 10
4126.380255358748
 20
1602.765144601016
 30
0.0
 11
4378.872901978495
 21
1602.765144601016
 31
0.0
  0
LINE
  5
4AC2
330
496D
100
AcDbEntity
  8
sunpou
 48
3.0
100
AcDbLine
 10
4271.381767637399
 20
1412.765144601016
 30
0.0
 11
4378.872901978495
 21
1412.765144601016
 31
0.0
  0
LINE
  5
4AC3
330
496D
100
AcDbEntity
  8
sunpou
 48
3.0
100
AcDbLine
 10
4366.372901978496
 20
1577.765144601016
 30
0.0
 11
4366.372901978496
 21
1437.765144601016
 31
0.0
  0
INSERT
  5
4AC4
330
496D
100
AcDbEntity
  8
sunpou
 48
3.0
100
AcDbBlockReference
  2
_Open
 10
4366.372901978496
 20
1602.765144601016
 30
0.0
 41
25.0
 42
25.0
 43
25.0
 50
90.0
  0
INSERT
  5
4AC5
330
496D
100
AcDbEntity
  8
sunpou
 48
3.0
100
AcDbBlockReference
  2
_Open
 10
4366.372901978496
 20
1412.765144601016
 30
0.0
 41
25.0
 42
25.0
 43
25.0
 50
270.0
  0
MTEXT
  5
4AC6
330
496D
100
AcDbEntity
  8
sunpou
 48
3.0
100
AcDbMText
 10
4345.122901978496
 20
1503.479858979972
 30
0.0
 40
30.0
 41
0.0
 71
     5
 72
     1
  1
\A1;190
  7
BIGFONT
 11
0.0000000000000001
 21
1.0
 31
0.0
 73
     1
 44
1.0
  0
POINT
  5
4AC7
330
496D
100
AcDbEntity
  8
DEFPOINTS
 62
     0
 48
3.0
100
AcDbPoint
 10
4120.130255358747
 20
1602.765144601016
 30
0.0
  0
POINT
  5
4AC8
330
496D
100
AcDbEntity
  8
DEFPOINTS
 62
     0
 48
3.0
100
AcDbPoint
 10
4265.131767637399
 20
1412.765144601016
 30
0.0
  0
POINT
  5
4AC9
330
496D
100
AcDbEntity
  8
DEFPOINTS
 62
     0
 48
3.0
100
AcDbPoint
 10
4366.372901978496
 20
1412.765144601016
 30
0.0
  0
ENDBLK
  5
496F
330
496D
100
AcDbEntity
  8
0
100
AcDbBlockEnd
  0
BLOCK
  5
497A
330
4979
100
AcDbEntity
  8
0
100
AcDbBlockBegin
  2
*D72
 70
     1
 10
0.0
 20
0.0
 30
0.0
  3
*D72
  1

  0
LINE
  5
4ACA
330
4979
100
AcDbEntity
  8
sunpou
  6
ByBlock
 48
3.0
100
AcDbLine
 10
4195.340082763286
 20
975.1526961576651
 30
0.0
 11
4292.831217104384
 21
975.1526961576651
 31
0.0
  0
LINE
  5
4ACB
330
4979
100
AcDbEntity
  8
sunpou
  6
ByBlock
 48
3.0
100
AcDbLine
 10
4201.590082763287
 20
875.1526961576665
 30
0.0
 11
4292.831217104384
 21
875.1526961576665
 31
0.0
  0
LINE
  5
4ACC
330
4979
100
AcDbEntity
  8
sunpou
  6
ByBlock
 48
3.0
100
AcDbLine
 10
4280.331217104384
 20
950.1526961576651
 30
0.0
 11
4280.331217104384
 21
900.1526961576665
 31
0.0
  0
INSERT
  5
4ACD
330
4979
100
AcDbEntity
  8
sunpou
  6
ByBlock
 48
3.0
100
AcDbBlockReference
  2
_Open
 10
4280.331217104384
 20
975.1526961576651
 30
0.0
 41
25.0
 42
25.0
 43
25.0
 50
90.0
  0
INSERT
  5
4ACE
330
4979
100
AcDbEntity
  8
sunpou
  6
ByBlock
 48
3.0
100
AcDbBlockReference
  2
_Open
 10
4280.331217104384
 20
875.1526961576665
 30
0.0
 41
25.0
 42
25.0
 43
25.0
 50
270.0
  0
MTEXT
  5
4ACF
330
4979
100
AcDbEntity
  8
sunpou
  6
ByBlock
 48
3.0
100
AcDbMText
 10
4259.081217104384
 20
925.1526961576656
 30
0.0
 40
30.0
 41
0.0
 71
     5
 72
     1
  1
\A1;100
  7
BIGFONT
 11
0.0000000000000001
 21
1.0
 31
0.0
 73
     1
 44
1.0
  0
POINT
  5
4AD0
330
4979
100
AcDbEntity
  8
DEFPOINTS
  6
ByBlock
 62
     0
 48
3.0
100
AcDbPoint
 10
4189.090082763287
 20
975.1526961576651
 30
0.0
  0
POINT
  5
4AD1
330
4979
100
AcDbEntity
  8
DEFPOINTS
  6
ByBlock
 62
     0
 48
3.0
100
AcDbPoint
 10
4195.340082763286
 20
875.1526961576665
 30
0.0
  0
POINT
  5
4AD2
330
4979
100
AcDbEntity
  8
DEFPOINTS
  6
ByBlock
 62
     0
 48
3.0
100
AcDbPoint
 10
4280.331217104384
 20
875.1526961576665
 30
0.0
  0
ENDBLK
  5
497B
330
4979
100
AcDbEntity
  8
0
100
AcDbBlockEnd
  0
BLOCK
  5
4986
330
4985
100
AcDbEntity
  8
0
100
AcDbBlockBegin
  2
*D73
 70
     1
 10
0.0
 20
0.0
 30
0.0
  3
*D73
  1

  0
LINE
  5
4AD3
330
4985
100
AcDbEntity
  8
sunpou
  6
ByBlock
 48
3.0
100
AcDbLine
 10
4183.040522313158
 20
1412.765144601011
 30
0.0
 11
4292.831217104384
 21
1412.765144601011
 31
0.0
  0
LINE
  5
4AD4
330
4985
100
AcDbEntity
  8
sunpou
  6
ByBlock
 48
3.0
100
AcDbLine
 10
4201.590082763287
 20
975.1526961576651
 30
0.0
 11
4292.831217104384
 21
975.1526961576651
 31
0.0
  0
LINE
  5
4AD5
330
4985
100
AcDbEntity
  8
sunpou
  6
ByBlock
 48
3.0
100
AcDbLine
 10
4280.331217104384
 20
1387.765144601011
 30
0.0
 11
4280.331217104384
 21
1000.152696157665
 31
0.0
  0
INSERT
  5
4AD6
330
4985
100
AcDbEntity
  8
sunpou
  6
ByBlock
 48
3.0
100
AcDbBlockReference
  2
_Open
 10
4280.331217104384
 20
1412.765144601011
 30
0.0
 41
25.0
 42
25.0
 43
25.0
 50
90.0
  0
INSERT
  5
4AD7
330
4985
100
AcDbEntity
  8
sunpou
  6
ByBlock
 48
3.0
100
AcDbBlockReference
  2
_Open
 10
4280.331217104384
 20
975.1526961576651
 30
0.0
 41
25.0
 42
25.0
 43
25.0
 50
270.0
  0
MTEXT
  5
4AD8
330
4985
100
AcDbEntity
  8
sunpou
  6
ByBlock
 48
3.0
100
AcDbMText
 10
4259.081217104384
 20
1193.958920379338
 30
0.0
 40
30.0
 41
0.0
 71
     5
 72
     1
  1
\A1;438
  7
BIGFONT
 11
0.0000000000000001
 21
1.0
 31
0.0
 73
     1
 44
1.0
  0
POINT
  5
4AD9
330
4985
100
AcDbEntity
  8
DEFPOINTS
  6
ByBlock
 62
     0
 48
3.0
100
AcDbPoint
 10
4176.790522313157
 20
1412.765144601011
 30
0.0
  0
POINT
  5
4ADA
330
4985
100
AcDbEntity
  8
DEFPOINTS
  6
ByBlock
 62
     0
 48
3.0
100
AcDbPoint
 10
4195.340082763286
 20
975.1526961576651
 30
0.0
  0
POINT
  5
4ADB
330
4985
100
AcDbEntity
  8
DEFPOINTS
  6
ByBlock
 62
     0
 48
3.0
100
AcDbPoint
 10
4280.331217104384
 20
975.1526961576651
 30
0.0
  0
ENDBLK
  5
4987
330
4985
100
AcDbEntity
  8
0
100
AcDbBlockEnd
  0
BLOCK
  5
4992
330
4991
100
AcDbEntity
  8
0
100
AcDbBlockBegin
  2
*D74
 70
     1
 10
0.0
 20
0.0
 30
0.0
  3
*D74
  1

  0
LINE
  5
4ADC
330
4991
100
AcDbEntity
  8
sunpou
100
AcDbLine
 10
3370.103549928653
 20
1599.015144601193
 30
0.0
 11
3370.103549928653
 21
1725.954247045927
 31
0.0
  0
LINE
  5
4ADD
330
4991
100
AcDbEntity
  8
sunpou
100
AcDbLine
 10
3950.104154226157
 20
1599.015144601011
 30
0.0
 11
3950.104154226157
 21
1725.954247045927
 31
0.0
  0
LINE
  5
4ADE
330
4991
100
AcDbEntity
  8
sunpou
100
AcDbLine
 10
3395.103549928653
 20
1713.454247045927
 30
0.0
 11
3925.104154226157
 21
1713.454247045927
 31
0.0
  0
INSERT
  5
4ADF
330
4991
100
AcDbEntity
  8
sunpou
100
AcDbBlockReference
  2
_Open
 10
3370.103549928653
 20
1713.454247045927
 30
0.0
 41
25.0
 42
25.0
 43
25.0
 50
180.0
  0
INSERT
  5
4AE0
330
4991
100
AcDbEntity
  8
sunpou
100
AcDbBlockReference
  2
_Open
 10
3950.104154226157
 20
1713.454247045927
 30
0.0
 41
25.0
 42
25.0
 43
25.0
  0
MTEXT
  5
4AE1
330
4991
100
AcDbEntity
  8
sunpou
100
AcDbMText
 10
3665.40845796178
 20
1734.704247045927
 30
0.0
 40
30.0
 41
0.0
 71
     5
 72
     1
  1
\A1;580
  7
BIGFONT
 73
     1
 44
1.0
  0
POINT
  5
4AE2
330
4991
100
AcDbEntity
  8
DEFPOINTS
 62
     0
100
AcDbPoint
 10
3370.103549928653
 20
1592.765144601193
 30
0.0
  0
POINT
  5
4AE3
330
4991
100
AcDbEntity
  8
DEFPOINTS
 62
     0
100
AcDbPoint
 10
3950.104154226157
 20
1592.765144601011
 30
0.0
  0
POINT
  5
4AE4
330
4991
100
AcDbEntity
  8
DEFPOINTS
 62
     0
100
AcDbPoint
 10
3950.104154226157
 20
1713.454247045927
 30
0.0
  0
ENDBLK
  5
4993
330
4991
100
AcDbEntity
  8
0
100
AcDbBlockEnd
  0
BLOCK
  5
499E
330
499D
100
AcDbEntity
  8
0
100
AcDbBlockBegin
  2
*D75
 70
     1
 10
0.0
 20
0.0
 30
0.0
  3
*D75
  1

  0
LINE
  5
4AE5
330
499D
100
AcDbEntity
  8
sunpou
100
AcDbLine
 10
3360.105666504809
 20
506.5151446010113
 30
0.0
 11
3360.105666504809
 21
220.1770086033689
 31
0.0
  0
LINE
  5
4AE6
330
499D
100
AcDbEntity
  8
sunpou
100
AcDbLine
 10
3960.105666504809
 20
506.5151446010113
 30
0.0
 11
3960.105666504809
 21
220.1770086033689
 31
0.0
  0
LINE
  5
4AE7
330
499D
100
AcDbEntity
  8
sunpou
100
AcDbLine
 10
3385.105666504808
 20
232.6770086033689
 30
0.0
 11
3935.105666504809
 21
232.6770086033689
 31
0.0
  0
INSERT
  5
4AE8
330
499D
100
AcDbEntity
  8
sunpou
100
AcDbBlockReference
  2
_Open
 10
3360.105666504809
 20
232.6770086033689
 30
0.0
 41
25.0
 42
25.0
 43
25.0
 50
180.0
  0
INSERT
  5
4AE9
330
499D
100
AcDbEntity
  8
sunpou
100
AcDbBlockReference
  2
_Open
 10
3960.105666504809
 20
232.6770086033689
 30
0.0
 41
25.0
 42
25.0
 43
25.0
  0
MTEXT
  5
4AEA
330
499D
100
AcDbEntity
  8
sunpou
100
AcDbMText
 10
3657.666180254935
 20
253.9270086033689
 30
0.0
 40
30.0
 41
0.0
 71
     5
 72
     1
  1
\A1;600
  7
BIGFONT
 73
     1
 44
1.0
  0
POINT
  5
4AEB
330
499D
100
AcDbEntity
  8
DEFPOINTS
 62
     0
100
AcDbPoint
 10
3360.105666504809
 20
512.7651446010113
 30
0.0
  0
POINT
  5
4AEC
330
499D
100
AcDbEntity
  8
DEFPOINTS
 62
     0
100
AcDbPoint
 10
3960.105666504809
 20
512.7651446010113
 30
0.0
  0
POINT
  5
4AED
330
499D
100
AcDbEntity
  8
DEFPOINTS
 62
     0
100
AcDbPoint
 10
3960.105666504809
 20
232.6770086033689
 30
0.0
  0
ENDBLK
  5
499F
330
499D
100
AcDbEntity
  8
0
100
AcDbBlockEnd
  0
BLOCK
  5
49AA
330
49A9
100
AcDbEntity
  8
0
100
AcDbBlockBegin
  2
*D76
 70
     1
 10
0.0
 20
0.0
 30
0.0
  3
*D76
  1

  0
LINE
  5
4AEE
330
49A9
100
AcDbEntity
  8
sunpou
100
AcDbLine
 10
4085.708833758672
 20
685.1526961576646
 30
0.0
 11
4200.421835640512
 21
685.1526961576646
 31
0.0
  0
LINE
  5
4AEF
330
49A9
100
AcDbEntity
  8
sunpou
100
AcDbLine
 10
4094.315334699591
 20
775.1526961576646
 30
0.0
 11
4200.421835640512
 21
775.1526961576646
 31
0.0
  0
LINE
  5
4AF0
330
49A9
100
AcDbEntity
  8
sunpou
100
AcDbLine
 10
4187.921835640512
 20
710.1526961576646
 30
0.0
 11
4187.921835640512
 21
750.1526961576646
 31
0.0
  0
INSERT
  5
4AF1
330
49A9
100
AcDbEntity
  8
sunpou
100
AcDbBlockReference
  2
_Open
 10
4187.921835640512
 20
685.1526961576646
 30
0.0
 41
25.0
 42
25.0
 43
25.0
 50
270.0
  0
INSERT
  5
4AF2
330
49A9
100
AcDbEntity
  8
sunpou
100
AcDbBlockReference
  2
_Open
 10
4187.921835640512
 20
775.1526961576646
 30
0.0
 41
25.0
 42
25.0
 43
25.0
 50
90.0
  0
MTEXT
  5
4AF3
330
49A9
100
AcDbEntity
  8
sunpou
100
AcDbMText
 10
4166.671835640513
 20
730.9307685118579
 30
0.0
 40
30.0
 41
0.0
 71
     5
 72
     1
  1
\A1;90
  7
BIGFONT
 11
0.0000000000000001
 21
1.0
 31
0.0
 73
     1
 44
1.0
  0
POINT
  5
4AF4
330
49A9
100
AcDbEntity
  8
DEFPOINTS
 62
     0
100
AcDbPoint
 10
4079.458833758672
 20
685.1526961576646
 30
0.0
  0
POINT
  5
4AF5
330
49A9
100
AcDbEntity
  8
DEFPOINTS
 62
     0
100
AcDbPoint
 10
4088.065334699591
 20
775.1526961576646
 30
0.0
  0
POINT
  5
4AF6
330
49A9
100
AcDbEntity
  8
DEFPOINTS
 62
     0
100
AcDbPoint
 10
4187.921835640512
 20
775.1526961576646
 30
0.0
  0
ENDBLK
  5
49AB
330
49A9
100
AcDbEntity
  8
0
100
AcDbBlockEnd
  0
BLOCK
  5
49B6
330
49B5
100
AcDbEntity
  8
0
100
AcDbBlockBegin
  2
*D77
 70
     1
 10
0.0
 20
0.0
 30
0.0
  3
*D77
  1

  0
LINE
  5
4AF7
330
49B5
100
AcDbEntity
  8
sunpou
100
AcDbLine
 10
4094.315334699591
 20
775.1526961576646
 30
0.0
 11
4200.421835640512
 21
775.1526961576646
 31
0.0
  0
LINE
  5
4AF8
330
49B5
100
AcDbEntity
  8
sunpou
100
AcDbLine
 10
4091.355666504806
 20
975.152696157666
 30
0.0
 11
4200.421835640512
 21
975.152696157666
 31
0.0
  0
LINE
  5
4AF9
330
49B5
100
AcDbEntity
  8
sunpou
100
AcDbLine
 10
4187.921835640512
 20
800.1526961576646
 30
0.0
 11
4187.921835640512
 21
950.152696157666
 31
0.0
  0
INSERT
  5
4AFA
330
49B5
100
AcDbEntity
  8
sunpou
100
AcDbBlockReference
  2
_Open
 10
4187.921835640512
 20
775.1526961576646
 30
0.0
 41
25.0
 42
25.0
 43
25.0
 50
270.0
  0
INSERT
  5
4AFB
330
49B5
100
AcDbEntity
  8
sunpou
100
AcDbBlockReference
  2
_Open
 10
4187.921835640512
 20
975.152696157666
 30
0.0
 41
25.0
 42
25.0
 43
25.0
 50
90.0
  0
MTEXT
  5
4AFC
330
49B5
100
AcDbEntity
  8
sunpou
100
AcDbMText
 10
4166.671835640513
 20
875.152696157666
 30
0.0
 40
30.0
 41
0.0
 71
     5
 72
     1
  1
\A1;200
  7
BIGFONT
 11
0.0000000000000001
 21
1.0
 31
0.0
 73
     1
 44
1.0
  0
POINT
  5
4AFD
330
49B5
100
AcDbEntity
  8
DEFPOINTS
 62
     0
100
AcDbPoint
 10
4088.065334699591
 20
775.1526961576646
 30
0.0
  0
POINT
  5
4AFE
330
49B5
100
AcDbEntity
  8
DEFPOINTS
 62
     0
100
AcDbPoint
 10
4085.105666504807
 20
975.152696157666
 30
0.0
  0
POINT
  5
4AFF
330
49B5
100
AcDbEntity
  8
DEFPOINTS
 62
     0
100
AcDbPoint
 10
4187.921835640512
 20
975.152696157666
 30
0.0
  0
ENDBLK
  5
49B7
330
49B5
100
AcDbEntity
  8
0
100
AcDbBlockEnd
  0
BLOCK
  5
49C2
330
49C1
100
AcDbEntity
  8
0
100
AcDbBlockBegin
  2
*D78
 70
     1
 10
0.0
 20
0.0
 30
0.0
  3
*D78
  1

  0
LINE
  5
4B00
330
49C1
100
AcDbEntity
  8
sunpou
100
AcDbLine
 10
3490.106752677311
 20
506.6554539386638
 30
0.0
 11
3490.106752677311
 21
337.690147199653
 31
0.0
  0
LINE
  5
4B01
330
49C1
100
AcDbEntity
  8
sunpou
100
AcDbLine
 10
3830.10403337242
 20
506.6554539386648
 30
0.0
 11
3830.10403337242
 21
337.690147199653
 31
0.0
  0
LINE
  5
4B02
330
49C1
100
AcDbEntity
  8
sunpou
100
AcDbLine
 10
3515.106752677311
 20
350.190147199653
 30
0.0
 11
3805.10403337242
 21
350.190147199653
 31
0.0
  0
INSERT
  5
4B03
330
49C1
100
AcDbEntity
  8
sunpou
100
AcDbBlockReference
  2
_Open
 10
3490.106752677311
 20
350.190147199653
 30
0.0
 41
25.0
 42
25.0
 43
25.0
 50
180.0
  0
INSERT
  5
4B04
330
49C1
100
AcDbEntity
  8
sunpou
100
AcDbBlockReference
  2
_Open
 10
3830.10403337242
 20
350.190147199653
 30
0.0
 41
25.0
 42
25.0
 43
25.0
  0
MTEXT
  5
4B05
330
49C1
100
AcDbEntity
  8
sunpou
100
AcDbMText
 10
3660.105393024866
 20
371.440147199653
 30
0.0
 40
30.0
 41
0.0
 71
     5
 72
     1
  1
\A1;340
  7
BIGFONT
 73
     1
 44
1.0
  0
POINT
  5
4B06
330
49C1
100
AcDbEntity
  8
DEFPOINTS
 62
     0
100
AcDbPoint
 10
3490.106752677311
 20
512.9054539386638
 30
0.0
  0
POINT
  5
4B07
330
49C1
100
AcDbEntity
  8
DEFPOINTS
 62
     0
100
AcDbPoint
 10
3830.10403337242
 20
512.9054539386648
 30
0.0
  0
POINT
  5
4B08
330
49C1
100
AcDbEntity
  8
DEFPOINTS
 62
     0
100
AcDbPoint
 10
3830.10403337242
 20
350.190147199653
 30
0.0
  0
ENDBLK
  5
49C3
330
49C1
100
AcDbEntity
  8
0
100
AcDbBlockEnd
  0
BLOCK
  5
49CE
330
49CD
100
AcDbEntity
  8
0
100
AcDbBlockBegin
  2
*D79
 70
     1
 10
0.0
 20
0.0
 30
0.0
  3
*D79
  1

  0
LINE
  5
4B09
330
49CD
100
AcDbEntity
  8
sunpou
100
AcDbLine
 10
3370.106752677312
 20
502.0464216786585
 30
0.0
 11
3370.106752677312
 21
337.690147199653
 31
0.0
  0
LINE
  5
4B0A
330
49CD
100
AcDbEntity
  8
sunpou
100
AcDbLine
 10
3490.106752677311
 20
506.6554539386638
 30
0.0
 11
3490.106752677311
 21
337.690147199653
 31
0.0
  0
LINE
  5
4B0B
330
49CD
100
AcDbEntity
  8
sunpou
100
AcDbLine
 10
3395.106752677312
 20
350.190147199653
 30
0.0
 11
3465.106752677311
 21
350.190147199653
 31
0.0
  0
INSERT
  5
4B0C
330
49CD
100
AcDbEntity
  8
sunpou
100
AcDbBlockReference
  2
_Open
 10
3370.106752677312
 20
350.190147199653
 30
0.0
 41
25.0
 42
25.0
 43
25.0
 50
180.0
  0
INSERT
  5
4B0D
330
49CD
100
AcDbEntity
  8
sunpou
100
AcDbBlockReference
  2
_Open
 10
3490.106752677311
 20
350.190147199653
 30
0.0
 41
25.0
 42
25.0
 43
25.0
  0
MTEXT
  5
4B0E
330
49CD
100
AcDbEntity
  8
sunpou
100
AcDbMText
 10
3435.106752677312
 20
371.440147199653
 30
0.0
 40
30.0
 41
0.0
 71
     5
 72
     1
  1
\A1;120
  7
BIGFONT
 73
     1
 44
1.0
  0
POINT
  5
4B0F
330
49CD
100
AcDbEntity
  8
DEFPOINTS
 62
     0
100
AcDbPoint
 10
3370.106752677312
 20
508.2964216786585
 30
0.0
  0
POINT
  5
4B10
330
49CD
100
AcDbEntity
  8
DEFPOINTS
 62
     0
100
AcDbPoint
 10
3490.106752677311
 20
512.9054539386638
 30
0.0
  0
POINT
  5
4B11
330
49CD
100
AcDbEntity
  8
DEFPOINTS
 62
     0
100
AcDbPoint
 10
3490.106752677311
 20
350.190147199653
 30
0.0
  0
ENDBLK
  5
49CF
330
49CD
100
AcDbEntity
  8
0
100
AcDbBlockEnd
  0
BLOCK
  5
49DA
330
49D9
100
AcDbEntity
  8
0
100
AcDbBlockBegin
  2
*D80
 70
     1
 10
0.0
 20
0.0
 30
0.0
  3
*D80
  1

  0
LINE
  5
4B12
330
49D9
100
AcDbEntity
  8
sunpou
100
AcDbLine
 10
3830.10403337242
 20
506.6554539386648
 30
0.0
 11
3830.10403337242
 21
337.690147199653
 31
0.0
  0
LINE
  5
4B13
330
49D9
100
AcDbEntity
  8
sunpou
100
AcDbLine
 10
3950.104033372421
 20
506.5151446010113
 30
0.0
 11
3950.104033372421
 21
337.690147199653
 31
0.0
  0
LINE
  5
4B14
330
49D9
100
AcDbEntity
  8
sunpou
100
AcDbLine
 10
3855.10403337242
 20
350.190147199653
 30
0.0
 11
3925.104033372421
 21
350.190147199653
 31
0.0
  0
INSERT
  5
4B15
330
49D9
100
AcDbEntity
  8
sunpou
100
AcDbBlockReference
  2
_Open
 10
3830.10403337242
 20
350.190147199653
 30
0.0
 41
25.0
 42
25.0
 43
25.0
 50
180.0
  0
INSERT
  5
4B16
330
49D9
100
AcDbEntity
  8
sunpou
100
AcDbBlockReference
  2
_Open
 10
3950.104033372421
 20
350.190147199653
 30
0.0
 41
25.0
 42
25.0
 43
25.0
  0
MTEXT
  5
4B17
330
49D9
100
AcDbEntity
  8
sunpou
100
AcDbMText
 10
3890.104033372421
 20
371.440147199653
 30
0.0
 40
30.0
 41
0.0
 71
     5
 72
     1
  1
\A1;120
  7
BIGFONT
 73
     1
 44
1.0
  0
POINT
  5
4B18
330
49D9
100
AcDbEntity
  8
DEFPOINTS
 62
     0
100
AcDbPoint
 10
3830.10403337242
 20
512.9054539386648
 30
0.0
  0
POINT
  5
4B19
330
49D9
100
AcDbEntity
  8
DEFPOINTS
 62
     0
100
AcDbPoint
 10
3950.104033372421
 20
512.7651446010113
 30
0.0
  0
POINT
  5
4B1A
330
49D9
100
AcDbEntity
  8
DEFPOINTS
 62
     0
100
AcDbPoint
 10
3950.104033372421
 20
350.190147199653
 30
0.0
  0
ENDBLK
  5
49DB
330
49D9
100
AcDbEntity
  8
0
100
AcDbBlockEnd
  0
ENDSEC
  0
SECTION
  2
ENTITIES
  0
TEXT
  5
2D46
330
1A
100
AcDbEntity
  8
0
100
AcDbText
 10
578.8720425561091
 20
2056.995765831689
 30
0.0
 40
50.0
  1
浸透性管渠型側溝EX-400 構造図
  7
BIGFONT
100
AcDbText
  0
TEXT
  5
2D80
330
1A
100
AcDbEntity
  8
0
100
AcDbText
 10
1617.502056948291
 20
2062.256589202524
 30
0.0
 40
40.0
  1
S=1/10
  7
BIGFONT
100
AcDbText
  0
LEADER
  5
343E
330
1A
100
AcDbEntity
  8
sunpou
100
AcDbLeader
  3
ISO-25
 73
     0
 75
     1
 40
30.0
 41
316.0
 76
     3
 10
948.8462303650786
 20
915.1884199362362
 30
0.0
 10
701.5173391011785
 20
632.11822642366
 30
0.0
 10
676.5173391011785
 20
632.11822642366
 30
0.0
340
343F
213
0.0
223
-8.953556552835834
233
0.0
1001
ACAD
1000
DSTYLE
1002
{
1070
   147
1040
0.625
1070
    77
1070
     0
1070
    40
1040
10.0
1070
    73
1070
     0
1070
   140
1040
3.0
1070
   171
1070
     4
1070
   176
1070
   256
1070
   177
1070
   256
1070
   178
1070
   256
1070
   271
1070
     0
1070
   272
1070
     0
1070
   273
1070
     8
1070
   274
1070
     4
1070
   288
1070
     1
1070
   340
1005
2BF5
1070
   341
1005
2A96
1070
   342
1005
2A96
1070
   371
1070
    -1
1070
   372
1070
    -1
1002
}
  0
MTEXT
  5
343F
102
{ACAD_REACTORS
330
343E
102
}
330
1A
100
AcDbEntity
  8
sunpou
100
AcDbMText
 10
670.2673391011785
 20
641.0717829764958
 30
0.0
 40
30.0
 41
0.0
 71
     9
 72
     1
  1
受け台と単粒度砕石
  7
BIGFONT
 73
     1
 44
1.0
  0
LEADER
  5
3440
330
1A
100
AcDbEntity
  8
sunpou
100
AcDbLeader
  3
ISO-25
 73
     0
 75
     1
 40
30.0
 41
100.0
 76
     3
 10
806.2122284804772
 20
525.0331632658972
 30
0.0
 10
648.2784366869136
 20
435.04731537948
 30
0.0
 10
623.2784366869136
 20
435.04731537948
 30
0.0
340
3441
213
0.0
223
-8.953556552835834
233
0.0
1001
ACAD
1000
DSTYLE
1002
{
1070
   147
1040
0.625
1070
    77
1070
     0
1070
    40
1040
10.0
1070
    73
1070
     0
1070
   140
1040
3.0
1070
   171
1070
     4
1070
   176
1070
   256
1070
   177
1070
   256
1070
   178
1070
   256
1070
   271
1070
     0
1070
   272
1070
     0
1070
   273
1070
     8
1070
   274
1070
     4
1070
   288
1070
     1
1070
   340
1005
2BF5
1070
   341
1005
2A96
1070
   342
1005
2A96
1070
   371
1070
    -1
1070
   372
1070
    -1
1002
}
  0
MTEXT
  5
3441
102
{ACAD_REACTORS
330
3440
102
}
330
1A
100
AcDbEntity
  8
sunpou
100
AcDbMText
 10
617.0284366869136
 20
444.0008719323158
 30
0.0
 40
30.0
 41
0.0
 71
     9
 72
     1
  1
敷き砂
  7
BIGFONT
 73
     1
 44
1.0
  0
LINE
  5
3442
330
1A
100
AcDbEntity
  8
sunpou
100
AcDbLine
 10
623.2784366869136
 20
435.04731537948
 30
0.0
 11
506.6870266361575
 21
435.04731537948
 31
0.0
  0
LINE
  5
3443
330
1A
100
AcDbEntity
  8
sunpou
100
AcDbLine
 10
564.6412557194799
 20
781.406558545841
 30
0.0
 11
384.0994757395774
 21
781.406558545841
 31
0.0
  0
LINE
  5
3444
330
1A
100
AcDbEntity
  8
sunpou
100
AcDbLine
 10
676.5173391011785
 20
632.11822642366
 30
0.0
 11
344.0652484183774
 21
632.11822642366
 31
0.0
  0
MTEXT
  5
3445
102
{ACAD_REACTORS
330
3446
102
}
330
1A
100
AcDbEntity
  8
sunpou
100
AcDbMText
 10
558.3912557194799
 20
790.3601150986769
 30
0.0
 40
30.0
 41
0.0
 71
     9
 72
     1
  1
単粒度砕石
  7
BIGFONT
 73
     1
 44
1.0
  0
LEADER
  5
3446
330
1A
100
AcDbEntity
  8
sunpou
100
AcDbLeader
  3
ISO-25
 73
     0
 75
     1
 40
30.0
 41
172.0
 76
     3
 10
790.5303403992347
 20
1017.336965530879
 30
0.0
 10
589.6412557194799
 20
781.406558545841
 30
0.0
 10
564.6412557194799
 20
781.406558545841
 30
0.0
340
3445
213
0.0
223
-8.953556552835834
233
0.0
1001
ACAD
1000
DSTYLE
1002
{
1070
   147
1040
0.625
1070
    77
1070
     0
1070
    40
1040
10.0
1070
    73
1070
     0
1070
   140
1040
3.0
1070
   171
1070
     4
1070
   176
1070
   256
1070
   177
1070
   256
1070
   178
1070
   256
1070
   271
1070
     0
1070
   272
1070
     0
1070
   273
1070
     8
1070
   274
1070
     4
1070
   288
1070
     1
1070
   340
1005
2BF5
1070
   341
1005
2A96
1070
   342
1005
2A96
1070
   371
1070
    -1
1070
   372
1070
    -1
1002
}
  0
LINE
  5
3447
330
1A
100
AcDbEntity
  8
sunpou
100
AcDbLine
 10
564.6412557194799
 20
1144.004183303924
 30
0.0
 11
384.0994757395774
 21
1144.004183303924
 31
0.0
  0
MTEXT
  5
3448
102
{ACAD_REACTORS
330
3449
102
}
330
1A
100
AcDbEntity
  8
sunpou
100
AcDbMText
 10
558.3912557194799
 20
1152.95773985676
 30
0.0
 40
30.0
 41
0.0
 71
     9
 72
     1
  1
透水シート
  7
BIGFONT
 73
     1
 44
1.0
  0
LEADER
  5
3449
330
1A
100
AcDbEntity
  8
sunpou
100
AcDbLeader
  3
ISO-25
 73
     0
 75
     1
 40
30.0
 41
166.0
 76
     3
 10
705.0586982910654
 20
1261.180408308823
 30
0.0
 10
589.6412557194799
 20
1144.004183303924
 30
0.0
 10
564.6412557194799
 20
1144.004183303924
 30
0.0
340
3448
213
0.0
223
-8.953556552835834
233
0.0
1001
ACAD
1000
DSTYLE
1002
{
1070
   147
1040
0.625
1070
    77
1070
     0
1070
    40
1040
10.0
1070
    73
1070
     0
1070
   140
1040
3.0
1070
   171
1070
     4
1070
   176
1070
   256
1070
   177
1070
   256
1070
   178
1070
   256
1070
   271
1070
     0
1070
   272
1070
     0
1070
   273
1070
     8
1070
   274
1070
     4
1070
   288
1070
     1
1070
   340
1005
2BF5
1070
   341
1005
2A96
1070
   342
1005
2A96
1070
   371
1070
    -1
1070
   372
1070
    -1
1002
}
  0
DIMENSION
  5
34A7
330
1A
100
AcDbEntity
  8
sunpou
100
AcDbDimension
  2
*D17
 10
1338.156870013496
 20
1360.971197283026
 30
0.0
 11
1140.058698291068
 21
1360.971197283026
 31
0.0
 70
   160
 71
     5
 42
396.1987925937083
  3
ISO-25
100
AcDbAlignedDimension
 13
941.9580774197884
 23
1412.945748668107
 33
0.0
 14
1338.156870013496
 24
1360.971197283026
 34
0.0
100
AcDbRotatedDimension
1001
ACAD
1000
DSTYLE
1002
{
1070
    40
1040
10.0
1070
    73
1070
     0
1070
   140
1040
3.0
1070
   171
1070
     4
1070
   176
1070
   256
1070
   177
1070
   256
1070
   178
1070
   256
1070
   271
1070
     0
1070
   272
1070
     0
1070
   273
1070
     8
1070
   274
1070
     4
1070
   288
1070
     1
1070
   340
1005
2BF5
1070
   341
1005
2A96
1070
   342
1005
2A96
1070
   371
1070
    -1
1070
   372
1070
    -1
1002
}
  0
DIMENSION
  5
34C3
330
1A
100
AcDbEntity
  8
sunpou
100
AcDbDimension
  2
*D18
 10
1177.91584114821
 20
1478.586644110468
 30
0.0
 11
1177.91584114821
 21
1528.58671649328
 31
0.0
 70
   160
 71
     5
 42
107.6125208261569
  3
ISO-25
100
AcDbAlignedDimension
 13
1140.058698291068
 23
1586.199164936625
 33
0.0
 14
1140.058698291068
 24
1478.586644110468
 34
0.0
 50
90.0
100
AcDbRotatedDimension
1001
ACAD
1000
DSTYLE
1002
{
1070
    40
1040
10.0
1070
    73
1070
     0
1070
   140
1040
3.0
1070
   171
1070
     4
1070
   176
1070
   256
1070
   177
1070
   256
1070
   178
1070
   256
1070
   271
1070
     0
1070
   272
1070
     0
1070
   273
1070
     8
1070
   274
1070
     4
1070
   288
1070
     1
1070
   340
1005
2BF5
1070
   341
1005
2A96
1070
   342
1005
2A96
1070
   371
1070
    -1
1070
   372
1070
    -1
1002
}
  0
DIMENSION
  5
34D2
330
1A
100
AcDbEntity
  8
sunpou
100
AcDbDimension
  2
*D19
 10
1178.233928790659
 20
1038.586417360054
 30
0.0
 11
1156.983928790658
 21
1258.586530735262
 31
0.0
 70
    32
 71
     5
 42
440.0002267504142
  3
ISO-25
100
AcDbAlignedDimension
 13
1140.058698291068
 23
1478.586644110468
 33
0.0
 14
1140.058698291068
 24
1038.586417360054
 34
0.0
 50
90.0
100
AcDbRotatedDimension
1001
ACAD
1000
DSTYLE
1002
{
1070
   279
1070
     1
1070
    40
1040
10.0
1070
    73
1070
     0
1070
   140
1040
3.0
1070
   171
1070
     4
1070
   176
1070
   256
1070
   177
1070
   256
1070
   178
1070
   256
1070
   271
1070
     0
1070
   272
1070
     0
1070
   273
1070
     8
1070
   274
1070
     4
1070
   288
1070
     1
1070
   340
1005
2BF5
1070
   341
1005
2A96
1070
   342
1005
2A96
1070
   371
1070
    -1
1070
   372
1070
    -1
1002
}
  0
MTEXT
  5
351A
330
1A
100
AcDbEntity
  8
0
 62
     1
100
AcDbMText
 10
1211.010943544664
 20
69.58559110691931
 30
0.0
 40
30.0
 41
570.2380491354796
 71
     1
 72
     5
  1
製品接続の際のﾎﾞﾙﾄ締めは、対角上を最低限接続する。
 73
     1
 44
1.0
  0
LINE
  5
361B
330
1A
100
AcDbEntity
  8
TB
 48
3.0
100
AcDbLine
 10
1575.058698291069
 20
486.1991649366259
 30
0.0
 11
1575.058698291069
 21
1406.199164936625
 31
0.0
  0
LINE
  5
361C
330
1A
100
AcDbEntity
  8
TB
 48
3.0
100
AcDbLine
 10
705.0586982910703
 20
486.1991649366259
 30
0.0
 11
705.058698291069
 21
1406.199164936626
 31
0.0
  0
DIMENSION
  5
361D
330
1A
100
AcDbEntity
  8
sunpou
  6
ByBlock
 48
3.0
100
AcDbDimension
  2
*D20
 10
1846.325933764758
 20
496.1991649366258
 30
0.0
 11
1846.325933764758
 21
925.7863236524004
 31
0.0
 70
   160
 71
     5
 42
899.9999999999996
  3
ISO-25
100
AcDbAlignedDimension
 13
1659.043114549549
 23
1396.199164936625
 33
0.0
 14
1659.043114549549
 24
496.1991649366259
 34
0.0
 50
90.0
100
AcDbRotatedDimension
1001
ACAD
1000
DSTYLE
1002
{
1070
    40
1040
10.0
1070
    73
1070
     0
1070
   140
1040
3.0
1070
   171
1070
     4
1070
   176
1070
   256
1070
   177
1070
   256
1070
   178
1070
   256
1070
   271
1070
     0
1070
   272
1070
     0
1070
   273
1070
     8
1070
   274
1070
     4
1070
   288
1070
     1
1070
   340
1005
2BF5
1070
   341
1005
2A96
1070
   342
1005
2A96
1070
   371
1070
    -1
1070
   372
1070
    -1
1002
}
  0
DIMENSION
  5
361E
330
1A
100
AcDbEntity
  8
sunpou
  6
ByBlock
 48
3.0
100
AcDbDimension
  2
*D21
 10
1760.284248890646
 20
546.1991649366259
 30
0.0
 11
1760.284248890646
 21
727.3929407149535
 31
0.0
 70
   160
 71
     5
 42
312.3875515566551
  3
ISO-25
100
AcDbAlignedDimension
 13
1669.043114549548
 23
858.586716493281
 33
0.0
 14
1628.760936271195
 24
546.1991649366259
 34
0.0
 50
90.0
100
AcDbRotatedDimension
1001
ACAD
1000
DSTYLE
1002
{
1070
    40
1040
10.0
1070
    73
1070
     0
1070
   140
1040
3.0
1070
   171
1070
     4
1070
   176
1070
   256
1070
   177
1070
   256
1070
   178
1070
   256
1070
   271
1070
     0
1070
   272
1070
     0
1070
   273
1070
     8
1070
   274
1070
     4
1070
   288
1070
     1
1070
   340
1005
2BF5
1070
   341
1005
2A96
1070
   342
1005
2A96
1070
   371
1070
    -1
1070
   372
1070
    -1
1002
}
  0
HATCH
  5
361F
330
1A
100
AcDbEntity
  8
saiseki
 48
3.0
100
AcDbHatch
 10
0.0
 20
0.0
 30
0.0
210
0.0
220
0.0
230
1.0
  2
HONEY
 70
     0
 71
     0
 91
        1
 92
        7
 72
     0
 73
     1
 93
        4
 10
850.05869829107
 20
1396.199164936625
 10
715.05869829107
 20
1396.199164936626
 10
715.05869829107
 20
1218.331082814096
 10
850.05869829107
 20
1255.054207659796
 97
        0
 75
     0
 76
     1
 52
0.0
 41
200.0
 77
     0
 78
     3
 53
0.0
 43
15.05754483245619
 44
165.1991649366259
 45
37.5
 46
21.650635
 79
     2
 49
25.0
 49
-50.0
 53
119.9999999999999
 43
15.05754483245619
 44
165.1991649366259
 45
-37.4999999180645
 46
21.65063514191645
 79
     2
 49
24.99999999999996
 49
-49.99999999999992
 53
60.0
 43
15.05754483245619
 44
165.1991649366259
 45
0.0000000819355084
 46
43.30127014191645
 79
     2
 49
-50.0
 49
25.0
 47
2.044484429230148
 98
        1
 10
788.0218964296091
 20
1301.819019169819
  0
LINE
  5
3620
102
{ACAD_REACTORS
330
3FB2
102
}
330
1A
100
AcDbEntity
  8
KEIKAKU
 48
3.0
100
AcDbLine
 10
715.05869829107
 20
496.1991649366259
 30
0.0
 11
715.058698291069
 21
1396.199164936626
 31
0.0
  0
LINE
  5
3621
102
{ACAD_REACTORS
330
3FB2
102
}
330
1A
100
AcDbEntity
  8
KEIKAKU
 48
3.0
100
AcDbLine
 10
1565.058698291069
 20
496.1991649366259
 30
0.0
 11
1565.058698291069
 21
1396.199164936625
 31
0.0
  0
LINE
  5
3622
330
1A
100
AcDbEntity
  8
KEIKAKU
100
AcDbLine
 10
1430.057186012418
 20
1048.586755594298
 30
0.0
 11
1430.057186012418
 21
1579.586716493279
 31
0.0
  0
LINE
  5
3623
330
1A
100
AcDbEntity
  8
KEIKAKU
100
AcDbLine
 10
1328.039225610471
 20
1156.094185449747
 30
0.0
 11
1338.156870013498
 21
1419.197023398013
 31
0.0
  0
HATCH
  5
3624
330
1A
100
AcDbEntity
  8
saiseki
100
AcDbHatch
 10
0.0
 20
0.0
 30
0.0
210
0.0
220
0.0
230
1.0
  2
HONEY
 70
     0
 71
     0
 91
        1
 92
        7
 72
     1
 73
     1
 93
        5
 10
1430.057186012418
 20
1398.58671649328
 42
0.0
 10
1337.364298721126
 20
1398.58671649328
 42
0.0
 10
1328.039225610471
 20
1156.094185449747
 42
-0.0062770778050703
 10
1327.911258478554
 20
1153.58671649328
 42
0.0
 10
1430.057186012418
 20
1153.58671649328
 42
0.0
 97
        0
 75
     0
 76
     1
 52
10.0
 41
120.0
 77
     0
 78
     3
 53
10.0
 43
190.0588707145398
 44
188.5867164932797
 45
19.90241845492556
 46
16.70011192088841
 79
     2
 49
14.99999999999997
 49
-29.99999999999995
 53
129.9999999999999
 43
190.0588707145398
 44
188.5867164932797
 45
-24.41393039699548
 46
8.885944018269572
 79
     2
 49
15.0
 49
-30.0
 53
70.0
 43
190.0588707145398
 44
188.5867164932797
 45
-4.511511942069917
 46
25.58605593915798
 79
     2
 49
-29.99999999999995
 49
14.99999999999997
 47
1.401234847305087
 98
        1
 10
1381.660083273897
 20
1251.940740908109
  0
LINE
  5
3625
330
1A
100
AcDbEntity
  8
KEIKAKU
100
AcDbLine
 10
1338.031839829674
 20
1155.709918529195
 30
0.0
 11
1348.149484232697
 21
1418.812756477462
 31
0.0
  0
LINE
  5
3626
330
1A
100
AcDbEntity
  8
KEIKAKU
100
AcDbLine
 10
1353.020761158475
 20
1155.133518148369
 30
0.0
 11
1363.138405561499
 21
1418.236356096637
 31
0.0
  0
LINE
  5
3627
330
1A
100
AcDbEntity
  8
KEIKAKU
100
AcDbLine
 10
850.0597844635722
 20
1048.586724313737
 30
0.0
 11
850.0565817149144
 21
1578.586716493461
 31
0.0
  0
LINE
  5
3628
330
1A
100
AcDbEntity
  8
KEIKAKU
100
AcDbLine
 10
952.0774148366253
 20
1156.092975830301
 30
0.0
 11
941.9580774197875
 21
1419.195748668107
 31
0.0
  0
HATCH
  5
3629
330
1A
100
AcDbEntity
  8
saiseki
100
AcDbHatch
 10
0.0
 20
0.0
 30
0.0
210
0.0
220
0.0
230
1.0
  2
HONEY
 70
     0
 71
     0
 91
        1
 92
        7
 72
     1
 73
     1
 93
        5
 10
942.750732503433
 20
1398.58671649328
 42
0.0
 10
850.05766944089
 20
1398.58671649328
 42
0.0
 10
850.0591499567999
 20
1153.586716493279
 42
0.0
 10
952.2053211876936
 20
1153.58671649328
 42
-0.0062740495843977
 10
952.0774148366253
 20
1156.092975830297
 42
0.0
 97
        0
 75
     0
 76
     1
 52
10.0
 41
120.0
 77
     0
 78
     3
 53
10.0
 43
190.0588707145398
 44
188.5867164932797
 45
19.90241845492556
 46
16.70011192088841
 79
     2
 49
14.99999999999997
 49
-29.99999999999995
 53
129.9999999999999
 43
190.0588707145398
 44
188.5867164932797
 45
-24.41393039699548
 46
8.885944018269572
 79
     2
 49
15.0
 49
-30.0
 53
70.0
 43
190.0588707145398
 44
188.5867164932797
 45
-4.511511942069917
 46
25.58605593915798
 79
     2
 49
-29.99999999999995
 49
14.99999999999997
 47
0.7006174055701328
 98
        1
 10
905.4530720331685
 20
1273.309575959558
  0
LINE
  5
362A
330
1A
100
AcDbEntity
  8
KEIKAKU
100
AcDbLine
 10
942.0848030903115
 20
1155.70864460929
 30
0.0
 11
931.9654656734728
 21
1418.811417447095
 31
0.0
  0
LINE
  5
362B
330
1A
100
AcDbEntity
  8
KEIKAKU
100
AcDbLine
 10
927.0958854708423
 20
1155.13214777777
 30
0.0
 11
916.9765480540036
 21
1418.234920615577
 31
0.0
  0
HATCH
  5
3635
330
1A
100
AcDbEntity
  8
saiseki
 48
3.0
100
AcDbHatch
 10
0.0
 20
0.0
 30
0.0
210
0.0
220
0.0
230
1.0
  2
HONEY
 70
     0
 71
     0
 91
        1
 92
        7
 72
     0
 73
     1
 93
        4
 10
1565.05869829107
 20
833.8551054445229
 10
1269.865123751348
 20
746.6305150726725
 10
1111.268546170557
 20
546.1991649366259
 10
1565.058698291069
 20
546.1991649366259
 97
        0
 75
     0
 76
     1
 52
0.0
 41
200.0
 77
     0
 78
     3
 53
0.0
 43
-800.5214062247251
 44
-919.8763998346732
 45
37.5
 46
21.650635
 79
     2
 49
25.0
 49
-50.0
 53
119.9999999999999
 43
-800.5214062247251
 44
-919.8763998346732
 45
-37.4999999180645
 46
21.65063514191645
 79
     2
 49
24.99999999999996
 49
-49.99999999999992
 53
60.0
 43
-800.5214062247251
 44
-919.8763998346732
 45
0.0000000819355084
 46
43.30127014191645
 79
     2
 49
-50.0
 49
25.0
 47
2.497892520878334
 98
        1
 10
1484.202073440734
 20
688.3950759902149
  0
LINE
  5
3637
330
1A
100
AcDbEntity
  8
KEIKAKU
100
AcDbLine
 10
840.0586982910699
 20
858.5867164932784
 30
0.0
 11
1440.05869829107
 21
858.586716493281
 31
0.0
  0
DIMENSION
  5
3638
330
1A
100
AcDbEntity
  8
sunpou
  6
ByBlock
 48
3.0
100
AcDbDimension
  2
*D22
 10
1565.058698291069
 20
179.2322124802535
 30
0.0
 11
1152.557702830488
 21
179.2322124802535
 31
0.0
 70
   160
 71
     5
 42
849.9999999999991
  3
ISO-25
100
AcDbAlignedDimension
 13
715.05869829107
 23
496.1991649366259
 33
0.0
 14
1565.058698291069
 24
496.1991649366259
 34
0.0
100
AcDbRotatedDimension
1001
ACAD
1000
DSTYLE
1002
{
1070
    40
1040
10.0
1070
    73
1070
     0
1070
   140
1040
3.0
1070
   171
1070
     4
1070
   176
1070
   256
1070
   177
1070
   256
1070
   178
1070
   256
1070
   271
1070
     0
1070
   272
1070
     0
1070
   273
1070
     8
1070
   274
1070
     4
1070
   288
1070
     1
1070
   340
1005
2BF5
1070
   341
1005
2A96
1070
   342
1005
2A96
1070
   371
1070
    -1
1070
   372
1070
    -1
1002
}
  0
LINE
  5
363A
102
{ACAD_REACTORS
330
3FB2
102
}
330
1A
100
AcDbEntity
  8
KEIKAKU
 48
3.0
100
AcDbLine
 10
715.058698291069
 20
496.1991649366259
 30
0.0
 11
1565.058698291069
 21
496.1991649366259
 31
0.0
  0
LINE
  5
363B
330
1A
100
AcDbEntity
  8
KEIKAKU
  6
ByBlock
 62
   250
100
AcDbLine
 10
1391.421621691933
 20
1038.58671649328
 30
0.0
 11
1430.057186012418
 21
1048.586755594298
 31
0.0
  0
LINE
  5
363C
330
1A
100
AcDbEntity
  8
KEIKAKU
100
AcDbLine
 10
1430.057186012418
 20
1123.58671649328
 30
0.0
 11
1355.058424811126
 21
958.5867164932796
 31
0.0
  0
LINE
  5
363D
330
1A
100
AcDbEntity
  8
KEIKAKU
100
AcDbLine
 10
840.0586982910699
 20
958.5867164932796
 30
0.0
 11
1440.05869829107
 21
958.5867164932805
 31
0.0
  0
LINE
  5
363E
102
{ACAD_REACTORS
330
3750
102
}
330
1A
100
AcDbEntity
  8
TB
100
AcDbLine
 10
869.3492633002716
 20
1082.213531504033
 30
0.0
 11
902.8496666074643
 21
1076.498157608223
 31
0.0
  0
LINE
  5
363F
102
{ACAD_REACTORS
330
3750
102
}
330
1A
100
AcDbEntity
  8
TB
100
AcDbLine
 10
882.3690562207829
 20
1052.981956241879
 30
0.0
 11
901.4681162112301
 21
1056.952305599079
 31
0.0
  0
LINE
  5
3640
330
1A
100
AcDbEntity
  8
SUNPO
  6
ByBlock
 62
   250
100
AcDbLine
 10
888.6952279303185
 20
1038.58671649328
 30
0.0
 11
850.0597844635722
 21
1048.586724313737
 31
0.0
  0
LINE
  5
3641
330
1A
100
AcDbEntity
  8
KEIKAKU
100
AcDbLine
 10
925.0584248111263
 20
958.5867164932796
 30
0.0
 11
850.0593312444625
 21
1123.586716493279
 31
0.0
  0
LINE
  5
3642
330
1A
100
AcDbEntity
  8
KEIKAKU
 48
3.0
100
AcDbLine
 10
840.0586982910699
 20
958.5867164932796
 30
0.0
 11
840.0586982910699
 21
858.5867164932784
 31
0.0
  0
LINE
  5
3643
330
1A
100
AcDbEntity
  8
KEIKAKU
100
AcDbLine
 10
1140.05869829107
 20
1038.586417360055
 30
0.0
 11
1249.24711275464
 21
1062.195600294477
 31
0.0
  0
LINE
  5
3644
330
1A
100
AcDbEntity
  8
KEIKAKU
100
AcDbLine
 10
1140.058731208568
 20
1028.355330079043
 30
0.0
 11
1251.360515688257
 21
1052.421474858398
 31
0.0
  0
LINE
  5
3645
330
1A
100
AcDbEntity
  8
KEIKAKU
100
AcDbLine
 10
1140.058780584814
 20
1013.008699157526
 30
0.0
 11
1254.530620088682
 21
1037.760286704282
 31
0.0
  0
LINE
  5
3646
102
{ACAD_REACTORS
330
3750
102
}
330
1A
100
AcDbEntity
  8
TB
100
AcDbLine
 10
922.6682220450621
 20
1028.53155424716
 30
0.0
 11
900.6781400152503
 21
1011.875053529474
 31
0.0
  0
LINE
  5
3647
330
1A
100
AcDbEntity
  8
KEIKAKU
100
AcDbLine
 10
1140.058780584814
 20
1013.008699157526
 30
0.0
 11
1025.586781811811
 21
1037.759550100429
 31
0.0
  0
ARC
  5
3648
330
1A
100
AcDbEntity
  8
KEIKAKU
100
AcDbCircle
 10
1052.003532299755
 20
1159.936288040421
 30
0.0
 40
125.0
100
AcDbArc
 50
182.2025981617653
 51
257.7994602620127
  0
ARC
  5
3649
330
1A
100
AcDbEntity
  8
KEIKAKU
100
AcDbCircle
 10
1052.003532299755
 20
1159.936288040421
 30
0.0
 40
100.0
100
AcDbArc
 50
182.2025981617653
 51
257.7994602620127
  0
ARC
  5
364A
330
1A
100
AcDbEntity
  8
KEIKAKU
100
AcDbCircle
 10
1052.003532299755
 20
1159.936288040421
 30
0.0
 40
110.0
100
AcDbArc
 50
182.2025981617653
 51
257.7994602620127
  0
LINE
  5
364B
102
{ACAD_REACTORS
330
3750
102
}
330
1A
100
AcDbEntity
  8
TB
100
AcDbLine
 10
908.6746159414015
 20
1040.772529121422
 30
0.0
 11
892.9476379686967
 21
1029.231301341377
 31
0.0
  0
ARC
  5
364C
102
{ACAD_REACTORS
330
3750
102
}
330
1A
100
AcDbEntity
  8
TB
100
AcDbCircle
 10
905.7164468663469
 20
1044.803562605833
 30
0.0
 40
4.999999522906277
100
AcDbArc
 50
306.2730386000121
 51
24.00827779890351
  0
ARC
  5
364D
102
{ACAD_REACTORS
330
3750
102
}
330
1A
100
AcDbEntity
  8
TB
100
AcDbCircle
 10
902.0087801910758
 20
1071.569365192371
 30
0.0
 40
5.000008464375815
100
AcDbArc
 50
35.31823820568053
 51
80.3181572130156
  0
LINE
  5
364E
102
{ACAD_REACTORS
330
3750
102
}
330
1A
100
AcDbEntity
  8
TB
100
AcDbLine
 10
906.088555132519
 20
1074.45995701257
 30
0.0
 11
919.0522656259735
 21
1056.16298159824
 31
0.0
  0
ARC
  5
364F
102
{ACAD_REACTORS
330
3750
102
}
330
1A
100
AcDbEntity
  8
TB
100
AcDbCircle
 10
902.4857699578269
 20
1052.056963314712
 30
0.0
 40
4.999999522906208
100
AcDbArc
 50
24.00826595650679
 51
101.7435051554328
  0
ARC
  5
3650
102
{ACAD_REACTORS
330
3750
102
}
330
1A
100
AcDbEntity
  8
TB
100
AcDbCircle
 10
914.9725190503032
 20
1053.272407593055
 30
0.0
 40
4.999975020054011
100
AcDbArc
 50
12.69828420673692
 51
35.31825954870714
  0
LINE
  5
3651
102
{ACAD_REACTORS
330
3750
102
}
330
1A
100
AcDbEntity
  8
TB
100
AcDbLine
 10
907.0532033669579
 20
1054.091305292411
 30
0.0
 11
910.283879855001
 21
1046.837905527566
 31
0.0
  0
LINE
  5
3652
102
{ACAD_REACTORS
330
3750
102
}
330
1A
100
AcDbEntity
  8
TB
100
AcDbLine
 10
919.8502003167178
 20
1054.371487055344
 30
0.0
 11
924.5269436085328
 21
1033.616335635788
 31
0.0
  0
LINE
  5
3653
330
1A
100
AcDbEntity
  8
KEIKAKU
100
AcDbLine
 10
1140.05869829107
 20
1038.586417360055
 30
0.0
 11
1030.8701319094
 21
1062.194897688428
 31
0.0
  0
LINE
  5
3654
330
1A
100
AcDbEntity
  8
KEIKAKU
100
AcDbLine
 10
1140.058731208568
 20
1028.355330079043
 30
0.0
 11
1028.756791870364
 21
1052.420758653227
 31
0.0
  0
ARC
  5
3656
330
1A
100
AcDbEntity
  8
KEIKAKU
100
AcDbCircle
 10
1228.113083418466
 20
1159.936854655251
 30
0.0
 40
125.0
100
AcDbArc
 50
282.2009084248204
 51
357.7977705250902
  0
ARC
  5
3657
330
1A
100
AcDbEntity
  8
KEIKAKU
100
AcDbCircle
 10
1228.113083418466
 20
1159.936854655251
 30
0.0
 40
100.0
100
AcDbArc
 50
282.2009084248204
 51
357.7977705250902
  0
ARC
  5
3658
330
1A
100
AcDbEntity
  8
KEIKAKU
100
AcDbCircle
 10
1228.113083418466
 20
1159.936854655251
 30
0.0
 40
110.0
100
AcDbArc
 50
282.2009084248204
 51
357.7977705250902
  0
DIMENSION
  5
3661
330
1A
100
AcDbEntity
  8
sunpou
  6
ByBlock
 48
3.0
100
AcDbDimension
  2
*D23
 10
1760.284248890645
 20
496.1991649366258
 30
0.0
 11
1739.034248890645
 21
415.6634506509119
 31
0.0
 70
    32
 71
     5
 42
50.0
  3
ISO-25
100
AcDbAlignedDimension
 13
1628.760936271195
 23
546.1991649366259
 33
0.0
 14
1659.043114549549
 24
496.1991649366259
 34
0.0
 50
90.0
100
AcDbRotatedDimension
1001
ACAD
1000
DSTYLE
1002
{
1070
    40
1040
10.0
1070
    73
1070
     0
1070
   140
1040
3.0
1070
   171
1070
     4
1070
   176
1070
   256
1070
   177
1070
   256
1070
   178
1070
   256
1070
   271
1070
     0
1070
   272
1070
     0
1070
   273
1070
     8
1070
   274
1070
     4
1070
   288
1070
     1
1070
   340
1005
2BF5
1070
   341
1005
2A96
1070
   342
1005
2A96
1070
   371
1070
    -1
1070
   372
1070
    -1
1002
}
  0
LINE
  5
3662
330
1A
100
AcDbEntity
  8
KEIKAKU
 48
3.0
100
AcDbLine
 10
1440.05869829107
 20
958.5867164932796
 30
0.0
 11
1440.05869829107
 21
858.586716493281
 31
0.0
  0
ARC
  5
3666
330
1A
100
AcDbEntity
  8
TB
100
AcDbCircle
 10
1404.327132155145
 20
1518.061526803084
 30
0.0
 40
4.999994057281072
100
AcDbArc
 50
103.1343499309299
 51
168.6904763492154
  0
LINE
  5
3667
330
1A
100
AcDbEntity
  8
TB
100
AcDbLine
 10
1399.649754964306
 20
1474.229966779881
 30
0.0
 11
1395.251899472357
 21
1496.218508481019
 31
0.0
  0
ARC
  5
3668
330
1A
100
AcDbEntity
  8
TB
100
AcDbCircle
 10
1404.552659753402
 20
1475.210583561751
 30
0.0
 40
5.000008464375815
100
AcDbArc
 50
191.3103350148371
 51
236.3102540221527
  0
LINE
  5
366A
330
1A
100
AcDbEntity
  8
KEIKAKU
100
AcDbLine
 10
1420.057186012418
 20
1586.199164936625
 30
0.0
 11
1030.058273725611
 21
1563.199164936625
 31
0.0
  0
LINE
  5
366B
330
1A
100
AcDbEntity
  8
KEIKAKU
 48
3.0
100
AcDbLine
 10
1430.057186012418
 20
1528.58671649328
 30
0.0
 11
850.0568838610188
 21
1528.58671649328
 31
0.0
  0
LINE
  5
366C
330
1A
100
AcDbEntity
  8
KEIKAKU
 48
3.0
100
AcDbLine
 10
1430.057186012418
 20
1518.58671649328
 30
0.0
 11
850.0569442902397
 21
1518.58671649328
 31
0.0
  0
LINE
  5
366D
330
1A
100
AcDbEntity
  8
TB
100
AcDbLine
 10
880.4649875960858
 20
1474.228296354926
 30
0.0
 11
884.8627015960856
 21
1496.216866354926
 31
0.0
  0
LINE
  5
366E
330
1A
100
AcDbEntity
  8
TB
100
AcDbLine
 10
884.8627015960856
 20
1498.178027354926
 30
0.0
 11
880.6902265960852
 21
1519.040402354926
 31
0.0
  0
LINE
  5
366F
330
1A
100
AcDbEntity
  8
KEIKAKU
100
AcDbLine
 10
860.0565212856936
 20
1586.199164936624
 30
0.0
 11
890.0565212856918
 21
1586.199164936625
 31
0.0
  0
LINE
  5
3670
330
1A
100
AcDbEntity
  8
SUNPO
  6
ByBlock
 62
     5
 48
3.0
100
AcDbLine
 10
622.4857247081472
 20
1571.199164936625
 30
0.0
 11
652.4857247081472
 21
1541.199164936625
 31
0.0
  0
LINE
  5
3671
330
1A
100
AcDbEntity
  8
SUNPO
  6
ByBlock
 62
     5
 48
3.0
100
AcDbLine
 10
637.4857247081472
 20
1586.199164936624
 30
0.0
 11
592.4857247081472
 21
1541.199164936625
 31
0.0
  0
LINE
  5
3672
330
1A
100
AcDbEntity
  8
KEIKAKU
 48
3.0
100
AcDbLine
 10
860.0565212856936
 20
1586.199164936624
 30
0.0
 11
440.05869829107
 21
1586.199164936624
 31
0.0
  0
LINE
  5
3673
330
1A
100
AcDbEntity
  8
SUNPO
  6
ByBlock
 62
     5
 48
3.0
100
AcDbLine
 10
487.4857247081472
 20
1556.199164936624
 30
0.0
 11
502.4857247081472
 21
1541.199164936625
 31
0.0
  0
LINE
  5
3674
330
1A
100
AcDbEntity
  8
SUNPO
  6
ByBlock
 62
     5
 48
3.0
100
AcDbLine
 10
517.4857247081472
 20
1586.199164936624
 30
0.0
 11
472.4857247081472
 21
1541.199164936625
 31
0.0
  0
LINE
  5
3675
330
1A
100
AcDbEntity
  8
SUNPO
  6
ByBlock
 62
     5
 48
3.0
100
AcDbLine
 10
487.4857247081472
 20
1586.199164936624
 30
0.0
 11
442.4857247081472
 21
1541.199164936625
 31
0.0
  0
LINE
  5
3676
330
1A
100
AcDbEntity
  8
SUNPO
  6
ByBlock
 62
     5
 48
3.0
100
AcDbLine
 10
457.4857247081472
 20
1586.199164936624
 30
0.0
 11
412.4857247081472
 21
1541.199164936625
 31
0.0
  0
LINE
  5
3677
330
1A
100
AcDbEntity
  8
SUNPO
  6
ByBlock
 62
     5
 48
3.0
100
AcDbLine
 10
517.4857247081472
 20
1586.199164936624
 30
0.0
 11
547.4857247081472
 21
1556.199164936625
 31
0.0
  0
LINE
  5
3678
330
1A
100
AcDbEntity
  8
SUNPO
  6
ByBlock
 62
     5
 48
3.0
100
AcDbLine
 10
577.4857247081472
 20
1586.199164936624
 30
0.0
 11
532.4857247081472
 21
1541.199164936625
 31
0.0
  0
LINE
  5
3679
330
1A
100
AcDbEntity
  8
SUNPO
  6
ByBlock
 62
     5
 48
3.0
100
AcDbLine
 10
607.4857247081472
 20
1586.199164936624
 30
0.0
 11
562.4857247081472
 21
1541.199164936625
 31
0.0
  0
LINE
  5
367A
330
1A
100
AcDbEntity
  8
SUNPO
  6
ByBlock
 62
     5
 48
3.0
100
AcDbLine
 10
502.4857247081472
 20
1571.199164936625
 30
0.0
 11
532.4857247081472
 21
1541.199164936625
 31
0.0
  0
LINE
  5
367B
330
1A
100
AcDbEntity
  8
SUNPO
  6
ByBlock
 62
     5
 48
3.0
100
AcDbLine
 10
607.4857247081472
 20
1556.199164936624
 30
0.0
 11
622.4857247081472
 21
1541.199164936625
 31
0.0
  0
LINE
  5
367C
330
1A
100
AcDbEntity
  8
TB
100
AcDbLine
 10
850.0588175960857
 20
1529.197447354926
 30
0.0
 11
850.0588175960857
 21
1452.197447354926
 31
0.0
  0
LINE
  5
367D
330
1A
100
AcDbEntity
  8
TB
100
AcDbLine
 10
850.0588175960857
 20
1452.197447354926
 30
0.0
 11
878.3355855960854
 21
1471.048625354927
 31
0.0
  0
LINE
  5
367E
330
1A
100
AcDbEntity
  8
TB
 48
3.0
100
AcDbLine
 10
705.0586982910681
 20
1406.199164936626
 30
0.0
 11
850.0576234394575
 21
1406.199164936626
 31
0.0
  0
LINE
  5
367F
330
1A
100
AcDbEntity
  8
KEIKAKU
 48
3.0
100
AcDbLine
 10
715.05869829107
 20
1396.199164936626
 30
0.0
 11
850.0576838686775
 21
1396.199164936626
 31
0.0
  0
LINE
  5
3680
330
1A
100
AcDbEntity
  8
SUNPO
  6
ByBlock
 62
     5
 48
3.0
100
AcDbLine
 10
637.4857247081472
 20
1586.199164936624
 30
0.0
 11
682.4857247081472
 21
1541.199164936625
 31
0.0
  0
ARC
  5
3681
330
1A
100
AcDbEntity
  8
TB
100
AcDbCircle
 10
875.7873283580392
 20
1518.059826279237
 30
0.0
 40
4.999994057281072
100
AcDbArc
 50
11.30989233764158
 51
76.86601875593367
  0
LINE
  5
3682
330
1A
100
AcDbEntity
  8
TB
100
AcDbLine
 10
873.0588175960857
 20
1493.227274354926
 30
0.0
 11
873.0588175960857
 21
1501.167619354926
 31
0.0
  0
ARC
  5
3683
330
1A
100
AcDbEntity
  8
TB
100
AcDbCircle
 10
875.5620764970181
 20
1475.208881587566
 30
0.0
 40
5.000008464375815
100
AcDbArc
 50
303.6901146647026
 51
348.6900336720316
  0
ARC
  5
3684
330
1A
100
AcDbEntity
  8
TB
100
AcDbCircle
 10
868.0588180731801
 20
1493.227273838205
 30
0.0
 40
4.999999522906208
100
AcDbArc
 50
282.2647667222678
 51
0.0000059211787034
  0
ARC
  5
3685
330
1A
100
AcDbEntity
  8
TB
100
AcDbCircle
 10
868.0588180731792
 20
1501.167619871648
 30
0.0
 40
4.999999522906277
100
AcDbArc
 50
359.9999940787952
 51
77.73523327773219
  0
LINE
  5
3686
330
1A
100
AcDbEntity
  8
TB
100
AcDbLine
 10
850.0588175960857
 20
1510.197447354926
 30
0.0
 11
850.0588175960857
 21
1484.197447354926
 31
0.0
  0
LINE
  5
3687
330
1A
100
AcDbEntity
  8
TB
100
AcDbLine
 10
850.0588175960857
 20
1484.197447354926
 30
0.0
 11
869.1209655960856
 21
1488.341392354927
 31
0.0
  0
LINE
  5
3688
330
1A
100
AcDbEntity
  8
TB
100
AcDbLine
 10
876.9234715960855
 20
1522.929027354926
 30
0.0
 11
850.0588175960857
 21
1529.197447354926
 31
0.0
  0
LINE
  5
3689
330
1A
100
AcDbEntity
  8
TB
100
AcDbLine
 10
869.1209655960856
 20
1506.053501354927
 30
0.0
 11
850.0588175960857
 21
1510.197447354926
 31
0.0
  0
LINE
  5
368A
330
1A
100
AcDbEntity
  8
KEIKAKU
100
AcDbLine
 10
850.0565817149144
 20
1576.199164936807
 30
0.0
 11
860.0565212856936
 21
1586.199164936624
 31
0.0
  0
LINE
  5
368B
330
1A
100
AcDbEntity
  8
KEIKAKU
100
AcDbLine
 10
1290.69037224933
 20
1471.055990319477
 30
0.0
 11
1140.05728263421
 21
1478.586714884572
 31
0.0
  0
LINE
  5
368C
330
1A
100
AcDbEntity
  8
KEIKAKU
100
AcDbLine
 10
1291.189686915698
 20
1481.043516783219
 30
0.0
 11
1140.057250420026
 21
1488.599205609681
 31
0.0
  0
LINE
  5
368D
330
1A
100
AcDbEntity
  8
KEIKAKU
100
AcDbLine
 10
1291.938658915248
 20
1496.024806478833
 30
0.0
 11
1140.057202098747
 21
1503.617941697349
 31
0.0
  0
ARC
  5
368E
330
1A
100
AcDbEntity
  8
KEIKAKU
100
AcDbCircle
 10
991.9211361513516
 20
1421.117404773167
 30
0.0
 40
50.0
100
AcDbArc
 50
92.8624210861918
 51
182.2025981617653
  0
ARC
  5
368F
330
1A
100
AcDbEntity
  8
KEIKAKU
100
AcDbCircle
 10
991.9211361513516
 20
1421.117404773167
 30
0.0
 40
60.0
100
AcDbArc
 50
92.8624210861918
 51
182.2025981617653
  0
ARC
  5
3690
330
1A
100
AcDbEntity
  8
KEIKAKU
100
AcDbCircle
 10
991.9211361513516
 20
1421.117404773167
 30
0.0
 40
75.0
100
AcDbArc
 50
92.8624210861918
 51
182.2025981617653
  0
LINE
  5
3691
330
1A
100
AcDbEntity
  8
KEIKAKU
100
AcDbLine
 10
989.4242414809141
 20
1471.055021025895
 30
0.0
 11
1140.05728263421
 21
1478.586714884572
 31
0.0
  0
LINE
  5
3692
330
1A
100
AcDbEntity
  8
KEIKAKU
100
AcDbLine
 10
988.9248625468262
 20
1481.042544276441
 30
0.0
 11
1140.057250420026
 21
1488.599205609681
 31
0.0
  0
LINE
  5
3693
330
1A
100
AcDbEntity
  8
KEIKAKU
100
AcDbLine
 10
988.1757941456944
 20
1496.02382915226
 30
0.0
 11
1140.057202098747
 21
1503.617941697349
 31
0.0
  0
LINE
  5
3694
330
1A
100
AcDbEntity
  8
KEIKAKU
100
AcDbLine
 10
890.0565212856918
 20
1586.199164936625
 30
0.0
 11
1030.058273725611
 21
1563.199164936625
 31
0.0
  0
ARC
  5
3695
330
1A
100
AcDbEntity
  8
TB
100
AcDbCircle
 10
879.9598236571419
 20
1497.197446854927
 30
0.0
 40
4.999975020054011
100
AcDbArc
 50
348.6900123290075
 51
11.3099876709925
  0
ARC
  5
3696
330
1A
100
AcDbEntity
  8
KEIKAKU
100
AcDbCircle
 10
1288.193798917494
 20
1421.118358000765
 30
0.0
 40
50.0
100
AcDbArc
 50
357.7977705250902
 51
87.13794760068504
  0
ARC
  5
3697
330
1A
100
AcDbEntity
  8
KEIKAKU
100
AcDbCircle
 10
1288.193798917494
 20
1421.118358000765
 30
0.0
 40
60.0
100
AcDbArc
 50
357.7977705250902
 51
87.13794760068504
  0
ARC
  5
3698
330
1A
100
AcDbEntity
  8
KEIKAKU
100
AcDbCircle
 10
1288.193798917494
 20
1421.118358000765
 30
0.0
 40
75.0
100
AcDbArc
 50
357.7977705250902
 51
87.13794760068504
  0
ARC
  5
3699
330
1A
100
AcDbEntity
  8
TB
100
AcDbCircle
 10
1400.154771101362
 20
1497.199120530035
 30
0.0
 40
4.999975020054011
100
AcDbArc
 50
168.6903810158809
 51
191.3103563578355
  0
LINE
  5
369A
330
1A
100
AcDbEntity
  8
TB
100
AcDbLine
 10
1395.251886852678
 20
1498.179669480977
 30
0.0
 11
1399.424227607392
 21
1519.042071329587
 31
0.0
  0
LINE
  5
369B
330
1A
100
AcDbEntity
  8
KEIKAKU
 48
3.0
100
AcDbLine
 10
1420.057186012418
 20
1586.199164936625
 30
0.0
 11
1840.05869829107
 21
1586.199164936625
 31
0.0
  0
DIMENSION
  5
369C
330
1A
100
AcDbEntity
  8
sunpou
 48
3.0
100
AcDbDimension
  2
*D24
 10
1846.325933764758
 20
1396.199164936631
 30
0.0
 11
1846.325933764758
 21
1486.913879315586
 31
0.0
 70
   160
 71
     5
 42
190.0
  3
ISO-25
100
AcDbAlignedDimension
 13
1600.08328714501
 23
1586.199164936631
 33
0.0
 14
1745.084799423661
 24
1396.199164936631
 34
0.0
 50
90.0
100
AcDbRotatedDimension
1001
ACAD
1000
DSTYLE
1002
{
1070
    40
1040
10.0
1070
    73
1070
     0
1070
   140
1040
3.0
1070
   171
1070
     4
1070
   176
1070
   256
1070
   177
1070
   256
1070
   178
1070
   256
1070
   271
1070
     0
1070
   272
1070
     0
1070
   273
1070
     8
1070
   274
1070
     4
1070
   288
1070
     1
1070
   340
1005
2BF5
1070
   341
1005
2A96
1070
   342
1005
2A96
1070
   371
1070
    -1
1070
   372
1070
    -1
1002
}
  0
LINE
  5
369D
330
1A
100
AcDbEntity
  8
TB
100
AcDbLine
 10
1430.056066727775
 20
1452.199313437947
 30
0.0
 11
1401.779177424808
 21
1471.050309482222
 31
0.0
  0
LINE
  5
369E
330
1A
100
AcDbEntity
  8
TB
100
AcDbLine
 10
1430.055571248209
 20
1529.199313436353
 30
0.0
 11
1430.056066727775
 21
1452.199313437947
 31
0.0
  0
LINE
  5
369F
330
1A
100
AcDbEntity
  8
TB
 48
3.0
100
AcDbLine
 10
1430.057186012418
 20
1406.199164936626
 30
0.0
 11
1575.058698291069
 21
1406.199164936625
 31
0.0
  0
LINE
  5
36A0
330
1A
100
AcDbEntity
  8
KEIKAKU
 48
3.0
100
AcDbLine
 10
1430.057186012418
 20
1396.199164936626
 30
0.0
 11
1565.058698291068
 21
1396.199164936625
 31
0.0
  0
LINE
  5
36A1
330
1A
100
AcDbEntity
  8
TB
100
AcDbLine
 10
1403.190957584791
 20
1522.930720567819
 30
0.0
 11
1430.055571248209
 21
1529.199313436353
 31
0.0
  0
LINE
  5
36A2
330
1A
100
AcDbEntity
  8
TB
100
AcDbLine
 10
1407.055802709537
 20
1493.228992436709
 30
0.0
 11
1407.05575161501
 21
1501.169337436544
 31
0.0
  0
LINE
  5
36A3
330
1A
100
AcDbEntity
  8
TB
100
AcDbLine
 10
1430.055693509401
 20
1510.199313436747
 30
0.0
 11
1430.055860814189
 21
1484.199313437285
 31
0.0
  0
LINE
  5
36A4
330
1A
100
AcDbEntity
  8
TB
100
AcDbLine
 10
1430.055860814189
 20
1484.199313437285
 30
0.0
 11
1410.99368614913
 21
1488.343135776097
 31
0.0
  0
ARC
  5
36A5
330
1A
100
AcDbEntity
  8
TB
100
AcDbCircle
 10
1412.055802232344
 20
1493.229024093982
 30
0.0
 40
4.999999522906208
100
AcDbArc
 50
180.0003627656552
 51
257.7356019645613
  0
LINE
  5
36A6
330
1A
100
AcDbEntity
  8
TB
100
AcDbLine
 10
1410.993572175257
 20
1506.055244775732
 30
0.0
 11
1430.055693509401
 21
1510.199313436747
 31
0.0
  0
ARC
  5
36A7
330
1A
100
AcDbEntity
  8
TB
100
AcDbCircle
 10
1412.055751137808
 20
1501.16937012726
 30
0.0
 40
4.999999522906277
100
AcDbArc
 50
102.2651354091251
 51
180.0003746080387
  0
LINE
  5
36A8
330
1A
100
AcDbEntity
  8
KEIKAKU
100
AcDbLine
 10
1420.057186012418
 20
1586.199164936625
 30
0.0
 11
1430.057186012418
 21
1576.199164936625
 31
0.0
  0
LINE
  5
373F
102
{ACAD_REACTORS
330
3750
102
}
330
1A
100
AcDbEntity
  8
TB
100
AcDbLine
 10
924.5269436085328
 20
1033.616335635788
 30
0.0
 11
922.6682220450621
 21
1028.53155424716
 31
0.0
  0
ARC
  5
3741
102
{ACAD_REACTORS
330
374F
102
}
330
1A
100
AcDbEntity
  8
TB
100
AcDbCircle
 10
1377.631626624313
 20
1052.056963314712
 30
0.0
 40
4.999999522906208
100
AcDbArc
 50
78.25649484456718
 51
155.9917340434932
  0
ARC
  5
3742
102
{ACAD_REACTORS
330
374F
102
}
330
1A
100
AcDbEntity
  8
TB
100
AcDbCircle
 10
1378.108616391064
 20
1071.569365192371
 30
0.0
 40
5.000008464375815
100
AcDbArc
 50
99.68184278698439
 51
144.6817617943194
  0
LINE
  5
3743
102
{ACAD_REACTORS
330
374F
102
}
330
1A
100
AcDbEntity
  8
TB
100
AcDbLine
 10
1371.442780640738
 20
1040.772529121422
 30
0.0
 11
1387.169758613443
 21
1029.231301341377
 31
0.0
  0
LINE
  5
3744
102
{ACAD_REACTORS
330
374E
330
374F
102
}
330
1A
100
AcDbEntity
  8
TB
100
AcDbLine
 10
1357.449174537078
 20
1028.53155424716
 30
0.0
 11
1379.439256566889
 21
1011.875053529474
 31
0.0
  0
LINE
  5
3745
102
{ACAD_REACTORS
330
374F
102
}
330
1A
100
AcDbEntity
  8
TB
100
AcDbLine
 10
1397.748340361357
 20
1052.981956241879
 30
0.0
 11
1378.64928037091
 21
1056.952305599079
 31
0.0
  0
LINE
  5
3746
102
{ACAD_REACTORS
330
374E
330
374F
102
}
330
1A
100
AcDbEntity
  8
TB
100
AcDbLine
 10
1410.768133281868
 20
1082.213531504033
 30
0.0
 11
1377.267729974676
 21
1076.498157608223
 31
0.0
  0
LINE
  5
3747
102
{ACAD_REACTORS
330
374F
102
}
330
1A
100
AcDbEntity
  8
TB
100
AcDbLine
 10
1355.590452973607
 20
1033.616335635788
 30
0.0
 11
1357.449174537078
 21
1028.53155424716
 31
0.0
  0
LINE
  5
3748
102
{ACAD_REACTORS
330
374E
330
374F
102
}
330
1A
100
AcDbEntity
  8
TB
100
AcDbLine
 10
1360.267196265422
 20
1054.371487055344
 30
0.0
 11
1355.590452973607
 21
1033.616335635788
 31
0.0
  0
LINE
  5
3749
102
{ACAD_REACTORS
330
374F
102
}
330
1A
100
AcDbEntity
  8
TB
100
AcDbLine
 10
1373.064193215182
 20
1054.091305292411
 30
0.0
 11
1369.833516727139
 21
1046.837905527566
 31
0.0
  0
ARC
  5
374A
102
{ACAD_REACTORS
330
374F
102
}
330
1A
100
AcDbEntity
  8
TB
100
AcDbCircle
 10
1365.144877531837
 20
1053.272407593055
 30
0.0
 40
4.999975020054011
100
AcDbArc
 50
144.6817404512928
 51
167.301715793263
  0
LINE
  5
374B
102
{ACAD_REACTORS
330
374E
330
374F
102
}
330
1A
100
AcDbEntity
  8
TB
100
AcDbLine
 10
1374.028841449621
 20
1074.45995701257
 30
0.0
 11
1361.065130956166
 21
1056.16298159824
 31
0.0
  0
ARC
  5
374C
102
{ACAD_REACTORS
330
374F
102
}
330
1A
100
AcDbEntity
  8
TB
100
AcDbCircle
 10
1374.400949715793
 20
1044.803562605833
 30
0.0
 40
4.999999522906277
100
AcDbArc
 50
155.9917222010965
 51
233.7269613999878
  0
DIMENSION
  5
37B5
330
1A
100
AcDbEntity
  8
sunpou
  6
ByBlock
 48
3.0
100
AcDbDimension
  2
*D25
 10
1760.284248890646
 20
858.586716493281
 30
0.0
 11
1760.284248890646
 21
908.5867164932801
 31
0.0
 70
   160
 71
     5
 42
99.99999999999864
  3
ISO-25
100
AcDbAlignedDimension
 13
1669.043114549548
 23
958.5867164932796
 33
0.0
 14
1675.293114549549
 24
858.586716493281
 34
0.0
 50
90.0
100
AcDbRotatedDimension
1001
ACAD
1000
DSTYLE
1002
{
1070
    40
1040
10.0
1070
    73
1070
     0
1070
   140
1040
3.0
1070
   171
1070
     4
1070
   176
1070
   256
1070
   177
1070
   256
1070
   178
1070
   256
1070
   271
1070
     0
1070
   272
1070
     0
1070
   273
1070
     8
1070
   274
1070
     4
1070
   288
1070
     1
1070
   340
1005
2BF5
1070
   341
1005
2A96
1070
   342
1005
2A96
1070
   371
1070
    -1
1070
   372
1070
    -1
1002
}
  0
DIMENSION
  5
37EB
330
1A
100
AcDbEntity
  8
sunpou
  6
ByBlock
 48
3.0
100
AcDbDimension
  2
*D26
 10
1760.284248890646
 20
958.5867164932796
 30
0.0
 11
1760.284248890646
 21
1177.392940714952
 31
0.0
 70
   160
 71
     5
 42
437.6124484433459
  3
ISO-25
100
AcDbAlignedDimension
 13
1656.743554099419
 23
1396.199164936625
 33
0.0
 14
1675.293114549549
 24
958.5867164932796
 34
0.0
 50
90.0
100
AcDbRotatedDimension
1001
ACAD
1000
DSTYLE
1002
{
1070
    40
1040
10.0
1070
    73
1070
     0
1070
   140
1040
3.0
1070
   171
1070
     4
1070
   176
1070
   256
1070
   177
1070
   256
1070
   178
1070
   256
1070
   271
1070
     0
1070
   272
1070
     0
1070
   273
1070
     8
1070
   274
1070
     4
1070
   288
1070
     1
1070
   340
1005
2BF5
1070
   341
1005
2A96
1070
   342
1005
2A96
1070
   371
1070
    -1
1070
   372
1070
    -1
1002
}
  0
DIMENSION
  5
3908
330
1A
100
AcDbEntity
  8
sunpou
100
AcDbDimension
  2
*D27
 10
1430.057186012418
 20
1696.888267381541
 30
0.0
 11
1145.361489748042
 21
1696.888267381541
 31
0.0
 70
   160
 71
     5
 42
580.0006042975037
  3
ISO-25
100
AcDbAlignedDimension
 13
850.0565817149144
 23
1576.199164936807
 33
0.0
 14
1430.057186012418
 24
1576.199164936625
 34
0.0
100
AcDbRotatedDimension
1001
ACAD
1000
DSTYLE
1002
{
1070
    40
1040
10.0
1070
    73
1070
     0
1070
   140
1040
3.0
1070
   171
1070
     4
1070
   176
1070
   256
1070
   177
1070
   256
1070
   178
1070
   256
1070
   271
1070
     0
1070
   272
1070
     0
1070
   273
1070
     8
1070
   274
1070
     4
1070
   288
1070
     1
1070
   340
1005
2BF5
1070
   341
1005
2A96
1070
   342
1005
2A96
1070
   371
1070
    -1
1070
   372
1070
    -1
1002
}
  0
DIMENSION
  5
3927
330
1A
100
AcDbEntity
  8
sunpou
100
AcDbDimension
  2
*D28
 10
1440.05869829107
 20
323.9596662861677
 30
0.0
 11
1139.860313641851
 21
323.9596662861677
 31
0.0
 70
   160
 71
     5
 42
600.0
  3
ISO-25
100
AcDbAlignedDimension
 13
840.0586982910699
 23
496.1991649366259
 33
0.0
 14
1440.05869829107
 24
496.1991649366259
 34
0.0
100
AcDbRotatedDimension
1001
ACAD
1000
DSTYLE
1002
{
1070
    40
1040
10.0
1070
    73
1070
     0
1070
   140
1040
3.0
1070
   171
1070
     4
1070
   176
1070
   256
1070
   177
1070
   256
1070
   178
1070
   256
1070
   271
1070
     0
1070
   272
1070
     0
1070
   273
1070
     8
1070
   274
1070
     4
1070
   288
1070
     1
1070
   340
1005
2BF5
1070
   341
1005
2A96
1070
   342
1005
2A96
1070
   371
1070
    -1
1070
   372
1070
    -1
1002
}
  0
MTEXT
  5
3F13
330
1A
100
AcDbEntity
  8
0
100
AcDbMText
 10
1236.74037558451
 20
-44.48701212645437
 30
0.0
 40
30.0
 41
371.0
 71
     1
 72
     5
  1
{\C1;製品長 Ｌ＝2.000ｍ}
  7
BIGFONT
 73
     1
 44
1.0
  0
MTEXT
  5
3F14
102
{ACAD_REACTORS
330
3F16
102
}
330
1A
100
AcDbEntity
  8
sunpou
100
AcDbMText
 10
602.1746792725707
 20
991.8866721740673
 30
0.0
 40
30.0
 41
0.0
 71
     9
 72
     1
  1
EX-400
  7
BIGFONT
 73
     1
 44
1.0
  0
LINE
  5
3F15
330
1A
100
AcDbEntity
  8
sunpou
100
AcDbLine
 10
608.4246792725707
 20
982.9331156212315
 30
0.0
 11
427.8828992926682
 21
982.9331156212315
 31
0.0
  0
LEADER
  5
3F16
330
1A
100
AcDbEntity
  8
sunpou
100
AcDbLeader
  3
ISO-25
 73
     0
 75
     1
 40
30.0
 41
170.0
 76
     3
 10
879.4102649257752
 20
1237.591570165878
 30
0.0
 10
633.4246792725707
 20
982.9331156212315
 30
0.0
 10
608.4246792725707
 20
982.9331156212315
 30
0.0
340
3F14
213
0.0
223
-8.953556552835834
233
0.0
1001
ACAD
1000
DSTYLE
1002
{
1070
   147
1040
0.625
1070
    77
1070
     0
1070
    40
1040
10.0
1070
    73
1070
     0
1070
   140
1040
3.0
1070
   171
1070
     4
1070
   176
1070
   256
1070
   177
1070
   256
1070
   178
1070
   256
1070
   271
1070
     0
1070
   272
1070
     0
1070
   273
1070
     8
1070
   274
1070
     4
1070
   288
1070
     1
1070
   340
1005
2BF5
1070
   341
1005
2A96
1070
   342
1005
2A96
1070
   371
1070
    -1
1070
   372
1070
    -1
1002
}
  0
LINE
  5
3F76
102
{ACAD_REACTORS
330
3FB2
102
}
330
1A
100
AcDbEntity
  8
KEIKAKU
 48
3.0
100
AcDbLine
 10
715.058698291069
 20
546.1991649366259
 30
0.0
 11
1565.058698291069
 21
546.1991649366259
 31
0.0
  0
HATCH
  5
3FB2
330
1A
100
AcDbEntity
  8
0
100
AcDbHatch
 10
0.0
 20
0.0
 30
0.0
210
0.0
220
0.0
230
1.0
  2
AR-SAND
 70
     0
 71
     1
 91
        1
 92
        7
 72
     0
 73
     1
 93
        4
 10
1565.058698291069
 20
496.1991649366259
 10
1565.058698291069
 20
546.1991649366259
 10
715.0586982910698
 20
546.1991649366259
 10
715.05869829107
 20
496.1991649366259
 97
        4
330
3F76
330
3620
330
363A
330
3621
 75
     0
 76
     1
 52
0.0
 41
1.0
 77
     0
 78
     4
 53
37.5
 43
715.05869829107
 44
496.1991649366255
 45
-1.600031295984045
 46
48.94132373293423
 79
     6
 49
0.0
 49
-38.60800000000001
 49
0.0
 49
-43.18
 49
0.0
 49
-41.275
 53
7.499999999999999
 43
715.05869829107
 44
496.1991649366255
 45
44.95232831380026
 46
71.68251005683543
 79
     6
 49
0.0
 49
-20.828
 49
0.0
 49
-34.798
 49
0.0
 49
-13.335
 53
327.5
 43
683.8166982910697
 44
496.1991649366255
 45
79.09923702414579
 46
0.1437184678545691
 79
     6
 49
0.0
 49
-12.7
 49
0.0
 49
-45.72
 49
0.0
 49
-59.69
 53
317.5
 43
683.8166982910697
 44
496.1991649366255
 45
76.35564524722972
 46
22.29293232572162
 79
     6
 49
0.0
 49
-6.349999999999999
 49
0.0
 49
-29.972
 49
0.0
 49
-34.29
 47
2.768239505325094
 98
        1
 10
941.9236577122246
 20
519.4966855095854
1001
ACAD
1010
3533.298453245325
1020
2498.36846086197
1030
0.0
  0
LINE
  5
3FCD
330
1A
100
AcDbEntity
  8
TB
 48
3.0
100
AcDbLine
 10
705.0586982910703
 20
486.1991649366259
 30
0.0
 11
765.058698291069
 21
486.1991649366254
 31
0.0
  0
LINE
  5
3FCE
330
1A
100
AcDbEntity
  8
TB
 48
3.0
100
AcDbLine
 10
1515.058698291069
 20
486.1991649366259
 30
0.0
 11
1575.058698291069
 21
486.1991649366259
 31
0.0
  0
LWPOLYLINE
  5
4114
330
1A
100
AcDbEntity
  8
KL
  6
ByBlock
 62
     0
 48
2.0
100
AcDbPolyline
 90
        4
 70
     1
 43
0.0
 10
2400.056462409899
 20
2774.206603089369
 10
2400.056462409898
 20
-789.7933969106309
 10
-119.9435375901023
 20
-789.7933969106309
 10
-119.9435375901014
 20
2774.206603089369
  0
TEXT
  5
4862
330
1A
100
AcDbEntity
  8
0
100
AcDbText
 10
3110.822675647948
 20
2125.877971444076
 30
0.0
 40
50.0
  1
浸透性管渠型側溝　EXM-400 構造図
  7
BIGFONT
100
AcDbText
  0
TEXT
  5
4863
330
1A
100
AcDbEntity
  8
0
100
AcDbText
 10
4296.57114178517
 20
2125.731133363414
 30
0.0
 40
40.0
  1
S=1/10
  7
BIGFONT
100
AcDbText
  0
LEADER
  5
4864
330
1A
100
AcDbEntity
  8
sunpou
100
AcDbLeader
  3
ISO-25
 73
     0
 75
     1
 40
30.0
 41
316.0
 76
     3
 10
3468.893198578817
 20
931.7543996006216
 30
0.0
 10
3221.564307314917
 20
648.6842060880453
 30
0.0
 10
3196.564307314917
 20
648.6842060880453
 30
0.0
340
4865
213
0.0
223
-8.953556552835834
233
0.0
1001
ACAD
1000
DSTYLE
1002
{
1070
   147
1040
0.625
1070
    77
1070
     0
1070
    40
1040
10.0
1070
    73
1070
     0
1070
   140
1040
3.0
1070
   171
1070
     4
1070
   176
1070
   256
1070
   177
1070
   256
1070
   178
1070
   256
1070
   271
1070
     0
1070
   272
1070
     0
1070
   273
1070
     8
1070
   274
1070
     4
1070
   288
1070
     1
1070
   340
1005
2BF5
1070
   341
1005
2A96
1070
   342
1005
2A96
1070
   371
1070
    -1
1070
   372
1070
    -1
1002
}
  0
MTEXT
  5
4865
102
{ACAD_REACTORS
330
4864
102
}
330
1A
100
AcDbEntity
  8
sunpou
100
AcDbMText
 10
3190.314307314917
 20
657.6377626408811
 30
0.0
 40
30.0
 41
0.0
 71
     9
 72
     1
  1
受け台と単粒度砕石
  7
BIGFONT
 73
     1
 44
1.0
  0
LEADER
  5
4866
330
1A
100
AcDbEntity
  8
sunpou
100
AcDbLeader
  3
ISO-25
 73
     0
 75
     1
 40
30.0
 41
100.0
 76
     3
 10
3283.742847472237
 20
541.076247692944
 30
0.0
 10
3168.325404900652
 20
413.3239511779861
 30
0.0
 10
3143.325404900652
 20
413.3239511779861
 30
0.0
340
4867
213
0.0
223
-8.953556552835834
233
0.0
1001
ACAD
1000
DSTYLE
1002
{
1070
   147
1040
0.625
1070
    77
1070
     0
1070
    40
1040
10.0
1070
    73
1070
     0
1070
   140
1040
3.0
1070
   171
1070
     4
1070
   176
1070
   256
1070
   177
1070
   256
1070
   178
1070
   256
1070
   271
1070
     0
1070
   272
1070
     0
1070
   273
1070
     8
1070
   274
1070
     4
1070
   288
1070
     1
1070
   340
1005
2BF5
1070
   341
1005
2A96
1070
   342
1005
2A96
1070
   371
1070
    -1
1070
   372
1070
    -1
1002
}
  0
MTEXT
  5
4867
102
{ACAD_REACTORS
330
4866
102
}
330
1A
100
AcDbEntity
  8
sunpou
100
AcDbMText
 10
3137.075404900652
 20
422.2775077308219
 30
0.0
 40
30.0
 41
0.0
 71
     9
 72
     1
  1
敷き砂
  7
BIGFONT
 73
     1
 44
1.0
  0
LINE
  5
4868
330
1A
100
AcDbEntity
  8
sunpou
100
AcDbLine
 10
3143.325404900652
 20
413.3239511779861
 30
0.0
 11
3026.733994849896
 21
413.3239511779861
 31
0.0
  0
LINE
  5
4869
330
1A
100
AcDbEntity
  8
sunpou
100
AcDbLine
 10
3084.688223933218
 20
882.9163856716881
 30
0.0
 11
2904.146443953316
 21
882.9163856716881
 31
0.0
  0
LINE
  5
486A
330
1A
100
AcDbEntity
  8
sunpou
100
AcDbLine
 10
3196.564307314917
 20
648.6842060880453
 30
0.0
 11
2864.112216632116
 21
648.6842060880453
 31
0.0
  0
MTEXT
  5
486B
102
{ACAD_REACTORS
330
486C
102
}
330
1A
100
AcDbEntity
  8
sunpou
100
AcDbMText
 10
3078.438223933218
 20
891.8699422245239
 30
0.0
 40
30.0
 41
0.0
 71
     9
 72
     1
  1
単粒度砕石
  7
BIGFONT
 73
     1
 44
1.0
  0
LEADER
  5
486C
330
1A
100
AcDbEntity
  8
sunpou
100
AcDbLeader
  3
ISO-25
 73
     0
 75
     1
 40
30.0
 41
172.0
 76
     3
 10
3310.577308612973
 20
1118.846792656726
 30
0.0
 10
3109.688223933218
 20
882.9163856716881
 30
0.0
 10
3084.688223933218
 20
882.9163856716881
 30
0.0
340
486B
213
0.0
223
-8.953556552835834
233
0.0
1001
ACAD
1000
DSTYLE
1002
{
1070
   147
1040
0.625
1070
    77
1070
     0
1070
    40
1040
10.0
1070
    73
1070
     0
1070
   140
1040
3.0
1070
   171
1070
     4
1070
   176
1070
   256
1070
   177
1070
   256
1070
   178
1070
   256
1070
   271
1070
     0
1070
   272
1070
     0
1070
   273
1070
     8
1070
   274
1070
     4
1070
   288
1070
     1
1070
   340
1005
2BF5
1070
   341
1005
2A96
1070
   342
1005
2A96
1070
   371
1070
    -1
1070
   372
1070
    -1
1002
}
  0
LINE
  5
486D
330
1A
100
AcDbEntity
  8
sunpou
100
AcDbLine
 10
3084.688223933218
 20
1240.79490832642
 30
0.0
 11
2904.146443953316
 21
1240.79490832642
 31
0.0
  0
MTEXT
  5
486E
102
{ACAD_REACTORS
330
486F
102
}
330
1A
100
AcDbEntity
  8
sunpou
100
AcDbMText
 10
3078.438223933218
 20
1249.748464879256
 30
0.0
 40
30.0
 41
0.0
 71
     9
 72
     1
  1
透水シート
  7
BIGFONT
 73
     1
 44
1.0
  0
LEADER
  5
486F
330
1A
100
AcDbEntity
  8
sunpou
100
AcDbLeader
  3
ISO-25
 73
     0
 75
     1
 40
30.0
 41
166.0
 76
     3
 10
3225.105666504804
 20
1357.97113333132
 30
0.0
 10
3109.688223933218
 20
1240.79490832642
 30
0.0
 10
3084.688223933218
 20
1240.79490832642
 30
0.0
340
486E
213
0.0
223
-8.953556552835834
233
0.0
1001
ACAD
1000
DSTYLE
1002
{
1070
   147
1040
0.625
1070
    77
1070
     0
1070
    40
1040
10.0
1070
    73
1070
     0
1070
   140
1040
3.0
1070
   171
1070
     4
1070
   176
1070
   256
1070
   177
1070
   256
1070
   178
1070
   256
1070
   271
1070
     0
1070
   272
1070
     0
1070
   273
1070
     8
1070
   274
1070
     4
1070
   288
1070
     1
1070
   340
1005
2BF5
1070
   341
1005
2A96
1070
   342
1005
2A96
1070
   371
1070
    -1
1070
   372
1070
    -1
1002
}
  0
DIMENSION
  5
4870
330
1A
100
AcDbEntity
  8
sunpou
100
AcDbDimension
  2
*D64
 10
3858.203838227235
 20
1364.004396521627
 30
0.0
 11
3660.105666504807
 21
1364.004396521627
 31
0.0
 70
   160
 71
     5
 42
396.1987925937083
  3
ISO-25
100
AcDbAlignedDimension
 13
3462.005045633527
 23
1429.511728332493
 33
0.0
 14
3858.203838227235
 24
1435.763003062398
 34
0.0
100
AcDbRotatedDimension
1001
ACAD
1000
DSTYLE
1002
{
1070
    40
1040
10.0
1070
    73
1070
     0
1070
   140
1040
3.0
1070
   171
1070
     4
1070
   176
1070
   256
1070
   177
1070
   256
1070
   178
1070
   256
1070
   271
1070
     0
1070
   272
1070
     0
1070
   273
1070
     8
1070
   274
1070
     4
1070
   288
1070
     1
1070
   340
1005
2BF5
1070
   341
1005
2A96
1070
   342
1005
2A96
1070
   371
1070
    -1
1070
   372
1070
    -1
1002
}
  0
HATCH
  5
4871
330
1A
100
AcDbEntity
  8
saiseki
100
AcDbHatch
 10
0.0
 20
0.0
 30
0.0
210
0.0
220
0.0
230
1.0
  2
AR-SAND
 70
     0
 71
     1
 91
        2
 92
        7
 72
     0
 73
     1
 93
        4
 10
3660.105666504807
 20
512.7651446010113
 10
3660.105666504807
 20
562.7651446010113
 10
3235.105666504808
 20
562.7651446010114
 10
3235.105666504808
 20
512.7651446010113
 97
        4
330
488A
330
487B
330
488B
330
4872
 92
        7
 72
     0
 73
     1
 93
        4
 10
3660.105666504807
 20
562.7651446010114
 10
3660.105666504807
 20
512.7651446010113
 10
4085.105666504807
 20
512.7651446010113
 10
4085.105666504806
 20
562.7651446010112
 97
        4
330
488A
330
4872
330
488B
330
487C
 75
     0
 76
     1
 52
0.0
 41
0.8
 77
     0
 78
     4
 53
37.5
 43
3235.105666504809
 44
512.7651446010113
 45
-1.280025036787236
 46
39.15305898634739
 79
     6
 49
0.0
 49
-30.88640000000001
 49
0.0
 49
-34.54400000000001
 49
0.0
 49
-33.02
 53
7.499999999999999
 43
3235.105666504809
 44
512.7651446010113
 45
35.96186265104022
 46
57.34600804546834
 79
     6
 49
0.0
 49
-16.6624
 49
0.0
 49
-27.8384
 49
0.0
 49
-10.668
 53
327.5
 43
3210.112066504809
 44
512.7651446010113
 45
63.27938961931664
 46
0.1149747742836553
 79
     6
 49
0.0
 49
-10.16
 49
0.0
 49
-36.576
 49
0.0
 49
-47.752
 53
317.5
 43
3210.112066504809
 44
512.7651446010113
 45
61.08451619778378
 46
17.8343458605773
 79
     6
 49
0.0
 49
-5.08
 49
0.0
 49
-23.9776
 49
0.0
 49
-27.432
 47
1.823302132113685
 98
        2
 10
3368.950814163667
 20
531.6005735547223
 10
3700.968199741016
 20
546.1869966388094
1001
ACAD
1010
837.54252935184
1020
503.04380173779
1030
0.0
  0
LINE
  5
4872
102
{ACAD_REACTORS
330
4871
102
}
330
1A
100
AcDbEntity
  8
CT1
100
AcDbLine
 10
3660.105666504807
 20
461.632889457091
 30
0.0
 11
3660.105666504807
 21
1655.673097077465
 31
0.0
  0
DIMENSION
  5
4873
330
1A
100
AcDbEntity
  8
sunpou
100
AcDbDimension
  2
*D65
 10
3697.962809361949
 20
1495.152623774854
 30
0.0
 11
3697.962809361949
 21
1545.152696157666
 31
0.0
 70
   160
 71
     5
 42
107.6125208261569
  3
ISO-25
100
AcDbAlignedDimension
 13
3660.105666504807
 23
1602.765144601011
 33
0.0
 14
3660.105666504807
 24
1495.152623774854
 34
0.0
 50
90.0
100
AcDbRotatedDimension
1001
ACAD
1000
DSTYLE
1002
{
1070
    40
1040
10.0
1070
    73
1070
     0
1070
   140
1040
3.0
1070
   171
1070
     4
1070
   176
1070
   256
1070
   177
1070
   256
1070
   178
1070
   256
1070
   271
1070
     0
1070
   272
1070
     0
1070
   273
1070
     8
1070
   274
1070
     4
1070
   288
1070
     1
1070
   340
1005
2BF5
1070
   341
1005
2A96
1070
   342
1005
2A96
1070
   371
1070
    -1
1070
   372
1070
    -1
1002
}
  0
DIMENSION
  5
4874
330
1A
100
AcDbEntity
  8
sunpou
100
AcDbDimension
  2
*D66
 10
3698.280897004397
 20
1055.15239702444
 30
0.0
 11
3677.030897004396
 21
1275.152510399647
 31
0.0
 70
    32
 71
     5
 42
440.0002267504142
  3
ISO-25
100
AcDbAlignedDimension
 13
3660.105666504807
 23
1495.152623774854
 33
0.0
 14
3660.105666504807
 24
1055.15239702444
 34
0.0
 50
90.0
100
AcDbRotatedDimension
1001
ACAD
1000
DSTYLE
1002
{
1070
   279
1070
     1
1070
    40
1040
10.0
1070
    73
1070
     0
1070
   140
1040
3.0
1070
   171
1070
     4
1070
   176
1070
   256
1070
   177
1070
   256
1070
   178
1070
   256
1070
   271
1070
     0
1070
   272
1070
     0
1070
   273
1070
     8
1070
   274
1070
     4
1070
   288
1070
     1
1070
   340
1005
2BF5
1070
   341
1005
2A96
1070
   342
1005
2A96
1070
   371
1070
    -1
1070
   372
1070
    -1
1002
}
  0
MTEXT
  5
4875
330
1A
100
AcDbEntity
  8
0
 62
     1
100
AcDbMText
 10
3717.417340928819
 20
33.82924985637101
 30
0.0
 40
30.0
 41
570.2380491354796
 71
     1
 72
     5
  1
製品接続の際のﾎﾞﾙﾄ締めは、１か２どちらかで接続を行う
 73
     1
 44
1.0
  0
LINE
  5
4876
330
1A
100
AcDbEntity
  8
TB
 48
3.0
100
AcDbLine
 10
4095.105666504807
 20
502.7651446010113
 30
0.0
 11
4095.105666504807
 21
1422.765144601011
 31
0.0
  0
LINE
  5
4877
330
1A
100
AcDbEntity
  8
TB
 48
3.0
100
AcDbLine
 10
3225.105666504808
 20
502.7651446010113
 30
0.0
 11
3225.105666504808
 21
1422.765144601012
 31
0.0
  0
DIMENSION
  5
4878
330
1A
100
AcDbEntity
  8
sunpou
  6
ByBlock
 48
3.0
100
AcDbDimension
  2
*D67
 10
4366.372901978496
 20
512.7651446010112
 30
0.0
 11
4366.372901978496
 21
942.3523033167857
 31
0.0
 70
   160
 71
     5
 42
899.9999999999996
  3
ISO-25
100
AcDbAlignedDimension
 13
4085.105666504806
 23
1412.765144601011
 33
0.0
 14
4179.090082763287
 24
512.7651446010113
 34
0.0
 50
90.0
100
AcDbRotatedDimension
1001
ACAD
1000
DSTYLE
1002
{
1070
    40
1040
10.0
1070
    73
1070
     0
1070
   140
1040
3.0
1070
   171
1070
     4
1070
   176
1070
   256
1070
   177
1070
   256
1070
   178
1070
   256
1070
   271
1070
     0
1070
   272
1070
     0
1070
   273
1070
     8
1070
   274
1070
     4
1070
   288
1070
     1
1070
   340
1005
2BF5
1070
   341
1005
2A96
1070
   342
1005
2A96
1070
   371
1070
    -1
1070
   372
1070
    -1
1002
}
  0
DIMENSION
  5
4879
330
1A
100
AcDbEntity
  8
sunpou
  6
ByBlock
 48
3.0
100
AcDbDimension
  2
*D68
 10
4280.331217104384
 20
562.7651446010113
 30
0.0
 11
4280.331217104384
 21
743.9589203793389
 31
0.0
 70
   160
 71
     5
 42
312.3875515566551
  3
ISO-25
100
AcDbAlignedDimension
 13
4189.090082763287
 23
875.1526961576665
 33
0.0
 14
4085.105666504807
 24
562.7651446010113
 34
0.0
 50
90.0
100
AcDbRotatedDimension
1001
ACAD
1000
DSTYLE
1002
{
1070
    40
1040
10.0
1070
    73
1070
     0
1070
   140
1040
3.0
1070
   171
1070
     4
1070
   176
1070
   256
1070
   177
1070
   256
1070
   178
1070
   256
1070
   271
1070
     0
1070
   272
1070
     0
1070
   273
1070
     8
1070
   274
1070
     4
1070
   288
1070
     1
1070
   340
1005
2BF5
1070
   341
1005
2A96
1070
   342
1005
2A96
1070
   371
1070
    -1
1070
   372
1070
    -1
1002
}
  0
HATCH
  5
487A
330
1A
100
AcDbEntity
  8
saiseki
 48
3.0
100
AcDbHatch
 10
0.0
 20
0.0
 30
0.0
210
0.0
220
0.0
230
1.0
  2
HONEY
 70
     0
 71
     0
 91
        1
 92
        7
 72
     0
 73
     1
 93
        4
 10
3370.105666504809
 20
1412.765144601011
 10
3235.105666504809
 20
1412.765144601012
 10
3235.105666504809
 20
1234.897062478481
 10
3370.105666504809
 20
1271.620187324181
 97
        0
 75
     0
 76
     1
 52
0.0
 41
200.0
 77
     0
 78
     3
 53
0.0
 43
2535.104513046194
 44
181.7651446010113
 45
37.5
 46
21.650635
 79
     2
 49
25.0
 49
-50.0
 53
119.9999999999999
 43
2535.104513046194
 44
181.7651446010113
 45
-37.4999999180645
 46
21.65063514191645
 79
     2
 49
24.99999999999996
 49
-49.99999999999992
 53
60.0
 43
2535.104513046194
 44
181.7651446010113
 45
0.0000000819355084
 46
43.30127014191645
 79
     2
 49
-50.0
 49
25.0
 47
2.044484429230148
 98
        1
 10
3308.068864643348
 20
1318.384998834205
  0
LINE
  5
487B
102
{ACAD_REACTORS
330
4871
102
}
330
1A
100
AcDbEntity
  8
KEIKAKU
 48
3.0
100
AcDbLine
 10
3235.105666504809
 20
512.7651446010113
 30
0.0
 11
3235.105666504807
 21
1412.765144601012
 31
0.0
  0
LINE
  5
487C
102
{ACAD_REACTORS
330
4871
102
}
330
1A
100
AcDbEntity
  8
KEIKAKU
 48
3.0
100
AcDbLine
 10
4085.105666504807
 20
512.7651446010113
 30
0.0
 11
4085.105666504807
 21
1412.765144601011
 31
0.0
  0
LINE
  5
487D
330
1A
100
AcDbEntity
  8
KEIKAKU
100
AcDbLine
 10
3950.104154226157
 20
1065.152735258683
 30
0.0
 11
3950.104154226157
 21
1596.152696157665
 31
0.0
  0
LINE
  5
487E
330
1A
100
AcDbEntity
  8
KEIKAKU
100
AcDbLine
 10
3848.08619382421
 20
1172.660165114132
 30
0.0
 11
3858.203838227236
 21
1435.763003062399
 31
0.0
  0
HATCH
  5
487F
330
1A
100
AcDbEntity
  8
saiseki
100
AcDbHatch
 10
0.0
 20
0.0
 30
0.0
210
0.0
220
0.0
230
1.0
  2
HONEY
 70
     0
 71
     0
 91
        1
 92
        7
 72
     1
 73
     1
 93
        5
 10
3950.104154226157
 20
1415.152696157666
 42
0.0
 10
3857.411266934864
 20
1415.152696157666
 42
0.0
 10
3848.08619382421
 20
1172.660165114132
 42
-0.0062770778050703
 10
3847.958226692293
 20
1170.152696157666
 42
0.0
 10
3950.104154226157
 20
1170.152696157666
 42
0.0
 97
        0
 75
     0
 76
     1
 52
10.0
 41
120.0
 77
     0
 78
     3
 53
10.0
 43
2710.105838928278
 44
205.1526961576651
 45
19.90241845492556
 46
16.70011192088841
 79
     2
 49
14.99999999999997
 49
-29.99999999999995
 53
129.9999999999999
 43
2710.105838928278
 44
205.1526961576651
 45
-24.41393039699548
 46
8.885944018269572
 79
     2
 49
15.0
 49
-30.0
 53
70.0
 43
2710.105838928278
 44
205.1526961576651
 45
-4.511511942069917
 46
25.58605593915798
 79
     2
 49
-29.99999999999995
 49
14.99999999999997
 47
1.401234847305087
 98
        1
 10
3901.707051487635
 20
1268.506720572495
  0
LINE
  5
4880
330
1A
100
AcDbEntity
  8
KEIKAKU
100
AcDbLine
 10
3858.078808043412
 20
1172.275898193581
 30
0.0
 11
3868.196452446436
 21
1435.378736141847
 31
0.0
  0
LINE
  5
4881
330
1A
100
AcDbEntity
  8
KEIKAKU
100
AcDbLine
 10
3873.067729372214
 20
1171.699497812754
 30
0.0
 11
3883.185373775237
 21
1434.802335761023
 31
0.0
  0
LINE
  5
4882
330
1A
100
AcDbEntity
  8
KEIKAKU
100
AcDbLine
 10
3370.10675267731
 20
1065.152703978122
 30
0.0
 11
3370.103549928653
 21
1595.152696157846
 31
0.0
  0
LINE
  5
4883
330
1A
100
AcDbEntity
  8
KEIKAKU
100
AcDbLine
 10
3472.124383050364
 20
1172.658955494686
 30
0.0
 11
3462.005045633526
 21
1435.761728332493
 31
0.0
  0
HATCH
  5
4884
330
1A
100
AcDbEntity
  8
saiseki
100
AcDbHatch
 10
0.0
 20
0.0
 30
0.0
210
0.0
220
0.0
230
1.0
  2
HONEY
 70
     0
 71
     0
 91
        1
 92
        7
 72
     1
 73
     1
 93
        5
 10
3462.797700717171
 20
1415.152696157666
 42
0.0
 10
3370.104637654628
 20
1415.152696157666
 42
0.0
 10
3370.106118170538
 20
1170.152696157664
 42
0.0
 10
3472.252289401432
 20
1170.152696157665
 42
-0.0062740495843977
 10
3472.124383050364
 20
1172.658955494682
 42
0.0
 97
        0
 75
     0
 76
     1
 52
10.0
 41
120.0
 77
     0
 78
     3
 53
10.0
 43
2710.105838928278
 44
205.1526961576651
 45
19.90241845492556
 46
16.70011192088841
 79
     2
 49
14.99999999999997
 49
-29.99999999999995
 53
129.9999999999999
 43
2710.105838928278
 44
205.1526961576651
 45
-24.41393039699548
 46
8.885944018269572
 79
     2
 49
15.0
 49
-30.0
 53
70.0
 43
2710.105838928278
 44
205.1526961576651
 45
-4.511511942069917
 46
25.58605593915798
 79
     2
 49
-29.99999999999995
 49
14.99999999999997
 47
0.7006174055701328
 98
        1
 10
3425.500040246908
 20
1289.875555623943
  0
LINE
  5
4885
330
1A
100
AcDbEntity
  8
KEIKAKU
100
AcDbLine
 10
3462.13177130405
 20
1172.274624273675
 30
0.0
 11
3452.012433887211
 21
1435.37739711148
 31
0.0
  0
LINE
  5
4886
330
1A
100
AcDbEntity
  8
KEIKAKU
100
AcDbLine
 10
3447.142853684581
 20
1171.698127442155
 30
0.0
 11
3437.023516267742
 21
1434.800900279963
 31
0.0
  0
HATCH
  5
4887
330
1A
100
AcDbEntity
  8
saiseki
 48
3.0
100
AcDbHatch
 10
0.0
 20
0.0
 30
0.0
210
0.0
220
0.0
230
1.0
  2
HONEY
 70
     0
 71
     0
 91
        1
 92
        7
 72
     0
 73
     1
 93
        4
 10
4085.105666504808
 20
850.4210851089082
 10
3789.912091965086
 20
763.1964947370579
 10
3631.315514384295
 20
562.7651446010113
 10
4085.105666504807
 20
562.7651446010113
 97
        0
 75
     0
 76
     1
 52
0.0
 41
200.0
 77
     0
 78
     3
 53
0.0
 43
1719.525561989013
 44
-903.3104201702879
 45
37.5
 46
21.650635
 79
     2
 49
25.0
 49
-50.0
 53
119.9999999999999
 43
1719.525561989013
 44
-903.3104201702879
 45
-37.4999999180645
 46
21.65063514191645
 79
     2
 49
24.99999999999996
 49
-49.99999999999992
 53
60.0
 43
1719.525561989013
 44
-903.3104201702879
 45
0.0000000819355084
 46
43.30127014191645
 79
     2
 49
-50.0
 49
25.0
 47
2.497892520878334
 98
        1
 10
4004.249041654472
 20
704.9610556546004
  0
LINE
  5
4888
330
1A
100
AcDbEntity
  8
KEIKAKU
100
AcDbLine
 10
3360.105666504809
 20
875.1526961576637
 30
0.0
 11
3960.105666504809
 21
875.1526961576665
 31
0.0
  0
DIMENSION
  5
4889
330
1A
100
AcDbEntity
  8
sunpou
  6
ByBlock
 48
3.0
100
AcDbDimension
  2
*D69
 10
4085.105666504807
 20
122.7153029393935
 30
0.0
 11
3653.199114869964
 21
122.7153029393935
 31
0.0
 70
   160
 71
     5
 42
849.9999999999991
  3
ISO-25
100
AcDbAlignedDimension
 13
3235.105666504809
 23
512.7651446010113
 33
0.0
 14
4085.105666504807
 24
512.7651446010113
 34
0.0
100
AcDbRotatedDimension
1001
ACAD
1000
DSTYLE
1002
{
1070
    40
1040
10.0
1070
    73
1070
     0
1070
   140
1040
3.0
1070
   171
1070
     4
1070
   176
1070
   256
1070
   177
1070
   256
1070
   178
1070
   256
1070
   271
1070
     0
1070
   272
1070
     0
1070
   273
1070
     8
1070
   274
1070
     4
1070
   288
1070
     1
1070
   340
1005
2BF5
1070
   341
1005
2A96
1070
   342
1005
2A96
1070
   371
1070
    -1
1070
   372
1070
    -1
1002
}
  0
LINE
  5
488A
102
{ACAD_REACTORS
330
4871
102
}
330
1A
100
AcDbEntity
  8
KEIKAKU
 48
3.0
100
AcDbLine
 10
3235.105666504809
 20
562.7651446010113
 30
0.0
 11
4085.105666504807
 21
562.7651446010113
 31
0.0
  0
LINE
  5
488B
102
{ACAD_REACTORS
330
4871
102
}
330
1A
100
AcDbEntity
  8
KEIKAKU
 48
3.0
100
AcDbLine
 10
3235.105666504807
 20
512.7651446010113
 30
0.0
 11
4085.105666504807
 21
512.7651446010113
 31
0.0
  0
LINE
  5
488C
330
1A
100
AcDbEntity
  8
TB
 48
3.0
100
AcDbLine
 10
3225.105666504808
 20
502.7651446010113
 30
0.0
 11
3282.777858135719
 21
502.7651446010113
 31
0.0
  0
LINE
  5
488D
330
1A
100
AcDbEntity
  8
TB
 48
3.0
100
AcDbLine
 10
4035.105666504807
 20
502.7651446010109
 30
0.0
 11
4095.105666504807
 21
502.7651446010113
 31
0.0
  0
LINE
  5
488E
330
1A
100
AcDbEntity
  8
KEIKAKU
  6
ByBlock
 62
   250
100
AcDbLine
 10
3911.468589905672
 20
1055.152696157666
 30
0.0
 11
3950.104154226157
 21
1065.152735258683
 31
0.0
  0
LINE
  5
488F
330
1A
100
AcDbEntity
  8
KEIKAKU
100
AcDbLine
 10
3950.104154226157
 20
1140.152696157666
 30
0.0
 11
3875.105393024865
 21
975.1526961576651
 31
0.0
  0
LINE
  5
4890
330
1A
100
AcDbEntity
  8
KEIKAKU
100
AcDbLine
 10
3360.105666504809
 20
975.1526961576651
 30
0.0
 11
3960.105666504809
 21
975.152696157666
 31
0.0
  0
LINE
  5
4891
330
1A
100
AcDbEntity
  8
TB
100
AcDbLine
 10
3389.39623151401
 20
1098.779511168418
 30
0.0
 11
3422.896634821203
 21
1093.064137272608
 31
0.0
  0
LINE
  5
4892
330
1A
100
AcDbEntity
  8
TB
100
AcDbLine
 10
3402.416024434521
 20
1069.547935906264
 30
0.0
 11
3421.515084424969
 21
1073.518285263464
 31
0.0
  0
LINE
  5
4893
330
1A
100
AcDbEntity
  8
SUNPO
  6
ByBlock
 62
   250
100
AcDbLine
 10
3408.742196144057
 20
1055.152696157666
 30
0.0
 11
3370.10675267731
 21
1065.152703978122
 31
0.0
  0
LINE
  5
4894
330
1A
100
AcDbEntity
  8
KEIKAKU
100
AcDbLine
 10
3445.105393024865
 20
975.1526961576651
 30
0.0
 11
3370.106299458201
 21
1140.152696157664
 31
0.0
  0
LINE
  5
4895
330
1A
100
AcDbEntity
  8
KEIKAKU
 48
3.0
100
AcDbLine
 10
3360.105666504809
 20
975.1526961576651
 30
0.0
 11
3360.105666504809
 21
875.1526961576637
 31
0.0
  0
LINE
  5
4896
330
1A
100
AcDbEntity
  8
KEIKAKU
100
AcDbLine
 10
3660.105666504808
 20
1055.15239702444
 30
0.0
 11
3769.294080968378
 21
1078.761579958862
 31
0.0
  0
LINE
  5
4897
330
1A
100
AcDbEntity
  8
KEIKAKU
100
AcDbLine
 10
3660.105699422306
 20
1044.921309743429
 30
0.0
 11
3771.407483901995
 21
1068.987454522784
 31
0.0
  0
LINE
  5
4898
330
1A
100
AcDbEntity
  8
KEIKAKU
100
AcDbLine
 10
3660.105748798553
 20
1029.574678821912
 30
0.0
 11
3774.577588302421
 21
1054.326266368668
 31
0.0
  0
LINE
  5
4899
330
1A
100
AcDbEntity
  8
TB
100
AcDbLine
 10
3442.7151902588
 20
1045.097533911545
 30
0.0
 11
3420.725108228989
 21
1028.441033193859
 31
0.0
  0
LINE
  5
489A
330
1A
100
AcDbEntity
  8
KEIKAKU
100
AcDbLine
 10
3660.105748798553
 20
1029.574678821912
 30
0.0
 11
3545.63375002555
 21
1054.325529764814
 31
0.0
  0
ARC
  5
489B
330
1A
100
AcDbEntity
  8
KEIKAKU
100
AcDbCircle
 10
3572.050500513494
 20
1176.502267704807
 30
0.0
 40
125.0
100
AcDbArc
 50
182.2025981617653
 51
257.7994602620128
  0
ARC
  5
489C
330
1A
100
AcDbEntity
  8
KEIKAKU
100
AcDbCircle
 10
3572.050500513494
 20
1176.502267704807
 30
0.0
 40
100.0
100
AcDbArc
 50
182.2025981617653
 51
257.7994602620128
  0
ARC
  5
489D
330
1A
100
AcDbEntity
  8
KEIKAKU
100
AcDbCircle
 10
3572.050500513494
 20
1176.502267704807
 30
0.0
 40
110.0
100
AcDbArc
 50
182.2025981617653
 51
257.7994602620128
  0
LINE
  5
489E
330
1A
100
AcDbEntity
  8
TB
100
AcDbLine
 10
3428.72158415514
 20
1057.338508785807
 30
0.0
 11
3412.994606182435
 21
1045.797281005763
 31
0.0
  0
ARC
  5
489F
330
1A
100
AcDbEntity
  8
TB
100
AcDbCircle
 10
3425.763415080086
 20
1061.369542270219
 30
0.0
 40
4.999999522906277
100
AcDbArc
 50
306.2730386000188
 51
24.00827779891516
  0
ARC
  5
48A0
330
1A
100
AcDbEntity
  8
TB
100
AcDbCircle
 10
3422.055748404814
 20
1088.135344856756
 30
0.0
 40
5.000008464375815
100
AcDbArc
 50
35.31823820568573
 51
80.31815721301676
  0
LINE
  5
48A1
330
1A
100
AcDbEntity
  8
TB
100
AcDbLine
 10
3426.135523346257
 20
1091.025936676956
 30
0.0
 11
3439.099233839712
 21
1072.728961262626
 31
0.0
  0
ARC
  5
48A2
330
1A
100
AcDbEntity
  8
TB
100
AcDbCircle
 10
3422.532738171565
 20
1068.622942979098
 30
0.0
 40
4.999999522906208
100
AcDbArc
 50
24.00826595650816
 51
101.7435051554299
  0
ARC
  5
48A3
330
1A
100
AcDbEntity
  8
TB
100
AcDbCircle
 10
3435.019487264042
 20
1069.838387257441
 30
0.0
 40
4.999975020054011
100
AcDbArc
 50
12.69828420673411
 51
35.31825954870766
  0
LINE
  5
48A4
330
1A
100
AcDbEntity
  8
TB
100
AcDbLine
 10
3427.100171580696
 20
1070.657284956796
 30
0.0
 11
3430.330848068739
 21
1063.403885191952
 31
0.0
  0
LINE
  5
48A5
330
1A
100
AcDbEntity
  8
TB
100
AcDbLine
 10
3439.897168530456
 20
1070.937466719729
 30
0.0
 11
3444.573911822271
 21
1050.182315300173
 31
0.0
  0
LINE
  5
48A6
330
1A
100
AcDbEntity
  8
KEIKAKU
100
AcDbLine
 10
3660.105666504808
 20
1055.15239702444
 30
0.0
 11
3550.917100123138
 21
1078.760877352813
 31
0.0
  0
LINE
  5
48A7
330
1A
100
AcDbEntity
  8
KEIKAKU
100
AcDbLine
 10
3660.105699422306
 20
1044.921309743429
 30
0.0
 11
3548.803760084103
 21
1068.986738317613
 31
0.0
  0
ARC
  5
48A8
330
1A
100
AcDbEntity
  8
KEIKAKU
100
AcDbCircle
 10
3748.160051632204
 20
1176.502834319637
 30
0.0
 40
125.0
100
AcDbArc
 50
282.2009084248226
 51
357.7977705250901
  0
ARC
  5
48A9
330
1A
100
AcDbEntity
  8
KEIKAKU
100
AcDbCircle
 10
3748.160051632204
 20
1176.502834319637
 30
0.0
 40
100.0
100
AcDbArc
 50
282.2009084248226
 51
357.7977705250901
  0
ARC
  5
48AA
330
1A
100
AcDbEntity
  8
KEIKAKU
100
AcDbCircle
 10
3748.160051632204
 20
1176.502834319637
 30
0.0
 40
110.0
100
AcDbArc
 50
282.2009084248226
 51
357.7977705250901
  0
DIMENSION
  5
48AB
330
1A
100
AcDbEntity
  8
sunpou
  6
ByBlock
 48
3.0
100
AcDbDimension
  2
*D70
 10
4280.331217104383
 20
512.7651446010113
 30
0.0
 11
4259.081217104383
 21
432.2294303152976
 31
0.0
 70
    32
 71
     5
 42
50.0
  3
ISO-25
100
AcDbAlignedDimension
 13
4085.105666504807
 23
562.7651446010113
 33
0.0
 14
4085.105666504807
 24
512.7651446010113
 34
0.0
 50
90.0
100
AcDbRotatedDimension
1001
ACAD
1000
DSTYLE
1002
{
1070
    40
1040
10.0
1070
    73
1070
     0
1070
   140
1040
3.0
1070
   171
1070
     4
1070
   176
1070
   256
1070
   177
1070
   256
1070
   178
1070
   256
1070
   271
1070
     0
1070
   272
1070
     0
1070
   273
1070
     8
1070
   274
1070
     4
1070
   288
1070
     1
1070
   340
1005
2BF5
1070
   341
1005
2A96
1070
   342
1005
2A96
1070
   371
1070
    -1
1070
   372
1070
    -1
1002
}
  0
LINE
  5
48AC
330
1A
100
AcDbEntity
  8
KEIKAKU
 48
3.0
100
AcDbLine
 10
3960.105666504809
 20
975.1526961576651
 30
0.0
 11
3960.105666504809
 21
875.1526961576665
 31
0.0
  0
ARC
  5
48AD
330
1A
100
AcDbEntity
  8
TB
100
AcDbCircle
 10
3924.374100368884
 20
1534.627506467469
 30
0.0
 40
4.999994057281072
100
AcDbArc
 50
103.1343499309291
 51
168.6904763492159
  0
LINE
  5
48AE
330
1A
100
AcDbEntity
  8
TB
100
AcDbLine
 10
3919.696723178045
 20
1490.795946444267
 30
0.0
 11
3915.298867686095
 21
1512.784488145404
 31
0.0
  0
ARC
  5
48AF
330
1A
100
AcDbEntity
  8
TB
100
AcDbCircle
 10
3924.599627967141
 20
1491.776563226136
 30
0.0
 40
5.000008464375815
100
AcDbArc
 50
191.3103350148373
 51
236.3102540221444
  0
LINE
  5
48B0
330
1A
100
AcDbEntity
  8
KEIKAKU
100
AcDbLine
 10
3940.104154226157
 20
1602.765144601011
 30
0.0
 11
3550.105241939349
 21
1579.765144601011
 31
0.0
  0
LINE
  5
48B1
330
1A
100
AcDbEntity
  8
KEIKAKU
 48
3.0
100
AcDbLine
 10
3950.104154226157
 20
1545.152696157666
 30
0.0
 11
3370.103852074758
 21
1545.152696157666
 31
0.0
  0
LINE
  5
48B2
330
1A
100
AcDbEntity
  8
KEIKAKU
 48
3.0
100
AcDbLine
 10
3950.104154226157
 20
1535.152696157666
 30
0.0
 11
3370.103912503978
 21
1535.152696157666
 31
0.0
  0
LINE
  5
48B3
330
1A
100
AcDbEntity
  8
TB
100
AcDbLine
 10
3400.511955809824
 20
1490.794276019311
 30
0.0
 11
3404.909669809824
 21
1512.782846019312
 31
0.0
  0
LINE
  5
48B4
330
1A
100
AcDbEntity
  8
TB
100
AcDbLine
 10
3404.909669809824
 20
1514.744007019312
 30
0.0
 11
3400.737194809823
 21
1535.606382019311
 31
0.0
  0
LINE
  5
48B5
330
1A
100
AcDbEntity
  8
KEIKAKU
100
AcDbLine
 10
3380.103489499432
 20
1602.76514460101
 30
0.0
 11
3410.10348949943
 21
1602.765144601011
 31
0.0
  0
LINE
  5
48B6
330
1A
100
AcDbEntity
  8
SUNPO
  6
ByBlock
 62
     5
 48
3.0
100
AcDbLine
 10
3142.532692921886
 20
1587.765144601011
 30
0.0
 11
3172.532692921885
 21
1557.765144601011
 31
0.0
  0
LINE
  5
48B7
330
1A
100
AcDbEntity
  8
SUNPO
  6
ByBlock
 62
     5
 48
3.0
100
AcDbLine
 10
3157.532692921885
 20
1602.76514460101
 30
0.0
 11
3112.532692921885
 21
1557.765144601011
 31
0.0
  0
LINE
  5
48B8
330
1A
100
AcDbEntity
  8
KEIKAKU
 48
3.0
100
AcDbLine
 10
3380.103489499432
 20
1602.76514460101
 30
0.0
 11
2960.105666504808
 21
1602.76514460101
 31
0.0
  0
LINE
  5
48B9
330
1A
100
AcDbEntity
  8
SUNPO
  6
ByBlock
 62
     5
 48
3.0
100
AcDbLine
 10
3007.532692921885
 20
1572.76514460101
 30
0.0
 11
3022.532692921886
 21
1557.765144601011
 31
0.0
  0
LINE
  5
48BA
330
1A
100
AcDbEntity
  8
SUNPO
  6
ByBlock
 62
     5
 48
3.0
100
AcDbLine
 10
3037.532692921886
 20
1602.76514460101
 30
0.0
 11
2992.532692921886
 21
1557.765144601011
 31
0.0
  0
LINE
  5
48BB
330
1A
100
AcDbEntity
  8
SUNPO
  6
ByBlock
 62
     5
 48
3.0
100
AcDbLine
 10
3007.532692921885
 20
1602.76514460101
 30
0.0
 11
2962.532692921886
 21
1557.765144601011
 31
0.0
  0
LINE
  5
48BC
330
1A
100
AcDbEntity
  8
SUNPO
  6
ByBlock
 62
     5
 48
3.0
100
AcDbLine
 10
2977.532692921886
 20
1602.76514460101
 30
0.0
 11
2932.532692921885
 21
1557.765144601011
 31
0.0
  0
LINE
  5
48BD
330
1A
100
AcDbEntity
  8
SUNPO
  6
ByBlock
 62
     5
 48
3.0
100
AcDbLine
 10
3037.532692921886
 20
1602.76514460101
 30
0.0
 11
3067.532692921886
 21
1572.765144601011
 31
0.0
  0
LINE
  5
48BE
330
1A
100
AcDbEntity
  8
SUNPO
  6
ByBlock
 62
     5
 48
3.0
100
AcDbLine
 10
3097.532692921886
 20
1602.76514460101
 30
0.0
 11
3052.532692921886
 21
1557.765144601011
 31
0.0
  0
LINE
  5
48BF
330
1A
100
AcDbEntity
  8
SUNPO
  6
ByBlock
 62
     5
 48
3.0
100
AcDbLine
 10
3127.532692921886
 20
1602.76514460101
 30
0.0
 11
3082.532692921886
 21
1557.765144601011
 31
0.0
  0
LINE
  5
48C0
330
1A
100
AcDbEntity
  8
SUNPO
  6
ByBlock
 62
     5
 48
3.0
100
AcDbLine
 10
3022.532692921886
 20
1587.765144601011
 30
0.0
 11
3052.532692921886
 21
1557.765144601011
 31
0.0
  0
LINE
  5
48C1
330
1A
100
AcDbEntity
  8
SUNPO
  6
ByBlock
 62
     5
 48
3.0
100
AcDbLine
 10
3127.532692921886
 20
1572.76514460101
 30
0.0
 11
3142.532692921886
 21
1557.765144601011
 31
0.0
  0
LINE
  5
48C2
330
1A
100
AcDbEntity
  8
TB
100
AcDbLine
 10
3370.105785809824
 20
1545.763427019311
 30
0.0
 11
3370.105785809824
 21
1468.763427019311
 31
0.0
  0
LINE
  5
48C3
330
1A
100
AcDbEntity
  8
TB
100
AcDbLine
 10
3370.105785809824
 20
1468.763427019311
 30
0.0
 11
3398.382553809824
 21
1487.614605019312
 31
0.0
  0
LINE
  5
48C4
330
1A
100
AcDbEntity
  8
TB
 48
3.0
100
AcDbLine
 10
3225.105666504806
 20
1422.765144601012
 30
0.0
 11
3370.104591653196
 21
1422.765144601012
 31
0.0
  0
LINE
  5
48C5
330
1A
100
AcDbEntity
  8
KEIKAKU
 48
3.0
100
AcDbLine
 10
3235.105666504809
 20
1412.765144601012
 30
0.0
 11
3370.104652082416
 21
1412.765144601012
 31
0.0
  0
LINE
  5
48C6
330
1A
100
AcDbEntity
  8
SUNPO
  6
ByBlock
 62
     5
 48
3.0
100
AcDbLine
 10
3157.532692921885
 20
1602.76514460101
 30
0.0
 11
3202.532692921886
 21
1557.765144601011
 31
0.0
  0
ARC
  5
48C7
330
1A
100
AcDbEntity
  8
TB
100
AcDbCircle
 10
3395.834296571778
 20
1534.625805943623
 30
0.0
 40
4.999994057281072
100
AcDbArc
 50
11.30989233764284
 51
76.86601875593368
  0
LINE
  5
48C8
330
1A
100
AcDbEntity
  8
TB
100
AcDbLine
 10
3393.105785809825
 20
1509.793254019312
 30
0.0
 11
3393.105785809825
 21
1517.733599019312
 31
0.0
  0
ARC
  5
48C9
330
1A
100
AcDbEntity
  8
TB
100
AcDbCircle
 10
3395.609044710756
 20
1491.774861251951
 30
0.0
 40
5.000008464375815
100
AcDbArc
 50
303.6901146647013
 51
348.6900336720316
  0
ARC
  5
48CA
330
1A
100
AcDbEntity
  8
TB
100
AcDbCircle
 10
3388.105786286919
 20
1509.79325350259
 30
0.0
 40
4.999999522906208
100
AcDbArc
 50
282.2647667222648
 51
0.0000059211787034
  0
ARC
  5
48CB
330
1A
100
AcDbEntity
  8
TB
100
AcDbCircle
 10
3388.105786286918
 20
1517.733599536033
 30
0.0
 40
4.999999522906277
100
AcDbArc
 50
359.9999940787952
 51
77.73523327773523
  0
LINE
  5
48CC
330
1A
100
AcDbEntity
  8
TB
100
AcDbLine
 10
3370.105785809824
 20
1526.763427019312
 30
0.0
 11
3370.105785809824
 21
1500.763427019311
 31
0.0
  0
LINE
  5
48CD
330
1A
100
AcDbEntity
  8
TB
100
AcDbLine
 10
3370.105785809824
 20
1500.763427019311
 30
0.0
 11
3389.167933809824
 21
1504.907372019312
 31
0.0
  0
LINE
  5
48CE
330
1A
100
AcDbEntity
  8
TB
100
AcDbLine
 10
3396.970439809824
 20
1539.495007019311
 30
0.0
 11
3370.105785809824
 21
1545.763427019311
 31
0.0
  0
LINE
  5
48CF
330
1A
100
AcDbEntity
  8
TB
100
AcDbLine
 10
3389.167933809824
 20
1522.619481019312
 30
0.0
 11
3370.105785809824
 21
1526.763427019312
 31
0.0
  0
LINE
  5
48D0
330
1A
100
AcDbEntity
  8
KEIKAKU
100
AcDbLine
 10
3370.103549928653
 20
1592.765144601193
 30
0.0
 11
3380.103489499432
 21
1602.76514460101
 31
0.0
  0
LINE
  5
48D1
330
1A
100
AcDbEntity
  8
KEIKAKU
100
AcDbLine
 10
3810.737340463068
 20
1487.621969983862
 30
0.0
 11
3660.104250847949
 21
1495.152694548957
 31
0.0
  0
LINE
  5
48D2
330
1A
100
AcDbEntity
  8
KEIKAKU
100
AcDbLine
 10
3811.236655129436
 20
1497.609496447604
 30
0.0
 11
3660.104218633764
 21
1505.165185274066
 31
0.0
  0
LINE
  5
48D3
330
1A
100
AcDbEntity
  8
KEIKAKU
100
AcDbLine
 10
3811.985627128986
 20
1512.590786143218
 30
0.0
 11
3660.104170312486
 21
1520.183921361734
 31
0.0
  0
ARC
  5
48D4
330
1A
100
AcDbEntity
  8
KEIKAKU
100
AcDbCircle
 10
3511.96810436509
 20
1437.683384437553
 30
0.0
 40
50.0
100
AcDbArc
 50
92.8624210861923
 51
182.2025981617653
  0
ARC
  5
48D5
330
1A
100
AcDbEntity
  8
KEIKAKU
100
AcDbCircle
 10
3511.96810436509
 20
1437.683384437553
 30
0.0
 40
60.0
100
AcDbArc
 50
92.8624210861923
 51
182.2025981617653
  0
ARC
  5
48D6
330
1A
100
AcDbEntity
  8
KEIKAKU
100
AcDbCircle
 10
3511.96810436509
 20
1437.683384437553
 30
0.0
 40
75.0
100
AcDbArc
 50
92.8624210861923
 51
182.2025981617653
  0
LINE
  5
48D7
330
1A
100
AcDbEntity
  8
KEIKAKU
100
AcDbLine
 10
3509.471209694652
 20
1487.621000690281
 30
0.0
 11
3660.104250847949
 21
1495.152694548957
 31
0.0
  0
LINE
  5
48D8
330
1A
100
AcDbEntity
  8
KEIKAKU
100
AcDbLine
 10
3508.971830760565
 20
1497.608523940826
 30
0.0
 11
3660.104218633764
 21
1505.165185274066
 31
0.0
  0
LINE
  5
48D9
330
1A
100
AcDbEntity
  8
KEIKAKU
100
AcDbLine
 10
3508.222762359433
 20
1512.589808816645
 30
0.0
 11
3660.104170312486
 21
1520.183921361734
 31
0.0
  0
LINE
  5
48DA
330
1A
100
AcDbEntity
  8
KEIKAKU
100
AcDbLine
 10
3410.10348949943
 20
1602.765144601011
 30
0.0
 11
3550.105241939349
 21
1579.765144601011
 31
0.0
  0
ARC
  5
48DB
330
1A
100
AcDbEntity
  8
TB
100
AcDbCircle
 10
3400.00679187088
 20
1513.763426519312
 30
0.0
 40
4.999975020054011
100
AcDbArc
 50
348.6900123290077
 51
11.30998767099228
  0
ARC
  5
48DC
330
1A
100
AcDbEntity
  8
KEIKAKU
100
AcDbCircle
 10
3808.240767131233
 20
1437.684337665151
 30
0.0
 40
50.0
100
AcDbArc
 50
357.7977705250901
 51
87.13794760068507
  0
ARC
  5
48DD
330
1A
100
AcDbEntity
  8
KEIKAKU
100
AcDbCircle
 10
3808.240767131233
 20
1437.684337665151
 30
0.0
 40
60.0
100
AcDbArc
 50
357.7977705250901
 51
87.13794760068507
  0
ARC
  5
48DE
330
1A
100
AcDbEntity
  8
KEIKAKU
100
AcDbCircle
 10
3808.240767131233
 20
1437.684337665151
 30
0.0
 40
75.0
100
AcDbArc
 50
357.7977705250901
 51
87.13794760068507
  0
ARC
  5
48DF
330
1A
100
AcDbEntity
  8
TB
100
AcDbCircle
 10
3920.2017393151
 20
1513.76510019442
 30
0.0
 40
4.999975020054011
100
AcDbArc
 50
168.6903810158817
 51
191.3103563578357
  0
LINE
  5
48E0
330
1A
100
AcDbEntity
  8
TB
100
AcDbLine
 10
3915.298855066417
 20
1514.745649145362
 30
0.0
 11
3919.47119582113
 21
1535.608050993972
 31
0.0
  0
LINE
  5
48E1
330
1A
100
AcDbEntity
  8
KEIKAKU
 48
3.0
100
AcDbLine
 10
3940.104154226157
 20
1602.765144601011
 30
0.0
 11
4360.105666504808
 21
1602.765144601011
 31
0.0
  0
DIMENSION
  5
48E2
330
1A
100
AcDbEntity
  8
sunpou
 48
3.0
100
AcDbDimension
  2
*D71
 10
4366.372901978496
 20
1412.765144601016
 30
0.0
 11
4366.372901978496
 21
1503.479858979972
 31
0.0
 70
   160
 71
     5
 42
190.0
  3
ISO-25
100
AcDbAlignedDimension
 13
4120.130255358747
 23
1602.765144601016
 33
0.0
 14
4265.131767637399
 24
1412.765144601016
 34
0.0
 50
90.0
100
AcDbRotatedDimension
1001
ACAD
1000
DSTYLE
1002
{
1070
    40
1040
10.0
1070
    73
1070
     0
1070
   140
1040
3.0
1070
   171
1070
     4
1070
   176
1070
   256
1070
   177
1070
   256
1070
   178
1070
   256
1070
   271
1070
     0
1070
   272
1070
     0
1070
   273
1070
     8
1070
   274
1070
     4
1070
   288
1070
     1
1070
   340
1005
2BF5
1070
   341
1005
2A96
1070
   342
1005
2A96
1070
   371
1070
    -1
1070
   372
1070
    -1
1002
}
  0
LINE
  5
48E3
330
1A
100
AcDbEntity
  8
TB
100
AcDbLine
 10
3950.103034941513
 20
1468.765293102332
 30
0.0
 11
3921.826145638546
 21
1487.616289146608
 31
0.0
  0
LINE
  5
48E4
330
1A
100
AcDbEntity
  8
TB
100
AcDbLine
 10
3950.102539461948
 20
1545.765293100738
 30
0.0
 11
3950.103034941513
 21
1468.765293102332
 31
0.0
  0
LINE
  5
48E5
330
1A
100
AcDbEntity
  8
TB
 48
3.0
100
AcDbLine
 10
3950.104154226157
 20
1422.765144601012
 30
0.0
 11
4095.105666504807
 21
1422.765144601011
 31
0.0
  0
LINE
  5
48E6
330
1A
100
AcDbEntity
  8
KEIKAKU
 48
3.0
100
AcDbLine
 10
3950.104154226157
 20
1412.765144601012
 30
0.0
 11
4085.105666504806
 21
1412.765144601011
 31
0.0
  0
LINE
  5
48E7
330
1A
100
AcDbEntity
  8
TB
100
AcDbLine
 10
3923.23792579853
 20
1539.496700232204
 30
0.0
 11
3950.102539461948
 21
1545.765293100738
 31
0.0
  0
LINE
  5
48E8
330
1A
100
AcDbEntity
  8
TB
100
AcDbLine
 10
3927.102770923276
 20
1509.794972101094
 30
0.0
 11
3927.102719828749
 21
1517.735317100929
 31
0.0
  0
LINE
  5
48E9
330
1A
100
AcDbEntity
  8
TB
100
AcDbLine
 10
3950.102661723139
 20
1526.765293101132
 30
0.0
 11
3950.102829027927
 21
1500.76529310167
 31
0.0
  0
LINE
  5
48EA
330
1A
100
AcDbEntity
  8
TB
100
AcDbLine
 10
3950.102829027927
 20
1500.76529310167
 30
0.0
 11
3931.040654362868
 21
1504.909115440483
 31
0.0
  0
ARC
  5
48EB
330
1A
100
AcDbEntity
  8
TB
100
AcDbCircle
 10
3932.102770446082
 20
1509.795003758367
 30
0.0
 40
4.999999522906208
100
AcDbArc
 50
180.0003627656552
 51
257.7356019645598
  0
LINE
  5
48EC
330
1A
100
AcDbEntity
  8
TB
100
AcDbLine
 10
3931.040540388995
 20
1522.621224440117
 30
0.0
 11
3950.102661723139
 21
1526.765293101132
 31
0.0
  0
ARC
  5
48ED
330
1A
100
AcDbEntity
  8
TB
100
AcDbCircle
 10
3932.102719351547
 20
1517.735349791645
 30
0.0
 40
4.999999522906277
100
AcDbArc
 50
102.2651354091251
 51
180.0003746080387
  0
LINE
  5
48EE
330
1A
100
AcDbEntity
  8
KEIKAKU
100
AcDbLine
 10
3940.104154226157
 20
1602.765144601011
 30
0.0
 11
3950.104154226157
 21
1592.765144601011
 31
0.0
  0
LINE
  5
48EF
330
1A
100
AcDbEntity
  8
TB
100
AcDbLine
 10
3444.573911822271
 20
1050.182315300173
 30
0.0
 11
3442.7151902588
 21
1045.097533911545
 31
0.0
  0
ARC
  5
48F0
330
1A
100
AcDbEntity
  8
TB
100
AcDbCircle
 10
3897.678594838051
 20
1068.622942979098
 30
0.0
 40
4.999999522906208
100
AcDbArc
 50
78.25649484457004
 51
155.9917340434918
  0
ARC
  5
48F1
330
1A
100
AcDbEntity
  8
TB
100
AcDbCircle
 10
3898.155584604803
 20
1088.135344856756
 30
0.0
 40
5.000008464375815
100
AcDbArc
 50
99.68184278698323
 51
144.6817617943142
  0
LINE
  5
48F2
330
1A
100
AcDbEntity
  8
TB
100
AcDbLine
 10
3891.489748854477
 20
1057.338508785807
 30
0.0
 11
3907.216726827181
 21
1045.797281005763
 31
0.0
  0
LINE
  5
48F3
330
1A
100
AcDbEntity
  8
TB
100
AcDbLine
 10
3877.496142750816
 20
1045.097533911545
 30
0.0
 11
3899.486224780627
 21
1028.441033193859
 31
0.0
  0
LINE
  5
48F4
330
1A
100
AcDbEntity
  8
TB
100
AcDbLine
 10
3917.795308575095
 20
1069.547935906264
 30
0.0
 11
3898.696248584649
 21
1073.518285263464
 31
0.0
  0
LINE
  5
48F5
330
1A
100
AcDbEntity
  8
TB
100
AcDbLine
 10
3930.815101495607
 20
1098.779511168418
 30
0.0
 11
3897.314698188414
 21
1093.064137272608
 31
0.0
  0
LINE
  5
48F6
330
1A
100
AcDbEntity
  8
TB
100
AcDbLine
 10
3875.637421187346
 20
1050.182315300173
 30
0.0
 11
3877.496142750816
 21
1045.097533911545
 31
0.0
  0
LINE
  5
48F7
330
1A
100
AcDbEntity
  8
TB
100
AcDbLine
 10
3880.31416447916
 20
1070.937466719729
 30
0.0
 11
3875.637421187346
 21
1050.182315300173
 31
0.0
  0
LINE
  5
48F8
330
1A
100
AcDbEntity
  8
TB
100
AcDbLine
 10
3893.11116142892
 20
1070.657284956796
 30
0.0
 11
3889.880484940877
 21
1063.403885191952
 31
0.0
  0
ARC
  5
48F9
330
1A
100
AcDbEntity
  8
TB
100
AcDbCircle
 10
3885.191845745575
 20
1069.838387257441
 30
0.0
 40
4.999975020054011
100
AcDbArc
 50
144.6817404512923
 51
167.3017157932659
  0
LINE
  5
48FA
330
1A
100
AcDbEntity
  8
TB
100
AcDbLine
 10
3894.075809663359
 20
1091.025936676956
 30
0.0
 11
3881.112099169905
 21
1072.728961262626
 31
0.0
  0
ARC
  5
48FB
330
1A
100
AcDbEntity
  8
TB
100
AcDbCircle
 10
3894.447917929531
 20
1061.369542270219
 30
0.0
 40
4.999999522906277
100
AcDbArc
 50
155.9917222010848
 51
233.7269613999812
  0
DIMENSION
  5
48FC
330
1A
100
AcDbEntity
  8
sunpou
  6
ByBlock
 48
3.0
100
AcDbDimension
  2
*D72
 10
4280.331217104384
 20
875.1526961576665
 30
0.0
 11
4280.331217104384
 21
925.1526961576656
 31
0.0
 70
   160
 71
     5
 42
99.99999999999864
  3
ISO-25
100
AcDbAlignedDimension
 13
4189.090082763287
 23
975.1526961576651
 33
0.0
 14
4195.340082763286
 24
875.1526961576665
 34
0.0
 50
90.0
100
AcDbRotatedDimension
1001
ACAD
1000
DSTYLE
1002
{
1070
    40
1040
10.0
1070
    73
1070
     0
1070
   140
1040
3.0
1070
   171
1070
     4
1070
   176
1070
   256
1070
   177
1070
   256
1070
   178
1070
   256
1070
   271
1070
     0
1070
   272
1070
     0
1070
   273
1070
     8
1070
   274
1070
     4
1070
   288
1070
     1
1070
   340
1005
2BF5
1070
   341
1005
2A96
1070
   342
1005
2A96
1070
   371
1070
    -1
1070
   372
1070
    -1
1002
}
  0
DIMENSION
  5
48FD
330
1A
100
AcDbEntity
  8
sunpou
  6
ByBlock
 48
3.0
100
AcDbDimension
  2
*D73
 10
4280.331217104384
 20
975.1526961576651
 30
0.0
 11
4280.331217104384
 21
1193.958920379338
 31
0.0
 70
   160
 71
     5
 42
437.6124484433457
  3
ISO-25
100
AcDbAlignedDimension
 13
4176.790522313157
 23
1412.765144601011
 33
0.0
 14
4195.340082763286
 24
975.1526961576651
 34
0.0
 50
90.0
100
AcDbRotatedDimension
1001
ACAD
1000
DSTYLE
1002
{
1070
    40
1040
10.0
1070
    73
1070
     0
1070
   140
1040
3.0
1070
   171
1070
     4
1070
   176
1070
   256
1070
   177
1070
   256
1070
   178
1070
   256
1070
   271
1070
     0
1070
   272
1070
     0
1070
   273
1070
     8
1070
   274
1070
     4
1070
   288
1070
     1
1070
   340
1005
2BF5
1070
   341
1005
2A96
1070
   342
1005
2A96
1070
   371
1070
    -1
1070
   372
1070
    -1
1002
}
  0
DIMENSION
  5
48FE
330
1A
100
AcDbEntity
  8
sunpou
100
AcDbDimension
  2
*D74
 10
3950.104154226157
 20
1713.454247045927
 30
0.0
 11
3665.40845796178
 21
1713.454247045927
 31
0.0
 70
   160
 71
     5
 42
580.0006042975037
  3
ISO-25
100
AcDbAlignedDimension
 13
3370.103549928653
 23
1592.765144601193
 33
0.0
 14
3950.104154226157
 24
1592.765144601011
 34
0.0
100
AcDbRotatedDimension
1001
ACAD
1000
DSTYLE
1002
{
1070
    40
1040
10.0
1070
    73
1070
     0
1070
   140
1040
3.0
1070
   171
1070
     4
1070
   176
1070
   256
1070
   177
1070
   256
1070
   178
1070
   256
1070
   271
1070
     0
1070
   272
1070
     0
1070
   273
1070
     8
1070
   274
1070
     4
1070
   288
1070
     1
1070
   340
1005
2BF5
1070
   341
1005
2A96
1070
   342
1005
2A96
1070
   371
1070
    -1
1070
   372
1070
    -1
1002
}
  0
DIMENSION
  5
48FF
330
1A
100
AcDbEntity
  8
sunpou
100
AcDbDimension
  2
*D75
 10
3960.105666504809
 20
232.6770086033689
 30
0.0
 11
3657.666180254935
 21
232.6770086033689
 31
0.0
 70
   160
 71
     5
 42
600.0
  3
ISO-25
100
AcDbAlignedDimension
 13
3360.105666504809
 23
512.7651446010113
 33
0.0
 14
3960.105666504809
 24
512.7651446010113
 34
0.0
100
AcDbRotatedDimension
1001
ACAD
1000
DSTYLE
1002
{
1070
    40
1040
10.0
1070
    73
1070
     0
1070
   140
1040
3.0
1070
   171
1070
     4
1070
   176
1070
   256
1070
   177
1070
   256
1070
   178
1070
   256
1070
   271
1070
     0
1070
   272
1070
     0
1070
   273
1070
     8
1070
   274
1070
     4
1070
   288
1070
     1
1070
   340
1005
2BF5
1070
   341
1005
2A96
1070
   342
1005
2A96
1070
   371
1070
    -1
1070
   372
1070
    -1
1002
}
  0
DIMENSION
  5
4900
330
1A
100
AcDbEntity
  8
sunpou
100
AcDbDimension
  2
*D76
 10
4187.921835640512
 20
775.1526961576646
 30
0.0
 11
4187.921835640512
 21
730.9307685118579
 31
0.0
 70
   160
 71
     5
 42
90.0
  3
ISO-25
100
AcDbAlignedDimension
 13
4079.458833758672
 23
685.1526961576646
 33
0.0
 14
4088.065334699591
 24
775.1526961576646
 34
0.0
 50
90.0
100
AcDbRotatedDimension
1001
ACAD
1000
DSTYLE
1002
{
1070
    40
1040
10.0
1070
    73
1070
     0
1070
   140
1040
3.0
1070
   171
1070
     4
1070
   176
1070
   256
1070
   177
1070
   256
1070
   178
1070
   256
1070
   271
1070
     0
1070
   272
1070
     0
1070
   273
1070
     8
1070
   274
1070
     4
1070
   288
1070
     1
1070
   340
1005
2BF5
1070
   341
1005
2A96
1070
   342
1005
2A96
1070
   371
1070
    -1
1070
   372
1070
    -1
1002
}
  0
DIMENSION
  5
4901
330
1A
100
AcDbEntity
  8
sunpou
100
AcDbDimension
  2
*D77
 10
4187.921835640512
 20
975.152696157666
 30
0.0
 11
4166.671835640513
 21
875.152696157666
 31
0.0
 70
    32
 71
     5
 42
200.0000000000014
  3
ISO-25
100
AcDbAlignedDimension
 13
4088.065334699591
 23
775.1526961576646
 33
0.0
 14
4085.105666504807
 24
975.152696157666
 34
0.0
 50
90.0
100
AcDbRotatedDimension
1001
ACAD
1000
DSTYLE
1002
{
1070
   279
1070
     1
1070
    40
1040
10.0
1070
    73
1070
     0
1070
   140
1040
3.0
1070
   171
1070
     4
1070
   176
1070
   256
1070
   177
1070
   256
1070
   178
1070
   256
1070
   271
1070
     0
1070
   272
1070
     0
1070
   273
1070
     8
1070
   274
1070
     4
1070
   288
1070
     1
1070
   340
1005
2BF5
1070
   341
1005
2A96
1070
   342
1005
2A96
1070
   371
1070
    -1
1070
   372
1070
    -1
1002
}
  0
LINE
  5
4902
330
1A
100
AcDbEntity
  8
KIJUN
100
AcDbLine
 10
3370.106752677312
 20
685.1526961576637
 30
0.0
 11
3950.104033372421
 21
685.1526961576655
 31
0.0
  0
DIMENSION
  5
4903
330
1A
100
AcDbEntity
  8
sunpou
100
AcDbDimension
  2
*D78
 10
3830.10403337242
 20
350.190147199653
 30
0.0
 11
3660.105393024866
 21
371.440147199653
 31
0.0
 70
    32
 71
     5
 42
339.9972806951091
  3
ISO-25
100
AcDbAlignedDimension
 13
3490.106752677311
 23
512.9054539386638
 33
0.0
 14
3830.10403337242
 24
512.9054539386648
 34
0.0
100
AcDbRotatedDimension
1001
ACAD
1000
DSTYLE
1002
{
1070
   279
1070
     1
1070
    40
1040
10.0
1070
    73
1070
     0
1070
   140
1040
3.0
1070
   171
1070
     4
1070
   176
1070
   256
1070
   177
1070
   256
1070
   178
1070
   256
1070
   271
1070
     0
1070
   272
1070
     0
1070
   273
1070
     8
1070
   274
1070
     4
1070
   288
1070
     1
1070
   340
1005
2BF5
1070
   341
1005
2A96
1070
   342
1005
2A96
1070
   371
1070
    -1
1070
   372
1070
    -1
1002
}
  0
LINE
  5
4904
330
1A
100
AcDbEntity
  8
TB
 48
3.0
100
AcDbLine
 10
3490.106752677311
 20
775.1526961576642
 30
0.0
 11
3830.10403337242
 21
775.1526961576655
 31
0.0
  0
LINE
  5
4905
330
1A
100
AcDbEntity
  8
TB
 48
3.0
100
AcDbLine
 10
3479.72077764025
 20
975.1526961576646
 30
0.0
 11
3490.106752677311
 21
775.1526961576642
 31
0.0
  0
LINE
  5
4906
330
1A
100
AcDbEntity
  8
KIJUN
100
AcDbLine
 10
3370.106752677312
 20
1055.152696157666
 30
0.0
 11
3370.106752677312
 21
685.1526961576637
 31
0.0
  0
DIMENSION
  5
4907
330
1A
100
AcDbEntity
  8
sunpou
100
AcDbDimension
  2
*D79
 10
3490.106752677311
 20
350.190147199653
 30
0.0
 11
3435.106752677312
 21
350.190147199653
 31
0.0
 70
   160
 71
     5
 42
120.0
  3
ISO-25
100
AcDbAlignedDimension
 13
3370.106752677312
 23
508.2964216786585
 33
0.0
 14
3490.106752677311
 24
512.9054539386638
 34
0.0
100
AcDbRotatedDimension
1001
ACAD
1000
DSTYLE
1002
{
1070
    40
1040
10.0
1070
    73
1070
     0
1070
   140
1040
3.0
1070
   171
1070
     4
1070
   176
1070
   256
1070
   177
1070
   256
1070
   178
1070
   256
1070
   271
1070
     0
1070
   272
1070
     0
1070
   273
1070
     8
1070
   274
1070
     4
1070
   288
1070
     1
1070
   340
1005
2BF5
1070
   341
1005
2A96
1070
   342
1005
2A96
1070
   371
1070
    -1
1070
   372
1070
    -1
1002
}
  0
LEADER
  5
4908
330
1A
100
AcDbEntity
  8
sunpou
100
AcDbLeader
  3
ISO-25
 73
     0
 75
     1
 40
30.0
 41
100.0
 76
     3
 10
3420.461214297127
 20
752.7985984095858
 30
0.0
 10
3219.572129617372
 20
573.6768745921381
 30
0.0
 10
3194.572129617373
 20
573.6768745921381
 30
0.0
340
4909
213
0.0
223
-8.953556552835834
233
0.0
1001
ACAD
1000
DSTYLE
1002
{
1070
   147
1040
0.625
1070
    77
1070
     0
1070
    40
1040
10.0
1070
    73
1070
     0
1070
   140
1040
3.0
1070
   171
1070
     4
1070
   176
1070
   256
1070
   177
1070
   256
1070
   178
1070
   256
1070
   271
1070
     0
1070
   272
1070
     0
1070
   273
1070
     8
1070
   274
1070
     4
1070
   288
1070
     1
1070
   340
1005
2BF5
1070
   341
1005
2A96
1070
   342
1005
2A96
1070
   371
1070
    -1
1070
   372
1070
    -1
1002
}
  0
MTEXT
  5
4909
102
{ACAD_REACTORS
330
4908
102
}
330
1A
100
AcDbEntity
  8
sunpou
100
AcDbMText
 10
3188.322129617373
 20
582.6304311449739
 30
0.0
 40
30.0
 41
0.0
 71
     9
 72
     1
  1
側溝桝
  7
BIGFONT
 73
     1
 44
1.0
  0
LINE
  5
490A
330
1A
100
AcDbEntity
  8
sunpou
100
AcDbLine
 10
3194.572129617373
 20
573.6768745921381
 30
0.0
 11
3064.182721517031
 21
573.6768745921381
 31
0.0
  0
LINE
  5
490B
330
1A
100
AcDbEntity
  8
KIJUN
100
AcDbLine
 10
3950.10403337242
 20
1055.152696157668
 30
0.0
 11
3950.104033372421
 21
685.1526961576655
 31
0.0
  0
LINE
  5
490C
330
1A
100
AcDbEntity
  8
TB
 48
3.0
100
AcDbLine
 10
3840.490008409481
 20
975.1526961576656
 30
0.0
 11
3830.10403337242
 21
775.1526961576655
 31
0.0
  0
DIMENSION
  5
490D
330
1A
100
AcDbEntity
  8
sunpou
100
AcDbDimension
  2
*D80
 10
3950.104033372421
 20
350.190147199653
 30
0.0
 11
3890.104033372421
 21
371.440147199653
 31
0.0
 70
    32
 71
     5
 42
120.0000000000009
  3
ISO-25
100
AcDbAlignedDimension
 13
3830.10403337242
 23
512.9054539386648
 33
0.0
 14
3950.104033372421
 24
512.7651446010113
 34
0.0
100
AcDbRotatedDimension
1001
ACAD
1000
DSTYLE
1002
{
1070
   279
1070
     1
1070
    40
1040
10.0
1070
    73
1070
     0
1070
   140
1040
3.0
1070
   171
1070
     4
1070
   176
1070
   256
1070
   177
1070
   256
1070
   178
1070
   256
1070
   271
1070
     0
1070
   272
1070
     0
1070
   273
1070
     8
1070
   274
1070
     4
1070
   288
1070
     1
1070
   340
1005
2BF5
1070
   341
1005
2A96
1070
   342
1005
2A96
1070
   371
1070
    -1
1070
   372
1070
    -1
1002
}
  0
LINE
  5
490E
330
1A
100
AcDbEntity
  8
KIJUN
100
AcDbLine
 10
3911.468589905672
 20
1055.152696157666
 30
0.0
 11
3950.10403337242
 21
1055.152696157668
 31
0.0
  0
LINE
  5
490F
330
1A
100
AcDbEntity
  8
TB
 48
3.0
100
AcDbLine
 10
3835.105435016963
 20
1127.101414217807
 30
0.0
 11
3840.491070147673
 21
975.1538568999231
 31
0.0
  0
LINE
  5
4910
330
1A
100
AcDbEntity
  8
TB
 48
3.0
100
AcDbLine
 10
3485.105435018775
 20
1127.100288127884
 30
0.0
 11
3479.72077764025
 21
975.1526961576646
 31
0.0
  0
LINE
  5
4911
330
1A
100
AcDbEntity
  8
KIJUN
100
AcDbLine
 10
3408.742196144059
 20
1055.152696157666
 30
0.0
 11
3370.106752677312
 21
1055.152696157666
 31
0.0
  0
MTEXT
  5
4912
330
1A
100
AcDbEntity
  8
0
100
AcDbMText
 10
3936.549545369806
 20
-71.03994321710252
 30
0.0
 40
30.0
 41
371.0
 71
     1
 72
     5
  1
{\C1;製品長 Ｌ＝2.000ｍ}
  7
BIGFONT
 73
     1
 44
1.0
  0
MTEXT
  5
4913
102
{ACAD_REACTORS
330
4915
102
}
330
1A
100
AcDbEntity
  8
sunpou
100
AcDbMText
 10
3075.155992058232
 20
1055.770456123857
 30
0.0
 40
30.0
 41
0.0
 71
     9
 72
     1
  1
EXM-400
  7
BIGFONT
 73
     1
 44
1.0
  0
LINE
  5
4914
330
1A
100
AcDbEntity
  8
sunpou
100
AcDbLine
 10
3081.405992058231
 20
1046.816899571021
 30
0.0
 11
2863.062584367325
 21
1046.816899571021
 31
0.0
  0
LEADER
  5
4915
330
1A
100
AcDbEntity
  8
sunpou
100
AcDbLeader
  3
ISO-25
 73
     0
 75
     1
 40
30.0
 41
200.0
 76
     3
 10
3415.911329175667
 20
1376.73690375653
 30
0.0
 10
3106.405992058232
 20
1046.816899571021
 30
0.0
 10
3081.405992058231
 20
1046.816899571021
 30
0.0
340
4913
213
0.0
223
-8.953556552835834
233
0.0
1001
ACAD
1000
DSTYLE
1002
{
1070
   147
1040
0.625
1070
    77
1070
     0
1070
    40
1040
10.0
1070
    73
1070
     0
1070
   140
1040
3.0
1070
   171
1070
     4
1070
   176
1070
   256
1070
   177
1070
   256
1070
   178
1070
   256
1070
   271
1070
     0
1070
   272
1070
     0
1070
   273
1070
     8
1070
   274
1070
     4
1070
   288
1070
     1
1070
   340
1005
2BF5
1070
   341
1005
2A96
1070
   342
1005
2A96
1070
   371
1070
    -1
1070
   372
1070
    -1
1002
}
  0
LWPOLYLINE
  5
4916
330
1A
100
AcDbEntity
  8
KL
  6
ByBlock
 62
     0
 48
2.0
100
AcDbPolyline
 90
        4
 70
     1
 43
0.0
 10
4920.056462409899
 20
2774.206603089369
 10
4920.056462409898
 20
-789.7933969106304
 10
2400.056462409898
 20
-789.7933969106304
 10
2400.056462409899
 20
2774.206603089369
  0
VIEWPORT
  5
22
330
17
100
AcDbEntity
 67
     1
  8
0
100
AcDbViewport
 10
261.5176991150442
 20
148.6493963782696
 30
0.0
 40
523.0353982300885
 41
297.2987927565393
 68
     1
 69
     1
 12
261.5176991150442
 22
148.6493963782696
 13
0.0
 23
0.0
 14
1.0
 24
1.0
 15
10.0
 25
10.0
 16
0.0
 26
0.0
 36
1.0
 17
0.0
 27
0.0
 37
0.0
 42
50.0
 43
0.0
 44
0.0
 45
297.2987927565393
 50
0.0
 51
0.0
 72
   100
 90
    32800
  1

281
     0
 71
     1
 74
     0
110
0.0
120
0.0
130
0.0
111
1.0
121
0.0
131
0.0
112
0.0
122
1.0
132
0.0
 79
     0
146
0.0
170
     0
  0
ENDSEC
  0
SECTION
  2
OBJECTS
  0
DICTIONARY
  5
C
330
0
100
AcDbDictionary
281
     1
  3
ACAD_COLOR
350
3F44
  3
ACAD_GROUP
350
D
  3
ACAD_LAYOUT
350
2540
  3
ACAD_MATERIAL
350
3F1A
  3
ACAD_MLEADERSTYLE
350
3F69
  3
ACAD_MLINESTYLE
350
E
  3
ACAD_PLOTSETTINGS
350
2541
  3
ACAD_PLOTSTYLENAME
350
253E
  3
ACAD_SCALELIST
350
3F47
  3
ACAD_TABLESTYLE
350
3F45
  3
ACAD_VISUALSTYLE
350
3F33
  3
ACDB_RECOMPOSE_DATA
350
3FD1
  3
ACDBVARIABLEDICTIONARY
350
D40
  0
DICTIONARY
  5
3FB3
330
F
100
AcDbDictionary
280
     1
281
     1
  3
ADSK_XREC_LAYER_RECONCILED
360
3FB4
  0
DICTIONARY
  5
3FB5
330
63
100
AcDbDictionary
280
     1
281
     1
  3
ADSK_XREC_LAYER_RECONCILED
360
3FB6
  0
DICTIONARY
  5
3FB7
330
36A
100
AcDbDictionary
280
     1
281
     1
  3
ADSK_XREC_LAYER_RECONCILED
360
3FB8
  0
DICTIONARY
  5
3FB9
330
267D
100
AcDbDictionary
280
     1
281
     1
  3
ADSK_XREC_LAYER_RECONCILED
360
3FBA
  0
DICTIONARY
  5
3FBB
330
267E
100
AcDbDictionary
280
     1
281
     1
  3
ADSK_XREC_LAYER_RECONCILED
360
3FBC
  0
DICTIONARY
  5
3FBD
330
267F
100
AcDbDictionary
280
     1
281
     1
  3
ADSK_XREC_LAYER_RECONCILED
360
3FBE
  0
DICTIONARY
  5
3FBF
330
3092
100
AcDbDictionary
280
     1
281
     1
  3
ADSK_XREC_LAYER_RECONCILED
360
3FC0
  0
DICTIONARY
  5
3FC1
330
3093
100
AcDbDictionary
280
     1
281
     1
  3
ADSK_XREC_LAYER_RECONCILED
360
3FC2
  0
DICTIONARY
  5
410C
330
410B
100
AcDbDictionary
280
     1
281
     1
  0
DICTIONARY
  5
3F77
330
1A
100
AcDbDictionary
280
     1
281
     1
  3
ACAD_SORTENTS
360
3F78
  0
DICTIONARY
  5
3F44
102
{ACAD_REACTORS
330
C
102
}
330
C
100
AcDbDictionary
281
     1
  0
DICTIONARY
  5
D
102
{ACAD_REACTORS
330
C
102
}
330
C
100
AcDbDictionary
281
     1
  3
*A1
350
374E
  3
*A2
350
374F
  3
*A3
350
3750
  3
*A4
350
3E27
  0
DICTIONARY
  5
2540
102
{ACAD_REACTORS
330
C
102
}
330
C
100
AcDbDictionary
281
     1
  3
Model
350
2542
  3
ﾚｲｱｳﾄ1
350
2543
  0
DICTIONARY
  5
3F1A
102
{ACAD_REACTORS
330
C
102
}
330
C
100
AcDbDictionary
281
     1
  3
ByBlock
350
3F23
  3
ByLayer
350
3F1B
  3
Global
350
3F2B
  0
DICTIONARY
  5
3F69
102
{ACAD_REACTORS
330
C
102
}
330
C
100
AcDbDictionary
281
     1
  3
Standard
350
3F6A
  0
DICTIONARY
  5
E
102
{ACAD_REACTORS
330
C
102
}
330
C
100
AcDbDictionary
281
     1
  3
STANDARD
350
13
  0
DICTIONARY
  5
2541
102
{ACAD_REACTORS
330
C
102
}
330
C
100
AcDbDictionary
281
     1
  0
ACDBDICTIONARYWDFLT
  5
253E
102
{ACAD_REACTORS
330
C
102
}
330
C
100
AcDbDictionary
281
     1
  3
Normal
350
253F
100
AcDbDictionaryWithDefault
340
253F
  0
DICTIONARY
  5
3F47
102
{ACAD_REACTORS
330
C
102
}
330
C
100
AcDbDictionary
281
     1
  3
A0
350
3F48
  3
A1
350
3F49
  3
A2
350
3F4A
  3
A3
350
3F4B
  3
A4
350
3F4C
  3
A5
350
3F4D
  3
A6
350
3F4E
  3
A7
350
3F4F
  3
A8
350
3F50
  3
A9
350
3F51
  3
B0
350
3F52
  3
B1
350
3F53
  3
B2
350
3F54
  3
B3
350
3F55
  3
B4
350
3F56
  3
B5
350
3F57
  3
B6
350
3F58
  3
B7
350
3F59
  3
B8
350
3F5A
  3
B9
350
3F5B
  3
C0
350
3F5C
  3
C1
350
3F5D
  3
C2
350
3F5E
  3
C3
350
3F5F
  3
C4
350
3F60
  3
C5
350
3F61
  3
C6
350
3F62
  3
C7
350
3F63
  3
C8
350
3F64
  3
C9
350
3F65
  3
D0
350
3F66
  3
D1
350
3F67
  3
D2
350
3F68
  0
DICTIONARY
  5
3F45
102
{ACAD_REACTORS
330
C
102
}
330
C
100
AcDbDictionary
281
     1
  3
Standard
350
3F46
  0
DICTIONARY
  5
3F33
102
{ACAD_REACTORS
330
C
102
}
330
C
100
AcDbDictionary
281
     1
  3
2dWireframe
350
3F39
  3
3D Hidden
350
3F3B
  3
3dWireframe
350
3F3A
  3
Basic
350
3F38
  3
Brighten
350
3F3F
  3
ColorChange
350
3F43
  3
Conceptual
350
3F3C
  3
Dim
350
3F3E
  3
Facepattern
350
3F42
  3
Flat
350
3F34
  3
FlatWithEdges
350
3F35
  3
Gouraud
350
3F36
  3
GouraudWithEdges
350
3F37
  3
Linepattern
350
3F41
  3
Realistic
350
3F3D
  3
Thicken
350
3F40
  0
XRECORD
  5
3FD1
102
{ACAD_REACTORS
330
C
102
}
330
C
100
AcDbXrecord
280
     1
 90
        1
330
3F46
  0
DICTIONARY
  5
D40
102
{ACAD_REACTORS
330
C
102
}
330
C
100
AcDbDictionary
281
     1
  3
CANNOSCALE
350
3FD5
  3
CMLEADERSTYLE
350
3FD3
  3
CTABLESTYLE
350
3FD2
  3
LIGHTINGUNITS
350
3FD6
  3
MSLTSCALE
350
3FD4
  3
SORTENTS
350
D41
  0
XRECORD
  5
3FB4
102
{ACAD_REACTORS
330
3FB3
102
}
330
3FB3
100
AcDbXrecord
280
     1
290
     1
  0
XRECORD
  5
3FB6
102
{ACAD_REACTORS
330
3FB5
102
}
330
3FB5
100
AcDbXrecord
280
     1
290
     1
  0
XRECORD
  5
3FB8
102
{ACAD_REACTORS
330
3FB7
102
}
330
3FB7
100
AcDbXrecord
280
     1
290
     1
  0
XRECORD
  5
3FBA
102
{ACAD_REACTORS
330
3FB9
102
}
330
3FB9
100
AcDbXrecord
280
     1
290
     1
  0
XRECORD
  5
3FBC
102
{ACAD_REACTORS
330
3FBB
102
}
330
3FBB
100
AcDbXrecord
280
     1
290
     1
  0
XRECORD
  5
3FBE
102
{ACAD_REACTORS
330
3FBD
102
}
330
3FBD
100
AcDbXrecord
280
     1
290
     1
  0
XRECORD
  5
3FC0
102
{ACAD_REACTORS
330
3FBF
102
}
330
3FBF
100
AcDbXrecord
280
     1
290
     1
  0
XRECORD
  5
3FC2
102
{ACAD_REACTORS
330
3FC1
102
}
330
3FC1
100
AcDbXrecord
280
     1
290
     1
  0
SORTENTSTABLE
  5
3F78
102
{ACAD_REACTORS
330
3F77
102
}
330
3F77
100
AcDbSortentsTable
330
1A
331
3668
  5
3670
331
3670
  5
3677
331
3678
  5
367F
331
3641
  5
3648
331
34D2
  5
34D2
331
3FB2
  5
3621
331
3680
  5
3687
331
3746
  5
37B5
331
3F14
  5
3FCC
331
3649
  5
3650
331
3443
  5
3443
331
351A
  5
351A
331
3688
  5
368F
331
3690
  5
3697
331
3651
  5
3661
331
3698
  5
369F
331
3622
  5
3626
331
36A0
  5
36A7
331
3661
  5
366C
331
362A
  5
3638
331
36A8
  5
3746
331
3671
  5
3678
331
363A
  5
363E
331
34C3
  5
34C3
331
373F
  5
3747
331
3679
  5
3680
331
3642
  5
3649
331
3681
  5
3688
331
3747
  5
37EB
331
3F15
  5
3FCD
331
3689
  5
3690
331
364A
  5
3651
331
3444
  5
3444
331
3691
  5
3698
331
3652
  5
3662
331
361B
  5
361B
331
3623
  5
3627
331
3699
  5
36A0
331
36A1
  5
36A8
331
362B
  5
363A
331
3662
  5
366D
331
366A
  5
3671
331
3672
  5
3679
331
363B
  5
3642
331
367A
  5
3681
331
3643
  5
364A
331
3682
  5
3689
331
3748
  5
3908
331
3F16
  5
3FCE
331
3445
  5
3445
331
364B
  5
3652
331
368A
  5
3691
331
3927
  5
3F16
331
3692
  5
3699
331
361C
  5
361C
331
3653
  5
3666
331
2D46
  5
2D46
331
3624
  5
3628
331
369A
  5
36A1
331
36A2
  5
373F
331
366B
  5
3672
331
3673
  5
367A
331
363C
  5
3643
331
3908
  5
3F15
331
3741
  5
3748
331
367B
  5
3682
331
343E
  5
343E
331
3644
  5
364B
331
3683
  5
368A
331
3749
  5
3927
331
368B
  5
3692
331
3446
  5
3446
331
364C
  5
3653
331
3693
  5
369A
331
361D
  5
361D
331
3654
  5
3667
331
369B
  5
36A2
331
3625
  5
3629
331
3FCD
  5
363F
331
36A3
  5
3741
331
366C
  5
3673
331
3635
  5
363B
331
3674
  5
367B
331
363D
  5
3644
331
3F76
  5
3641
331
367C
  5
3683
331
3645
  5
364C
331
343F
  5
343F
331
3742
  5
3749
331
374A
  5
3B66
331
3684
  5
368B
331
364D
  5
3654
331
3447
  5
3447
331
368C
  5
3693
331
3694
  5
369B
331
361E
  5
361E
331
369C
  5
36A3
331
34A7
  5
34A7
331
2D80
  5
2D80
331
3626
  5
362A
331
3FCE
  5
3640
331
36A4
  5
3742
331
366D
  5
3674
331
3675
  5
367C
331
363E
  5
3645
331
367D
  5
3684
331
3646
  5
364D
331
3743
  5
374A
331
3685
  5
368C
331
374B
  5
3D5D
331
3440
  5
3440
331
368D
  5
3694
331
364E
  5
3656
331
3448
  5
3448
331
3656
  5
3668
331
361F
  5
361F
331
3695
  5
369C
331
369D
  5
36A4
331
3627
  5
362B
331
36A5
  5
3743
331
3666
  5
366E
331
37EB
  5
3F14
331
366E
  5
3675
331
3637
  5
363C
331
3676
  5
367D
331
363F
  5
3646
331
367E
  5
3685
331
3647
  5
364E
331
3744
  5
374B
331
374C
  5
3D60
331
3686
  5
368D
331
3441
  5
3441
331
364F
  5
3657
331
3449
  5
3449
331
368E
  5
3695
331
3696
  5
369D
331
3657
  5
366A
331
3620
  5
3622
331
369E
  5
36A5
331
3628
  5
3635
331
3667
  5
366F
331
36A6
  5
3744
331
366F
  5
3676
331
3638
  5
363D
331
3677
  5
367E
331
3640
  5
3647
331
367F
  5
3686
331
3745
  5
374C
331
3687
  5
368E
331
3F13
  5
3FCB
331
3648
  5
364F
331
3442
  5
3442
331
368F
  5
3696
331
3650
  5
3658
331
3697
  5
369E
331
3658
  5
366B
331
3621
  5
3624
331
37B5
  5
3D61
331
369F
  5
36A6
331
3629
  5
3637
331
36A7
  5
3745
  0
GROUP
  5
374E
102
{ACAD_REACTORS
330
D
102
}
330
D
100
AcDbGroup
300

 70
     1
 71
     1
340
3744
340
3748
340
374B
340
3746
  0
GROUP
  5
374F
102
{ACAD_REACTORS
330
D
102
}
330
D
100
AcDbGroup
300

 70
     1
 71
     1
340
3744
340
374C
340
374B
340
374A
340
3749
340
3748
340
3747
340
3746
340
3745
340
3743
340
3742
340
3741
  0
GROUP
  5
3750
102
{ACAD_REACTORS
330
D
102
}
330
D
100
AcDbGroup
300

 70
     1
 71
     1
340
364F
340
364D
340
364B
340
3646
340
363F
340
363E
340
373F
340
3652
340
3651
340
3650
340
364E
340
364C
  0
GROUP
  5
3E27
102
{ACAD_REACTORS
330
D
102
}
330
D
100
AcDbGroup
300

 70
     1
 71
     1
  0
LAYOUT
  5
2542
102
{ACAD_REACTORS
330
2540
102
}
330
2540
100
AcDbPlotSettings
  1

  2
D:\ACADLT20\plotters\DWF ePlot.pc3
  4

  6

 40
0.0
 41
0.0
 42
0.0
 43
0.0
 44
0.0
 45
0.0
 46
0.0
 47
0.0
 48
0.0
 49
0.0
140
0.0
141
0.0
142
1.0
143
1.0
 70
  1712
 72
     0
 73
     0
 74
     0
  7

 75
     0
147
1.0
 76
     0
 77
     2
 78
   300
148
0.0
149
0.0
100
AcDbLayout
  1
Model
 70
     1
 71
     0
 10
0.0
 20
0.0
 11
12.0
 21
9.0
 12
0.0
 22
0.0
 32
0.0
 14
0.0
 24
0.0
 34
0.0
 15
0.0
 25
0.0
 35
0.0
146
0.0
 13
0.0
 23
0.0
 33
0.0
 16
1.0
 26
0.0
 36
0.0
 17
0.0
 27
1.0
 37
0.0
 76
     0
330
1A
331
3F18
  0
LAYOUT
  5
2543
102
{ACAD_REACTORS
330
2540
102
}
330
2540
100
AcDbPlotSettings
  1

  2
D:\ACADLT20\plotters\DWF ePlot.pc3
  4

  6

 40
0.0
 41
0.0
 42
0.0
 43
0.0
 44
0.0
 45
0.0
 46
0.0
 47
0.0
 48
0.0
 49
0.0
140
0.0
141
0.0
142
1.0
143
1.0
 70
   688
 72
     0
 73
     0
 74
     5
  7

 75
    16
147
1.0
 76
     0
 77
     2
 78
   300
148
0.0
149
0.0
100
AcDbLayout
  1
ﾚｲｱｳﾄ1
 70
     1
 71
     1
 10
0.0
 20
0.0
 11
840.0
 21
594.0
 12
0.0
 22
0.0
 32
0.0
 14
1.000000000000000E+20
 24
1.000000000000000E+20
 34
1.000000000000000E+20
 15
-1.000000000000000E+20
 25
-1.000000000000000E+20
 35
-1.000000000000000E+20
146
0.0
 13
0.0
 23
0.0
 33
0.0
 16
1.0
 26
0.0
 36
0.0
 17
0.0
 27
1.0
 37
0.0
 76
     0
330
17
331
22
  0
MATERIAL
  5
3F23
102
{ACAD_XDICTIONARY
360
3F24
102
}
102
{ACAD_REACTORS
330
3F1A
102
}
330
3F1A
100
AcDbMaterial
  1
ByBlock
 72
     0
 43
0.0208333333333333
 43
0.0
 43
0.0
 43
0.0
 43
0.0
 43
0.0208333333333333
 43
0.0
 43
0.0
 43
0.0
 43
0.0
 43
1.0
 43
0.0
 43
0.0
 43
0.0
 43
0.0
 43
1.0
 77
     0
 47
0.0208333333333333
 47
0.0
 47
0.0
 47
0.0
 47
0.0
 47
0.0208333333333333
 47
0.0
 47
0.0
 47
0.0
 47
0.0
 47
1.0
 47
0.0
 47
0.0
 47
0.0
 47
0.0
 47
1.0
171
     0
 49
0.0208333333333333
 49
0.0
 49
0.0
 49
0.0
 49
0.0
 49
0.0208333333333333
 49
0.0
 49
0.0
 49
0.0
 49
0.0
 49
1.0
 49
0.0
 49
0.0
 49
0.0
 49
0.0
 49
1.0
175
     0
142
0.0208333333333333
142
0.0
142
0.0
142
0.0
142
0.0
142
0.0208333333333333
142
0.0
142
0.0
142
0.0
142
0.0
142
1.0
142
0.0
142
0.0
142
0.0
142
0.0
142
1.0
179
     0
144
0.0208333333333333
144
0.0
144
0.0
144
0.0
144
0.0
144
0.0208333333333333
144
0.0
144
0.0
144
0.0
144
0.0
144
1.0
144
0.0
144
0.0
144
0.0
144
0.0
144
1.0
147
0.0208333333333333
147
0.0
147
0.0
147
0.0
147
0.0
147
0.0208333333333333
147
0.0
147
0.0
147
0.0
147
0.0
147
1.0
147
0.0
147
0.0
147
0.0
147
0.0
147
1.0
  0
MATERIAL
  5
3F1B
102
{ACAD_XDICTIONARY
360
3F1C
102
}
102
{ACAD_REACTORS
330
3F1A
102
}
330
3F1A
100
AcDbMaterial
  1
ByLayer
 72
     0
 43
0.0208333333333333
 43
0.0
 43
0.0
 43
0.0
 43
0.0
 43
0.0208333333333333
 43
0.0
 43
0.0
 43
0.0
 43
0.0
 43
1.0
 43
0.0
 43
0.0
 43
0.0
 43
0.0
 43
1.0
 77
     0
 47
0.0208333333333333
 47
0.0
 47
0.0
 47
0.0
 47
0.0
 47
0.0208333333333333
 47
0.0
 47
0.0
 47
0.0
 47
0.0
 47
1.0
 47
0.0
 47
0.0
 47
0.0
 47
0.0
 47
1.0
171
     0
 49
0.0208333333333333
 49
0.0
 49
0.0
 49
0.0
 49
0.0
 49
0.0208333333333333
 49
0.0
 49
0.0
 49
0.0
 49
0.0
 49
1.0
 49
0.0
 49
0.0
 49
0.0
 49
0.0
 49
1.0
175
     0
142
0.0208333333333333
142
0.0
142
0.0
142
0.0
142
0.0
142
0.0208333333333333
142
0.0
142
0.0
142
0.0
142
0.0
142
1.0
142
0.0
142
0.0
142
0.0
142
0.0
142
1.0
179
     0
144
0.0208333333333333
144
0.0
144
0.0
144
0.0
144
0.0
144
0.0208333333333333
144
0.0
144
0.0
144
0.0
144
0.0
144
1.0
144
0.0
144
0.0
144
0.0
144
0.0
144
1.0
147
0.0208333333333333
147
0.0
147
0.0
147
0.0
147
0.0
147
0.0208333333333333
147
0.0
147
0.0
147
0.0
147
0.0
147
1.0
147
0.0
147
0.0
147
0.0
147
0.0
147
1.0
  0
MATERIAL
  5
3F2B
102
{ACAD_XDICTIONARY
360
3F2C
102
}
102
{ACAD_REACTORS
330
3F1A
102
}
330
3F1A
100
AcDbMaterial
  1
Global
 72
     0
 43
0.0208333333333333
 43
0.0
 43
0.0
 43
0.0
 43
0.0
 43
0.0208333333333333
 43
0.0
 43
0.0
 43
0.0
 43
0.0
 43
1.0
 43
0.0
 43
0.0
 43
0.0
 43
0.0
 43
1.0
 77
     0
 47
0.0208333333333333
 47
0.0
 47
0.0
 47
0.0
 47
0.0
 47
0.0208333333333333
 47
0.0
 47
0.0
 47
0.0
 47
0.0
 47
1.0
 47
0.0
 47
0.0
 47
0.0
 47
0.0
 47
1.0
171
     0
 49
0.0208333333333333
 49
0.0
 49
0.0
 49
0.0
 49
0.0
 49
0.0208333333333333
 49
0.0
 49
0.0
 49
0.0
 49
0.0
 49
1.0
 49
0.0
 49
0.0
 49
0.0
 49
0.0
 49
1.0
175
     0
142
0.0208333333333333
142
0.0
142
0.0
142
0.0
142
0.0
142
0.0208333333333333
142
0.0
142
0.0
142
0.0
142
0.0
142
1.0
142
0.0
142
0.0
142
0.0
142
0.0
142
1.0
179
     0
144
0.0208333333333333
144
0.0
144
0.0
144
0.0
144
0.0
144
0.0208333333333333
144
0.0
144
0.0
144
0.0
144
0.0
144
1.0
144
0.0
144
0.0
144
0.0
144
0.0
144
1.0
147
0.0208333333333333
147
0.0
147
0.0
147
0.0
147
0.0
147
0.0208333333333333
147
0.0
147
0.0
147
0.0
147
0.0
147
1.0
147
0.0
147
0.0
147
0.0
147
0.0
147
1.0
  0
MLEADERSTYLE
  5
3F6A
102
{ACAD_REACTORS
330
3F69
102
}
330
3F69
100
AcDbMLeaderStyle
170
     2
171
     1
172
     0
 90
        2
 40
0.0
 41
0.0
173
     1
 91
-1056964608
340
14
 92
       -2
290
     1
 42
2.0
291
     1
 43
0.36
  3
Standard
 44
4.0
300

342
10
174
     1
178
     6
175
     1
176
     0
 93
-1056964608
 45
4.0
292
     0
297
     0
 46
4.0
 94
-1056964608
 47
1.0
 49
1.0
140
1.0
293
     1
141
0.0
294
     1
177
     0
142
1.0
295
     0
296
     0
143
0.125
1001
ACAD_MLEADERVER
1070
     2
  0
MLINESTYLE
  5
13
102
{ACAD_REACTORS
330
E
102
}
330
E
100
AcDbMlineStyle
  2
STANDARD
 70
     0
  3

 62
     0
 51
90.0
 52
90.0
 71
     2
 49
0.5
 62
   256
  6
BYLAYER
 49
-0.5
 62
   256
  6
BYLAYER
  0
ACDBPLACEHOLDER
  5
253F
102
{ACAD_REACTORS
330
253E
102
}
330
253E
  0
SCALE
  5
3F48
102
{ACAD_REACTORS
330
3F47
102
}
330
3F47
100
AcDbScale
 70
     0
300
1:1
140
1.0
141
1.0
290
     1
  0
SCALE
  5
3F49
102
{ACAD_REACTORS
330
3F47
102
}
330
3F47
100
AcDbScale
 70
     0
300
1:2
140
1.0
141
2.0
290
     0
  0
SCALE
  5
3F4A
102
{ACAD_REACTORS
330
3F47
102
}
330
3F47
100
AcDbScale
 70
     0
300
1:4
140
1.0
141
4.0
290
     0
  0
SCALE
  5
3F4B
102
{ACAD_REACTORS
330
3F47
102
}
330
3F47
100
AcDbScale
 70
     0
300
1:5
140
1.0
141
5.0
290
     0
  0
SCALE
  5
3F4C
102
{ACAD_REACTORS
330
3F47
102
}
330
3F47
100
AcDbScale
 70
     0
300
1:8
140
1.0
141
8.0
290
     0
  0
SCALE
  5
3F4D
102
{ACAD_REACTORS
330
3F47
102
}
330
3F47
100
AcDbScale
 70
     0
300
1:10
140
1.0
141
10.0
290
     0
  0
SCALE
  5
3F4E
102
{ACAD_REACTORS
330
3F47
102
}
330
3F47
100
AcDbScale
 70
     0
300
1:16
140
1.0
141
16.0
290
     0
  0
SCALE
  5
3F4F
102
{ACAD_REACTORS
330
3F47
102
}
330
3F47
100
AcDbScale
 70
     0
300
1:20
140
1.0
141
20.0
290
     0
  0
SCALE
  5
3F50
102
{ACAD_REACTORS
330
3F47
102
}
330
3F47
100
AcDbScale
 70
     0
300
1:30
140
1.0
141
30.0
290
     0
  0
SCALE
  5
3F51
102
{ACAD_REACTORS
330
3F47
102
}
330
3F47
100
AcDbScale
 70
     0
300
1:40
140
1.0
141
40.0
290
     0
  0
SCALE
  5
3F52
102
{ACAD_REACTORS
330
3F47
102
}
330
3F47
100
AcDbScale
 70
     0
300
1:50
140
1.0
141
50.0
290
     0
  0
SCALE
  5
3F53
102
{ACAD_REACTORS
330
3F47
102
}
330
3F47
100
AcDbScale
 70
     0
300
1:100
140
1.0
141
100.0
290
     0
  0
SCALE
  5
3F54
102
{ACAD_REACTORS
330
3F47
102
}
330
3F47
100
AcDbScale
 70
     0
300
2:1
140
2.0
141
1.0
290
     0
  0
SCALE
  5
3F55
102
{ACAD_REACTORS
330
3F47
102
}
330
3F47
100
AcDbScale
 70
     0
300
4:1
140
4.0
141
1.0
290
     0
  0
SCALE
  5
3F56
102
{ACAD_REACTORS
330
3F47
102
}
330
3F47
100
AcDbScale
 70
     0
300
8:1
140
8.0
141
1.0
290
     0
  0
SCALE
  5
3F57
102
{ACAD_REACTORS
330
3F47
102
}
330
3F47
100
AcDbScale
 70
     0
300
10:1
140
10.0
141
1.0
290
     0
  0
SCALE
  5
3F58
102
{ACAD_REACTORS
330
3F47
102
}
330
3F47
100
AcDbScale
 70
     0
300
100:1
140
100.0
141
1.0
290
     0
  0
SCALE
  5
3F59
102
{ACAD_REACTORS
330
3F47
102
}
330
3F47
100
AcDbScale
 70
     0
300
1/128" = 1'-0"
140
0.0078125
141
12.0
290
     0
  0
SCALE
  5
3F5A
102
{ACAD_REACTORS
330
3F47
102
}
330
3F47
100
AcDbScale
 70
     0
300
1/64" = 1'-0"
140
0.015625
141
12.0
290
     0
  0
SCALE
  5
3F5B
102
{ACAD_REACTORS
330
3F47
102
}
330
3F47
100
AcDbScale
 70
     0
300
1/32" = 1'-0"
140
0.03125
141
12.0
290
     0
  0
SCALE
  5
3F5C
102
{ACAD_REACTORS
330
3F47
102
}
330
3F47
100
AcDbScale
 70
     0
300
1/16" = 1'-0"
140
0.0625
141
12.0
290
     0
  0
SCALE
  5
3F5D
102
{ACAD_REACTORS
330
3F47
102
}
330
3F47
100
AcDbScale
 70
     0
300
3/32" = 1'-0"
140
0.09375
141
12.0
290
     0
  0
SCALE
  5
3F5E
102
{ACAD_REACTORS
330
3F47
102
}
330
3F47
100
AcDbScale
 70
     0
300
1/8" = 1'-0"
140
0.125
141
12.0
290
     0
  0
SCALE
  5
3F5F
102
{ACAD_REACTORS
330
3F47
102
}
330
3F47
100
AcDbScale
 70
     0
300
3/16" = 1'-0"
140
0.1875
141
12.0
290
     0
  0
SCALE
  5
3F60
102
{ACAD_REACTORS
330
3F47
102
}
330
3F47
100
AcDbScale
 70
     0
300
1/4" = 1'-0"
140
0.25
141
12.0
290
     0
  0
SCALE
  5
3F61
102
{ACAD_REACTORS
330
3F47
102
}
330
3F47
100
AcDbScale
 70
     0
300
3/8" = 1'-0"
140
0.375
141
12.0
290
     0
  0
SCALE
  5
3F62
102
{ACAD_REACTORS
330
3F47
102
}
330
3F47
100
AcDbScale
 70
     0
300
1/2" = 1'-0"
140
0.5
141
12.0
290
     0
  0
SCALE
  5
3F63
102
{ACAD_REACTORS
330
3F47
102
}
330
3F47
100
AcDbScale
 70
     0
300
3/4" = 1'-0"
140
0.75
141
12.0
290
     0
  0
SCALE
  5
3F64
102
{ACAD_REACTORS
330
3F47
102
}
330
3F47
100
AcDbScale
 70
     0
300
1" = 1'-0"
140
1.0
141
12.0
290
     0
  0
SCALE
  5
3F65
102
{ACAD_REACTORS
330
3F47
102
}
330
3F47
100
AcDbScale
 70
     0
300
1-1/2" = 1'-0"
140
1.5
141
12.0
290
     0
  0
SCALE
  5
3F66
102
{ACAD_REACTORS
330
3F47
102
}
330
3F47
100
AcDbScale
 70
     0
300
3" = 1'-0"
140
3.0
141
12.0
290
     0
  0
SCALE
  5
3F67
102
{ACAD_REACTORS
330
3F47
102
}
330
3F47
100
AcDbScale
 70
     0
300
6" = 1'-0"
140
6.0
141
12.0
290
     0
  0
SCALE
  5
3F68
102
{ACAD_REACTORS
330
3F47
102
}
330
3F47
100
AcDbScale
 70
     0
300
1'-0" = 1'-0"
140
12.0
141
12.0
290
     0
  0
TABLESTYLE
  5
3F46
102
{ACAD_XDICTIONARY
360
3FCF
102
}
102
{ACAD_REACTORS
330
3F45
102
}
330
3F45
100
AcDbTableStyle
  3
Standard
 70
     0
 71
     0
 40
1.5
 41
1.5
280
     0
281
     0
  7
STANDARD
140
4.5
170
     2
 62
     0
 63
     7
283
     0
274
    -2
284
     1
 64
     0
275
    -2
285
     1
 65
     0
276
    -2
286
     1
 66
     0
277
    -2
287
     1
 67
     0
278
    -2
288
     1
 68
     0
279
    -2
289
     1
 69
     0
  7
STANDARD
140
6.0
170
     5
 62
     0
 63
     7
283
     0
274
    -2
284
     1
 64
     0
275
    -2
285
     1
 65
     0
276
    -2
286
     1
 66
     0
277
    -2
287
     1
 67
     0
278
    -2
288
     1
 68
     0
279
    -2
289
     1
 69
     0
  7
STANDARD
140
4.5
170
     5
 62
     0
 63
     7
283
     0
274
    -2
284
     1
 64
     0
275
    -2
285
     1
 65
     0
276
    -2
286
     1
 66
     0
277
    -2
287
     1
 67
     0
278
    -2
288
     1
 68
     0
279
    -2
289
     1
 69
     0
  0
VISUALSTYLE
  5
3F39
102
{ACAD_REACTORS
330
3F33
102
}
330
3F33
100
AcDbVisualStyle
  2
2dWireframe
 70
     4
 71
     0
 72
     2
 73
     0
 90
        0
 40
-0.6
 41
-30.0
 62
     5
 63
     7
421
 16777215
 74
     1
 91
        4
 64
     7
 65
   257
 75
     1
175
     1
 42
1.0
 92
        0
 66
   257
 43
1.0
 76
     1
 77
     6
 78
     2
 67
     7
 79
     5
170
     0
171
     0
290
     0
174
     0
 93
        1
 44
0.0
173
     0
291
     0
 45
0.0
1001
ACAD
1000
AcDbSavedByObjectVersion
1070
     0
  0
VISUALSTYLE
  5
3F3B
102
{ACAD_REACTORS
330
3F33
102
}
330
3F33
100
AcDbVisualStyle
  2
3D Hidden
 70
     6
 71
     1
 72
     2
 73
     2
 90
        0
 40
-0.6
 41
-30.0
 62
     5
 63
     7
421
 16777215
 74
     2
 91
        2
 64
     7
 65
   257
 75
     2
175
     1
 42
40.0
 92
        0
 66
   257
 43
1.0
 76
     1
 77
     6
 78
     2
 67
     7
 79
     3
170
     0
171
     0
290
     0
174
     0
 93
        1
 44
0.0
173
     0
291
     0
 45
0.0
1001
ACAD
1000
AcDbSavedByObjectVersion
1070
     0
  0
VISUALSTYLE
  5
3F3A
102
{ACAD_REACTORS
330
3F33
102
}
330
3F33
100
AcDbVisualStyle
  2
3dWireframe
 70
     5
 71
     0
 72
     2
 73
     0
 90
        0
 40
-0.6
 41
-30.0
 62
     5
 63
     7
421
 16777215
 74
     1
 91
        4
 64
     7
 65
   257
 75
     1
175
     1
 42
1.0
 92
        0
 66
   257
 43
1.0
 76
     1
 77
     6
 78
     2
 67
     7
 79
     5
170
     0
171
     0
290
     0
174
     0
 93
        1
 44
0.0
173
     0
291
     0
 45
0.0
1001
ACAD
1000
AcDbSavedByObjectVersion
1070
     0
  0
VISUALSTYLE
  5
3F38
102
{ACAD_REACTORS
330
3F33
102
}
330
3F33
100
AcDbVisualStyle
  2
Basic
 70
     7
 71
     1
 72
     0
 73
     1
 90
        0
 40
-0.6
 41
-30.0
 62
     5
 63
     7
421
 16777215
 74
     0
 91
        4
 64
     7
 65
   257
 75
     1
175
     1
 42
1.0
 92
        8
 66
     7
 43
1.0
 76
     1
 77
     6
 78
     2
 67
     7
 79
     5
170
     0
171
     0
290
     0
174
     0
 93
        1
 44
0.0
173
     0
291
     1
 45
0.0
1001
ACAD
1000
AcDbSavedByObjectVersion
1070
     0
  0
VISUALSTYLE
  5
3F3F
102
{ACAD_REACTORS
330
3F33
102
}
330
3F33
100
AcDbVisualStyle
  2
Brighten
 70
    12
 71
     2
 72
     2
 73
     0
 90
        0
 40
-0.6
 41
-30.0
 62
     5
 63
     7
421
 16777215
 74
     1
 91
        4
 64
     7
 65
   257
 75
     1
175
     1
 42
1.0
 92
        8
 66
     7
 43
1.0
 76
     1
 77
     6
 78
     2
 67
     7
 79
     5
170
     0
171
     0
290
     0
174
     0
 93
        1
 44
50.0
173
     0
291
     1
 45
0.0
1001
ACAD
1000
AcDbSavedByObjectVersion
1070
     0
  0
VISUALSTYLE
  5
3F43
102
{ACAD_REACTORS
330
3F33
102
}
330
3F33
100
AcDbVisualStyle
  2
ColorChange
 70
    16
 71
     2
 72
     2
 73
     3
 90
        0
 40
-0.6
 41
-30.0
 62
     5
 63
     8
421
  8421504
 74
     1
 91
        4
 64
     7
 65
   257
 75
     1
175
     1
 42
1.0
 92
        8
 66
     8
424
  8421504
 43
1.0
 76
     1
 77
     6
 78
     2
 67
     7
 79
     5
170
     0
171
     0
290
     0
174
     0
 93
        1
 44
0.0
173
     0
291
     1
 45
0.0
1001
ACAD
1000
AcDbSavedByObjectVersion
1070
     0
  0
VISUALSTYLE
  5
3F3C
102
{ACAD_REACTORS
330
3F33
102
}
330
3F33
100
AcDbVisualStyle
  2
Conceptual
 70
     9
 71
     3
 72
     2
 73
     0
 90
        0
 40
-0.6
 41
-30.0
 62
     5
 63
     7
421
 16777215
 74
     2
 91
        2
 64
     7
 65
   257
 75
     1
175
     1
 42
40.0
 92
        8
 66
     7
 43
1.0
 76
     1
 77
     6
 78
     2
 67
     7
 79
     3
170
     0
171
     0
290
     0
174
     0
 93
        1
 44
0.0
173
     0
291
     0
 45
0.0
1001
ACAD
1000
AcDbSavedByObjectVersion
1070
     0
  0
VISUALSTYLE
  5
3F3E
102
{ACAD_REACTORS
330
3F33
102
}
330
3F33
100
AcDbVisualStyle
  2
Dim
 70
    11
 71
     2
 72
     2
 73
     0
 90
        0
 40
-0.6
 41
-30.0
 62
     5
 63
     7
421
 16777215
 74
     1
 91
        4
 64
     7
 65
   257
 75
     1
175
     1
 42
1.0
 92
        8
 66
     7
 43
1.0
 76
     1
 77
     6
 78
     2
 67
     7
 79
     5
170
     0
171
     0
290
     0
174
     0
 93
        1
 44
-50.0
173
     0
291
     1
 45
0.0
1001
ACAD
1000
AcDbSavedByObjectVersion
1070
     0
  0
VISUALSTYLE
  5
3F42
102
{ACAD_REACTORS
330
3F33
102
}
330
3F33
100
AcDbVisualStyle
  2
Facepattern
 70
    15
 71
     2
 72
     2
 73
     0
 90
        0
 40
-0.6
 41
-30.0
 62
     5
 63
     7
421
 16777215
 74
     1
 91
        4
 64
     7
 65
   257
 75
     1
175
     1
 42
1.0
 92
        8
 66
     7
 43
1.0
 76
     1
 77
     6
 78
     2
 67
     7
 79
     5
170
     0
171
     0
290
     0
174
     0
 93
        1
 44
0.0
173
     0
291
     1
 45
0.0
1001
ACAD
1000
AcDbSavedByObjectVersion
1070
     0
  0
VISUALSTYLE
  5
3F34
102
{ACAD_REACTORS
330
3F33
102
}
330
3F33
100
AcDbVisualStyle
  2
Flat
 70
     0
 71
     2
 72
     1
 73
     1
 90
        2
 40
-0.6
 41
30.0
 62
     5
 63
     7
421
 16777215
 74
     0
 91
        4
 64
     7
 65
   257
 75
     1
175
     1
 42
1.0
 92
        8
 66
     7
 43
1.0
 76
     1
 77
     6
 78
     2
 67
     7
 79
     5
170
     0
171
     0
290
     0
174
     0
 93
       13
 44
0.0
173
     0
291
     1
 45
0.0
1001
ACAD
1000
AcDbSavedByObjectVersion
1070
     0
  0
VISUALSTYLE
  5
3F35
102
{ACAD_REACTORS
330
3F33
102
}
330
3F33
100
AcDbVisualStyle
  2
FlatWithEdges
 70
     1
 71
     2
 72
     1
 73
     1
 90
        2
 40
-0.6
 41
30.0
 62
     5
 63
     7
421
 16777215
 74
     1
 91
        4
 64
     7
 65
   257
 75
     1
175
     1
 42
1.0
 92
        0
 66
   257
 43
1.0
 76
     1
 77
     6
 78
     2
 67
     7
 79
     5
170
     0
171
     0
290
     0
174
     0
 93
       13
 44
0.0
173
     0
291
     1
 45
0.0
1001
ACAD
1000
AcDbSavedByObjectVersion
1070
     0
  0
VISUALSTYLE
  5
3F36
102
{ACAD_REACTORS
330
3F33
102
}
330
3F33
100
AcDbVisualStyle
  2
Gouraud
 70
     2
 71
     2
 72
     2
 73
     1
 90
        2
 40
-0.6
 41
30.0
 62
     5
 63
     7
421
 16777215
 74
     0
 91
        4
 64
     7
 65
   257
 75
     1
175
     1
 42
1.0
 92
        0
 66
     7
 43
1.0
 76
     1
 77
     6
 78
     2
 67
     7
 79
     5
170
     0
171
     0
290
     0
174
     0
 93
       13
 44
0.0
173
     0
291
     1
 45
0.0
1001
ACAD
1000
AcDbSavedByObjectVersion
1070
     0
  0
VISUALSTYLE
  5
3F37
102
{ACAD_REACTORS
330
3F33
102
}
330
3F33
100
AcDbVisualStyle
  2
GouraudWithEdges
 70
     3
 71
     2
 72
     2
 73
     1
 90
        2
 40
-0.6
 41
30.0
 62
     5
 63
     7
421
 16777215
 74
     1
 91
        4
 64
     7
 65
   257
 75
     1
175
     1
 42
1.0
 92
        0
 66
   257
 43
1.0
 76
     1
 77
     6
 78
     2
 67
     7
 79
     5
170
     0
171
     0
290
     0
174
     0
 93
       13
 44
0.0
173
     0
291
     1
 45
0.0
1001
ACAD
1000
AcDbSavedByObjectVersion
1070
     0
  0
VISUALSTYLE
  5
3F41
102
{ACAD_REACTORS
330
3F33
102
}
330
3F33
100
AcDbVisualStyle
  2
Linepattern
 70
    14
 71
     2
 72
     2
 73
     0
 90
        0
 40
-0.6
 41
-30.0
 62
     5
 63
     7
421
 16777215
 74
     1
 91
        4
 64
     7
 65
   257
 75
     7
175
     7
 42
1.0
 92
        8
 66
     7
 43
1.0
 76
     1
 77
     6
 78
     2
 67
     7
 79
     5
170
     0
171
     0
290
     0
174
     0
 93
        1
 44
0.0
173
     0
291
     1
 45
0.0
1001
ACAD
1000
AcDbSavedByObjectVersion
1070
     0
  0
VISUALSTYLE
  5
3F3D
102
{ACAD_REACTORS
330
3F33
102
}
330
3F33
100
AcDbVisualStyle
  2
Realistic
 70
     8
 71
     2
 72
     2
 73
     0
 90
        0
 40
-0.6
 41
-30.0
 62
     5
 63
     7
421
 16777215
 74
     1
 91
        0
 64
     7
 65
   257
 75
     1
175
     1
 42
1.0
 92
        8
 66
     8
424
  7895160
 43
1.0
 76
     1
 77
     6
 78
     2
 67
     7
 79
     5
170
     0
171
     0
290
     0
174
     0
 93
       13
 44
0.0
173
     0
291
     0
 45
0.0
1001
ACAD
1000
AcDbSavedByObjectVersion
1070
     0
  0
VISUALSTYLE
  5
3F40
102
{ACAD_REACTORS
330
3F33
102
}
330
3F33
100
AcDbVisualStyle
  2
Thicken
 70
    13
 71
     2
 72
     2
 73
     0
 90
        0
 40
-0.6
 41
-30.0
 62
     5
 63
     7
421
 16777215
 74
     1
 91
        4
 64
     7
 65
   257
 75
     1
175
     1
 42
1.0
 92
       12
 66
     7
 43
1.0
 76
     1
 77
     6
 78
     2
 67
     7
 79
     5
170
     0
171
     0
290
     0
174
     0
 93
        1
 44
0.0
173
     0
291
     1
 45
0.0
1001
ACAD
1000
AcDbSavedByObjectVersion
1070
     0
  0
DICTIONARYVAR
  5
3FD5
102
{ACAD_REACTORS
330
D40
102
}
330
D40
100
DictionaryVariables
280
     0
  1
1:1
  0
DICTIONARYVAR
  5
3FD3
102
{ACAD_REACTORS
330
D40
102
}
330
D40
100
DictionaryVariables
280
     0
  1
STANDARD
  0
DICTIONARYVAR
  5
3FD2
102
{ACAD_REACTORS
330
D40
102
}
330
D40
100
DictionaryVariables
280
     0
  1
STANDARD
  0
DICTIONARYVAR
  5
3FD6
102
{ACAD_REACTORS
330
D40
102
}
330
D40
100
DictionaryVariables
280
     0
  1
0
  0
DICTIONARYVAR
  5
3FD4
102
{ACAD_REACTORS
330
D40
102
}
330
D40
100
DictionaryVariables
280
     0
  1
0
  0
DICTIONARYVAR
  5
D41
102
{ACAD_REACTORS
330
D40
102
}
330
D40
100
DictionaryVariables
280
     0
  1
96
  0
DICTIONARY
  5
3F24
330
3F23
100
AcDbDictionary
280
     1
281
     1
  3
ACAD_XREC_ROUNDTRIP
360
4B27
  3
BUMPTILE
360
3F26
  3
DIFFUSETILE
360
3F25
  3
OPACITYTILE
360
3F29
  3
REFLECTIONTILE
360
3F28
  3
REFRACTIONTILE
360
3F2A
  3
SPECULARTILE
360
3F27
  0
DICTIONARY
  5
3F1C
330
3F1B
100
AcDbDictionary
280
     1
281
     1
  3
ACAD_XREC_ROUNDTRIP
360
4B26
  3
BUMPTILE
360
3F1E
  3
DIFFUSETILE
360
3F1D
  3
OPACITYTILE
360
3F21
  3
REFLECTIONTILE
360
3F20
  3
REFRACTIONTILE
360
3F22
  3
SPECULARTILE
360
3F1F
  0
DICTIONARY
  5
3F2C
330
3F2B
100
AcDbDictionary
280
     1
281
     1
  3
ACAD_XREC_ROUNDTRIP
360
4B28
  3
BUMPTILE
360
3F2E
  3
DIFFUSETILE
360
3F2D
  3
OPACITYTILE
360
3F31
  3
REFLECTIONTILE
360
3F30
  3
REFRACTIONTILE
360
3F32
  3
SPECULARTILE
360
3F2F
  0
DICTIONARY
  5
3FCF
330
3F46
100
AcDbDictionary
280
     1
281
     1
  3
ACAD_ROUNDTRIP_2008_TABLESTYLE_CELLSTYLEMAP
360
4B25
  3
ACAD_XREC_ROUNDTRIP
360
4B29
  0
XRECORD
  5
4B27
102
{ACAD_REACTORS
330
3F24
102
}
330
3F24
100
AcDbXrecord
280
     1
102
MATERIAL
148
0.0
149
0.0
149
0.0
 93
        0
 94
      127
282
     0
 72
     0
 77
     0
171
     0
175
     0
179
     0
273
     0
  0
XRECORD
  5
3F26
102
{ACAD_REACTORS
330
3F24
102
}
330
3F24
100
AcDbXrecord
280
     1
270
     1
271
     1
  0
XRECORD
  5
3F25
102
{ACAD_REACTORS
330
3F24
102
}
330
3F24
100
AcDbXrecord
280
     1
270
     1
271
     1
  0
XRECORD
  5
3F29
102
{ACAD_REACTORS
330
3F24
102
}
330
3F24
100
AcDbXrecord
280
     1
270
     1
271
     1
  0
XRECORD
  5
3F28
102
{ACAD_REACTORS
330
3F24
102
}
330
3F24
100
AcDbXrecord
280
     1
270
     1
271
     1
  0
XRECORD
  5
3F2A
102
{ACAD_REACTORS
330
3F24
102
}
330
3F24
100
AcDbXrecord
280
     1
270
     1
271
     1
  0
XRECORD
  5
3F27
102
{ACAD_REACTORS
330
3F24
102
}
330
3F24
100
AcDbXrecord
280
     1
270
     1
271
     1
  0
XRECORD
  5
4B26
102
{ACAD_REACTORS
330
3F1C
102
}
330
3F1C
100
AcDbXrecord
280
     1
102
MATERIAL
148
0.0
149
0.0
149
0.0
 93
        0
 94
      127
282
     0
 72
     0
 77
     0
171
     0
175
     0
179
     0
273
     0
  0
XRECORD
  5
3F1E
102
{ACAD_REACTORS
330
3F1C
102
}
330
3F1C
100
AcDbXrecord
280
     1
270
     1
271
     1
  0
XRECORD
  5
3F1D
102
{ACAD_REACTORS
330
3F1C
102
}
330
3F1C
100
AcDbXrecord
280
     1
270
     1
271
     1
  0
XRECORD
  5
3F21
102
{ACAD_REACTORS
330
3F1C
102
}
330
3F1C
100
AcDbXrecord
280
     1
270
     1
271
     1
  0
XRECORD
  5
3F20
102
{ACAD_REACTORS
330
3F1C
102
}
330
3F1C
100
AcDbXrecord
280
     1
270
     1
271
     1
  0
XRECORD
  5
3F22
102
{ACAD_REACTORS
330
3F1C
102
}
330
3F1C
100
AcDbXrecord
280
     1
270
     1
271
     1
  0
XRECORD
  5
3F1F
102
{ACAD_REACTORS
330
3F1C
102
}
330
3F1C
100
AcDbXrecord
280
     1
270
     1
271
     1
  0
XRECORD
  5
4B28
102
{ACAD_REACTORS
330
3F2C
102
}
330
3F2C
100
AcDbXrecord
280
     1
102
MATERIAL
148
0.0
149
0.0
149
0.0
 93
        0
 94
      127
282
     0
 72
     0
 77
     0
171
     0
175
     0
179
     0
273
     0
  0
XRECORD
  5
3F2E
102
{ACAD_REACTORS
330
3F2C
102
}
330
3F2C
100
AcDbXrecord
280
     1
270
     1
271
     1
  0
XRECORD
  5
3F2D
102
{ACAD_REACTORS
330
3F2C
102
}
330
3F2C
100
AcDbXrecord
280
     1
270
     1
271
     1
  0
XRECORD
  5
3F31
102
{ACAD_REACTORS
330
3F2C
102
}
330
3F2C
100
AcDbXrecord
280
     1
270
     1
271
     1
  0
XRECORD
  5
3F30
102
{ACAD_REACTORS
330
3F2C
102
}
330
3F2C
100
AcDbXrecord
280
     1
270
     1
271
     1
  0
XRECORD
  5
3F32
102
{ACAD_REACTORS
330
3F2C
102
}
330
3F2C
100
AcDbXrecord
280
     1
270
     1
271
     1
  0
XRECORD
  5
3F2F
102
{ACAD_REACTORS
330
3F2C
102
}
330
3F2C
100
AcDbXrecord
280
     1
270
     1
271
     1
  0
CELLSTYLEMAP
  5
4B25
102
{ACAD_REACTORS
330
3FCF
102
}
330
3FCF
100
AcDbCellStyleMap
 90
        3
300
CELLSTYLE
  1
TABLEFORMAT_BEGIN
 90
        5
170
     1
 91
        0
 92
    32768
 62
   257
 93
        1
300
CONTENTFORMAT
  1
CONTENTFORMAT_BEGIN
 90
        0
 91
        0
 92
      512
 93
        0
300

 40
0.0
140
1.0
 94
        5
 62
     0
340
10
144
6.0
309
CONTENTFORMAT_END
171
     1
301
MARGIN
  1
CELLMARGIN_BEGIN
 40
1.5
 40
1.5
 40
1.5
 40
1.5
 40
4.5
 40
4.5
309
CELLMARGIN_END
 94
        6
 95
        1
302
GRIDFORMAT
  1
GRIDFORMAT_BEGIN
 90
        0
 91
        1
 62
     0
 92
       -2
340
0
 93
        0
 40
1.125
309
GRIDFORMAT_END
 95
        2
302
GRIDFORMAT
  1
GRIDFORMAT_BEGIN
 90
        0
 91
        1
 62
     0
 92
       -2
340
0
 93
        0
 40
1.125
309
GRIDFORMAT_END
 95
        4
302
GRIDFORMAT
  1
GRIDFORMAT_BEGIN
 90
        0
 91
        1
 62
     0
 92
       -2
340
0
 93
        0
 40
1.125
309
GRIDFORMAT_END
 95
        8
302
GRIDFORMAT
  1
GRIDFORMAT_BEGIN
 90
        0
 91
        1
 62
     0
 92
       -2
340
0
 93
        0
 40
1.125
309
GRIDFORMAT_END
 95
       16
302
GRIDFORMAT
  1
GRIDFORMAT_BEGIN
 90
        0
 91
        1
 62
     0
 92
       -2
340
0
 93
        0
 40
1.125
309
GRIDFORMAT_END
 95
       32
302
GRIDFORMAT
  1
GRIDFORMAT_BEGIN
 90
        0
 91
        1
 62
     0
 92
       -2
340
0
 93
        0
 40
1.125
309
GRIDFORMAT_END
309
TABLEFORMAT_END
  1
CELLSTYLE_BEGIN
 90
        1
 91
        1
300
_TITLE
309
CELLSTYLE_END
300
CELLSTYLE
  1
TABLEFORMAT_BEGIN
 90
        5
170
     1
 91
        0
 92
        0
 62
   257
 93
        1
300
CONTENTFORMAT
  1
CONTENTFORMAT_BEGIN
 90
        0
 91
        0
 92
      512
 93
        0
300

 40
0.0
140
1.0
 94
        5
 62
     0
340
10
144
4.5
309
CONTENTFORMAT_END
171
     1
301
MARGIN
  1
CELLMARGIN_BEGIN
 40
1.5
 40
1.5
 40
1.5
 40
1.5
 40
4.5
 40
4.5
309
CELLMARGIN_END
 94
        6
 95
        1
302
GRIDFORMAT
  1
GRIDFORMAT_BEGIN
 90
        0
 91
        1
 62
     0
 92
       -2
340
0
 93
        0
 40
1.125
309
GRIDFORMAT_END
 95
        2
302
GRIDFORMAT
  1
GRIDFORMAT_BEGIN
 90
        0
 91
        1
 62
     0
 92
       -2
340
0
 93
        0
 40
1.125
309
GRIDFORMAT_END
 95
        4
302
GRIDFORMAT
  1
GRIDFORMAT_BEGIN
 90
        0
 91
        1
 62
     0
 92
       -2
340
0
 93
        0
 40
1.125
309
GRIDFORMAT_END
 95
        8
302
GRIDFORMAT
  1
GRIDFORMAT_BEGIN
 90
        0
 91
        1
 62
     0
 92
       -2
340
0
 93
        0
 40
1.125
309
GRIDFORMAT_END
 95
       16
302
GRIDFORMAT
  1
GRIDFORMAT_BEGIN
 90
        0
 91
        1
 62
     0
 92
       -2
340
0
 93
        0
 40
1.125
309
GRIDFORMAT_END
 95
       32
302
GRIDFORMAT
  1
GRIDFORMAT_BEGIN
 90
        0
 91
        1
 62
     0
 92
       -2
340
0
 93
        0
 40
1.125
309
GRIDFORMAT_END
309
TABLEFORMAT_END
  1
CELLSTYLE_BEGIN
 90
        2
 91
        1
300
_HEADER
309
CELLSTYLE_END
300
CELLSTYLE
  1
TABLEFORMAT_BEGIN
 90
        5
170
     1
 91
        0
 92
        0
 62
   257
 93
        1
300
CONTENTFORMAT
  1
CONTENTFORMAT_BEGIN
 90
        0
 91
        0
 92
      512
 93
        0
300

 40
0.0
140
1.0
 94
        2
 62
     0
340
10
144
4.5
309
CONTENTFORMAT_END
171
     1
301
MARGIN
  1
CELLMARGIN_BEGIN
 40
1.5
 40
1.5
 40
1.5
 40
1.5
 40
4.5
 40
4.5
309
CELLMARGIN_END
 94
        6
 95
        1
302
GRIDFORMAT
  1
GRIDFORMAT_BEGIN
 90
        0
 91
        1
 62
     0
 92
       -2
340
0
 93
        0
 40
1.125
309
GRIDFORMAT_END
 95
        2
302
GRIDFORMAT
  1
GRIDFORMAT_BEGIN
 90
        0
 91
        1
 62
     0
 92
       -2
340
0
 93
        0
 40
1.125
309
GRIDFORMAT_END
 95
        4
302
GRIDFORMAT
  1
GRIDFORMAT_BEGIN
 90
        0
 91
        1
 62
     0
 92
       -2
340
0
 93
        0
 40
1.125
309
GRIDFORMAT_END
 95
        8
302
GRIDFORMAT
  1
GRIDFORMAT_BEGIN
 90
        0
 91
        1
 62
     0
 92
       -2
340
0
 93
        0
 40
1.125
309
GRIDFORMAT_END
 95
       16
302
GRIDFORMAT
  1
GRIDFORMAT_BEGIN
 90
        0
 91
        1
 62
     0
 92
       -2
340
0
 93
        0
 40
1.125
309
GRIDFORMAT_END
 95
       32
302
GRIDFORMAT
  1
GRIDFORMAT_BEGIN
 90
        0
 91
        1
 62
     0
 92
       -2
340
0
 93
        0
 40
1.125
309
GRIDFORMAT_END
309
TABLEFORMAT_END
  1
CELLSTYLE_BEGIN
 90
        3
 91
        2
300
_DATA
309
CELLSTYLE_END
  0
XRECORD
  5
4B29
102
{ACAD_REACTORS
330
3FCF
102
}
330
3FCF
100
AcDbXrecord
280
     1
102
ACAD_ROUNDTRIP_PRE2007_TABLESTYLE
 90
      512
 91
        0
  1

 92
      512
 93
        0
  2

 94
      512
 95
        0
  3

  0
ENDSEC
  0
EOF
