  0
SECTION
  2
HEADER
  9
$ACADVER
  1
AC1018
  9
$ACADMAINTVER
 70
   104
  9
$DWGCODEPAGE
  3
ANSI_932
  9
$LASTSAVEDBY
  1
poracon
  9
$INSBASE
 10
0.0
 20
0.0
 30
0.0
  9
$EXTMIN
 10
-383.8268188312572
 20
-305.72052385911
 30
0.0
  9
$EXTMAX
 10
3180.173181168744
 20
2214.279476140893
 30
0.0
  9
$LIMMIN
 10
0.0
 20
0.0
  9
$LIMMAX
 10
2970.0
 20
2100.0
  9
$ORTHOMODE
 70
     0
  9
$REGENMODE
 70
     1
  9
$FILLMODE
 70
     1
  9
$QTEXTMODE
 70
     0
  9
$MIRRTEXT
 70
     1
  9
$LTSCALE
 40
60.0
  9
$ATTMODE
 70
     1
  9
$TEXTSIZE
 40
50.0
  9
$TRACEWID
 40
0.05
  9
$TEXTSTYLE
  7
BIGFONT
  9
$CLAYER
  8
DEFPOINTS
  9
$CELTYPE
  6
BYLAYER
  9
$CECOLOR
 62
   256
  9
$CELTSCALE
 40
1.0
  9
$DISPSILH
 70
     0
  9
$DIMSCALE
 40
10.0
  9
$DIMASZ
 40
2.0
  9
$DIMEXO
 40
1.0
  9
$DIMDLI
 40
10.0
  9
$DIMRND
 40
0.0
  9
$DIMDLE
 40
0.0
  9
$DIMEXE
 40
1.0
  9
$DIMTP
 40
0.0
  9
$DIMTM
 40
0.0
  9
$DIMTXT
 40
3.0
  9
$DIMCEN
 40
0.0
  9
$DIMTSZ
 40
0.0
  9
$DIMTOL
 70
     0
  9
$DIMLIM
 70
     0
  9
$DIMTIH
 70
     0
  9
$DIMTOH
 70
     0
  9
$DIMSE1
 70
     0
  9
$DIMSE2
 70
     0
  9
$DIMTAD
 70
     1
  9
$DIMZIN
 70
     0
  9
$DIMBLK
  1
ARROW
  9
$DIMASO
 70
     1
  9
$DIMSHO
 70
     1
  9
$DIMPOST
  1

  9
$DIMAPOST
  1

  9
$DIMALT
 70
     0
  9
$DIMALTD
 70
     2
  9
$DIMALTF
 40
25.4
  9
$DIMLFAC
 40
1.0
  9
$DIMTOFL
 70
     0
  9
$DIMTVP
 40
0.0
  9
$DIMTIX
 70
     0
  9
$DIMSOXD
 70
     0
  9
$DIMSAH
 70
     1
  9
$DIMBLK1
  1
ARROW
  9
$DIMBLK2
  1
ARROW
  9
$DIMSTYLE
  2
DIA1
  9
$DIMCLRD
 70
     0
  9
$DIMCLRE
 70
     0
  9
$DIMCLRT
 70
     0
  9
$DIMTFAC
 40
1.0
  9
$DIMGAP
 40
1.0
  9
$DIMJUST
 70
     0
  9
$DIMSD1
 70
     0
  9
$DIMSD2
 70
     0
  9
$DIMTOLJ
 70
     1
  9
$DIMTZIN
 70
     0
  9
$DIMALTZ
 70
     0
  9
$DIMALTTZ
 70
     0
  9
$DIMUPT
 70
     0
  9
$DIMDEC
 70
     0
  9
$DIMTDEC
 70
     4
  9
$DIMALTU
 70
     2
  9
$DIMALTTD
 70
     2
  9
$DIMTXSTY
  7
BIGFONT
  9
$DIMAUNIT
 70
     0
  9
$DIMADEC
 70
     0
  9
$DIMALTRND
 40
0.0
  9
$DIMAZIN
 70
     0
  9
$DIMDSEP
 70
    46
  9
$DIMATFIT
 70
     3
  9
$DIMFRAC
 70
     0
  9
$DIMLDRBLK
  1
ARROW
  9
$DIMLUNIT
 70
     2
  9
$DIMLWD
 70
    -2
  9
$DIMLWE
 70
    -2
  9
$DIMTMOVE
 70
     0
  9
$LUNITS
 70
     2
  9
$LUPREC
 70
     1
  9
$SKETCHINC
 40
0.1
  9
$FILLETRAD
 40
0.0
  9
$AUNITS
 70
     1
  9
$AUPREC
 70
     2
  9
$MENU
  1
MASTERS
  9
$ELEVATION
 40
0.0
  9
$PELEVATION
 40
0.0
  9
$THICKNESS
 40
0.0
  9
$LIMCHECK
 70
     0
  9
$CHAMFERA
 40
0.0
  9
$CHAMFERB
 40
0.0
  9
$CHAMFERC
 40
0.0
  9
$CHAMFERD
 40
0.0
  9
$SKPOLY
 70
     0
  9
$TDCREATE
 40
2449337.661539352
  9
$TDUCREATE
 40
2449337.286539352
  9
$TDUPDATE
 40
2456937.460855451
  9
$TDUUPDATE
 40
2456937.085855452
  9
$TDINDWG
 40
0.0676357639
  9
$TDUSRTIMER
 40
0.0676357639
  9
$USRTIMER
 70
     1
  9
$ANGBASE
 50
0.0
  9
$ANGDIR
 70
     0
  9
$PDMODE
 70
     0
  9
$PDSIZE
 40
0.0
  9
$PLINEWID
 40
0.0
  9
$SPLFRAME
 70
     0
  9
$SPLINETYPE
 70
     6
  9
$SPLINESEGS
 70
     8
  9
$HANDSEED
  5
93B
  9
$SURFTAB1
 70
     6
  9
$SURFTAB2
 70
     6
  9
$SURFTYPE
 70
     6
  9
$SURFU
 70
     6
  9
$SURFV
 70
     6
  9
$UCSBASE
  2

  9
$UCSNAME
  2

  9
$UCSORG
 10
0.0
 20
0.0
 30
0.0
  9
$UCSXDIR
 10
1.0
 20
0.0
 30
0.0
  9
$UCSYDIR
 10
0.0
 20
1.0
 30
0.0
  9
$UCSORTHOREF
  2

  9
$UCSORTHOVIEW
 70
     0
  9
$UCSORGTOP
 10
0.0
 20
0.0
 30
0.0
  9
$UCSORGBOTTOM
 10
0.0
 20
0.0
 30
0.0
  9
$UCSORGLEFT
 10
0.0
 20
0.0
 30
0.0
  9
$UCSORGRIGHT
 10
0.0
 20
0.0
 30
0.0
  9
$UCSORGFRONT
 10
0.0
 20
0.0
 30
0.0
  9
$UCSORGBACK
 10
0.0
 20
0.0
 30
0.0
  9
$PUCSBASE
  2

  9
$PUCSNAME
  2

  9
$PUCSORG
 10
0.0
 20
0.0
 30
0.0
  9
$PUCSXDIR
 10
1.0
 20
0.0
 30
0.0
  9
$PUCSYDIR
 10
0.0
 20
1.0
 30
0.0
  9
$PUCSORTHOREF
  2

  9
$PUCSORTHOVIEW
 70
     0
  9
$PUCSORGTOP
 10
0.0
 20
0.0
 30
0.0
  9
$PUCSORGBOTTOM
 10
0.0
 20
0.0
 30
0.0
  9
$PUCSORGLEFT
 10
0.0
 20
0.0
 30
0.0
  9
$PUCSORGRIGHT
 10
0.0
 20
0.0
 30
0.0
  9
$PUCSORGFRONT
 10
0.0
 20
0.0
 30
0.0
  9
$PUCSORGBACK
 10
0.0
 20
0.0
 30
0.0
  9
$USERI1
 70
     0
  9
$USERI2
 70
     0
  9
$USERI3
 70
     0
  9
$USERI4
 70
     0
  9
$USERI5
 70
     0
  9
$USERR1
 40
0.0
  9
$USERR2
 40
0.0
  9
$USERR3
 40
0.0
  9
$USERR4
 40
0.0
  9
$USERR5
 40
0.0
  9
$WORLDVIEW
 70
     1
  9
$SHADEDGE
 70
     3
  9
$SHADEDIF
 70
    70
  9
$TILEMODE
 70
     1
  9
$MAXACTVP
 70
    16
  9
$PINSBASE
 10
0.0
 20
0.0
 30
0.0
  9
$PLIMCHECK
 70
     0
  9
$PEXTMIN
 10
1.000000000000000E+20
 20
1.000000000000000E+20
 30
1.000000000000000E+20
  9
$PEXTMAX
 10
-1.000000000000000E+20
 20
-1.000000000000000E+20
 30
-1.000000000000000E+20
  9
$PLIMMIN
 10
0.0
 20
0.0
  9
$PLIMMAX
 10
12.0
 20
9.0
  9
$UNITMODE
 70
     0
  9
$VISRETAIN
 70
     0
  9
$PLINEGEN
 70
     0
  9
$PSLTSCALE
 70
     1
  9
$TREEDEPTH
 70
  3020
  9
$CMLSTYLE
  2
STANDARD
  9
$CMLJUST
 70
     0
  9
$CMLSCALE
 40
1.0
  9
$PROXYGRAPHICS
 70
     1
  9
$MEASUREMENT
 70
     0
  9
$CELWEIGHT
370
    -1
  9
$ENDCAPS
280
     0
  9
$JOINSTYLE
280
     0
  9
$LWDISPLAY
290
     0
  9
$INSUNITS
 70
     0
  9
$HYPERLINKBASE
  1

  9
$STYLESHEET
  1

  9
$XEDIT
290
     1
  9
$CEPSNTYPE
380
     0
  9
$PSTYLEMODE
290
     1
  9
$FINGERPRINTGUID
  2
{241947D8-10E5-11D6-BA8D-8D48D945A249}
  9
$VERSIONGUID
  2
{47C661BF-F7C9-4D6F-B064-7EE761808ABF}
  9
$EXTNAMES
290
     1
  9
$PSVPSCALE
 40
0.0
  9
$OLESTARTUP
290
     0
  9
$SORTENTS
280
    96
  9
$INDEXCTL
280
     0
  9
$HIDETEXT
280
     0
  9
$XCLIPFRAME
290
     0
  9
$HALOGAP
280
     0
  9
$OBSCOLOR
 70
   257
  9
$OBSLTYPE
280
     0
  9
$INTERSECTIONDISPLAY
280
     0
  9
$INTERSECTIONCOLOR
 70
   257
  9
$DIMASSOC
280
     1
  9
$PROJECTNAME
  1

  0
ENDSEC
  0
SECTION
  2
CLASSES
  0
CLASS
  1
ACDBDICTIONARYWDFLT
  2
AcDbDictionaryWithDefault
  3
ObjectDBX Classes
 90
        0
 91
        1
280
     0
281
     0
  0
CLASS
  1
DICTIONARYVAR
  2
AcDbDictionaryVar
  3
ObjectDBX Classes
 90
        0
 91
        6
280
     0
281
     0
  0
CLASS
  1
MATERIAL
  2
AcDbMaterial
  3
ObjectDBX Classes
 90
     1153
 91
        3
280
     0
281
     0
  0
CLASS
  1
VISUALSTYLE
  2
AcDbVisualStyle
  3
ObjectDBX Classes
 90
     4095
 91
       16
280
     0
281
     0
  0
CLASS
  1
TABLESTYLE
  2
AcDbTableStyle
  3
ObjectDBX Classes
 90
     4095
 91
        1
280
     0
281
     0
  0
CLASS
  1
SCALE
  2
AcDbScale
  3
ObjectDBX Classes
 90
     1153
 91
       33
280
     0
281
     0
  0
CLASS
  1
MLEADERSTYLE
  2
AcDbMLeaderStyle
  3
ACDB_MLEADERSTYLE_CLASS
 90
     4095
 91
        1
280
     0
281
     0
  0
CLASS
  1
CELLSTYLEMAP
  2
AcDbCellStyleMap
  3
ObjectDBX Classes
 90
     1152
 91
        3
280
     0
281
     0
  0
CLASS
  1
SORTENTSTABLE
  2
AcDbSortentsTable
  3
ObjectDBX Classes
 90
        0
 91
        2
280
     0
281
     0
  0
ENDSEC
  0
SECTION
  2
TABLES
  0
TABLE
  2
VPORT
  5
8
330
0
100
AcDbSymbolTable
 70
     1
  0
VPORT
  5
750
330
8
100
AcDbSymbolTableRecord
100
AcDbViewportTableRecord
  2
*Active
 70
     0
 10
0.0
 20
0.0
 11
1.0
 21
1.0
 12
1398.173181168743
 22
954.2794761408915
 13
0.0
 23
0.0
 14
1.0
 24
1.0
 15
0.0
 25
0.0
 16
0.0
 26
0.0
 36
1.0
 17
0.0
 27
0.0
 37
0.0
 40
2540.026490066229
 41
1.669761273209548
 42
50.0
 43
0.0
 44
0.0
 50
0.0
 51
0.0
 71
     0
 72
   100
 73
     1
 74
     1
 75
     0
 76
     0
 77
     0
 78
     0
281
     0
 65
     1
110
0.0
120
0.0
130
0.0
111
1.0
121
0.0
131
0.0
112
0.0
122
1.0
132
0.0
 79
     0
146
0.0
  0
ENDTAB
  0
TABLE
  2
LTYPE
  5
5
330
0
100
AcDbSymbolTable
 70
    26
  0
LTYPE
  5
12
330
5
100
AcDbSymbolTableRecord
100
AcDbLinetypeTableRecord
  2
BYBLOCK
 70
     0
  3

 72
    65
 73
     0
 40
0.0
  0
LTYPE
  5
13
330
5
100
AcDbSymbolTableRecord
100
AcDbLinetypeTableRecord
  2
BYLAYER
 70
     0
  3

 72
    65
 73
     0
 40
0.0
  0
LTYPE
  5
14
330
5
100
AcDbSymbolTableRecord
100
AcDbLinetypeTableRecord
  2
CONTINUOUS
 70
     0
  3
Solid line
 72
    65
 73
     0
 40
0.0
  0
LTYPE
  5
2E
330
5
100
AcDbSymbolTableRecord
100
AcDbLinetypeTableRecord
  2
BORDER
 70
     0
  3
__ __ . __ __ . __ __ . __ __ . __ __ . __ __ .
 72
    65
 73
     6
 40
1.75
 49
0.5
 74
     0
 49
-0.25
 74
     0
 49
0.5
 74
     0
 49
-0.25
 74
     0
 49
0.0
 74
     0
 49
-0.25
 74
     0
  0
LTYPE
  5
2F
330
5
100
AcDbSymbolTableRecord
100
AcDbLinetypeTableRecord
  2
BORDER2
 70
     0
  3
__.__.__.__.__.__.__.__.__.__.__.__.__.__.__.__
 72
    65
 73
     6
 40
0.875
 49
0.25
 74
     0
 49
-0.125
 74
     0
 49
0.25
 74
     0
 49
-0.125
 74
     0
 49
0.0
 74
     0
 49
-0.125
 74
     0
  0
LTYPE
  5
30
330
5
100
AcDbSymbolTableRecord
100
AcDbLinetypeTableRecord
  2
BORDERX2
 70
     0
  3
____  ____  .  ____  ____  .  ____  ____  .  __
 72
    65
 73
     6
 40
3.5
 49
1.0
 74
     0
 49
-0.5
 74
     0
 49
1.0
 74
     0
 49
-0.5
 74
     0
 49
0.0
 74
     0
 49
-0.5
 74
     0
  0
LTYPE
  5
31
330
5
100
AcDbSymbolTableRecord
100
AcDbLinetypeTableRecord
  2
CENTER
 70
     0
  3
____ _ ____ _ ____ _ ____ _ ____ _ ____ _ ____ 
 72
    65
 73
     4
 40
2.0
 49
1.25
 74
     0
 49
-0.25
 74
     0
 49
0.25
 74
     0
 49
-0.25
 74
     0
  0
LTYPE
  5
32
330
5
100
AcDbSymbolTableRecord
100
AcDbLinetypeTableRecord
  2
CENTER2
 70
     0
  3
___ _ ___ _ ___ _ ___ _ ___ _ ___ _ ___ _ ___ _
 72
    65
 73
     4
 40
1.125
 49
0.75
 74
     0
 49
-0.125
 74
     0
 49
0.125
 74
     0
 49
-0.125
 74
     0
  0
LTYPE
  5
33
330
5
100
AcDbSymbolTableRecord
100
AcDbLinetypeTableRecord
  2
CENTERX2
 70
     0
  3
________  __  ________  __  ________  __  _____
 72
    65
 73
     4
 40
4.0
 49
2.5
 74
     0
 49
-0.5
 74
     0
 49
0.5
 74
     0
 49
-0.5
 74
     0
  0
LTYPE
  5
34
330
5
100
AcDbSymbolTableRecord
100
AcDbLinetypeTableRecord
  2
DASHDOT
 70
     0
  3
__ . __ . __ . __ . __ . __ . __ . __ . __ . __
 72
    65
 73
     4
 40
1.0
 49
0.5
 74
     0
 49
-0.25
 74
     0
 49
0.0
 74
     0
 49
-0.25
 74
     0
  0
LTYPE
  5
35
330
5
100
AcDbSymbolTableRecord
100
AcDbLinetypeTableRecord
  2
DASHDOT2
 70
     0
  3
_._._._._._._._._._._._._._._._._._._._._._._._
 72
    65
 73
     4
 40
0.5
 49
0.25
 74
     0
 49
-0.125
 74
     0
 49
0.0
 74
     0
 49
-0.125
 74
     0
  0
LTYPE
  5
36
330
5
100
AcDbSymbolTableRecord
100
AcDbLinetypeTableRecord
  2
DASHDOTX2
 70
     0
  3
____  .  ____  .  ____  .  ____  .  ____  .  __
 72
    65
 73
     4
 40
2.0
 49
1.0
 74
     0
 49
-0.5
 74
     0
 49
0.0
 74
     0
 49
-0.5
 74
     0
  0
LTYPE
  5
37
330
5
100
AcDbSymbolTableRecord
100
AcDbLinetypeTableRecord
  2
DASHED
 70
     0
  3
__ __ __ __ __ __ __ __ __ __ __ __ __ __ __ __
 72
    65
 73
     2
 40
0.75
 49
0.5
 74
     0
 49
-0.25
 74
     0
  0
LTYPE
  5
38
330
5
100
AcDbSymbolTableRecord
100
AcDbLinetypeTableRecord
  2
DASHED2
 70
     0
  3
_ _ _ _ _ _ _ _ _ _ _ _ _ _ _ _ _ _ _ _ _ _ _ _
 72
    65
 73
     2
 40
0.375
 49
0.25
 74
     0
 49
-0.125
 74
     0
  0
LTYPE
  5
39
330
5
100
AcDbSymbolTableRecord
100
AcDbLinetypeTableRecord
  2
DASHEDX2
 70
     0
  3
____  ____  ____  ____  ____  ____  ____  ____ 
 72
    65
 73
     2
 40
1.5
 49
1.0
 74
     0
 49
-0.5
 74
     0
  0
LTYPE
  5
3A
330
5
100
AcDbSymbolTableRecord
100
AcDbLinetypeTableRecord
  2
DIVIDE
 70
     0
  3
____ . . ____ . . ____ . . ____ . . ____ . . __
 72
    65
 73
     6
 40
1.25
 49
0.5
 74
     0
 49
-0.25
 74
     0
 49
0.0
 74
     0
 49
-0.25
 74
     0
 49
0.0
 74
     0
 49
-0.25
 74
     0
  0
LTYPE
  5
3B
330
5
100
AcDbSymbolTableRecord
100
AcDbLinetypeTableRecord
  2
DIVIDE2
 70
     0
  3
__..__..__..__..__..__..__..__..__..__..__..__.
 72
    65
 73
     6
 40
0.625
 49
0.25
 74
     0
 49
-0.125
 74
     0
 49
0.0
 74
     0
 49
-0.125
 74
     0
 49
0.0
 74
     0
 49
-0.125
 74
     0
  0
LTYPE
  5
3C
330
5
100
AcDbSymbolTableRecord
100
AcDbLinetypeTableRecord
  2
DIVIDEX2
 70
     0
  3
________  .  .  ________  .  .  ________  .  . 
 72
    65
 73
     6
 40
2.5
 49
1.0
 74
     0
 49
-0.5
 74
     0
 49
0.0
 74
     0
 49
-0.5
 74
     0
 49
0.0
 74
     0
 49
-0.5
 74
     0
  0
LTYPE
  5
3D
330
5
100
AcDbSymbolTableRecord
100
AcDbLinetypeTableRecord
  2
DOT
 70
     0
  3
. . . . . . . . . . . . . . . . . . . . . . . .
 72
    65
 73
     2
 40
0.25
 49
0.0
 74
     0
 49
-0.25
 74
     0
  0
LTYPE
  5
3E
330
5
100
AcDbSymbolTableRecord
100
AcDbLinetypeTableRecord
  2
DOT2
 70
     0
  3
...............................................
 72
    65
 73
     2
 40
0.125
 49
0.0
 74
     0
 49
-0.125
 74
     0
  0
LTYPE
  5
3F
330
5
100
AcDbSymbolTableRecord
100
AcDbLinetypeTableRecord
  2
DOTX2
 70
     0
  3
.  .  .  .  .  .  .  .  .  .  .  .  .  .  .  . 
 72
    65
 73
     2
 40
0.5
 49
0.0
 74
     0
 49
-0.5
 74
     0
  0
LTYPE
  5
40
330
5
100
AcDbSymbolTableRecord
100
AcDbLinetypeTableRecord
  2
HIDDEN
 70
     0
  3
__ __ __ __ __ __ __ __ __ __ __ __ __ __ __ __
 72
    65
 73
     2
 40
0.375
 49
0.25
 74
     0
 49
-0.125
 74
     0
  0
LTYPE
  5
41
330
5
100
AcDbSymbolTableRecord
100
AcDbLinetypeTableRecord
  2
HIDDEN2
 70
     0
  3
_ _ _ _ _ _ _ _ _ _ _ _ _ _ _ _ _ _ _ _ _ _ _ _
 72
    65
 73
     2
 40
0.1875
 49
0.125
 74
     0
 49
-0.0625
 74
     0
  0
LTYPE
  5
42
330
5
100
AcDbSymbolTableRecord
100
AcDbLinetypeTableRecord
  2
HIDDENX2
 70
     0
  3
____ ____ ____ ____ ____ ____ ____ ____ ____ __
 72
    65
 73
     2
 40
0.75
 49
0.5
 74
     0
 49
-0.25
 74
     0
  0
LTYPE
  5
43
330
5
100
AcDbSymbolTableRecord
100
AcDbLinetypeTableRecord
  2
PHANTOM
 70
     0
  3
______  __  __  ______  __  __  ______  __  __ 
 72
    65
 73
     6
 40
2.5
 49
1.25
 74
     0
 49
-0.25
 74
     0
 49
0.25
 74
     0
 49
-0.25
 74
     0
 49
0.25
 74
     0
 49
-0.25
 74
     0
  0
LTYPE
  5
44
330
5
100
AcDbSymbolTableRecord
100
AcDbLinetypeTableRecord
  2
PHANTOM2
 70
     0
  3
___ _ _ ___ _ _ ___ _ _ ___ _ _ ___ _ _ ___ _ _
 72
    65
 73
     6
 40
1.25
 49
0.625
 74
     0
 49
-0.125
 74
     0
 49
0.125
 74
     0
 49
-0.125
 74
     0
 49
0.125
 74
     0
 49
-0.125
 74
     0
  0
LTYPE
  5
45
330
5
100
AcDbSymbolTableRecord
100
AcDbLinetypeTableRecord
  2
PHANTOMX2
 70
     0
  3
____________    ____    ____    ____________   
 72
    65
 73
     6
 40
5.0
 49
2.5
 74
     0
 49
-0.5
 74
     0
 49
0.5
 74
     0
 49
-0.5
 74
     0
 49
0.5
 74
     0
 49
-0.5
 74
     0
  0
ENDTAB
  0
TABLE
  2
LAYER
  5
2
330
0
100
AcDbSymbolTable
 70
     6
  0
LAYER
  5
F
102
{ACAD_XDICTIONARY
360
7A8
102
}
330
2
100
AcDbSymbolTableRecord
100
AcDbLayerTableRecord
  2
0
 70
     0
 62
     7
  6
CONTINUOUS
370
    -3
390
2CF
  0
LAYER
  5
49
102
{ACAD_XDICTIONARY
360
7AA
102
}
330
2
100
AcDbSymbolTableRecord
100
AcDbLayerTableRecord
  2
SUNPOU
 70
     0
 62
     3
  6
CONTINUOUS
370
    -3
390
2CF
  0
LAYER
  5
4D
102
{ACAD_XDICTIONARY
360
7AC
102
}
330
2
100
AcDbSymbolTableRecord
100
AcDbLayerTableRecord
  2
CT2
 70
     0
 62
     1
  6
CENTER2
370
    -3
390
2CF
  0
LAYER
  5
4F
102
{ACAD_XDICTIONARY
360
7AE
102
}
330
2
100
AcDbSymbolTableRecord
100
AcDbLayerTableRecord
  2
SAISEKI
 70
     0
 62
     4
  6
CONTINUOUS
370
    -3
390
2CF
  0
LAYER
  5
50
330
2
100
AcDbSymbolTableRecord
100
AcDbLayerTableRecord
  2
DEFPOINTS
 70
     0
 62
     7
  6
CONTINUOUS
290
     0
370
    -3
390
2CF
  0
LAYER
  5
8B2
102
{ACAD_XDICTIONARY
360
8B3
102
}
330
2
100
AcDbSymbolTableRecord
100
AcDbLayerTableRecord
  2
KL
 70
     0
 62
     5
  6
HIDDEN
370
    -3
390
2CF
  0
ENDTAB
  0
TABLE
  2
STYLE
  5
3
330
0
100
AcDbSymbolTable
 70
     3
  0
STYLE
  5
10
330
3
100
AcDbSymbolTableRecord
100
AcDbTextStyleTableRecord
  2
STANDARD
 70
     0
 40
0.0
 41
1.0
 50
0.0
 71
     0
 42
0.2
  3
txt
  4

  0
STYLE
  5
2D
330
3
100
AcDbSymbolTableRecord
100
AcDbTextStyleTableRecord
  2
BIGFONT
 70
     0
 40
0.0
 41
1.0
 50
0.0
 71
     0
 42
50.0
  3
simplex
  4
extfont
  0
STYLE
  5
348
330
3
100
AcDbSymbolTableRecord
100
AcDbTextStyleTableRecord
  2
STYLE1
 70
     0
 40
0.0
 41
1.0
 50
0.0
 71
     0
 42
2.5
  3
txt.shx
  4
bigfont.shx
  0
ENDTAB
  0
TABLE
  2
VIEW
  5
6
330
0
100
AcDbSymbolTable
 70
     0
  0
ENDTAB
  0
TABLE
  2
UCS
  5
7
330
0
100
AcDbSymbolTable
 70
     0
  0
ENDTAB
  0
TABLE
  2
APPID
  5
9
330
0
100
AcDbSymbolTable
 70
     3
  0
APPID
  5
11
330
9
100
AcDbSymbolTableRecord
100
AcDbRegAppTableRecord
  2
ACAD
 70
     0
  0
APPID
  5
7A3
330
9
100
AcDbSymbolTableRecord
100
AcDbRegAppTableRecord
  2
ACAD_MLEADERVER
 70
     0
  0
APPID
  5
867
330
9
100
AcDbSymbolTableRecord
100
AcDbRegAppTableRecord
  2
ACAD_EXEMPT_FROM_CAD_STANDARDS
 70
     0
  0
ENDTAB
  0
TABLE
  2
DIMSTYLE
  5
A
330
0
100
AcDbSymbolTable
 70
     5
100
AcDbDimStyleTable
 71
     1
340
2CA
  0
DIMSTYLE
105
2C5
330
A
100
AcDbSymbolTableRecord
100
AcDbDimStyleTableRecord
  2
STANDARD
 70
     0
340
10
  0
DIMSTYLE
105
2CA
102
{ACAD_REACTORS
330
530
330
5C3
102
}
330
A
100
AcDbSymbolTableRecord
100
AcDbDimStyleTableRecord
  2
DIA1
 70
     0
 40
10.0
 41
2.0
 42
1.0
 43
10.0
 44
1.0
 73
     0
 74
     0
 77
     1
140
3.0
141
0.0
147
1.0
271
     0
340
2D
341
20
342
20
  0
DIMSTYLE
105
349
102
{ACAD_REACTORS
330
37F
330
388
330
389
330
38B
330
38C
330
393
330
5C0
330
5B9
330
5B8
330
5B7
330
5BA
102
}
330
A
100
AcDbSymbolTableRecord
100
AcDbDimStyleTableRecord
  2
STYLE10
 70
     0
 40
10.0
 41
1.5
 42
5.0
 43
0.0
 44
0.0
 73
     0
 74
     0
 77
     1
 78
    12
140
2.0
141
2.0
147
1.0
172
     1
176
     3
177
     3
178
     3
340
10
  0
DIMSTYLE
105
736
330
A
100
AcDbSymbolTableRecord
100
AcDbDimStyleTableRecord
  2
P1
 70
     0
 40
10.0
 41
2.0
 42
1.0
 43
10.0
 44
1.0
 73
     0
 74
     0
 77
     2
140
3.0
141
0.0
147
1.0
172
     1
173
     1
176
   256
177
   256
178
   256
271
     0
272
     0
279
     2
288
     1
340
2D
341
20
343
20
344
20
371
    -1
372
    -1
  0
ENDTAB
  0
TABLE
  2
BLOCK_RECORD
  5
1
330
0
100
AcDbSymbolTable
 70
    23
  0
BLOCK_RECORD
  5
18
102
{ACAD_XDICTIONARY
360
7D5
102
}
330
1
100
AcDbSymbolTableRecord
100
AcDbBlockTableRecord
  2
*MODEL_SPACE
340
2D2
  0
BLOCK_RECORD
  5
15
330
1
100
AcDbSymbolTableRecord
100
AcDbBlockTableRecord
  2
*PAPER_SPACE
340
2D3
  0
BLOCK_RECORD
  5
1C
330
1
100
AcDbSymbolTableRecord
100
AcDbBlockTableRecord
  2
SYASEN
340
0
  0
BLOCK_RECORD
  5
1D
330
1
100
AcDbSymbolTableRecord
100
AcDbBlockTableRecord
  2
YA2
340
0
  0
BLOCK_RECORD
  5
1E
330
1
100
AcDbSymbolTableRecord
100
AcDbBlockTableRecord
  2
YA_N
340
0
102
{BLKREFS
331
281
102
}
  0
BLOCK_RECORD
  5
1F
330
1
100
AcDbSymbolTableRecord
100
AcDbBlockTableRecord
  2
DOT
340
0
  0
BLOCK_RECORD
  5
20
330
1
100
AcDbSymbolTableRecord
100
AcDbBlockTableRecord
  2
ARROW
340
0
102
{BLKREFS
331
8FF
331
92E
102
}
  0
BLOCK_RECORD
  5
21
330
1
100
AcDbSymbolTableRecord
100
AcDbBlockTableRecord
  2
YA3
340
0
  0
BLOCK_RECORD
  5
22
330
1
100
AcDbSymbolTableRecord
100
AcDbBlockTableRecord
  2
BORDER
340
0
  0
BLOCK_RECORD
  5
2FA
330
1
100
AcDbSymbolTableRecord
100
AcDbBlockTableRecord
  2
_CLOSEDBLANK
340
0
  0
BLOCK_RECORD
  5
3AD
330
1
100
AcDbSymbolTableRecord
100
AcDbBlockTableRecord
  2
*D8
340
0
  0
BLOCK_RECORD
  5
3B9
330
1
100
AcDbSymbolTableRecord
100
AcDbBlockTableRecord
  2
*D9
340
0
  0
BLOCK_RECORD
  5
3C4
330
1
100
AcDbSymbolTableRecord
100
AcDbBlockTableRecord
  2
*D10
340
0
  0
BLOCK_RECORD
  5
3CF
330
1
100
AcDbSymbolTableRecord
100
AcDbBlockTableRecord
  2
*D11
340
0
  0
BLOCK_RECORD
  5
3DB
330
1
100
AcDbSymbolTableRecord
100
AcDbBlockTableRecord
  2
*D12
340
0
  0
BLOCK_RECORD
  5
3E6
330
1
100
AcDbSymbolTableRecord
100
AcDbBlockTableRecord
  2
*D13
340
0
  0
BLOCK_RECORD
  5
531
330
1
100
AcDbSymbolTableRecord
100
AcDbBlockTableRecord
  2
*D14
340
0
  0
BLOCK_RECORD
  5
5DB
330
1
100
AcDbSymbolTableRecord
100
AcDbBlockTableRecord
  2
*D15
340
0
  0
BLOCK_RECORD
  5
5E6
330
1
100
AcDbSymbolTableRecord
100
AcDbBlockTableRecord
  2
*D16
340
0
  0
BLOCK_RECORD
  5
5F1
330
1
100
AcDbSymbolTableRecord
100
AcDbBlockTableRecord
  2
*D17
340
0
  0
BLOCK_RECORD
  5
5FD
330
1
100
AcDbSymbolTableRecord
100
AcDbBlockTableRecord
  2
*D18
340
0
  0
BLOCK_RECORD
  5
608
330
1
100
AcDbSymbolTableRecord
100
AcDbBlockTableRecord
  2
*D19
340
0
  0
BLOCK_RECORD
  5
614
330
1
100
AcDbSymbolTableRecord
100
AcDbBlockTableRecord
  2
*D20
340
0
  0
ENDTAB
  0
ENDSEC
  0
SECTION
  2
BLOCKS
  0
BLOCK
  5
53
330
18
100
AcDbEntity
  8
0
100
AcDbBlockBegin
  2
*MODEL_SPACE
 70
     0
 10
0.0
 20
0.0
 30
0.0
  3
*MODEL_SPACE
  1

  0
ENDBLK
  5
54
330
18
100
AcDbEntity
  8
0
100
AcDbBlockEnd
  0
BLOCK
  5
51
330
15
100
AcDbEntity
 67
     1
  8
0
100
AcDbBlockBegin
  2
*PAPER_SPACE
 70
     0
 10
0.0
 20
0.0
 30
0.0
  3
*PAPER_SPACE
  1

  0
ENDBLK
  5
52
330
15
100
AcDbEntity
 67
     1
  8
0
100
AcDbBlockEnd
  0
BLOCK
  5
55
330
1C
100
AcDbEntity
  8
0
100
AcDbBlockBegin
  2
SYASEN
 70
     0
 10
0.0
 20
0.0
 30
0.0
  3
SYASEN
  1

  0
LINE
  5
56
330
1C
100
AcDbEntity
  8
0
100
AcDbLine
 10
0.0
 20
0.0
 30
0.0
 11
-1.0
 21
0.0
 31
0.0
  0
LINE
  5
57
330
1C
100
AcDbEntity
  8
0
100
AcDbLine
 10
0.5
 20
0.5
 30
0.0
 11
-0.5
 21
-0.5
 31
0.0
  0
ENDBLK
  5
58
330
1C
100
AcDbEntity
  8
0
100
AcDbBlockEnd
  0
BLOCK
  5
59
330
1D
100
AcDbEntity
  8
0
100
AcDbBlockBegin
  2
YA2
 70
     0
 10
0.0
 20
0.0
 30
0.0
  3
YA2
  1

  0
LINE
  5
5A
330
1D
100
AcDbEntity
  8
0
100
AcDbLine
 10
-1.0
 20
0.0
 30
0.0
 11
0.0
 21
0.0
 31
0.0
  0
ENDBLK
  5
5B
330
1D
100
AcDbEntity
  8
0
100
AcDbBlockEnd
  0
BLOCK
  5
5C
330
1E
100
AcDbEntity
  8
0
100
AcDbBlockBegin
  2
YA_N
 70
     0
 10
0.0
 20
0.0
 30
0.0
  3
YA_N
  1

  0
ENDBLK
  5
5D
330
1E
100
AcDbEntity
  8
0
100
AcDbBlockEnd
  0
BLOCK
  5
5E
330
1F
100
AcDbEntity
  8
0
100
AcDbBlockBegin
  2
DOT
 70
     0
 10
0.0
 20
0.0
 30
0.0
  3
DOT
  1

  0
LWPOLYLINE
  5
5F
330
1F
100
AcDbEntity
  8
0
100
AcDbPolyline
 90
        2
 70
     1
 43
0.25
 10
-0.125
 20
0.0
 42
1.0
 10
0.125
 20
0.0
 42
1.0
  0
LINE
  5
63
330
1F
100
AcDbEntity
  8
0
100
AcDbLine
 10
-1.0
 20
0.0
 30
0.0
 11
-0.25
 21
0.0
 31
0.0
  0
ENDBLK
  5
64
330
1F
100
AcDbEntity
  8
0
100
AcDbBlockEnd
  0
BLOCK
  5
65
330
20
100
AcDbEntity
  8
0
100
AcDbBlockBegin
  2
ARROW
 70
     0
 10
0.0
 20
0.0
 30
0.0
  3
ARROW
  1

  0
LINE
  5
66
330
20
100
AcDbEntity
  8
0
100
AcDbLine
 10
-0.9999999999999991
 20
0.1666666667000003
 30
0.0
 11
0.0
 21
0.0
 31
0.0
  0
LINE
  5
67
330
20
100
AcDbEntity
  8
0
100
AcDbLine
 10
-0.9999999999999991
 20
0.0
 30
0.0
 11
0.0
 21
0.0
 31
0.0
  0
LINE
  5
68
330
20
100
AcDbEntity
  8
0
100
AcDbLine
 10
-0.9999999999999991
 20
-0.1666666667000003
 30
0.0
 11
0.0
 21
0.0
 31
0.0
  0
ENDBLK
  5
69
330
20
100
AcDbEntity
  8
0
100
AcDbBlockEnd
  0
BLOCK
  5
6A
330
21
100
AcDbEntity
  8
0
100
AcDbBlockBegin
  2
YA3
 70
     0
 10
0.0
 20
0.0
 30
0.0
  3
YA3
  1

  0
SOLID
  5
6B
330
21
100
AcDbEntity
  8
0
100
AcDbTrace
 10
1.0
 20
-0.1666666666666665
 30
0.0
 11
1.0
 21
0.166666666666667
 31
0.0
 12
0.0
 22
0.0
 32
0.0
 13
0.0
 23
0.0
 33
0.0
  0
ENDBLK
  5
6C
330
21
100
AcDbEntity
  8
0
100
AcDbBlockEnd
  0
BLOCK
  5
6D
330
22
100
AcDbEntity
  8
0
100
AcDbBlockBegin
  2
BORDER
 70
     0
 10
0.0
 20
0.0
 30
0.0
  3
BORDER
  1

  0
LINE
  5
6E
330
22
100
AcDbEntity
  8
0
100
AcDbLine
 10
0.0
 20
0.0
 30
0.0
 11
1.00000000000004
 21
0.0
 31
0.0
  0
LINE
  5
6F
330
22
100
AcDbEntity
  8
0
100
AcDbLine
 10
1.00000000000004
 20
0.0
 30
0.0
 11
1.00000000000004
 21
1.00000000000004
 31
0.0
  0
LINE
  5
70
330
22
100
AcDbEntity
  8
0
100
AcDbLine
 10
1.00000000000004
 20
1.00000000000004
 30
0.0
 11
0.0
 21
1.00000000000004
 31
0.0
  0
LINE
  5
71
330
22
100
AcDbEntity
  8
0
100
AcDbLine
 10
0.0
 20
1.00000000000004
 30
0.0
 11
0.0
 21
0.0
 31
0.0
  0
ENDBLK
  5
72
330
22
100
AcDbEntity
  8
0
100
AcDbBlockEnd
  0
BLOCK
  5
2FE
330
2FA
100
AcDbEntity
  8
0
100
AcDbBlockBegin
  2
_CLOSEDBLANK
 70
     0
 10
0.0
 20
0.0
 30
0.0
  3
_CLOSEDBLANK
  1

  0
LINE
  5
2FB
330
2FA
100
AcDbEntity
  8
0
  6
ByBlock
 62
     0
100
AcDbLine
 10
-1.0
 20
0.1666666666666666
 30
0.0
 11
0.0
 21
0.0
 31
0.0
  0
LINE
  5
2FC
330
2FA
100
AcDbEntity
  8
0
  6
ByBlock
 62
     0
100
AcDbLine
 10
0.0
 20
0.0
 30
0.0
 11
-1.0
 21
-0.1666666666666666
 31
0.0
  0
LINE
  5
2FD
330
2FA
100
AcDbEntity
  8
0
  6
ByBlock
 62
     0
100
AcDbLine
 10
-1.0
 20
0.1666666666666666
 30
0.0
 11
-1.0
 21
-0.1666666666666666
 31
0.0
  0
ENDBLK
  5
2FF
330
2FA
100
AcDbEntity
  8
0
100
AcDbBlockEnd
  0
BLOCK
  5
3B7
330
3AD
100
AcDbEntity
  8
0
100
AcDbBlockBegin
  2
*D8
 70
     1
 10
0.0
 20
0.0
 30
0.0
  3
*D8
  1

  0
LINE
  5
8CA
330
3AD
100
AcDbEntity
  8
SUNPOU
370
    -2
100
AcDbLine
 10
231.8160383116016
 20
619.4207975944796
 30
0.0
 11
231.8160383116016
 21
429.9452027216398
 31
0.0
  0
LINE
  5
8CB
330
3AD
100
AcDbEntity
  8
SUNPOU
370
    -2
100
AcDbLine
 10
781.8160383116016
 20
619.4207975944796
 30
0.0
 11
781.8160383116016
 21
429.9452027216398
 31
0.0
  0
LINE
  5
8CC
330
3AD
100
AcDbEntity
  8
SUNPOU
370
    -2
100
AcDbLine
 10
256.8160383116016
 20
429.9452027216398
 30
0.0
 11
756.8160383116016
 21
429.9452027216398
 31
0.0
  0
SOLID
  5
8CD
330
3AD
100
AcDbEntity
  8
SUNPOU
100
AcDbTrace
 10
256.8160383116016
 20
434.1118693883065
 30
0.0
 11
256.8160383116016
 21
425.7785360549731
 31
0.0
 12
231.8160383116016
 22
429.9452027216398
 32
0.0
 13
231.8160383116016
 23
429.9452027216398
 33
0.0
  0
SOLID
  5
8CE
330
3AD
100
AcDbEntity
  8
SUNPOU
100
AcDbTrace
 10
756.8160383116016
 20
434.1118693883065
 30
0.0
 11
756.8160383116016
 21
425.7785360549731
 31
0.0
 12
781.8160383116016
 22
429.9452027216398
 32
0.0
 13
781.8160383116016
 23
429.9452027216398
 33
0.0
  0
MTEXT
  5
8CF
330
3AD
100
AcDbEntity
  8
SUNPOU
100
AcDbMText
 10
506.8160383116016
 20
454.9452027216398
 30
0.0
 40
30.0
 41
0.0
 71
     5
 72
     1
  1
\A1;550
 73
     1
 44
1.0
  0
POINT
  5
8D0
330
3AD
100
AcDbEntity
  8
DEFPOINTS
 62
     0
100
AcDbPoint
 10
231.8160383116016
 20
669.4207975944796
 30
0.0
  0
POINT
  5
8D1
330
3AD
100
AcDbEntity
  8
DEFPOINTS
 62
     0
100
AcDbPoint
 10
781.8160383116016
 20
669.4207975944796
 30
0.0
  0
POINT
  5
8D2
330
3AD
100
AcDbEntity
  8
DEFPOINTS
 62
     0
100
AcDbPoint
 10
781.8160383116016
 20
429.9452027216398
 30
0.0
  0
ENDBLK
  5
3B8
330
3AD
100
AcDbEntity
  8
0
100
AcDbBlockEnd
  0
BLOCK
  5
3C2
330
3B9
100
AcDbEntity
  8
0
100
AcDbBlockBegin
  2
*D9
 70
     1
 10
0.0
 20
0.0
 30
0.0
  3
*D9
  1

  0
LINE
  5
8D3
330
3B9
100
AcDbEntity
  8
SUNPOU
370
    -2
100
AcDbLine
 10
182.128305048203
 20
880.1569943480616
 30
0.0
 11
128.6390212421189
 21
880.1569943480616
 31
0.0
  0
LINE
  5
8D4
330
3B9
100
AcDbEntity
  8
SUNPOU
370
    -2
100
AcDbLine
 10
128.6390212421189
 20
955.1569943480616
 30
0.0
 11
128.6390212421189
 21
905.1569943480616
 31
0.0
  0
SOLID
  5
8D5
330
3B9
100
AcDbEntity
  8
SUNPOU
100
AcDbTrace
 10
124.4723545754522
 20
955.1569943480616
 30
0.0
 11
132.8056879087856
 21
955.1569943480616
 31
0.0
 12
128.6390212421189
 22
980.1569943480616
 32
0.0
 13
128.6390212421189
 23
980.1569943480616
 33
0.0
  0
SOLID
  5
8D6
330
3B9
100
AcDbEntity
  8
SUNPOU
100
AcDbTrace
 10
124.4723545754522
 20
905.1569943480616
 30
0.0
 11
132.8056879087856
 21
905.1569943480616
 31
0.0
 12
128.6390212421189
 22
880.1569943480616
 32
0.0
 13
128.6390212421189
 23
880.1569943480616
 33
0.0
  0
MTEXT
  5
8D7
330
3B9
100
AcDbEntity
  8
SUNPOU
100
AcDbMText
 10
103.6390212421188
 20
930.1569943480616
 30
0.0
 40
30.0
 41
0.0
 71
     5
 72
     1
  1
\A1;100
 11
0.0000000000000001
 21
1.0
 31
0.0
 73
     1
 44
1.0
  0
POINT
  5
8D8
330
3B9
100
AcDbEntity
  8
DEFPOINTS
 62
     0
100
AcDbPoint
 10
227.3525437252553
 20
980.1569943480616
 30
0.0
  0
POINT
  5
8D9
330
3B9
100
AcDbEntity
  8
DEFPOINTS
 62
     0
100
AcDbPoint
 10
232.1283050482031
 20
880.1569943480616
 30
0.0
  0
POINT
  5
8DA
330
3B9
100
AcDbEntity
  8
DEFPOINTS
 62
     0
100
AcDbPoint
 10
128.6390212421189
 20
880.1569943480616
 30
0.0
  0
ENDBLK
  5
3C3
330
3B9
100
AcDbEntity
  8
0
100
AcDbBlockEnd
  0
BLOCK
  5
3CD
330
3C4
100
AcDbEntity
  8
0
100
AcDbBlockBegin
  2
*D10
 70
     1
 10
0.0
 20
0.0
 30
0.0
  3
*D10
  1

  0
LINE
  5
8DB
330
3C4
100
AcDbEntity
  8
SUNPOU
370
    -2
100
AcDbLine
 10
182.128305048203
 20
720.1569943480617
 30
0.0
 11
128.6390212421189
 21
720.1569943480617
 31
0.0
  0
LINE
  5
8DC
330
3C4
100
AcDbEntity
  8
SUNPOU
370
    -2
100
AcDbLine
 10
128.6390212421189
 20
855.1569943480616
 30
0.0
 11
128.6390212421189
 21
745.1569943480617
 31
0.0
  0
SOLID
  5
8DD
330
3C4
100
AcDbEntity
  8
SUNPOU
100
AcDbTrace
 10
124.4723545754522
 20
855.1569943480616
 30
0.0
 11
132.8056879087856
 21
855.1569943480616
 31
0.0
 12
128.6390212421189
 22
880.1569943480616
 32
0.0
 13
128.6390212421189
 23
880.1569943480616
 33
0.0
  0
SOLID
  5
8DE
330
3C4
100
AcDbEntity
  8
SUNPOU
100
AcDbTrace
 10
124.4723545754522
 20
745.1569943480617
 30
0.0
 11
132.8056879087856
 21
745.1569943480617
 31
0.0
 12
128.6390212421189
 22
720.1569943480617
 32
0.0
 13
128.6390212421189
 23
720.1569943480617
 33
0.0
  0
MTEXT
  5
8DF
330
3C4
100
AcDbEntity
  8
SUNPOU
100
AcDbMText
 10
103.6390212421188
 20
800.1569943480618
 30
0.0
 40
30.0
 41
0.0
 71
     5
 72
     1
  1
\A1;160
 11
0.0000000000000001
 21
1.0
 31
0.0
 73
     1
 44
1.0
  0
POINT
  5
8E0
330
3C4
100
AcDbEntity
  8
DEFPOINTS
 62
     0
100
AcDbPoint
 10
232.1283050482031
 20
880.1569943480616
 30
0.0
  0
POINT
  5
8E1
330
3C4
100
AcDbEntity
  8
DEFPOINTS
 62
     0
100
AcDbPoint
 10
232.1283050482031
 20
720.1569943480617
 30
0.0
  0
POINT
  5
8E2
330
3C4
100
AcDbEntity
  8
DEFPOINTS
 62
     0
100
AcDbPoint
 10
128.6390212421189
 20
720.1569943480617
 30
0.0
  0
ENDBLK
  5
3CE
330
3C4
100
AcDbEntity
  8
0
100
AcDbBlockEnd
  0
BLOCK
  5
3D9
330
3CF
100
AcDbEntity
  8
0
100
AcDbBlockBegin
  2
*D11
 70
     1
 10
0.0
 20
0.0
 30
0.0
  3
*D11
  1

  0
LINE
  5
8E3
330
3CF
100
AcDbEntity
  8
SUNPOU
370
    -2
100
AcDbLine
 10
177.3525437252552
 20
980.1569943480616
 30
0.0
 11
65.14172165772625
 21
980.1569943480616
 31
0.0
  0
LINE
  5
8E4
330
3CF
100
AcDbEntity
  8
SUNPOU
370
    -2
100
AcDbLine
 10
182.128305048203
 20
620.1569943480617
 30
0.0
 11
65.14172165772618
 21
620.1569943480617
 31
0.0
  0
LINE
  5
8E5
330
3CF
100
AcDbEntity
  8
SUNPOU
370
    -2
100
AcDbLine
 10
65.14172165772625
 20
955.1569943480616
 30
0.0
 11
65.14172165772618
 21
645.1569943480617
 31
0.0
  0
SOLID
  5
8E6
330
3CF
100
AcDbEntity
  8
SUNPOU
100
AcDbTrace
 10
60.97505499105959
 20
955.1569943480616
 30
0.0
 11
69.30838832439292
 21
955.1569943480616
 31
0.0
 12
65.14172165772625
 22
980.1569943480616
 32
0.0
 13
65.14172165772625
 23
980.1569943480616
 33
0.0
  0
SOLID
  5
8E7
330
3CF
100
AcDbEntity
  8
SUNPOU
100
AcDbTrace
 10
60.97505499105952
 20
645.1569943480617
 30
0.0
 11
69.30838832439285
 21
645.1569943480617
 31
0.0
 12
65.14172165772618
 22
620.1569943480617
 32
0.0
 13
65.14172165772618
 23
620.1569943480617
 33
0.0
  0
MTEXT
  5
8E8
330
3CF
100
AcDbEntity
  8
SUNPOU
100
AcDbMText
 10
40.14172165772609
 20
800.1569943480618
 30
0.0
 40
30.0
 41
0.0
 71
     5
 72
     1
  1
\A1;360
 11
0.0000000000000001
 21
1.0
 31
0.0
 73
     1
 44
1.0
  0
POINT
  5
8E9
330
3CF
100
AcDbEntity
  8
DEFPOINTS
 62
     0
100
AcDbPoint
 10
227.3525437252553
 20
980.1569943480616
 30
0.0
  0
POINT
  5
8EA
330
3CF
100
AcDbEntity
  8
DEFPOINTS
 62
     0
100
AcDbPoint
 10
232.1283050482031
 20
620.1569943480617
 30
0.0
  0
POINT
  5
8EB
330
3CF
100
AcDbEntity
  8
DEFPOINTS
 62
     0
100
AcDbPoint
 10
65.14172165772618
 20
620.1569943480617
 30
0.0
  0
ENDBLK
  5
3DA
330
3CF
100
AcDbEntity
  8
0
100
AcDbBlockEnd
  0
BLOCK
  5
3E4
330
3DB
100
AcDbEntity
  8
0
100
AcDbBlockBegin
  2
*D12
 70
     1
 10
0.0
 20
0.0
 30
0.0
  3
*D12
  1

  0
LINE
  5
8EC
330
3DB
100
AcDbEntity
  8
SUNPOU
370
    -2
100
AcDbLine
 10
182.128305048203
 20
620.1569943480617
 30
0.0
 11
128.6390212421189
 21
620.1569943480617
 31
0.0
  0
LINE
  5
8ED
330
3DB
100
AcDbEntity
  8
SUNPOU
370
    -2
100
AcDbLine
 10
128.6390212421189
 20
695.1569943480617
 30
0.0
 11
128.6390212421189
 21
645.1569943480617
 31
0.0
  0
SOLID
  5
8EE
330
3DB
100
AcDbEntity
  8
SUNPOU
100
AcDbTrace
 10
124.4723545754522
 20
695.1569943480617
 30
0.0
 11
132.8056879087856
 21
695.1569943480617
 31
0.0
 12
128.6390212421189
 22
720.1569943480617
 32
0.0
 13
128.6390212421189
 23
720.1569943480617
 33
0.0
  0
SOLID
  5
8EF
330
3DB
100
AcDbEntity
  8
SUNPOU
100
AcDbTrace
 10
124.4723545754522
 20
645.1569943480617
 30
0.0
 11
132.8056879087856
 21
645.1569943480617
 31
0.0
 12
128.6390212421189
 22
620.1569943480617
 32
0.0
 13
128.6390212421189
 23
620.1569943480617
 33
0.0
  0
MTEXT
  5
8F0
330
3DB
100
AcDbEntity
  8
SUNPOU
100
AcDbMText
 10
103.6390212421188
 20
670.1569943480617
 30
0.0
 40
30.0
 41
0.0
 71
     5
 72
     1
  1
\A1;100
 11
0.0000000000000001
 21
1.0
 31
0.0
 73
     1
 44
1.0
  0
POINT
  5
8F1
330
3DB
100
AcDbEntity
  8
DEFPOINTS
 62
     0
100
AcDbPoint
 10
232.1283050482031
 20
720.1569943480617
 30
0.0
  0
POINT
  5
8F2
330
3DB
100
AcDbEntity
  8
DEFPOINTS
 62
     0
100
AcDbPoint
 10
232.1283050482031
 20
620.1569943480617
 30
0.0
  0
POINT
  5
8F3
330
3DB
100
AcDbEntity
  8
DEFPOINTS
 62
     0
100
AcDbPoint
 10
128.6390212421189
 20
620.1569943480617
 30
0.0
  0
ENDBLK
  5
3E5
330
3DB
100
AcDbEntity
  8
0
100
AcDbBlockEnd
  0
BLOCK
  5
3F0
330
3E6
100
AcDbEntity
  8
0
100
AcDbBlockBegin
  2
*D13
 70
     1
 10
0.0
 20
0.0
 30
0.0
  3
*D13
  1

  0
LINE
  5
8F4
330
3E6
100
AcDbEntity
  8
SUNPOU
370
    -2
100
AcDbLine
 10
376.8160383116016
 20
600.8151501101155
 30
0.0
 11
376.8160383116016
 21
513.6293224767509
 31
0.0
  0
LINE
  5
8F5
330
3E6
100
AcDbEntity
  8
SUNPOU
370
    -2
100
AcDbLine
 10
636.8160383116015
 20
600.8151501101155
 30
0.0
 11
636.8160383116015
 21
513.6293224767509
 31
0.0
  0
LINE
  5
8F6
330
3E6
100
AcDbEntity
  8
SUNPOU
370
    -2
100
AcDbLine
 10
401.8160383116016
 20
513.6293224767509
 30
0.0
 11
611.8160383116015
 21
513.6293224767509
 31
0.0
  0
SOLID
  5
8F7
330
3E6
100
AcDbEntity
  8
SUNPOU
100
AcDbTrace
 10
401.8160383116016
 20
517.7959891434176
 30
0.0
 11
401.8160383116016
 21
509.4626558100842
 31
0.0
 12
376.8160383116016
 22
513.6293224767509
 32
0.0
 13
376.8160383116016
 23
513.6293224767509
 33
0.0
  0
SOLID
  5
8F8
330
3E6
100
AcDbEntity
  8
SUNPOU
100
AcDbTrace
 10
611.8160383116015
 20
517.7959891434176
 30
0.0
 11
611.8160383116015
 21
509.4626558100842
 31
0.0
 12
636.8160383116015
 22
513.6293224767509
 32
0.0
 13
636.8160383116015
 23
513.6293224767509
 33
0.0
  0
MTEXT
  5
8F9
330
3E6
100
AcDbEntity
  8
SUNPOU
100
AcDbMText
 10
506.8160383116016
 20
538.6293224767509
 30
0.0
 40
30.0
 41
0.0
 71
     5
 72
     1
  1
\A1;260
 73
     1
 44
1.0
  0
POINT
  5
8FA
330
3E6
100
AcDbEntity
  8
DEFPOINTS
 62
     0
100
AcDbPoint
 10
376.8160383116016
 20
650.8151501101155
 30
0.0
  0
POINT
  5
8FB
330
3E6
100
AcDbEntity
  8
DEFPOINTS
 62
     0
100
AcDbPoint
 10
636.8160383116015
 20
650.8151501101155
 30
0.0
  0
POINT
  5
8FC
330
3E6
100
AcDbEntity
  8
DEFPOINTS
 62
     0
100
AcDbPoint
 10
636.8160383116015
 20
513.6293224767509
 30
0.0
  0
ENDBLK
  5
3F1
330
3E6
100
AcDbEntity
  8
0
100
AcDbBlockEnd
  0
BLOCK
  5
537
330
531
100
AcDbEntity
  8
0
100
AcDbBlockBegin
  2
*D14
 70
     1
 10
0.0
 20
0.0
 30
0.0
  3
*D14
  1

  0
LINE
  5
8FD
330
531
100
AcDbEntity
  8
SUNPOU
 62
     0
370
    -2
100
AcDbLine
 10
398.244609740173
 20
800.1569943480618
 30
0.0
 11
536.8160383116015
 21
800.1569943480618
 31
0.0
  0
MTEXT
  5
8FE
102
{ACAD_XDICTIONARY
360
937
102
}
330
531
100
AcDbEntity
  8
SUNPOU
 62
     0
100
AcDbMText
 10
457.5303240258873
 20
825.1569943480618
 30
0.0
 40
30.0
 41
0.0
 71
     5
 72
     1
  1
\A1;\U+2205100
  7
BIGFONT
 73
     1
 44
1.0
  0
INSERT
  5
8FF
330
531
100
AcDbEntity
  8
SUNPOU
 62
     0
370
    -2
100
AcDbBlockReference
  2
ARROW
 10
556.8160383116016
 20
800.1569943480618
 30
0.0
 41
20.0
 42
20.0
 43
20.0
  0
POINT
  5
900
330
531
100
AcDbEntity
  8
DEFPOINTS
 62
     0
100
AcDbPoint
 10
556.8160383116016
 20
800.1569943480618
 30
0.0
  0
POINT
  5
901
330
531
100
AcDbEntity
  8
DEFPOINTS
 62
     0
100
AcDbPoint
 10
456.8160383116016
 20
800.1569943480618
 30
0.0
  0
ENDBLK
  5
538
330
531
100
AcDbEntity
  8
0
100
AcDbBlockEnd
  0
BLOCK
  5
5E4
330
5DB
100
AcDbEntity
  8
0
100
AcDbBlockBegin
  2
*D15
 70
     1
 10
0.0
 20
0.0
 30
0.0
  3
*D15
  1

  0
LINE
  5
91B
330
5DB
100
AcDbEntity
  8
SUNPOU
370
    -2
100
AcDbLine
 10
2069.862195212261
 20
880.1569943480616
 30
0.0
 11
2016.372911406177
 21
880.1569943480616
 31
0.0
  0
LINE
  5
91C
330
5DB
100
AcDbEntity
  8
SUNPOU
370
    -2
100
AcDbLine
 10
2016.372911406177
 20
955.1569943480616
 30
0.0
 11
2016.372911406177
 21
905.1569943480616
 31
0.0
  0
SOLID
  5
91D
330
5DB
100
AcDbEntity
  8
SUNPOU
100
AcDbTrace
 10
2012.206244739511
 20
955.1569943480616
 30
0.0
 11
2020.539578072844
 21
955.1569943480616
 31
0.0
 12
2016.372911406177
 22
980.1569943480616
 32
0.0
 13
2016.372911406177
 23
980.1569943480616
 33
0.0
  0
SOLID
  5
91E
330
5DB
100
AcDbEntity
  8
SUNPOU
100
AcDbTrace
 10
2012.206244739511
 20
905.1569943480616
 30
0.0
 11
2020.539578072844
 21
905.1569943480616
 31
0.0
 12
2016.372911406177
 22
880.1569943480616
 32
0.0
 13
2016.372911406177
 23
880.1569943480616
 33
0.0
  0
MTEXT
  5
91F
330
5DB
100
AcDbEntity
  8
SUNPOU
100
AcDbMText
 10
1991.372911406177
 20
930.156994348062
 30
0.0
 40
30.0
 41
0.0
 71
     5
 72
     1
  1
\A1;100
 11
0.0000000000000001
 21
1.0
 31
0.0
 73
     1
 44
1.0
  0
POINT
  5
920
330
5DB
100
AcDbEntity
  8
DEFPOINTS
 62
     0
100
AcDbPoint
 10
2115.086433889314
 20
980.1569943480616
 30
0.0
  0
POINT
  5
921
330
5DB
100
AcDbEntity
  8
DEFPOINTS
 62
     0
100
AcDbPoint
 10
2119.862195212261
 20
880.1569943480616
 30
0.0
  0
POINT
  5
922
330
5DB
100
AcDbEntity
  8
DEFPOINTS
 62
     0
100
AcDbPoint
 10
2016.372911406177
 20
880.1569943480616
 30
0.0
  0
ENDBLK
  5
5E5
330
5DB
100
AcDbEntity
  8
0
100
AcDbBlockEnd
  0
BLOCK
  5
5EF
330
5E6
100
AcDbEntity
  8
0
100
AcDbBlockBegin
  2
*D16
 70
     1
 10
0.0
 20
0.0
 30
0.0
  3
*D16
  1

  0
LINE
  5
902
330
5E6
100
AcDbEntity
  8
SUNPOU
370
    -2
100
AcDbLine
 10
2069.862195212261
 20
720.1569943480617
 30
0.0
 11
2016.372911406177
 21
720.1569943480617
 31
0.0
  0
LINE
  5
903
330
5E6
100
AcDbEntity
  8
SUNPOU
370
    -2
100
AcDbLine
 10
2016.372911406177
 20
855.1569943480616
 30
0.0
 11
2016.372911406177
 21
745.1569943480617
 31
0.0
  0
SOLID
  5
904
330
5E6
100
AcDbEntity
  8
SUNPOU
100
AcDbTrace
 10
2012.206244739511
 20
855.1569943480616
 30
0.0
 11
2020.539578072844
 21
855.1569943480616
 31
0.0
 12
2016.372911406177
 22
880.1569943480616
 32
0.0
 13
2016.372911406177
 23
880.1569943480616
 33
0.0
  0
SOLID
  5
905
330
5E6
100
AcDbEntity
  8
SUNPOU
100
AcDbTrace
 10
2012.206244739511
 20
745.1569943480617
 30
0.0
 11
2020.539578072844
 21
745.1569943480617
 31
0.0
 12
2016.372911406177
 22
720.1569943480617
 32
0.0
 13
2016.372911406177
 23
720.1569943480617
 33
0.0
  0
MTEXT
  5
906
330
5E6
100
AcDbEntity
  8
SUNPOU
100
AcDbMText
 10
1991.372911406177
 20
800.1569943480621
 30
0.0
 40
30.0
 41
0.0
 71
     5
 72
     1
  1
\A1;160
 11
0.0000000000000001
 21
1.0
 31
0.0
 73
     1
 44
1.0
  0
POINT
  5
907
330
5E6
100
AcDbEntity
  8
DEFPOINTS
 62
     0
100
AcDbPoint
 10
2119.862195212261
 20
880.1569943480616
 30
0.0
  0
POINT
  5
908
330
5E6
100
AcDbEntity
  8
DEFPOINTS
 62
     0
100
AcDbPoint
 10
2119.862195212261
 20
720.1569943480617
 30
0.0
  0
POINT
  5
909
330
5E6
100
AcDbEntity
  8
DEFPOINTS
 62
     0
100
AcDbPoint
 10
2016.372911406177
 20
720.1569943480617
 30
0.0
  0
ENDBLK
  5
5F0
330
5E6
100
AcDbEntity
  8
0
100
AcDbBlockEnd
  0
BLOCK
  5
5FB
330
5F1
100
AcDbEntity
  8
0
100
AcDbBlockBegin
  2
*D17
 70
     1
 10
0.0
 20
0.0
 30
0.0
  3
*D17
  1

  0
LINE
  5
90A
330
5F1
100
AcDbEntity
  8
SUNPOU
370
    -2
100
AcDbLine
 10
2065.086433889314
 20
980.1569943480616
 30
0.0
 11
1952.875611821784
 21
980.1569943480616
 31
0.0
  0
LINE
  5
90B
330
5F1
100
AcDbEntity
  8
SUNPOU
370
    -2
100
AcDbLine
 10
2069.862195212261
 20
620.1569943480617
 30
0.0
 11
1952.875611821784
 21
620.1569943480617
 31
0.0
  0
LINE
  5
90C
330
5F1
100
AcDbEntity
  8
SUNPOU
370
    -2
100
AcDbLine
 10
1952.875611821784
 20
955.1569943480616
 30
0.0
 11
1952.875611821784
 21
645.1569943480617
 31
0.0
  0
SOLID
  5
90D
330
5F1
100
AcDbEntity
  8
SUNPOU
100
AcDbTrace
 10
1948.708945155118
 20
955.1569943480616
 30
0.0
 11
1957.042278488451
 21
955.1569943480616
 31
0.0
 12
1952.875611821784
 22
980.1569943480616
 32
0.0
 13
1952.875611821784
 23
980.1569943480616
 33
0.0
  0
SOLID
  5
90E
330
5F1
100
AcDbEntity
  8
SUNPOU
100
AcDbTrace
 10
1948.708945155118
 20
645.1569943480617
 30
0.0
 11
1957.042278488451
 21
645.1569943480617
 31
0.0
 12
1952.875611821784
 22
620.1569943480617
 32
0.0
 13
1952.875611821784
 23
620.1569943480617
 33
0.0
  0
MTEXT
  5
90F
330
5F1
100
AcDbEntity
  8
SUNPOU
100
AcDbMText
 10
1927.875611821784
 20
800.1569943480621
 30
0.0
 40
30.0
 41
0.0
 71
     5
 72
     1
  1
\A1;360
 11
0.0000000000000001
 21
1.0
 31
0.0
 73
     1
 44
1.0
  0
POINT
  5
910
330
5F1
100
AcDbEntity
  8
DEFPOINTS
 62
     0
100
AcDbPoint
 10
2115.086433889314
 20
980.1569943480616
 30
0.0
  0
POINT
  5
911
330
5F1
100
AcDbEntity
  8
DEFPOINTS
 62
     0
100
AcDbPoint
 10
2119.862195212261
 20
620.1569943480617
 30
0.0
  0
POINT
  5
912
330
5F1
100
AcDbEntity
  8
DEFPOINTS
 62
     0
100
AcDbPoint
 10
1952.875611821784
 20
620.1569943480617
 30
0.0
  0
ENDBLK
  5
5FC
330
5F1
100
AcDbEntity
  8
0
100
AcDbBlockEnd
  0
BLOCK
  5
606
330
5FD
100
AcDbEntity
  8
0
100
AcDbBlockBegin
  2
*D18
 70
     1
 10
0.0
 20
0.0
 30
0.0
  3
*D18
  1

  0
LINE
  5
913
330
5FD
100
AcDbEntity
  8
SUNPOU
370
    -2
100
AcDbLine
 10
2069.862195212261
 20
620.1569943480617
 30
0.0
 11
2016.372911406177
 21
620.1569943480617
 31
0.0
  0
LINE
  5
914
330
5FD
100
AcDbEntity
  8
SUNPOU
370
    -2
100
AcDbLine
 10
2016.372911406177
 20
695.1569943480617
 30
0.0
 11
2016.372911406177
 21
645.1569943480617
 31
0.0
  0
SOLID
  5
915
330
5FD
100
AcDbEntity
  8
SUNPOU
100
AcDbTrace
 10
2012.206244739511
 20
695.1569943480617
 30
0.0
 11
2020.539578072844
 21
695.1569943480617
 31
0.0
 12
2016.372911406177
 22
720.1569943480617
 32
0.0
 13
2016.372911406177
 23
720.1569943480617
 33
0.0
  0
SOLID
  5
916
330
5FD
100
AcDbEntity
  8
SUNPOU
100
AcDbTrace
 10
2012.206244739511
 20
645.1569943480617
 30
0.0
 11
2020.539578072844
 21
645.1569943480617
 31
0.0
 12
2016.372911406177
 22
620.1569943480617
 32
0.0
 13
2016.372911406177
 23
620.1569943480617
 33
0.0
  0
MTEXT
  5
917
330
5FD
100
AcDbEntity
  8
SUNPOU
100
AcDbMText
 10
1991.372911406177
 20
670.156994348062
 30
0.0
 40
30.0
 41
0.0
 71
     5
 72
     1
  1
\A1;100
 11
0.0000000000000001
 21
1.0
 31
0.0
 73
     1
 44
1.0
  0
POINT
  5
918
330
5FD
100
AcDbEntity
  8
DEFPOINTS
 62
     0
100
AcDbPoint
 10
2119.862195212261
 20
720.1569943480617
 30
0.0
  0
POINT
  5
919
330
5FD
100
AcDbEntity
  8
DEFPOINTS
 62
     0
100
AcDbPoint
 10
2119.862195212261
 20
620.1569943480617
 30
0.0
  0
POINT
  5
91A
330
5FD
100
AcDbEntity
  8
DEFPOINTS
 62
     0
100
AcDbPoint
 10
2016.372911406177
 20
620.1569943480617
 30
0.0
  0
ENDBLK
  5
607
330
5FD
100
AcDbEntity
  8
0
100
AcDbBlockEnd
  0
BLOCK
  5
612
330
608
100
AcDbEntity
  8
0
100
AcDbBlockBegin
  2
*D19
 70
     1
 10
0.0
 20
0.0
 30
0.0
  3
*D19
  1

  0
LINE
  5
923
330
608
100
AcDbEntity
  8
SUNPOU
370
    -2
100
AcDbLine
 10
2109.173181168744
 20
570.1569943480616
 30
0.0
 11
2109.173181168744
 21
482.9711667146971
 31
0.0
  0
LINE
  5
924
330
608
100
AcDbEntity
  8
SUNPOU
370
    -2
100
AcDbLine
 10
2469.173181168744
 20
570.1569943480616
 30
0.0
 11
2469.173181168744
 21
482.9711667146971
 31
0.0
  0
LINE
  5
925
330
608
100
AcDbEntity
  8
SUNPOU
370
    -2
100
AcDbLine
 10
2134.173181168744
 20
482.9711667146971
 30
0.0
 11
2444.173181168745
 21
482.9711667146971
 31
0.0
  0
SOLID
  5
926
330
608
100
AcDbEntity
  8
SUNPOU
100
AcDbTrace
 10
2134.173181168744
 20
487.1378333813638
 30
0.0
 11
2134.173181168744
 21
478.8045000480304
 31
0.0
 12
2109.173181168744
 22
482.9711667146971
 32
0.0
 13
2109.173181168744
 23
482.9711667146971
 33
0.0
  0
SOLID
  5
927
330
608
100
AcDbEntity
  8
SUNPOU
100
AcDbTrace
 10
2444.173181168745
 20
487.1378333813638
 30
0.0
 11
2444.173181168745
 21
478.8045000480304
 31
0.0
 12
2469.173181168744
 22
482.9711667146971
 32
0.0
 13
2469.173181168744
 23
482.9711667146971
 33
0.0
  0
MTEXT
  5
928
330
608
100
AcDbEntity
  8
SUNPOU
100
AcDbMText
 10
2289.173181168744
 20
507.9711667146971
 30
0.0
 40
30.0
 41
0.0
 71
     5
 72
     1
  1
\A1;360
 73
     1
 44
1.0
  0
POINT
  5
929
330
608
100
AcDbEntity
  8
DEFPOINTS
 62
     0
100
AcDbPoint
 10
2109.173181168744
 20
620.1569943480616
 30
0.0
  0
POINT
  5
92A
330
608
100
AcDbEntity
  8
DEFPOINTS
 62
     0
100
AcDbPoint
 10
2469.173181168744
 20
620.1569943480616
 30
0.0
  0
POINT
  5
92B
330
608
100
AcDbEntity
  8
DEFPOINTS
 62
     0
100
AcDbPoint
 10
2469.173181168744
 20
482.9711667146971
 30
0.0
  0
ENDBLK
  5
613
330
608
100
AcDbEntity
  8
0
100
AcDbBlockEnd
  0
BLOCK
  5
61A
330
614
100
AcDbEntity
  8
0
100
AcDbBlockBegin
  2
*D20
 70
     1
 10
0.0
 20
0.0
 30
0.0
  3
*D20
  1

  0
LINE
  5
92C
330
614
100
AcDbEntity
  8
SUNPOU
 62
     0
370
    -2
100
AcDbLine
 10
2397.479889156703
 20
792.5799166229902
 30
0.0
 11
2259.246327645755
 21
802.2506605615678
 31
0.0
  0
MTEXT
  5
92D
102
{ACAD_XDICTIONARY
360
939
102
}
330
614
100
AcDbEntity
  8
SUNPOU
 62
     0
100
AcDbMText
 10
2340.083448086813
 20
821.6564444569341
 30
0.0
 40
30.0
 41
0.0
 71
     5
 72
     1
  1
\A1;\U+2205100
  7
BIGFONT
 11
0.9975617840996234
 21
-0.0697888737835502
 31
0.0
 73
     1
 44
1.0
  0
INSERT
  5
92E
330
614
100
AcDbEntity
  8
SUNPOU
 62
     0
370
    -2
100
AcDbBlockReference
  2
ARROW
 10
2239.295091963763
 20
803.646438037239
 30
0.0
 41
20.0
 42
20.0
 43
20.0
 50
175.9981390792671
  0
POINT
  5
92F
330
614
100
AcDbEntity
  8
DEFPOINTS
 62
     0
100
AcDbPoint
 10
2239.295091963763
 20
803.646438037239
 30
0.0
  0
POINT
  5
930
330
614
100
AcDbEntity
  8
DEFPOINTS
 62
     0
100
AcDbPoint
 10
2339.051270373725
 20
796.6675506588838
 30
0.0
  0
ENDBLK
  5
61B
330
614
100
AcDbEntity
  8
0
100
AcDbBlockEnd
  0
ENDSEC
  0
SECTION
  2
ENTITIES
  0
INSERT
  5
281
330
18
100
AcDbEntity
  8
0
100
AcDbBlockReference
  2
YA_N
 10
6.0
 20
5.0
 30
0.0
  0
TEXT
  5
2B1
330
18
100
AcDbEntity
  8
0
100
AcDbText
 10
905.6939854008842
 20
1509.776886231112
 30
0.0
 40
50.0
  1
S=1/10
  7
BIGFONT
 11
905.6939854008842
 21
1534.776886231112
 31
0.0
100
AcDbText
 73
     2
  0
DIMENSION
  5
37F
330
18
100
AcDbEntity
  8
SUNPOU
100
AcDbDimension
  2
*D8
 10
781.8160383116016
 20
429.9452027216398
 30
0.0
 11
506.8160383116016
 21
454.9452027216398
 31
0.0
 70
    32
 71
     5
 42
550.0
  3
STYLE10
100
AcDbAlignedDimension
 13
231.8160383116016
 23
669.4207975944796
 33
0.0
 14
781.8160383116016
 24
669.4207975944796
 34
0.0
100
AcDbRotatedDimension
1001
ACAD
1000
DSTYLE
1002
{
1070
    41
1040
2.5
1070
    78
1070
     0
1070
   140
1040
3.0
1070
   141
1040
1.0
1070
   176
1070
   256
1070
   177
1070
   256
1070
   178
1070
   256
1070
   271
1070
     0
1070
   272
1070
     0
1070
   279
1070
     1
1070
   284
1070
     1
1070
   288
1070
     1
1002
}
  0
LINE
  5
380
330
18
100
AcDbEntity
  8
0
100
AcDbLine
 10
875.0898788808823
 20
1180.156994348061
 30
0.0
 11
13.4495935605288
 21
1180.156994348061
 31
0.0
  0
LINE
  5
381
330
18
100
AcDbEntity
  8
0
100
AcDbLine
 10
782.5303240258875
 20
980.1569943480616
 30
0.0
 11
231.8160383116016
 21
980.1569943480616
 31
0.0
  0
LINE
  5
382
330
18
100
AcDbEntity
  8
0
100
AcDbLine
 10
636.8160383116015
 20
620.1569943480616
 30
0.0
 11
782.5303240258875
 21
980.1569943480616
 31
0.0
  0
LEADER
  5
383
330
18
100
AcDbEntity
  8
SUNPOU
  6
ByBlock
100
AcDbLeader
  3
STANDARD
 73
     0
 74
     0
 75
     1
 40
45.0
 41
168.0
 76
     3
 10
630.8314374049929
 20
843.9648714572713
 30
0.0
 10
800.1106960876356
 20
533.0379461128359
 30
0.0
 10
825.1106960876356
 20
533.0379461128359
 30
0.0
340
384
1001
ACAD
1000
DSTYLE
1002
{
1070
   341
1005
2FA
1070
    40
1040
10.0
1070
    41
1040
2.5
1070
    42
1040
0.625
1070
    43
1040
3.75
1070
    44
1040
1.25
1070
    73
1070
     0
1070
    74
1070
     0
1070
    77
1070
     1
1070
    78
1070
     8
1070
   140
1040
2.5
1070
   141
1040
2.5
1070
   143
1040
0.0394
1070
   145
1040
1.0
1070
   147
1040
0.625
1070
   171
1070
     4
1070
   172
1070
     1
1070
   173
1070
     1
1070
   176
1070
   256
1070
   177
1070
   256
1070
   178
1070
   256
1070
   271
1070
     0
1070
   272
1070
     0
1070
   273
1070
     8
1070
   274
1070
     4
1070
   343
1005
2FA
1070
   344
1005
2FA
1002
}
  0
MTEXT
  5
384
102
{ACAD_REACTORS
330
383
102
}
330
18
100
AcDbEntity
  8
SUNPOU
  6
ByBlock
100
AcDbMText
 10
831.3606960876356
 20
561.7879461128359
 30
0.0
 40
45.0
 41
0.0
 71
     4
 72
     1
  1
{\Ftxt.shx,bigfont.shx;ﾌｨﾙﾀｰ砂}
 73
     1
 44
1.0
  0
LINE
  5
385
330
18
100
AcDbEntity
  8
0
  6
ByBlock
100
AcDbLine
 10
158.13001137512
 20
1160.156994348062
 30
0.0
 11
198.13001137512
 21
1120.156994348062
 31
0.0
  0
LINE
  5
386
330
18
100
AcDbEntity
  8
0
  6
ByBlock
100
AcDbLine
 10
178.13001137512
 20
1180.156994348061
 30
0.0
 11
98.13001137512095
 21
1100.156994348062
 31
0.0
  0
LINE
  5
387
330
18
100
AcDbEntity
  8
0
  6
ByBlock
100
AcDbLine
 10
138.1300113751195
 20
1140.15699434806
 30
0.0
 11
178.1300113751182
 21
1100.156994348062
 31
0.0
  0
DIMENSION
  5
388
330
18
100
AcDbEntity
  8
SUNPOU
100
AcDbDimension
  2
*D9
 10
128.6390212421189
 20
880.1569943480616
 30
0.0
 11
103.6390212421188
 21
930.1569943480616
 31
0.0
 70
    32
 71
     5
 42
100.0
  3
STYLE10
100
AcDbAlignedDimension
 13
227.3525437252553
 23
980.1569943480616
 33
0.0
 14
232.1283050482031
 24
880.1569943480616
 34
0.0
 50
90.0
100
AcDbRotatedDimension
1001
ACAD
1000
DSTYLE
1002
{
1070
    41
1040
2.5
1070
    75
1070
     1
1070
    78
1070
     0
1070
   140
1040
3.0
1070
   141
1040
1.0
1070
   176
1070
   256
1070
   177
1070
   256
1070
   178
1070
   256
1070
   271
1070
     0
1070
   272
1070
     0
1070
   279
1070
     1
1070
   284
1070
     1
1070
   288
1070
     1
1002
}
  0
DIMENSION
  5
389
330
18
100
AcDbEntity
  8
SUNPOU
100
AcDbDimension
  2
*D10
 10
128.6390212421189
 20
720.1569943480617
 30
0.0
 11
103.6390212421188
 21
800.1569943480618
 31
0.0
 70
    32
 71
     5
 42
160.0
  3
STYLE10
100
AcDbAlignedDimension
 13
232.1283050482031
 23
880.1569943480616
 33
0.0
 14
232.1283050482031
 24
720.1569943480617
 34
0.0
 50
90.0
100
AcDbRotatedDimension
1001
ACAD
1000
DSTYLE
1002
{
1070
    41
1040
2.5
1070
    75
1070
     1
1070
    78
1070
     0
1070
   140
1040
3.0
1070
   141
1040
1.0
1070
   176
1070
   256
1070
   177
1070
   256
1070
   178
1070
   256
1070
   271
1070
     0
1070
   272
1070
     0
1070
   279
1070
     1
1070
   284
1070
     1
1070
   288
1070
     1
1002
}
  0
MTEXT
  5
38A
102
{ACAD_REACTORS
330
38D
102
}
330
18
100
AcDbEntity
  8
SUNPOU
  6
ByBlock
100
AcDbMText
 10
167.1446835436251
 20
538.8001130230549
 30
0.0
 40
45.0
 41
0.0
 71
     6
 72
     1
  1
{\Ftxt.shx,bigfont.shx;透水ｺﾝｸﾘｰﾄ管}
 73
     1
 44
1.0
  0
DIMENSION
  5
38B
330
18
100
AcDbEntity
  8
SUNPOU
100
AcDbDimension
  2
*D11
 10
65.14172165772618
 20
620.1569943480617
 30
0.0
 11
40.14172165772609
 21
800.1569943480618
 31
0.0
 70
    32
 71
     5
 42
360.0
  3
STYLE10
100
AcDbAlignedDimension
 13
227.3525437252553
 23
980.1569943480616
 33
0.0
 14
232.1283050482031
 24
620.1569943480617
 34
0.0
 50
90.0
100
AcDbRotatedDimension
1001
ACAD
1000
DSTYLE
1002
{
1070
    41
1040
2.5
1070
    78
1070
     0
1070
   140
1040
3.0
1070
   141
1040
1.0
1070
   176
1070
   256
1070
   177
1070
   256
1070
   178
1070
   256
1070
   271
1070
     0
1070
   272
1070
     0
1070
   279
1070
     1
1070
   284
1070
     1
1070
   288
1070
     1
1002
}
  0
DIMENSION
  5
38C
330
18
100
AcDbEntity
  8
SUNPOU
100
AcDbDimension
  2
*D12
 10
128.6390212421189
 20
620.1569943480617
 30
0.0
 11
103.6390212421188
 21
670.1569943480617
 31
0.0
 70
    32
 71
     5
 42
100.0
  3
STYLE10
100
AcDbAlignedDimension
 13
232.1283050482031
 23
720.1569943480617
 33
0.0
 14
232.1283050482031
 24
620.1569943480617
 34
0.0
 50
90.0
100
AcDbRotatedDimension
1001
ACAD
1000
DSTYLE
1002
{
1070
    41
1040
2.5
1070
    75
1070
     1
1070
    78
1070
     0
1070
   140
1040
3.0
1070
   141
1040
1.0
1070
   176
1070
   256
1070
   177
1070
   256
1070
   178
1070
   256
1070
   271
1070
     0
1070
   272
1070
     0
1070
   279
1070
     1
1070
   284
1070
     1
1070
   288
1070
     1
1002
}
  0
LEADER
  5
38D
330
18
100
AcDbEntity
  8
SUNPOU
  6
ByBlock
100
AcDbLeader
  3
STANDARD
 73
     0
 75
     1
 40
45.0
 41
312.0
 76
     3
 10
450.0361016504472
 20
742.4851023450655
 30
0.0
 10
198.3946835436251
 20
510.050113023055
 30
0.0
 10
173.3946835436251
 20
510.050113023055
 30
0.0
340
38A
1001
ACAD
1000
DSTYLE
1002
{
1070
   341
1005
2FA
1070
    40
1040
10.0
1070
    41
1040
2.5
1070
    42
1040
0.625
1070
    43
1040
3.75
1070
    44
1040
1.25
1070
    73
1070
     0
1070
    74
1070
     0
1070
    77
1070
     1
1070
    78
1070
     8
1070
   140
1040
2.5
1070
   141
1040
2.5
1070
   143
1040
0.0394
1070
   145
1040
1.0
1070
   147
1040
0.625
1070
   171
1070
     4
1070
   172
1070
     1
1070
   173
1070
     1
1070
   176
1070
   256
1070
   177
1070
   256
1070
   178
1070
   256
1070
   271
1070
     0
1070
   272
1070
     0
1070
   273
1070
     8
1070
   274
1070
     4
1070
   343
1005
2FA
1070
   344
1005
2FA
1002
}
  0
LINE
  5
38E
330
18
100
AcDbEntity
  8
0
  6
ByBlock
100
AcDbLine
 10
98.13001137512003
 20
1180.156994348061
 30
0.0
 11
18.13001137512094
 21
1100.156994348062
 31
0.0
  0
LINE
  5
38F
330
18
100
AcDbEntity
  8
0
  6
ByBlock
100
AcDbLine
 10
138.13001137512
 20
1180.156994348061
 30
0.0
 11
58.13001137512094
 21
1100.156994348062
 31
0.0
  0
LINE
  5
392
330
18
100
AcDbEntity
  8
0
  6
ByBlock
100
AcDbLine
 10
376.8160383116016
 20
620.1569943480616
 30
0.0
 11
636.8160383116013
 21
620.1569943480616
 31
0.0
  0
DIMENSION
  5
393
330
18
100
AcDbEntity
  8
SUNPOU
100
AcDbDimension
  2
*D13
 10
636.8160383116015
 20
513.6293224767509
 30
0.0
 11
506.8160383116016
 21
538.6293224767509
 31
0.0
 70
    32
 71
     5
 42
260.0
  3
STYLE10
100
AcDbAlignedDimension
 13
376.8160383116016
 23
650.8151501101155
 33
0.0
 14
636.8160383116015
 24
650.8151501101155
 34
0.0
100
AcDbRotatedDimension
1001
ACAD
1000
DSTYLE
1002
{
1070
    41
1040
2.5
1070
    78
1070
     0
1070
   140
1040
3.0
1070
   141
1040
1.0
1070
   176
1070
   256
1070
   177
1070
   256
1070
   178
1070
   256
1070
   271
1070
     0
1070
   272
1070
     0
1070
   279
1070
     1
1070
   284
1070
     1
1070
   288
1070
     1
1002
}
  0
LINE
  5
394
330
18
100
AcDbEntity
  8
0
100
AcDbLine
 10
231.1017525973158
 20
980.1569943480616
 30
0.0
 11
376.8160383116016
 21
620.1569943480617
 31
0.0
  0
LINE
  5
395
330
18
100
AcDbEntity
  8
0
  6
ByBlock
100
AcDbLine
 10
318.13001137512
 20
1160.156994348061
 30
0.0
 11
378.1300113751207
 21
1100.156994348063
 31
0.0
  0
LINE
  5
396
330
18
100
AcDbEntity
  8
0
  6
ByBlock
100
AcDbLine
 10
298.1300113751191
 20
1140.156994348062
 30
0.0
 11
338.13001137512
 21
1100.156994348062
 31
0.0
  0
LINE
  5
397
330
18
100
AcDbEntity
  8
0
  6
ByBlock
100
AcDbLine
 10
338.13001137512
 20
1180.156994348061
 30
0.0
 11
258.1300113751205
 21
1100.156994348062
 31
0.0
  0
LINE
  5
398
330
18
100
AcDbEntity
  8
0
  6
ByBlock
100
AcDbLine
 10
258.1300113751201
 20
1180.156994348061
 30
0.0
 11
178.13001137512
 21
1100.156994348062
 31
0.0
  0
LINE
  5
399
330
18
100
AcDbEntity
  8
0
  6
ByBlock
100
AcDbLine
 10
298.1300113751201
 20
1180.156994348061
 30
0.0
 11
218.130011375121
 21
1100.156994348062
 31
0.0
  0
LINE
  5
39A
330
18
100
AcDbEntity
  8
0
  6
ByBlock
100
AcDbLine
 10
178.13001137512
 20
1180.156994348061
 30
0.0
 11
218.1300113751205
 21
1140.156994348062
 31
0.0
  0
LINE
  5
39B
330
18
100
AcDbEntity
  8
0
  6
ByBlock
100
AcDbLine
 10
338.13001137512
 20
1180.156994348061
 30
0.0
 11
418.1300113751189
 21
1100.156994348062
 31
0.0
  0
HATCH
  5
39C
330
18
100
AcDbEntity
  8
SAISEKI
  6
ByBlock
100
AcDbHatch
 10
0.0
 20
0.0
 30
0.0
210
0.0
220
0.0
230
1.0
  2
HONEY
 70
     0
 71
     0
 91
        3
 92
        7
 72
     1
 73
     1
 93
        6
 10
469.8445690087452
 20
833.8187004484352
 42
0.0
 10
443.1698236199132
 20
848.6251215598649
 42
0.1641601926305441
 10
426.8160383116016
 20
800.1569943480618
 42
0.2650397338954836
 10
466.0655874018868
 20
731.3136885685244
 42
0.0
 10
481.061756507862
 20
757.3000582842978
 42
-0.2632631951182127
 10
456.8160383116016
 20
800.1569943480618
 42
-0.186770863490451
 97
        0
 92
        7
 72
     1
 73
     1
 93
        4
 10
586.3204954597346
 20
791.2664772888201
 42
0.0
 10
553.2924738081797
 20
781.7195068963401
 42
-0.1103901407522419
 10
541.0204432181541
 20
763.6870247156557
 42
0.0
 10
549.1108803476524
 20
732.2515723469759
 42
0.2295025742660036
 97
        0
 92
        7
 72
     1
 73
     1
 93
        6
 10
573.5831078058068
 20
844.2269209551705
 42
0.0
 10
552.1567774758978
 20
821.2334592327433
 42
-0.1092139191272432
 10
556.8160383116016
 20
800.1569943480618
 42
-0.0946974625036793
 10
553.2924738081797
 20
781.7195068963401
 42
0.0
 10
586.3204954597346
 20
791.2664772888201
 42
0.0278475684537674
 10
586.8160383116015
 20
800.1569943480618
 42
0.1468959206726408
 97
        0
 75
     0
 76
     1
 52
10.0
 41
60.0
 77
     0
 78
     3
 53
10.0
 43
-2407.106642268387
 44
-3777.923703238903
 45
9.951209227462781
 46
8.350055960444205
 79
     2
 49
7.499999999999992
 49
-14.99999999999998
 53
130.0
 43
-2407.106642268387
 44
-3777.923703238903
 45
-12.20696519849774
 46
4.442972009134786
 79
     2
 49
7.5
 49
-15.0
 53
70.0
 43
-2407.106642268387
 44
-3777.923703238903
 45
-2.255755971034959
 46
12.79302796957899
 79
     2
 49
-14.99999999999998
 49
7.499999999999992
 47
3.856114013252635
 98
        3
 10
441.1277526327872
 20
805.1990846265763
 10
568.4902522224298
 20
758.9257173368678
 10
572.3497111128641
 20
812.9113102031697
  0
CIRCLE
  5
39D
330
18
100
AcDbEntity
  8
0
  6
ByBlock
100
AcDbCircle
 10
506.8160383116016
 20
800.1569943480618
 30
0.0
 40
80.0
  0
CIRCLE
  5
39E
330
18
100
AcDbEntity
  8
0
  6
ByBlock
100
AcDbCircle
 10
506.8160383116016
 20
800.1569943480618
 30
0.0
 40
50.0
  0
TEXT
  5
3AB
330
18
100
AcDbEntity
  8
0
 62
     7
100
AcDbText
 10
160.9773654178673
 20
1508.023262060997
 30
0.0
 40
55.0
  1
透水管 K-100 構造図
  7
STYLE1
 72
     4
 11
501.9773654178671
 21
1535.523262060997
 31
0.0
100
AcDbText
  0
DIMENSION
  5
530
330
18
100
AcDbEntity
  8
SUNPOU
100
AcDbDimension
  2
*D14
 10
456.8160383116016
 20
800.1569943480618
 30
0.0
 11
457.5303240258873
 21
800.1569943480618
 31
0.0
 70
   163
 71
     5
 42
100.0
  3
DIA1
100
AcDbDiametricDimension
 15
556.8160383116016
 25
800.1569943480618
 35
0.0
 40
0.0
1001
ACAD
1000
DSTYLE
1002
{
1070
   173
1070
     1
1070
   288
1070
     1
1070
   343
1005
20
1070
   344
1005
20
1002
}
  0
LEADER
  5
5B1
330
18
100
AcDbEntity
  8
SUNPOU
  6
ByBlock
100
AcDbLeader
  3
STANDARD
 73
     0
 75
     1
 40
45.0
 41
312.0
 76
     3
 10
2230.652704834351
 20
765.1129059609306
 30
0.0
 10
2049.267512983142
 20
520.0318243426868
 30
0.0
 10
2024.267512983142
 20
520.0318243426868
 30
0.0
340
5B6
1001
ACAD
1000
DSTYLE
1002
{
1070
   341
1005
2FA
1070
    40
1040
10.0
1070
    41
1040
2.5
1070
    42
1040
0.625
1070
    43
1040
3.75
1070
    44
1040
1.25
1070
    73
1070
     0
1070
    74
1070
     0
1070
    77
1070
     1
1070
    78
1070
     8
1070
   140
1040
2.5
1070
   141
1040
2.5
1070
   143
1040
0.0394
1070
   145
1040
1.0
1070
   147
1040
0.625
1070
   171
1070
     4
1070
   172
1070
     1
1070
   173
1070
     1
1070
   176
1070
   256
1070
   177
1070
   256
1070
   178
1070
   256
1070
   271
1070
     0
1070
   272
1070
     0
1070
   273
1070
     8
1070
   274
1070
     4
1070
   343
1005
2FA
1070
   344
1005
2FA
1002
}
  0
LINE
  5
5B4
102
{ACAD_REACTORS
330
865
102
}
330
18
100
AcDbEntity
  8
0
100
AcDbLine
 10
2469.173181168744
 20
980.1569943480618
 30
0.0
 11
2109.173181168744
 21
980.1569943480616
 31
0.0
  0
MTEXT
  5
5B6
102
{ACAD_REACTORS
330
5B1
102
}
330
18
100
AcDbEntity
  8
SUNPOU
  6
ByBlock
100
AcDbMText
 10
2018.017512983142
 20
548.7818243426868
 30
0.0
 40
45.0
 41
0.0
 71
     6
 72
     1
  1
{\Ftxt.shx,bigfont.shx;透水ｺﾝｸﾘｰﾄ管}
 73
     1
 44
1.0
  0
DIMENSION
  5
5B7
330
18
100
AcDbEntity
  8
SUNPOU
100
AcDbDimension
  2
*D16
 10
2016.372911406177
 20
720.1569943480617
 30
0.0
 11
1991.372911406177
 21
800.1569943480621
 31
0.0
 70
    32
 71
     5
 42
160.0
  3
STYLE10
100
AcDbAlignedDimension
 13
2119.862195212261
 23
880.1569943480616
 33
0.0
 14
2119.862195212261
 24
720.1569943480617
 34
0.0
 50
90.0
100
AcDbRotatedDimension
1001
ACAD
1000
DSTYLE
1002
{
1070
    41
1040
2.5
1070
    75
1070
     1
1070
    78
1070
     0
1070
   140
1040
3.0
1070
   141
1040
1.0
1070
   176
1070
   256
1070
   177
1070
   256
1070
   178
1070
   256
1070
   271
1070
     0
1070
   272
1070
     0
1070
   279
1070
     1
1070
   284
1070
     1
1070
   288
1070
     1
1002
}
  0
DIMENSION
  5
5B8
330
18
100
AcDbEntity
  8
SUNPOU
100
AcDbDimension
  2
*D17
 10
1952.875611821784
 20
620.1569943480617
 30
0.0
 11
1927.875611821784
 21
800.1569943480621
 31
0.0
 70
    32
 71
     5
 42
360.0
  3
STYLE10
100
AcDbAlignedDimension
 13
2115.086433889314
 23
980.1569943480616
 33
0.0
 14
2119.862195212261
 24
620.1569943480617
 34
0.0
 50
90.0
100
AcDbRotatedDimension
1001
ACAD
1000
DSTYLE
1002
{
1070
    41
1040
2.5
1070
    78
1070
     0
1070
   140
1040
3.0
1070
   141
1040
1.0
1070
   176
1070
   256
1070
   177
1070
   256
1070
   178
1070
   256
1070
   271
1070
     0
1070
   272
1070
     0
1070
   279
1070
     1
1070
   284
1070
     1
1070
   288
1070
     1
1002
}
  0
DIMENSION
  5
5B9
330
18
100
AcDbEntity
  8
SUNPOU
100
AcDbDimension
  2
*D18
 10
2016.372911406177
 20
620.1569943480617
 30
0.0
 11
1991.372911406177
 21
670.156994348062
 31
0.0
 70
    32
 71
     5
 42
100.0
  3
STYLE10
100
AcDbAlignedDimension
 13
2119.862195212261
 23
720.1569943480617
 33
0.0
 14
2119.862195212261
 24
620.1569943480617
 34
0.0
 50
90.0
100
AcDbRotatedDimension
1001
ACAD
1000
DSTYLE
1002
{
1070
    41
1040
2.5
1070
    75
1070
     1
1070
    78
1070
     0
1070
   140
1040
3.0
1070
   141
1040
1.0
1070
   176
1070
   256
1070
   177
1070
   256
1070
   178
1070
   256
1070
   271
1070
     0
1070
   272
1070
     0
1070
   279
1070
     1
1070
   284
1070
     1
1070
   288
1070
     1
1002
}
  0
DIMENSION
  5
5BA
330
18
100
AcDbEntity
  8
SUNPOU
100
AcDbDimension
  2
*D15
 10
2016.372911406177
 20
880.1569943480616
 30
0.0
 11
1991.372911406177
 21
930.156994348062
 31
0.0
 70
    32
 71
     5
 42
100.0
  3
STYLE10
100
AcDbAlignedDimension
 13
2115.086433889314
 23
980.1569943480616
 33
0.0
 14
2119.862195212261
 24
880.1569943480616
 34
0.0
 50
90.0
100
AcDbRotatedDimension
1001
ACAD
1000
DSTYLE
1002
{
1070
    41
1040
2.5
1070
    75
1070
     1
1070
    78
1070
     0
1070
   140
1040
3.0
1070
   141
1040
1.0
1070
   176
1070
   256
1070
   177
1070
   256
1070
   178
1070
   256
1070
   271
1070
     0
1070
   272
1070
     0
1070
   279
1070
     1
1070
   284
1070
     1
1070
   288
1070
     1
1002
}
  0
LEADER
  5
5BB
330
18
100
AcDbEntity
  8
SUNPOU
  6
ByBlock
100
AcDbLeader
  3
STANDARD
 73
     0
 74
     0
 75
     1
 40
45.0
 41
168.0
 76
     3
 10
2386.183444249913
 20
758.8982484492771
 30
0.0
 10
2492.260013764373
 20
551.6819008067605
 30
0.0
 10
2517.260013764373
 20
551.6819008067605
 30
0.0
340
5C4
1001
ACAD
1000
DSTYLE
1002
{
1070
   341
1005
2FA
1070
    40
1040
10.0
1070
    41
1040
2.5
1070
    42
1040
0.625
1070
    43
1040
3.75
1070
    44
1040
1.25
1070
    73
1070
     0
1070
    74
1070
     0
1070
    77
1070
     1
1070
    78
1070
     8
1070
   140
1040
2.5
1070
   141
1040
2.5
1070
   143
1040
0.0394
1070
   145
1040
1.0
1070
   147
1040
0.625
1070
   171
1070
     4
1070
   172
1070
     1
1070
   173
1070
     1
1070
   176
1070
   256
1070
   177
1070
   256
1070
   178
1070
   256
1070
   271
1070
     0
1070
   272
1070
     0
1070
   273
1070
     8
1070
   274
1070
     4
1070
   343
1005
2FA
1070
   344
1005
2FA
1002
}
  0
CIRCLE
  5
5BE
330
18
100
AcDbEntity
  8
0
  6
ByBlock
100
AcDbCircle
 10
2289.173181168744
 20
800.1569943480618
 30
0.0
 40
80.0
  0
LINE
  5
5BF
330
18
100
AcDbEntity
  8
0
  6
ByBlock
100
AcDbLine
 10
2109.173181168744
 20
620.1569943480617
 30
0.0
 11
2469.173181168744
 21
620.1569943480615
 31
0.0
  0
DIMENSION
  5
5C0
330
18
100
AcDbEntity
  8
SUNPOU
100
AcDbDimension
  2
*D19
 10
2469.173181168744
 20
482.9711667146971
 30
0.0
 11
2289.173181168744
 21
507.9711667146971
 31
0.0
 70
    32
 71
     5
 42
360.0
  3
STYLE10
100
AcDbAlignedDimension
 13
2109.173181168744
 23
620.1569943480616
 33
0.0
 14
2469.173181168744
 24
620.1569943480616
 34
0.0
100
AcDbRotatedDimension
1001
ACAD
1000
DSTYLE
1002
{
1070
    41
1040
2.5
1070
    78
1070
     0
1070
   140
1040
3.0
1070
   141
1040
1.0
1070
   176
1070
   256
1070
   177
1070
   256
1070
   178
1070
   256
1070
   271
1070
     0
1070
   272
1070
     0
1070
   279
1070
     1
1070
   284
1070
     1
1070
   288
1070
     1
1002
}
  0
HATCH
  5
5C1
330
18
100
AcDbEntity
  8
SAISEKI
  6
ByBlock
100
AcDbHatch
 10
0.0
 20
0.0
 30
0.0
210
0.0
220
0.0
230
1.0
  2
HONEY
 70
     0
 71
     0
 91
        3
 92
        7
 72
     1
 73
     1
 93
        6
 10
2252.201711865888
 20
833.8187004484352
 42
0.0
 10
2225.526966477056
 20
848.6251215598649
 42
0.1641601926305441
 10
2209.173181168744
 20
800.1569943480618
 42
0.2650397338954836
 10
2248.422730259029
 20
731.3136885685244
 42
0.0
 10
2263.418899365005
 20
757.3000582842978
 42
-0.2632631951182127
 10
2239.173181168744
 20
800.1569943480618
 42
-0.186770863490451
 97
        0
 92
        7
 72
     1
 73
     1
 93
        4
 10
2368.677638316877
 20
791.2664772888201
 42
0.0
 10
2335.649616665322
 20
781.7195068963401
 42
-0.1103901407522419
 10
2323.377586075297
 20
763.6870247156557
 42
0.0
 10
2331.468023204795
 20
732.2515723469759
 42
0.2295025742660036
 97
        0
 92
        7
 72
     1
 73
     1
 93
        6
 10
2355.94025066295
 20
844.2269209551705
 42
0.0
 10
2334.513920333041
 20
821.2334592327433
 42
-0.1092139191272432
 10
2339.173181168744
 20
800.1569943480618
 42
-0.0946974625036793
 10
2335.649616665322
 20
781.7195068963401
 42
0.0
 10
2368.677638316877
 20
791.2664772888201
 42
0.0278475684537674
 10
2369.173181168744
 20
800.1569943480618
 42
0.1468959206726408
 97
        0
 75
     0
 76
     1
 52
10.0
 41
60.0
 77
     0
 78
     3
 53
10.0
 43
-624.749499411244
 44
-3777.923703238903
 45
9.951209227462781
 46
8.350055960444205
 79
     2
 49
7.499999999999989
 49
-14.99999999999998
 53
130.0
 43
-624.749499411244
 44
-3777.923703238903
 45
-12.20696519849774
 46
4.442972009134786
 79
     2
 49
7.5
 49
-15.0
 53
70.0
 43
-624.749499411244
 44
-3777.923703238903
 45
-2.255755971034959
 46
12.79302796957899
 79
     2
 49
-14.99999999999998
 49
7.499999999999989
 47
3.856114013252635
 98
        3
 10
2223.48489548993
 20
805.1990846265763
 10
2350.847395079572
 20
758.9257173368678
 10
2354.706853970007
 20
812.9113102031697
  0
CIRCLE
  5
5C2
330
18
100
AcDbEntity
  8
0
  6
ByBlock
100
AcDbCircle
 10
2289.173181168744
 20
800.1569943480618
 30
0.0
 40
50.0
  0
DIMENSION
  5
5C3
330
18
100
AcDbEntity
  8
SUNPOU
100
AcDbDimension
  2
*D20
 10
2339.051270373725
 20
796.6675506588838
 30
0.0
 11
2338.338726242225
 21
796.7173998544435
 31
0.0
 70
   163
 71
     5
 42
100.0
  3
DIA1
100
AcDbDiametricDimension
 15
2239.295091963763
 25
803.646438037239
 35
0.0
 40
0.0
1001
ACAD
1000
DSTYLE
1002
{
1070
   173
1070
     1
1070
   288
1070
     1
1070
   343
1005
20
1070
   344
1005
20
1002
}
  0
MTEXT
  5
5C4
102
{ACAD_REACTORS
330
5BB
102
}
330
18
100
AcDbEntity
  8
SUNPOU
  6
ByBlock
100
AcDbMText
 10
2523.510013764373
 20
580.4319008067604
 30
0.0
 40
45.0
 41
0.0
 71
     4
 72
     1
  1
{\Ftxt.shx,bigfont.shx;ﾌｨﾙﾀｰ砂}
 73
     1
 44
1.0
  0
LINE
  5
5C5
330
18
100
AcDbEntity
  8
0
  6
ByBlock
100
AcDbLine
 10
1979.173181168744
 20
1160.156994348061
 30
0.0
 11
2039.173181168745
 21
1100.156994348063
 31
0.0
  0
LINE
  5
5C6
330
18
100
AcDbEntity
  8
0
  6
ByBlock
100
AcDbLine
 10
1999.173181168744
 20
1180.156994348061
 30
0.0
 11
2079.173181168743
 21
1100.156994348062
 31
0.0
  0
LINE
  5
5C7
102
{ACAD_REACTORS
330
865
102
}
330
18
100
AcDbEntity
  8
0
100
AcDbLine
 10
2656.80692504916
 20
1180.156994348061
 30
0.0
 11
1839.173181168744
 21
1180.156994348061
 31
0.0
  0
TEXT
  5
5C8
330
18
100
AcDbEntity
  8
0
 62
     7
100
AcDbText
 10
1943.33450827501
 20
1508.023262060997
 30
0.0
 40
55.0
  1
透水管 K-100 構造図
  7
STYLE1
 72
     4
 11
2284.33450827501
 21
1535.523262060997
 31
0.0
100
AcDbText
  0
LINE
  5
5C9
330
18
100
AcDbEntity
  8
0
  6
ByBlock
100
AcDbLine
 10
1919.173181168744
 20
1180.156994348061
 30
0.0
 11
1839.173181168744
 21
1100.156994348062
 31
0.0
  0
LINE
  5
5CA
330
18
100
AcDbEntity
  8
0
  6
ByBlock
100
AcDbLine
 10
1959.173181168744
 20
1180.156994348061
 30
0.0
 11
1879.173181168745
 21
1100.156994348062
 31
0.0
  0
LINE
  5
5CB
330
18
100
AcDbEntity
  8
0
  6
ByBlock
100
AcDbLine
 10
2053.805597881599
 20
1180.156994348061
 30
0.0
 11
2093.805597881599
 21
1140.156994348062
 31
0.0
  0
LINE
  5
5CC
330
18
100
AcDbEntity
  8
0
  6
ByBlock
100
AcDbLine
 10
1959.173181168743
 20
1140.156994348062
 30
0.0
 11
1999.173181168744
 21
1100.156994348062
 31
0.0
  0
LINE
  5
5CD
330
18
100
AcDbEntity
  8
0
  6
ByBlock
100
AcDbLine
 10
1999.173181168744
 20
1180.156994348061
 30
0.0
 11
1919.173181168744
 21
1100.156994348062
 31
0.0
  0
TEXT
  5
5CE
330
18
100
AcDbEntity
  8
0
100
AcDbText
 10
2688.051128258027
 20
1509.776886231112
 30
0.0
 40
50.0
  1
S=1/10
  7
BIGFONT
 11
2688.051128258027
 21
1534.776886231112
 31
0.0
100
AcDbText
 73
     2
  0
LEADER
  5
6DD
330
18
100
AcDbEntity
  8
SUNPOU
  6
ByBlock
100
AcDbLeader
  3
STANDARD
 73
     0
 74
     0
 75
     1
 40
45.0
 41
204.0
 76
     3
 10
2386.183444249913
 20
1110.026133215668
 30
0.0
 10
2492.260013764373
 20
902.8097855731516
 30
0.0
 10
2517.260013764373
 20
902.8097855731516
 30
0.0
340
6DE
1001
ACAD
1000
DSTYLE
1002
{
1070
   341
1005
2FA
1070
    40
1040
10.0
1070
    41
1040
2.5
1070
    42
1040
0.625
1070
    43
1040
3.75
1070
    44
1040
1.25
1070
    73
1070
     0
1070
    74
1070
     0
1070
    77
1070
     1
1070
    78
1070
     8
1070
   140
1040
2.5
1070
   141
1040
2.5
1070
   143
1040
0.0394
1070
   145
1040
1.0
1070
   147
1040
0.625
1070
   171
1070
     4
1070
   172
1070
     1
1070
   173
1070
     1
1070
   176
1070
   256
1070
   177
1070
   256
1070
   178
1070
   256
1070
   271
1070
     0
1070
   272
1070
     0
1070
   273
1070
     8
1070
   274
1070
     4
1070
   343
1005
2FA
1070
   344
1005
2FA
1002
}
  0
MTEXT
  5
6DE
102
{ACAD_REACTORS
330
6DD
102
}
330
18
100
AcDbEntity
  8
SUNPOU
  6
ByBlock
100
AcDbMText
 10
2523.510013764373
 20
931.5597855731516
 30
0.0
 40
45.0
 41
0.0
 71
     4
 72
     1
  1
{\Ftxt.shx,bigfont.shx;埋戻し土}
 73
     1
 44
1.0
  0
MTEXT
  5
73C
330
18
100
AcDbEntity
  8
0
100
AcDbMText
 10
685.1056204840289
 20
348.0163437493814
 30
0.0
 40
30.0
 41
372.3
 71
     1
 72
     5
  1
{\C1;製品長 Ｌ＝0.600ｍ}
  7
BIGFONT
 73
     1
 44
1.0
  0
MTEXT
  5
74F
330
18
100
AcDbEntity
  8
0
100
AcDbMText
 10
2467.462763341172
 20
348.0163437493814
 30
0.0
 40
30.0
 41
372.3
 71
     1
 72
     5
  1
{\C1;製品長 Ｌ＝0.600ｍ}
  7
BIGFONT
 73
     1
 44
1.0
  0
LINE
  5
7D4
102
{ACAD_REACTORS
330
865
102
}
330
18
100
AcDbEntity
  8
0
100
AcDbLine
 10
2469.173181168744
 20
620.1569943480615
 30
0.0
 11
2469.173181168744
 21
1180.156994348061
 31
0.0
  0
LINE
  5
7D7
102
{ACAD_REACTORS
330
865
102
}
330
18
100
AcDbEntity
  8
0
100
AcDbLine
 10
2109.173181168744
 20
620.1569943480617
 30
0.0
 11
2109.173181168744
 21
1180.156994348061
 31
0.0
  0
HATCH
  5
865
330
18
100
AcDbEntity
  8
SAISEKI
100
AcDbHatch
 10
0.0
 20
0.0
 30
0.0
210
0.0
220
0.0
230
1.0
  2
ANSI31
 70
     0
 71
     1
 91
        1
 92
        7
 72
     0
 73
     1
 93
        4
 10
2469.173181168744
 20
980.1569943480616
 10
2469.173181168744
 20
1180.156994348061
 10
2109.173181168744
 20
1180.156994348061
 10
2109.173181168744
 20
980.1569943480616
 97
        4
330
5C7
330
7D7
330
5B4
330
7D4
 75
     0
 76
     1
 52
0.0
 41
200.0
 77
     0
 78
     1
 53
45.0
 43
238.5439164539612
 44
0.0
 45
-17.67766952966368
 46
17.67766952966369
 79
     0
 47
2.495427771616385
 98
        1
 10
2195.281145755151
 20
1050.362805831348
1001
ACAD
1010
0.0
1020
0.0
1030
0.0
  0
HATCH
  5
88F
330
18
100
AcDbEntity
  8
SAISEKI
100
AcDbHatch
 10
0.0
 20
0.0
 30
0.0
210
0.0
220
0.0
230
1.0
  2
AR-SAND
 70
     0
 71
     0
 91
        3
 92
        7
 72
     1
 73
     1
 93
        6
 10
569.9523886392494
 20
980.1569943480616
 42
0.0
 10
231.1017525973158
 20
980.1569943480618
 42
0.0
 10
318.8127911936103
 20
763.4591342866283
 42
0.0
 10
428.2979137171289
 20
784.8304125319202
 42
-0.0482308534977569
 10
426.8160383116016
 20
800.1569943480618
 42
-0.5168498648885915
 10
533.2950100917665
 20
875.6478153362138
 42
0.0
 97
        0
 92
        7
 72
     1
 73
     1
 93
        5
 10
706.4352238114659
 20
792.1573349947854
 42
0.0
 10
586.7518766346419
 20
796.9535974646328
 42
-0.4537339585503286
 10
493.0389956448671
 20
721.3522159690892
 42
0.0
 10
475.3475445092777
 20
620.1569943480616
 42
0.0
 10
636.8160383116014
 20
620.1569943480615
 42
0.0
 97
        0
 92
       24
 93
        4
 72
     1
 10
400.744609740173
 20
847.6569943480617
 11
514.3160383116016
 21
847.6569943480617
 72
     1
 10
514.3160383116016
 20
847.6569943480617
 11
514.3160383116016
 21
802.6569943480618
 72
     1
 10
514.3160383116016
 20
802.6569943480618
 11
400.744609740173
 21
802.6569943480618
 72
     1
 10
400.744609740173
 20
802.6569943480618
 11
400.744609740173
 21
847.6569943480617
 97
        0
 75
     0
 76
     1
 52
0.0
 41
20.0
 77
     0
 78
     4
 53
37.5
 43
-314.0107923115505
 44
0.0
 45
-1.259867162192163
 46
38.53647538026317
 79
     6
 49
0.0
 49
-30.4
 49
0.0
 49
-34.0
 49
0.0
 49
-32.5
 53
7.499999999999999
 43
-314.0107923115505
 44
0.0
 45
35.39553410535454
 46
56.4429213045948
 79
     6
 49
0.0
 49
-16.4
 49
0.0
 49
-27.4
 49
0.0
 49
-10.5
 53
327.5
 43
-338.6107923115505
 44
0.0
 45
62.2828372350299
 46
0.11318107073929
 79
     6
 49
0.0
 49
-10.0
 49
0.0
 49
-36.0
 49
0.0
 49
-47.0
 53
317.5
 43
-338.6107923115505
 44
0.0
 45
60.12253209144586
 46
17.55351129868498
 79
     6
 49
0.0
 49
-5.0
 49
0.0
 49
-23.6
 49
0.0
 49
-27.0
 47
2.495427771616385
 98
        2
 10
304.4661676448901
 20
900.6371395576817
 10
569.1221195700988
 20
656.0852157475141
1001
ACAD
1010
0.0
1020
0.0
1030
0.0
  0
HATCH
  5
8A9
330
18
100
AcDbEntity
  8
SAISEKI
100
AcDbHatch
 10
0.0
 20
0.0
 30
0.0
210
0.0
220
0.0
230
1.0
  2
AR-SAND
 70
     0
 71
     0
 91
        2
 92
        7
 72
     1
 73
     1
 93
        6
 10
2307.24936981144
 20
980.1569943480616
 42
0.0
 10
2109.173181168744
 20
980.1569943480616
 42
0.0
 10
2109.173181168744
 20
760.9213600008413
 42
0.0
 10
2211.008567093149
 20
783.1190042549414
 42
-0.0537062178295056
 10
2209.173181168744
 20
800.1569943480618
 42
-0.4438418388062089
 10
2297.166836561038
 20
879.7566267182508
 42
0.0
 97
        0
 92
        7
 72
     1
 73
     1
 93
        5
 10
2469.173181168744
 20
790.174995428163
 42
0.0
 10
2369.050451451931
 20
795.7273564275549
 42
-0.4632237092038246
 10
2271.73142350848
 20
722.0814854498123
 42
0.0
 10
2248.961898230594
 20
620.1569943480616
 42
0.0
 10
2469.173181168744
 20
620.1569943480615
 42
0.0
 97
        0
 75
     0
 76
     1
 52
0.0
 41
20.0
 77
     0
 78
     4
 53
37.5
 43
238.5439164539612
 44
0.0
 45
-1.259867162192163
 46
38.53647538026317
 79
     6
 49
0.0
 49
-30.4
 49
0.0
 49
-34.0
 49
0.0
 49
-32.5
 53
7.499999999999999
 43
238.5439164539612
 44
0.0
 45
35.39553410535454
 46
56.4429213045948
 79
     6
 49
0.0
 49
-16.4
 49
0.0
 49
-27.4
 49
0.0
 49
-10.5
 53
327.5
 43
213.9439164539612
 44
0.0
 45
62.2828372350299
 46
0.11318107073929
 79
     6
 49
0.0
 49
-10.0
 49
0.0
 49
-36.0
 49
0.0
 49
-47.0
 53
317.5
 43
213.9439164539612
 44
0.0
 45
60.12253209144586
 46
17.55351129868498
 79
     6
 49
0.0
 49
-5.0
 49
0.0
 49
-23.6
 49
0.0
 49
-27.0
 47
2.495427771616385
 98
        2
 10
2127.868781474048
 20
883.1691465087306
 10
2360.066929028233
 20
676.0486383867774
1001
ACAD
1010
0.0
1020
0.0
1030
0.0
  0
LWPOLYLINE
  5
8BB
330
18
100
AcDbEntity
  8
KL
  6
ByBlock
 62
     0
 48
2.0
100
AcDbPolyline
 90
        4
 70
     1
 43
0.0
 10
-383.826818831255
 20
2214.279476140893
 10
3180.173181168744
 20
2214.279476140891
 10
3180.173181168743
 20
-305.72052385911
 10
-383.8268188312572
 20
-305.7205238591068
  0
LINE
  5
8C6
330
18
100
AcDbEntity
  8
DEFPOINTS
100
AcDbLine
 10
507.1731811687445
 20
980.1569943480616
 30
0.0
 11
507.1731811687445
 21
980.1569943480616
 31
0.0
  0
ENDSEC
  0
SECTION
  2
OBJECTS
  0
DICTIONARY
  5
C
330
0
100
AcDbDictionary
281
     1
  3
ACAD_COLOR
350
77C
  3
ACAD_GROUP
350
D
  3
ACAD_LAYOUT
350
2D0
  3
ACAD_MATERIAL
350
752
  3
ACAD_MLEADERSTYLE
350
7A1
  3
ACAD_MLINESTYLE
350
E
  3
ACAD_PLOTSETTINGS
350
2D1
  3
ACAD_PLOTSTYLENAME
350
2CE
  3
ACAD_SCALELIST
350
77F
  3
ACAD_TABLESTYLE
350
77D
  3
ACAD_VISUALSTYLE
350
76B
  3
ACDB_RECOMPOSE_DATA
350
7CB
  3
AcDbVariableDictionary
350
2D8
  0
DICTIONARY
  5
7A8
330
F
100
AcDbDictionary
280
     1
281
     1
  3
ADSK_XREC_LAYER_RECONCILED
360
7A9
  0
DICTIONARY
  5
7AA
330
49
100
AcDbDictionary
280
     1
281
     1
  3
ADSK_XREC_LAYER_RECONCILED
360
7AB
  0
DICTIONARY
  5
7AC
330
4D
100
AcDbDictionary
280
     1
281
     1
  3
ADSK_XREC_LAYER_RECONCILED
360
7AD
  0
DICTIONARY
  5
7AE
330
4F
100
AcDbDictionary
280
     1
281
     1
  3
ADSK_XREC_LAYER_RECONCILED
360
7AF
  0
DICTIONARY
  5
8B3
330
8B2
100
AcDbDictionary
280
     1
281
     1
  0
DICTIONARY
  5
7D5
330
18
100
AcDbDictionary
280
     1
281
     1
  3
ACAD_SORTENTS
360
7D6
  0
DICTIONARY
  5
937
330
8FE
100
AcDbDictionary
280
     1
281
     1
  3
ACAD_MTEXT_2008_RT
360
938
  0
DICTIONARY
  5
939
330
92D
100
AcDbDictionary
280
     1
281
     1
  3
ACAD_MTEXT_2008_RT
360
93A
  0
DICTIONARY
  5
77C
102
{ACAD_REACTORS
330
C
102
}
330
C
100
AcDbDictionary
281
     1
  0
DICTIONARY
  5
D
102
{ACAD_REACTORS
330
C
102
}
330
C
100
AcDbDictionary
281
     1
  0
DICTIONARY
  5
2D0
102
{ACAD_REACTORS
330
C
102
}
330
C
100
AcDbDictionary
281
     1
  3
Model
350
2D2
  3
ﾚｲｱｳﾄ1
350
2D3
  0
DICTIONARY
  5
752
102
{ACAD_REACTORS
330
C
102
}
330
C
100
AcDbDictionary
281
     1
  3
ByBlock
350
75B
  3
ByLayer
350
753
  3
Global
350
763
  0
DICTIONARY
  5
7A1
102
{ACAD_REACTORS
330
C
102
}
330
C
100
AcDbDictionary
281
     1
  3
Standard
350
7A2
  0
DICTIONARY
  5
E
102
{ACAD_REACTORS
330
C
102
}
330
C
100
AcDbDictionary
281
     1
  3
STANDARD
350
1B
  0
DICTIONARY
  5
2D1
102
{ACAD_REACTORS
330
C
102
}
330
C
100
AcDbDictionary
281
     1
  0
ACDBDICTIONARYWDFLT
  5
2CE
102
{ACAD_REACTORS
330
C
102
}
330
C
100
AcDbDictionary
281
     1
  3
Normal
350
2CF
100
AcDbDictionaryWithDefault
340
2CF
  0
DICTIONARY
  5
77F
102
{ACAD_REACTORS
330
C
102
}
330
C
100
AcDbDictionary
281
     1
  3
A0
350
780
  3
A1
350
781
  3
A2
350
782
  3
A3
350
783
  3
A4
350
784
  3
A5
350
785
  3
A6
350
786
  3
A7
350
787
  3
A8
350
788
  3
A9
350
789
  3
B0
350
78A
  3
B1
350
78B
  3
B2
350
78C
  3
B3
350
78D
  3
B4
350
78E
  3
B5
350
78F
  3
B6
350
790
  3
B7
350
791
  3
B8
350
792
  3
B9
350
793
  3
C0
350
794
  3
C1
350
795
  3
C2
350
796
  3
C3
350
797
  3
C4
350
798
  3
C5
350
799
  3
C6
350
79A
  3
C7
350
79B
  3
C8
350
79C
  3
C9
350
79D
  3
D0
350
79E
  3
D1
350
79F
  3
D2
350
7A0
  0
DICTIONARY
  5
77D
102
{ACAD_REACTORS
330
C
102
}
330
C
100
AcDbDictionary
281
     1
  3
Standard
350
77E
  0
DICTIONARY
  5
76B
102
{ACAD_REACTORS
330
C
102
}
330
C
100
AcDbDictionary
281
     1
  3
2dWireframe
350
771
  3
3D Hidden
350
773
  3
3dWireframe
350
772
  3
Basic
350
770
  3
Brighten
350
777
  3
ColorChange
350
77B
  3
Conceptual
350
774
  3
Dim
350
776
  3
Facepattern
350
77A
  3
Flat
350
76C
  3
FlatWithEdges
350
76D
  3
Gouraud
350
76E
  3
GouraudWithEdges
350
76F
  3
Linepattern
350
779
  3
Realistic
350
775
  3
Thicken
350
778
  0
XRECORD
  5
7CB
102
{ACAD_REACTORS
330
C
102
}
330
C
100
AcDbXrecord
280
     1
 90
        1
330
77E
  0
DICTIONARY
  5
2D8
102
{ACAD_REACTORS
330
C
102
}
330
C
100
AcDbDictionary
281
     1
  3
CANNOSCALE
350
7B2
  3
CMLEADERSTYLE
350
7B1
  3
CTABLESTYLE
350
7B0
  3
LIGHTINGUNITS
350
7CD
  3
MSLTSCALE
350
7CC
  3
SORTENTS
350
2D9
  0
XRECORD
  5
7A9
102
{ACAD_REACTORS
330
7A8
102
}
330
7A8
100
AcDbXrecord
280
     1
290
     1
  0
XRECORD
  5
7AB
102
{ACAD_REACTORS
330
7AA
102
}
330
7AA
100
AcDbXrecord
280
     1
290
     1
  0
XRECORD
  5
7AD
102
{ACAD_REACTORS
330
7AC
102
}
330
7AC
100
AcDbXrecord
280
     1
290
     1
  0
XRECORD
  5
7AF
102
{ACAD_REACTORS
330
7AE
102
}
330
7AE
100
AcDbXrecord
280
     1
290
     1
  0
SORTENTSTABLE
  5
7D6
102
{ACAD_REACTORS
330
7D5
102
}
330
7D5
100
AcDbSortentsTable
330
18
331
398
  5
399
331
380
  5
380
331
6DD
  5
854
331
388
  5
389
331
5CD
  5
74F
331
5C5
  5
5CA
331
88F
  5
381
331
39D
  5
39E
331
385
  5
386
331
38D
  5
38E
331
5CA
  5
657
331
395
  5
396
331
5BA
  5
5C0
331
74F
  5
86F
331
5C2
  5
5C7
331
7D4
  5
853
331
39A
  5
39B
331
382
  5
383
331
38A
  5
38B
331
392
  5
393
331
5B7
  5
5BB
331
5BF
  5
5C4
331
5C7
  5
5CC
331
8A9
  5
5B8
331
73C
  5
86E
331
37F
  5
37F
331
387
  5
388
331
38F
  5
392
331
5CC
  5
73C
331
397
  5
398
331
5B4
  5
5B9
331
5C4
  5
5C9
331
39C
  5
39D
331
384
  5
385
331
38C
  5
38D
331
5C9
  5
5CE
331
394
  5
395
331
5B1
  5
5B6
331
5B9
  5
5BF
331
5C1
  5
5C6
331
399
  5
39A
331
381
  5
382
331
389
  5
38A
331
6DE
  5
86D
331
5CE
  5
7D4
331
281
  5
281
331
2B1
  5
2B1
331
5B6
  5
5BA
331
5BE
  5
5C3
331
5C6
  5
5CB
331
39E
  5
3AB
331
386
  5
387
331
38E
  5
38F
331
5CB
  5
6DE
331
396
  5
397
331
865
  5
5B7
331
5BB
  5
5C2
331
5C3
  5
5C8
331
39B
  5
39C
331
3AB
  5
530
331
383
  5
384
331
38B
  5
38C
331
5C8
  5
5CD
331
393
  5
394
331
5B8
  5
5BE
331
5C0
  5
5C5
331
530
  5
5B1
  0
XRECORD
  5
938
102
{ACAD_REACTORS
330
937
102
}
330
937
100
AcDbXrecord
280
     1
 40
5673.0
  1
\A1;\U+2205100
  0
XRECORD
  5
93A
102
{ACAD_REACTORS
330
939
102
}
330
939
100
AcDbXrecord
280
     1
 40
5673.0
  1
\A1;\U+2205100
  0
LAYOUT
  5
2D2
102
{ACAD_REACTORS
330
2D0
102
}
330
2D0
100
AcDbPlotSettings
  1

  2
EPSON LP-8000SX
  4

  6

 40
0.0
 41
0.0
 42
0.0
 43
0.0
 44
0.0
 45
0.0
 46
0.0
 47
0.0
 48
0.0
 49
0.0
140
0.0
141
0.0
142
1.0
143
1.0
 70
  1712
 72
     0
 73
     0
 74
     0
  7

 75
     0
147
1.0
 76
     0
 77
     2
 78
   300
148
0.0
149
0.0
100
AcDbLayout
  1
Model
 70
     1
 71
     0
 10
0.0
 20
0.0
 11
12.0
 21
9.0
 12
0.0
 22
0.0
 32
0.0
 14
0.0
 24
0.0
 34
0.0
 15
0.0
 25
0.0
 35
0.0
146
0.0
 13
0.0
 23
0.0
 33
0.0
 16
1.0
 26
0.0
 36
0.0
 17
0.0
 27
1.0
 37
0.0
 76
     0
330
18
331
750
  0
LAYOUT
  5
2D3
102
{ACAD_REACTORS
330
2D0
102
}
330
2D0
100
AcDbPlotSettings
  1

  2
EPSON LP-8000SX
  4

  6

 40
0.0
 41
0.0
 42
0.0
 43
0.0
 44
0.0
 45
0.0
 46
0.0
 47
0.0
 48
0.0
 49
0.0
140
0.0
141
0.0
142
1.0
143
1.0
 70
   688
 72
     0
 73
     0
 74
     5
  7

 75
    16
147
1.0
 76
     0
 77
     2
 78
   300
148
0.0
149
0.0
100
AcDbLayout
  1
ﾚｲｱｳﾄ1
 70
     1
 71
     1
 10
0.0
 20
0.0
 11
12.0
 21
9.0
 12
0.0
 22
0.0
 32
0.0
 14
1.000000000000000E+20
 24
1.000000000000000E+20
 34
1.000000000000000E+20
 15
-1.000000000000000E+20
 25
-1.000000000000000E+20
 35
-1.000000000000000E+20
146
0.0
 13
0.0
 23
0.0
 33
0.0
 16
1.0
 26
0.0
 36
0.0
 17
0.0
 27
1.0
 37
0.0
 76
     0
330
15
  0
MATERIAL
  5
75B
102
{ACAD_XDICTIONARY
360
75C
102
}
102
{ACAD_REACTORS
330
752
102
}
330
752
100
AcDbMaterial
  1
ByBlock
 72
     0
 43
0.0208333333333333
 43
0.0
 43
0.0
 43
0.0
 43
0.0
 43
0.0208333333333333
 43
0.0
 43
0.0
 43
0.0
 43
0.0
 43
1.0
 43
0.0
 43
0.0
 43
0.0
 43
0.0
 43
1.0
 77
     0
 47
0.0208333333333333
 47
0.0
 47
0.0
 47
0.0
 47
0.0
 47
0.0208333333333333
 47
0.0
 47
0.0
 47
0.0
 47
0.0
 47
1.0
 47
0.0
 47
0.0
 47
0.0
 47
0.0
 47
1.0
171
     0
 49
0.0208333333333333
 49
0.0
 49
0.0
 49
0.0
 49
0.0
 49
0.0208333333333333
 49
0.0
 49
0.0
 49
0.0
 49
0.0
 49
1.0
 49
0.0
 49
0.0
 49
0.0
 49
0.0
 49
1.0
175
     0
142
0.0208333333333333
142
0.0
142
0.0
142
0.0
142
0.0
142
0.0208333333333333
142
0.0
142
0.0
142
0.0
142
0.0
142
1.0
142
0.0
142
0.0
142
0.0
142
0.0
142
1.0
179
     0
144
0.0208333333333333
144
0.0
144
0.0
144
0.0
144
0.0
144
0.0208333333333333
144
0.0
144
0.0
144
0.0
144
0.0
144
1.0
144
0.0
144
0.0
144
0.0
144
0.0
144
1.0
147
0.0208333333333333
147
0.0
147
0.0
147
0.0
147
0.0
147
0.0208333333333333
147
0.0
147
0.0
147
0.0
147
0.0
147
1.0
147
0.0
147
0.0
147
0.0
147
0.0
147
1.0
  0
MATERIAL
  5
753
102
{ACAD_XDICTIONARY
360
754
102
}
102
{ACAD_REACTORS
330
752
102
}
330
752
100
AcDbMaterial
  1
ByLayer
 72
     0
 43
0.0208333333333333
 43
0.0
 43
0.0
 43
0.0
 43
0.0
 43
0.0208333333333333
 43
0.0
 43
0.0
 43
0.0
 43
0.0
 43
1.0
 43
0.0
 43
0.0
 43
0.0
 43
0.0
 43
1.0
 77
     0
 47
0.0208333333333333
 47
0.0
 47
0.0
 47
0.0
 47
0.0
 47
0.0208333333333333
 47
0.0
 47
0.0
 47
0.0
 47
0.0
 47
1.0
 47
0.0
 47
0.0
 47
0.0
 47
0.0
 47
1.0
171
     0
 49
0.0208333333333333
 49
0.0
 49
0.0
 49
0.0
 49
0.0
 49
0.0208333333333333
 49
0.0
 49
0.0
 49
0.0
 49
0.0
 49
1.0
 49
0.0
 49
0.0
 49
0.0
 49
0.0
 49
1.0
175
     0
142
0.0208333333333333
142
0.0
142
0.0
142
0.0
142
0.0
142
0.0208333333333333
142
0.0
142
0.0
142
0.0
142
0.0
142
1.0
142
0.0
142
0.0
142
0.0
142
0.0
142
1.0
179
     0
144
0.0208333333333333
144
0.0
144
0.0
144
0.0
144
0.0
144
0.0208333333333333
144
0.0
144
0.0
144
0.0
144
0.0
144
1.0
144
0.0
144
0.0
144
0.0
144
0.0
144
1.0
147
0.0208333333333333
147
0.0
147
0.0
147
0.0
147
0.0
147
0.0208333333333333
147
0.0
147
0.0
147
0.0
147
0.0
147
1.0
147
0.0
147
0.0
147
0.0
147
0.0
147
1.0
  0
MATERIAL
  5
763
102
{ACAD_XDICTIONARY
360
764
102
}
102
{ACAD_REACTORS
330
752
102
}
330
752
100
AcDbMaterial
  1
Global
 72
     0
 43
0.0208333333333333
 43
0.0
 43
0.0
 43
0.0
 43
0.0
 43
0.0208333333333333
 43
0.0
 43
0.0
 43
0.0
 43
0.0
 43
1.0
 43
0.0
 43
0.0
 43
0.0
 43
0.0
 43
1.0
 77
     0
 47
0.0208333333333333
 47
0.0
 47
0.0
 47
0.0
 47
0.0
 47
0.0208333333333333
 47
0.0
 47
0.0
 47
0.0
 47
0.0
 47
1.0
 47
0.0
 47
0.0
 47
0.0
 47
0.0
 47
1.0
171
     0
 49
0.0208333333333333
 49
0.0
 49
0.0
 49
0.0
 49
0.0
 49
0.0208333333333333
 49
0.0
 49
0.0
 49
0.0
 49
0.0
 49
1.0
 49
0.0
 49
0.0
 49
0.0
 49
0.0
 49
1.0
175
     0
142
0.0208333333333333
142
0.0
142
0.0
142
0.0
142
0.0
142
0.0208333333333333
142
0.0
142
0.0
142
0.0
142
0.0
142
1.0
142
0.0
142
0.0
142
0.0
142
0.0
142
1.0
179
     0
144
0.0208333333333333
144
0.0
144
0.0
144
0.0
144
0.0
144
0.0208333333333333
144
0.0
144
0.0
144
0.0
144
0.0
144
1.0
144
0.0
144
0.0
144
0.0
144
0.0
144
1.0
147
0.0208333333333333
147
0.0
147
0.0
147
0.0
147
0.0
147
0.0208333333333333
147
0.0
147
0.0
147
0.0
147
0.0
147
1.0
147
0.0
147
0.0
147
0.0
147
0.0
147
1.0
  0
MLEADERSTYLE
  5
7A2
102
{ACAD_REACTORS
330
7A1
102
}
330
7A1
100
AcDbMLeaderStyle
170
     2
171
     1
172
     0
 90
        2
 40
0.0
 41
0.0
173
     1
 91
-1056964608
340
12
 92
       -2
290
     1
 42
0.09
291
     1
 43
0.36
  3
Standard
 44
0.18
300

342
10
174
     1
178
     6
175
     1
176
     0
 93
-1056964608
 45
0.18
292
     0
297
     0
 46
0.18
 94
-1056964608
 47
1.0
 49
1.0
140
1.0
293
     1
141
0.0
294
     1
177
     0
142
1.0
295
     0
296
     0
143
0.125
1001
ACAD_MLEADERVER
1070
     2
  0
MLINESTYLE
  5
1B
102
{ACAD_REACTORS
330
E
102
}
330
E
100
AcDbMlineStyle
  2
STANDARD
 70
     0
  3

 62
     0
 51
90.0
 52
90.0
 71
     2
 49
0.5
 62
   256
  6
BYLAYER
 49
-0.5
 62
   256
  6
BYLAYER
  0
ACDBPLACEHOLDER
  5
2CF
102
{ACAD_REACTORS
330
2CE
102
}
330
2CE
  0
SCALE
  5
780
102
{ACAD_REACTORS
330
77F
102
}
330
77F
100
AcDbScale
 70
     0
300
1:1
140
1.0
141
1.0
290
     1
  0
SCALE
  5
781
102
{ACAD_REACTORS
330
77F
102
}
330
77F
100
AcDbScale
 70
     0
300
1:2
140
1.0
141
2.0
290
     0
  0
SCALE
  5
782
102
{ACAD_REACTORS
330
77F
102
}
330
77F
100
AcDbScale
 70
     0
300
1:4
140
1.0
141
4.0
290
     0
  0
SCALE
  5
783
102
{ACAD_REACTORS
330
77F
102
}
330
77F
100
AcDbScale
 70
     0
300
1:5
140
1.0
141
5.0
290
     0
  0
SCALE
  5
784
102
{ACAD_REACTORS
330
77F
102
}
330
77F
100
AcDbScale
 70
     0
300
1:8
140
1.0
141
8.0
290
     0
  0
SCALE
  5
785
102
{ACAD_REACTORS
330
77F
102
}
330
77F
100
AcDbScale
 70
     0
300
1:10
140
1.0
141
10.0
290
     0
  0
SCALE
  5
786
102
{ACAD_REACTORS
330
77F
102
}
330
77F
100
AcDbScale
 70
     0
300
1:16
140
1.0
141
16.0
290
     0
  0
SCALE
  5
787
102
{ACAD_REACTORS
330
77F
102
}
330
77F
100
AcDbScale
 70
     0
300
1:20
140
1.0
141
20.0
290
     0
  0
SCALE
  5
788
102
{ACAD_REACTORS
330
77F
102
}
330
77F
100
AcDbScale
 70
     0
300
1:30
140
1.0
141
30.0
290
     0
  0
SCALE
  5
789
102
{ACAD_REACTORS
330
77F
102
}
330
77F
100
AcDbScale
 70
     0
300
1:40
140
1.0
141
40.0
290
     0
  0
SCALE
  5
78A
102
{ACAD_REACTORS
330
77F
102
}
330
77F
100
AcDbScale
 70
     0
300
1:50
140
1.0
141
50.0
290
     0
  0
SCALE
  5
78B
102
{ACAD_REACTORS
330
77F
102
}
330
77F
100
AcDbScale
 70
     0
300
1:100
140
1.0
141
100.0
290
     0
  0
SCALE
  5
78C
102
{ACAD_REACTORS
330
77F
102
}
330
77F
100
AcDbScale
 70
     0
300
2:1
140
2.0
141
1.0
290
     0
  0
SCALE
  5
78D
102
{ACAD_REACTORS
330
77F
102
}
330
77F
100
AcDbScale
 70
     0
300
4:1
140
4.0
141
1.0
290
     0
  0
SCALE
  5
78E
102
{ACAD_REACTORS
330
77F
102
}
330
77F
100
AcDbScale
 70
     0
300
8:1
140
8.0
141
1.0
290
     0
  0
SCALE
  5
78F
102
{ACAD_REACTORS
330
77F
102
}
330
77F
100
AcDbScale
 70
     0
300
10:1
140
10.0
141
1.0
290
     0
  0
SCALE
  5
790
102
{ACAD_REACTORS
330
77F
102
}
330
77F
100
AcDbScale
 70
     0
300
100:1
140
100.0
141
1.0
290
     0
  0
SCALE
  5
791
102
{ACAD_REACTORS
330
77F
102
}
330
77F
100
AcDbScale
 70
     0
300
1/128" = 1'-0"
140
0.0078125
141
12.0
290
     0
  0
SCALE
  5
792
102
{ACAD_REACTORS
330
77F
102
}
330
77F
100
AcDbScale
 70
     0
300
1/64" = 1'-0"
140
0.015625
141
12.0
290
     0
  0
SCALE
  5
793
102
{ACAD_REACTORS
330
77F
102
}
330
77F
100
AcDbScale
 70
     0
300
1/32" = 1'-0"
140
0.03125
141
12.0
290
     0
  0
SCALE
  5
794
102
{ACAD_REACTORS
330
77F
102
}
330
77F
100
AcDbScale
 70
     0
300
1/16" = 1'-0"
140
0.0625
141
12.0
290
     0
  0
SCALE
  5
795
102
{ACAD_REACTORS
330
77F
102
}
330
77F
100
AcDbScale
 70
     0
300
3/32" = 1'-0"
140
0.09375
141
12.0
290
     0
  0
SCALE
  5
796
102
{ACAD_REACTORS
330
77F
102
}
330
77F
100
AcDbScale
 70
     0
300
1/8" = 1'-0"
140
0.125
141
12.0
290
     0
  0
SCALE
  5
797
102
{ACAD_REACTORS
330
77F
102
}
330
77F
100
AcDbScale
 70
     0
300
3/16" = 1'-0"
140
0.1875
141
12.0
290
     0
  0
SCALE
  5
798
102
{ACAD_REACTORS
330
77F
102
}
330
77F
100
AcDbScale
 70
     0
300
1/4" = 1'-0"
140
0.25
141
12.0
290
     0
  0
SCALE
  5
799
102
{ACAD_REACTORS
330
77F
102
}
330
77F
100
AcDbScale
 70
     0
300
3/8" = 1'-0"
140
0.375
141
12.0
290
     0
  0
SCALE
  5
79A
102
{ACAD_REACTORS
330
77F
102
}
330
77F
100
AcDbScale
 70
     0
300
1/2" = 1'-0"
140
0.5
141
12.0
290
     0
  0
SCALE
  5
79B
102
{ACAD_REACTORS
330
77F
102
}
330
77F
100
AcDbScale
 70
     0
300
3/4" = 1'-0"
140
0.75
141
12.0
290
     0
  0
SCALE
  5
79C
102
{ACAD_REACTORS
330
77F
102
}
330
77F
100
AcDbScale
 70
     0
300
1" = 1'-0"
140
1.0
141
12.0
290
     0
  0
SCALE
  5
79D
102
{ACAD_REACTORS
330
77F
102
}
330
77F
100
AcDbScale
 70
     0
300
1-1/2" = 1'-0"
140
1.5
141
12.0
290
     0
  0
SCALE
  5
79E
102
{ACAD_REACTORS
330
77F
102
}
330
77F
100
AcDbScale
 70
     0
300
3" = 1'-0"
140
3.0
141
12.0
290
     0
  0
SCALE
  5
79F
102
{ACAD_REACTORS
330
77F
102
}
330
77F
100
AcDbScale
 70
     0
300
6" = 1'-0"
140
6.0
141
12.0
290
     0
  0
SCALE
  5
7A0
102
{ACAD_REACTORS
330
77F
102
}
330
77F
100
AcDbScale
 70
     0
300
1'-0" = 1'-0"
140
12.0
141
12.0
290
     0
  0
TABLESTYLE
  5
77E
102
{ACAD_XDICTIONARY
360
7C9
102
}
102
{ACAD_REACTORS
330
77D
102
}
330
77D
100
AcDbTableStyle
  3
Standard
 70
     0
 71
     0
 40
0.06
 41
0.06
280
     0
281
     0
  7
STANDARD
140
0.18
170
     2
 62
     0
 63
     7
283
     0
274
    -2
284
     1
 64
     0
275
    -2
285
     1
 65
     0
276
    -2
286
     1
 66
     0
277
    -2
287
     1
 67
     0
278
    -2
288
     1
 68
     0
279
    -2
289
     1
 69
     0
  7
STANDARD
140
0.25
170
     5
 62
     0
 63
     7
283
     0
274
    -2
284
     1
 64
     0
275
    -2
285
     1
 65
     0
276
    -2
286
     1
 66
     0
277
    -2
287
     1
 67
     0
278
    -2
288
     1
 68
     0
279
    -2
289
     1
 69
     0
  7
STANDARD
140
0.18
170
     5
 62
     0
 63
     7
283
     0
274
    -2
284
     1
 64
     0
275
    -2
285
     1
 65
     0
276
    -2
286
     1
 66
     0
277
    -2
287
     1
 67
     0
278
    -2
288
     1
 68
     0
279
    -2
289
     1
 69
     0
  0
VISUALSTYLE
  5
771
102
{ACAD_REACTORS
330
76B
102
}
330
76B
100
AcDbVisualStyle
  2
2dWireframe
 70
     4
 71
     0
 72
     2
 73
     0
 90
        0
 40
-0.6
 41
-30.0
 62
     5
 63
     7
421
 16777215
 74
     1
 91
        4
 64
     7
 65
   257
 75
     1
175
     1
 42
1.0
 92
        0
 66
   257
 43
1.0
 76
     1
 77
     6
 78
     2
 67
     7
 79
     5
170
     0
171
     0
290
     0
174
     0
 93
        1
 44
0.0
173
     0
291
     0
 45
0.0
1001
ACAD
1000
AcDbSavedByObjectVersion
1070
     0
  0
VISUALSTYLE
  5
773
102
{ACAD_REACTORS
330
76B
102
}
330
76B
100
AcDbVisualStyle
  2
3D Hidden
 70
     6
 71
     1
 72
     2
 73
     2
 90
        0
 40
-0.6
 41
-30.0
 62
     5
 63
     7
421
 16777215
 74
     2
 91
        2
 64
     7
 65
   257
 75
     2
175
     1
 42
40.0
 92
        0
 66
   257
 43
1.0
 76
     1
 77
     6
 78
     2
 67
     7
 79
     3
170
     0
171
     0
290
     0
174
     0
 93
        1
 44
0.0
173
     0
291
     0
 45
0.0
1001
ACAD
1000
AcDbSavedByObjectVersion
1070
     0
  0
VISUALSTYLE
  5
772
102
{ACAD_REACTORS
330
76B
102
}
330
76B
100
AcDbVisualStyle
  2
3dWireframe
 70
     5
 71
     0
 72
     2
 73
     0
 90
        0
 40
-0.6
 41
-30.0
 62
     5
 63
     7
421
 16777215
 74
     1
 91
        4
 64
     7
 65
   257
 75
     1
175
     1
 42
1.0
 92
        0
 66
   257
 43
1.0
 76
     1
 77
     6
 78
     2
 67
     7
 79
     5
170
     0
171
     0
290
     0
174
     0
 93
        1
 44
0.0
173
     0
291
     0
 45
0.0
1001
ACAD
1000
AcDbSavedByObjectVersion
1070
     0
  0
VISUALSTYLE
  5
770
102
{ACAD_REACTORS
330
76B
102
}
330
76B
100
AcDbVisualStyle
  2
Basic
 70
     7
 71
     1
 72
     0
 73
     1
 90
        0
 40
-0.6
 41
-30.0
 62
     5
 63
     7
421
 16777215
 74
     0
 91
        4
 64
     7
 65
   257
 75
     1
175
     1
 42
1.0
 92
        8
 66
     7
 43
1.0
 76
     1
 77
     6
 78
     2
 67
     7
 79
     5
170
     0
171
     0
290
     0
174
     0
 93
        1
 44
0.0
173
     0
291
     1
 45
0.0
1001
ACAD
1000
AcDbSavedByObjectVersion
1070
     0
  0
VISUALSTYLE
  5
777
102
{ACAD_REACTORS
330
76B
102
}
330
76B
100
AcDbVisualStyle
  2
Brighten
 70
    12
 71
     2
 72
     2
 73
     0
 90
        0
 40
-0.6
 41
-30.0
 62
     5
 63
     7
421
 16777215
 74
     1
 91
        4
 64
     7
 65
   257
 75
     1
175
     1
 42
1.0
 92
        8
 66
     7
 43
1.0
 76
     1
 77
     6
 78
     2
 67
     7
 79
     5
170
     0
171
     0
290
     0
174
     0
 93
        1
 44
50.0
173
     0
291
     1
 45
0.0
1001
ACAD
1000
AcDbSavedByObjectVersion
1070
     0
  0
VISUALSTYLE
  5
77B
102
{ACAD_REACTORS
330
76B
102
}
330
76B
100
AcDbVisualStyle
  2
ColorChange
 70
    16
 71
     2
 72
     2
 73
     3
 90
        0
 40
-0.6
 41
-30.0
 62
     5
 63
     8
421
  8421504
 74
     1
 91
        4
 64
     7
 65
   257
 75
     1
175
     1
 42
1.0
 92
        8
 66
     8
424
  8421504
 43
1.0
 76
     1
 77
     6
 78
     2
 67
     7
 79
     5
170
     0
171
     0
290
     0
174
     0
 93
        1
 44
0.0
173
     0
291
     1
 45
0.0
1001
ACAD
1000
AcDbSavedByObjectVersion
1070
     0
  0
VISUALSTYLE
  5
774
102
{ACAD_REACTORS
330
76B
102
}
330
76B
100
AcDbVisualStyle
  2
Conceptual
 70
     9
 71
     3
 72
     2
 73
     0
 90
        0
 40
-0.6
 41
-30.0
 62
     5
 63
     7
421
 16777215
 74
     2
 91
        2
 64
     7
 65
   257
 75
     1
175
     1
 42
40.0
 92
        8
 66
     7
 43
1.0
 76
     1
 77
     6
 78
     2
 67
     7
 79
     3
170
     0
171
     0
290
     0
174
     0
 93
        1
 44
0.0
173
     0
291
     0
 45
0.0
1001
ACAD
1000
AcDbSavedByObjectVersion
1070
     0
  0
VISUALSTYLE
  5
776
102
{ACAD_REACTORS
330
76B
102
}
330
76B
100
AcDbVisualStyle
  2
Dim
 70
    11
 71
     2
 72
     2
 73
     0
 90
        0
 40
-0.6
 41
-30.0
 62
     5
 63
     7
421
 16777215
 74
     1
 91
        4
 64
     7
 65
   257
 75
     1
175
     1
 42
1.0
 92
        8
 66
     7
 43
1.0
 76
     1
 77
     6
 78
     2
 67
     7
 79
     5
170
     0
171
     0
290
     0
174
     0
 93
        1
 44
-50.0
173
     0
291
     1
 45
0.0
1001
ACAD
1000
AcDbSavedByObjectVersion
1070
     0
  0
VISUALSTYLE
  5
77A
102
{ACAD_REACTORS
330
76B
102
}
330
76B
100
AcDbVisualStyle
  2
Facepattern
 70
    15
 71
     2
 72
     2
 73
     0
 90
        0
 40
-0.6
 41
-30.0
 62
     5
 63
     7
421
 16777215
 74
     1
 91
        4
 64
     7
 65
   257
 75
     1
175
     1
 42
1.0
 92
        8
 66
     7
 43
1.0
 76
     1
 77
     6
 78
     2
 67
     7
 79
     5
170
     0
171
     0
290
     0
174
     0
 93
        1
 44
0.0
173
     0
291
     1
 45
0.0
1001
ACAD
1000
AcDbSavedByObjectVersion
1070
     0
  0
VISUALSTYLE
  5
76C
102
{ACAD_REACTORS
330
76B
102
}
330
76B
100
AcDbVisualStyle
  2
Flat
 70
     0
 71
     2
 72
     1
 73
     1
 90
        2
 40
-0.6
 41
30.0
 62
     5
 63
     7
421
 16777215
 74
     0
 91
        4
 64
     7
 65
   257
 75
     1
175
     1
 42
1.0
 92
        8
 66
     7
 43
1.0
 76
     1
 77
     6
 78
     2
 67
     7
 79
     5
170
     0
171
     0
290
     0
174
     0
 93
       13
 44
0.0
173
     0
291
     1
 45
0.0
1001
ACAD
1000
AcDbSavedByObjectVersion
1070
     0
  0
VISUALSTYLE
  5
76D
102
{ACAD_REACTORS
330
76B
102
}
330
76B
100
AcDbVisualStyle
  2
FlatWithEdges
 70
     1
 71
     2
 72
     1
 73
     1
 90
        2
 40
-0.6
 41
30.0
 62
     5
 63
     7
421
 16777215
 74
     1
 91
        4
 64
     7
 65
   257
 75
     1
175
     1
 42
1.0
 92
        0
 66
   257
 43
1.0
 76
     1
 77
     6
 78
     2
 67
     7
 79
     5
170
     0
171
     0
290
     0
174
     0
 93
       13
 44
0.0
173
     0
291
     1
 45
0.0
1001
ACAD
1000
AcDbSavedByObjectVersion
1070
     0
  0
VISUALSTYLE
  5
76E
102
{ACAD_REACTORS
330
76B
102
}
330
76B
100
AcDbVisualStyle
  2
Gouraud
 70
     2
 71
     2
 72
     2
 73
     1
 90
        2
 40
-0.6
 41
30.0
 62
     5
 63
     7
421
 16777215
 74
     0
 91
        4
 64
     7
 65
   257
 75
     1
175
     1
 42
1.0
 92
        0
 66
     7
 43
1.0
 76
     1
 77
     6
 78
     2
 67
     7
 79
     5
170
     0
171
     0
290
     0
174
     0
 93
       13
 44
0.0
173
     0
291
     1
 45
0.0
1001
ACAD
1000
AcDbSavedByObjectVersion
1070
     0
  0
VISUALSTYLE
  5
76F
102
{ACAD_REACTORS
330
76B
102
}
330
76B
100
AcDbVisualStyle
  2
GouraudWithEdges
 70
     3
 71
     2
 72
     2
 73
     1
 90
        2
 40
-0.6
 41
30.0
 62
     5
 63
     7
421
 16777215
 74
     1
 91
        4
 64
     7
 65
   257
 75
     1
175
     1
 42
1.0
 92
        0
 66
   257
 43
1.0
 76
     1
 77
     6
 78
     2
 67
     7
 79
     5
170
     0
171
     0
290
     0
174
     0
 93
       13
 44
0.0
173
     0
291
     1
 45
0.0
1001
ACAD
1000
AcDbSavedByObjectVersion
1070
     0
  0
VISUALSTYLE
  5
779
102
{ACAD_REACTORS
330
76B
102
}
330
76B
100
AcDbVisualStyle
  2
Linepattern
 70
    14
 71
     2
 72
     2
 73
     0
 90
        0
 40
-0.6
 41
-30.0
 62
     5
 63
     7
421
 16777215
 74
     1
 91
        4
 64
     7
 65
   257
 75
     7
175
     7
 42
1.0
 92
        8
 66
     7
 43
1.0
 76
     1
 77
     6
 78
     2
 67
     7
 79
     5
170
     0
171
     0
290
     0
174
     0
 93
        1
 44
0.0
173
     0
291
     1
 45
0.0
1001
ACAD
1000
AcDbSavedByObjectVersion
1070
     0
  0
VISUALSTYLE
  5
775
102
{ACAD_REACTORS
330
76B
102
}
330
76B
100
AcDbVisualStyle
  2
Realistic
 70
     8
 71
     2
 72
     2
 73
     0
 90
        0
 40
-0.6
 41
-30.0
 62
     5
 63
     7
421
 16777215
 74
     1
 91
        0
 64
     7
 65
   257
 75
     1
175
     1
 42
1.0
 92
        8
 66
     8
424
  7895160
 43
1.0
 76
     1
 77
     6
 78
     2
 67
     7
 79
     5
170
     0
171
     0
290
     0
174
     0
 93
       13
 44
0.0
173
     0
291
     0
 45
0.0
1001
ACAD
1000
AcDbSavedByObjectVersion
1070
     0
  0
VISUALSTYLE
  5
778
102
{ACAD_REACTORS
330
76B
102
}
330
76B
100
AcDbVisualStyle
  2
Thicken
 70
    13
 71
     2
 72
     2
 73
     0
 90
        0
 40
-0.6
 41
-30.0
 62
     5
 63
     7
421
 16777215
 74
     1
 91
        4
 64
     7
 65
   257
 75
     1
175
     1
 42
1.0
 92
       12
 66
     7
 43
1.0
 76
     1
 77
     6
 78
     2
 67
     7
 79
     5
170
     0
171
     0
290
     0
174
     0
 93
        1
 44
0.0
173
     0
291
     1
 45
0.0
1001
ACAD
1000
AcDbSavedByObjectVersion
1070
     0
  0
DICTIONARYVAR
  5
7B2
102
{ACAD_REACTORS
330
2D8
102
}
330
2D8
100
DictionaryVariables
280
     0
  1
1:1
  0
DICTIONARYVAR
  5
7B1
102
{ACAD_REACTORS
330
2D8
102
}
330
2D8
100
DictionaryVariables
280
     0
  1
STANDARD
  0
DICTIONARYVAR
  5
7B0
102
{ACAD_REACTORS
330
2D8
102
}
330
2D8
100
DictionaryVariables
280
     0
  1
STANDARD
  0
DICTIONARYVAR
  5
7CD
102
{ACAD_REACTORS
330
2D8
102
}
330
2D8
100
DictionaryVariables
280
     0
  1
0
  0
DICTIONARYVAR
  5
7CC
102
{ACAD_REACTORS
330
2D8
102
}
330
2D8
100
DictionaryVariables
280
     0
  1
0
  0
DICTIONARYVAR
  5
2D9
102
{ACAD_REACTORS
330
2D8
102
}
330
2D8
100
DictionaryVariables
280
     0
  1
96
  0
DICTIONARY
  5
75C
330
75B
100
AcDbDictionary
280
     1
281
     1
  3
ACAD_XREC_ROUNDTRIP
360
934
  3
BUMPTILE
360
75E
  3
DIFFUSETILE
360
75D
  3
OPACITYTILE
360
761
  3
REFLECTIONTILE
360
760
  3
REFRACTIONTILE
360
762
  3
SPECULARTILE
360
75F
  0
DICTIONARY
  5
754
330
753
100
AcDbDictionary
280
     1
281
     1
  3
ACAD_XREC_ROUNDTRIP
360
933
  3
BUMPTILE
360
756
  3
DIFFUSETILE
360
755
  3
OPACITYTILE
360
759
  3
REFLECTIONTILE
360
758
  3
REFRACTIONTILE
360
75A
  3
SPECULARTILE
360
757
  0
DICTIONARY
  5
764
330
763
100
AcDbDictionary
280
     1
281
     1
  3
ACAD_XREC_ROUNDTRIP
360
935
  3
BUMPTILE
360
766
  3
DIFFUSETILE
360
765
  3
OPACITYTILE
360
769
  3
REFLECTIONTILE
360
768
  3
REFRACTIONTILE
360
76A
  3
SPECULARTILE
360
767
  0
DICTIONARY
  5
7C9
330
77E
100
AcDbDictionary
280
     1
281
     1
  3
ACAD_ROUNDTRIP_2008_TABLESTYLE_CELLSTYLEMAP
360
932
  3
ACAD_XREC_ROUNDTRIP
360
936
  0
XRECORD
  5
934
102
{ACAD_REACTORS
330
75C
102
}
330
75C
100
AcDbXrecord
280
     1
102
MATERIAL
148
0.0
149
0.0
149
0.0
 93
        0
 94
      127
282
     0
 72
     0
 77
     0
171
     0
175
     0
179
     0
273
     0
  0
XRECORD
  5
75E
102
{ACAD_REACTORS
330
75C
102
}
330
75C
100
AcDbXrecord
280
     1
270
     1
271
     1
  0
XRECORD
  5
75D
102
{ACAD_REACTORS
330
75C
102
}
330
75C
100
AcDbXrecord
280
     1
270
     1
271
     1
  0
XRECORD
  5
761
102
{ACAD_REACTORS
330
75C
102
}
330
75C
100
AcDbXrecord
280
     1
270
     1
271
     1
  0
XRECORD
  5
760
102
{ACAD_REACTORS
330
75C
102
}
330
75C
100
AcDbXrecord
280
     1
270
     1
271
     1
  0
XRECORD
  5
762
102
{ACAD_REACTORS
330
75C
102
}
330
75C
100
AcDbXrecord
280
     1
270
     1
271
     1
  0
XRECORD
  5
75F
102
{ACAD_REACTORS
330
75C
102
}
330
75C
100
AcDbXrecord
280
     1
270
     1
271
     1
  0
XRECORD
  5
933
102
{ACAD_REACTORS
330
754
102
}
330
754
100
AcDbXrecord
280
     1
102
MATERIAL
148
0.0
149
0.0
149
0.0
 93
        0
 94
      127
282
     0
 72
     0
 77
     0
171
     0
175
     0
179
     0
273
     0
  0
XRECORD
  5
756
102
{ACAD_REACTORS
330
754
102
}
330
754
100
AcDbXrecord
280
     1
270
     1
271
     1
  0
XRECORD
  5
755
102
{ACAD_REACTORS
330
754
102
}
330
754
100
AcDbXrecord
280
     1
270
     1
271
     1
  0
XRECORD
  5
759
102
{ACAD_REACTORS
330
754
102
}
330
754
100
AcDbXrecord
280
     1
270
     1
271
     1
  0
XRECORD
  5
758
102
{ACAD_REACTORS
330
754
102
}
330
754
100
AcDbXrecord
280
     1
270
     1
271
     1
  0
XRECORD
  5
75A
102
{ACAD_REACTORS
330
754
102
}
330
754
100
AcDbXrecord
280
     1
270
     1
271
     1
  0
XRECORD
  5
757
102
{ACAD_REACTORS
330
754
102
}
330
754
100
AcDbXrecord
280
     1
270
     1
271
     1
  0
XRECORD
  5
935
102
{ACAD_REACTORS
330
764
102
}
330
764
100
AcDbXrecord
280
     1
102
MATERIAL
148
0.0
149
0.0
149
0.0
 93
        0
 94
      127
282
     0
 72
     0
 77
     0
171
     0
175
     0
179
     0
273
     0
  0
XRECORD
  5
766
102
{ACAD_REACTORS
330
764
102
}
330
764
100
AcDbXrecord
280
     1
270
     1
271
     1
  0
XRECORD
  5
765
102
{ACAD_REACTORS
330
764
102
}
330
764
100
AcDbXrecord
280
     1
270
     1
271
     1
  0
XRECORD
  5
769
102
{ACAD_REACTORS
330
764
102
}
330
764
100
AcDbXrecord
280
     1
270
     1
271
     1
  0
XRECORD
  5
768
102
{ACAD_REACTORS
330
764
102
}
330
764
100
AcDbXrecord
280
     1
270
     1
271
     1
  0
XRECORD
  5
76A
102
{ACAD_REACTORS
330
764
102
}
330
764
100
AcDbXrecord
280
     1
270
     1
271
     1
  0
XRECORD
  5
767
102
{ACAD_REACTORS
330
764
102
}
330
764
100
AcDbXrecord
280
     1
270
     1
271
     1
  0
CELLSTYLEMAP
  5
932
102
{ACAD_REACTORS
330
7C9
102
}
330
7C9
100
AcDbCellStyleMap
 90
        3
300
CELLSTYLE
  1
TABLEFORMAT_BEGIN
 90
        5
170
     1
 91
        0
 92
    32768
 62
   257
 93
        1
300
CONTENTFORMAT
  1
CONTENTFORMAT_BEGIN
 90
        0
 91
        0
 92
      512
 93
        0
300

 40
0.0
140
1.0
 94
        5
 62
     0
340
10
144
0.25
309
CONTENTFORMAT_END
171
     0
 94
        0
309
TABLEFORMAT_END
  1
CELLSTYLE_BEGIN
 90
        1
 91
        1
300
_TITLE
309
CELLSTYLE_END
300
CELLSTYLE
  1
TABLEFORMAT_BEGIN
 90
        5
170
     1
 91
        0
 92
        0
 62
   257
 93
        1
300
CONTENTFORMAT
  1
CONTENTFORMAT_BEGIN
 90
        0
 91
        0
 92
      512
 93
        0
300

 40
0.0
140
1.0
 94
        5
 62
     0
340
10
144
0.18
309
CONTENTFORMAT_END
171
     0
 94
        0
309
TABLEFORMAT_END
  1
CELLSTYLE_BEGIN
 90
        2
 91
        1
300
_HEADER
309
CELLSTYLE_END
300
CELLSTYLE
  1
TABLEFORMAT_BEGIN
 90
        5
170
     1
 91
        0
 92
        0
 62
   257
 93
        1
300
CONTENTFORMAT
  1
CONTENTFORMAT_BEGIN
 90
        0
 91
        0
 92
      512
 93
        0
300

 40
0.0
140
1.0
 94
        2
 62
     0
340
10
144
0.18
309
CONTENTFORMAT_END
171
     0
 94
        0
309
TABLEFORMAT_END
  1
CELLSTYLE_BEGIN
 90
        3
 91
        2
300
_DATA
309
CELLSTYLE_END
  0
XRECORD
  5
936
102
{ACAD_REACTORS
330
7C9
102
}
330
7C9
100
AcDbXrecord
280
     1
102
ACAD_ROUNDTRIP_PRE2007_TABLESTYLE
 90
      512
 91
        0
  1

 92
      512
 93
        0
  2

 94
      512
 95
        0
  3

  0
ENDSEC
  0
EOF
