  0
SECTION
  2
HEADER
  9
$ACADVER
  1
AC1018
  9
$ACADMAINTVER
 70
   104
  9
$DWGCODEPAGE
  3
ANSI_932
  9
$LASTSAVEDBY
  1
poracon
  9
$INSBASE
 10
0.0
 20
0.0
 30
0.0
  9
$EXTMIN
 10
299.2556521330243
 20
-278.0410720943951
 30
-0.0015258207003583
  9
$EXTMAX
 10
3863.503303523443
 20
2242.176823902615
 30
0.0000000349246037
  9
$LIMMIN
 10
0.0
 20
0.0
  9
$LIMMAX
 10
2970.0
 20
2100.0
  9
$ORTHOMODE
 70
     1
  9
$REGENMODE
 70
     1
  9
$FILLMODE
 70
     1
  9
$QTEXTMODE
 70
     0
  9
$MIRRTEXT
 70
     1
  9
$LTSCALE
 40
60.0
  9
$ATTMODE
 70
     1
  9
$TEXTSIZE
 40
50.0
  9
$TRACEWID
 40
0.05
  9
$TEXTSTYLE
  7
BIGFONT
  9
$CLAYER
  8
SAISEKI
  9
$CELTYPE
  6
BYLAYER
  9
$CECOLOR
 62
   256
  9
$CELTSCALE
 40
1.0
  9
$DISPSILH
 70
     0
  9
$DIMSCALE
 40
10.0
  9
$DIMASZ
 40
2.0
  9
$DIMEXO
 40
1.0
  9
$DIMDLI
 40
10.0
  9
$DIMRND
 40
0.0
  9
$DIMDLE
 40
0.0
  9
$DIMEXE
 40
1.0
  9
$DIMTP
 40
0.0
  9
$DIMTM
 40
0.0
  9
$DIMTXT
 40
3.0
  9
$DIMCEN
 40
0.0
  9
$DIMTSZ
 40
0.0
  9
$DIMTOL
 70
     0
  9
$DIMLIM
 70
     0
  9
$DIMTIH
 70
     0
  9
$DIMTOH
 70
     0
  9
$DIMSE1
 70
     0
  9
$DIMSE2
 70
     0
  9
$DIMTAD
 70
     1
  9
$DIMZIN
 70
     0
  9
$DIMBLK
  1
ARROW
  9
$DIMASO
 70
     1
  9
$DIMSHO
 70
     1
  9
$DIMPOST
  1

  9
$DIMAPOST
  1

  9
$DIMALT
 70
     0
  9
$DIMALTD
 70
     2
  9
$DIMALTF
 40
25.4
  9
$DIMLFAC
 40
1.0
  9
$DIMTOFL
 70
     0
  9
$DIMTVP
 40
0.0
  9
$DIMTIX
 70
     0
  9
$DIMSOXD
 70
     0
  9
$DIMSAH
 70
     1
  9
$DIMBLK1
  1
ARROW
  9
$DIMBLK2
  1
ARROW
  9
$DIMSTYLE
  2
DIA1
  9
$DIMCLRD
 70
     0
  9
$DIMCLRE
 70
     0
  9
$DIMCLRT
 70
     0
  9
$DIMTFAC
 40
1.0
  9
$DIMGAP
 40
1.0
  9
$DIMJUST
 70
     0
  9
$DIMSD1
 70
     0
  9
$DIMSD2
 70
     0
  9
$DIMTOLJ
 70
     1
  9
$DIMTZIN
 70
     0
  9
$DIMALTZ
 70
     0
  9
$DIMALTTZ
 70
     0
  9
$DIMUPT
 70
     0
  9
$DIMDEC
 70
     0
  9
$DIMTDEC
 70
     4
  9
$DIMALTU
 70
     2
  9
$DIMALTTD
 70
     2
  9
$DIMTXSTY
  7
BIGFONT
  9
$DIMAUNIT
 70
     0
  9
$DIMADEC
 70
     0
  9
$DIMALTRND
 40
0.0
  9
$DIMAZIN
 70
     0
  9
$DIMDSEP
 70
    46
  9
$DIMATFIT
 70
     3
  9
$DIMFRAC
 70
     0
  9
$DIMLDRBLK
  1
ARROW
  9
$DIMLUNIT
 70
     2
  9
$DIMLWD
 70
    -2
  9
$DIMLWE
 70
    -2
  9
$DIMTMOVE
 70
     0
  9
$LUNITS
 70
     2
  9
$LUPREC
 70
     1
  9
$SKETCHINC
 40
0.1
  9
$FILLETRAD
 40
0.0
  9
$AUNITS
 70
     1
  9
$AUPREC
 70
     2
  9
$MENU
  1
MASTERS
  9
$ELEVATION
 40
0.0
  9
$PELEVATION
 40
0.0
  9
$THICKNESS
 40
0.0
  9
$LIMCHECK
 70
     0
  9
$CHAMFERA
 40
0.0
  9
$CHAMFERB
 40
0.0
  9
$CHAMFERC
 40
0.0
  9
$CHAMFERD
 40
0.0
  9
$SKPOLY
 70
     0
  9
$TDCREATE
 40
2449337.661539352
  9
$TDUCREATE
 40
2449337.286539352
  9
$TDUPDATE
 40
2456937.463234560
  9
$TDUUPDATE
 40
2456937.088234560
  9
$TDINDWG
 40
0.0713275231
  9
$TDUSRTIMER
 40
0.0713275231
  9
$USRTIMER
 70
     1
  9
$ANGBASE
 50
0.0
  9
$ANGDIR
 70
     0
  9
$PDMODE
 70
     0
  9
$PDSIZE
 40
0.0
  9
$PLINEWID
 40
0.0
  9
$SPLFRAME
 70
     0
  9
$SPLINETYPE
 70
     6
  9
$SPLINESEGS
 70
     8
  9
$HANDSEED
  5
12C5
  9
$SURFTAB1
 70
     6
  9
$SURFTAB2
 70
     6
  9
$SURFTYPE
 70
     6
  9
$SURFU
 70
     6
  9
$SURFV
 70
     6
  9
$UCSBASE
  2

  9
$UCSNAME
  2

  9
$UCSORG
 10
0.0
 20
0.0
 30
0.0
  9
$UCSXDIR
 10
1.0
 20
0.0
 30
0.0
  9
$UCSYDIR
 10
0.0
 20
1.0
 30
0.0
  9
$UCSORTHOREF
  2

  9
$UCSORTHOVIEW
 70
     0
  9
$UCSORGTOP
 10
0.0
 20
0.0
 30
0.0
  9
$UCSORGBOTTOM
 10
0.0
 20
0.0
 30
0.0
  9
$UCSORGLEFT
 10
0.0
 20
0.0
 30
0.0
  9
$UCSORGRIGHT
 10
0.0
 20
0.0
 30
0.0
  9
$UCSORGFRONT
 10
0.0
 20
0.0
 30
0.0
  9
$UCSORGBACK
 10
0.0
 20
0.0
 30
0.0
  9
$PUCSBASE
  2

  9
$PUCSNAME
  2

  9
$PUCSORG
 10
0.0
 20
0.0
 30
0.0
  9
$PUCSXDIR
 10
1.0
 20
0.0
 30
0.0
  9
$PUCSYDIR
 10
0.0
 20
1.0
 30
0.0
  9
$PUCSORTHOREF
  2

  9
$PUCSORTHOVIEW
 70
     0
  9
$PUCSORGTOP
 10
0.0
 20
0.0
 30
0.0
  9
$PUCSORGBOTTOM
 10
0.0
 20
0.0
 30
0.0
  9
$PUCSORGLEFT
 10
0.0
 20
0.0
 30
0.0
  9
$PUCSORGRIGHT
 10
0.0
 20
0.0
 30
0.0
  9
$PUCSORGFRONT
 10
0.0
 20
0.0
 30
0.0
  9
$PUCSORGBACK
 10
0.0
 20
0.0
 30
0.0
  9
$USERI1
 70
     0
  9
$USERI2
 70
     0
  9
$USERI3
 70
     0
  9
$USERI4
 70
     0
  9
$USERI5
 70
     0
  9
$USERR1
 40
0.0
  9
$USERR2
 40
0.0
  9
$USERR3
 40
0.0
  9
$USERR4
 40
0.0
  9
$USERR5
 40
0.0
  9
$WORLDVIEW
 70
     1
  9
$SHADEDGE
 70
     3
  9
$SHADEDIF
 70
    70
  9
$TILEMODE
 70
     1
  9
$MAXACTVP
 70
    16
  9
$PINSBASE
 10
0.0
 20
0.0
 30
0.0
  9
$PLIMCHECK
 70
     0
  9
$PEXTMIN
 10
1.000000000000000E+20
 20
1.000000000000000E+20
 30
1.000000000000000E+20
  9
$PEXTMAX
 10
-1.000000000000000E+20
 20
-1.000000000000000E+20
 30
-1.000000000000000E+20
  9
$PLIMMIN
 10
0.0
 20
0.0
  9
$PLIMMAX
 10
12.0
 20
9.0
  9
$UNITMODE
 70
     0
  9
$VISRETAIN
 70
     0
  9
$PLINEGEN
 70
     0
  9
$PSLTSCALE
 70
     1
  9
$TREEDEPTH
 70
  3020
  9
$CMLSTYLE
  2
STANDARD
  9
$CMLJUST
 70
     0
  9
$CMLSCALE
 40
1.0
  9
$PROXYGRAPHICS
 70
     1
  9
$MEASUREMENT
 70
     0
  9
$CELWEIGHT
370
    -1
  9
$ENDCAPS
280
     0
  9
$JOINSTYLE
280
     0
  9
$LWDISPLAY
290
     0
  9
$INSUNITS
 70
     0
  9
$HYPERLINKBASE
  1

  9
$STYLESHEET
  1

  9
$XEDIT
290
     1
  9
$CEPSNTYPE
380
     0
  9
$PSTYLEMODE
290
     1
  9
$FINGERPRINTGUID
  2
{241947D8-10E5-11D6-BA8D-8D48D945A249}
  9
$VERSIONGUID
  2
{8A886709-D596-42F0-BF83-63F8E2E7B05B}
  9
$EXTNAMES
290
     1
  9
$PSVPSCALE
 40
0.0
  9
$OLESTARTUP
290
     0
  9
$SORTENTS
280
    96
  9
$INDEXCTL
280
     0
  9
$HIDETEXT
280
     0
  9
$XCLIPFRAME
290
     0
  9
$HALOGAP
280
     0
  9
$OBSCOLOR
 70
   257
  9
$OBSLTYPE
280
     0
  9
$INTERSECTIONDISPLAY
280
     0
  9
$INTERSECTIONCOLOR
 70
   257
  9
$DIMASSOC
280
     1
  9
$PROJECTNAME
  1

  0
ENDSEC
  0
SECTION
  2
CLASSES
  0
CLASS
  1
ACDBDICTIONARYWDFLT
  2
AcDbDictionaryWithDefault
  3
ObjectDBX Classes
 90
        0
 91
        1
280
     0
281
     0
  0
CLASS
  1
DICTIONARYVAR
  2
AcDbDictionaryVar
  3
ObjectDBX Classes
 90
        0
 91
        6
280
     0
281
     0
  0
CLASS
  1
MATERIAL
  2
AcDbMaterial
  3
ObjectDBX Classes
 90
     1153
 91
        3
280
     0
281
     0
  0
CLASS
  1
VISUALSTYLE
  2
AcDbVisualStyle
  3
ObjectDBX Classes
 90
     4095
 91
       16
280
     0
281
     0
  0
CLASS
  1
TABLESTYLE
  2
AcDbTableStyle
  3
ObjectDBX Classes
 90
     4095
 91
        1
280
     0
281
     0
  0
CLASS
  1
SCALE
  2
AcDbScale
  3
ObjectDBX Classes
 90
     1153
 91
       33
280
     0
281
     0
  0
CLASS
  1
MLEADERSTYLE
  2
AcDbMLeaderStyle
  3
ACDB_MLEADERSTYLE_CLASS
 90
     4095
 91
        1
280
     0
281
     0
  0
CLASS
  1
CELLSTYLEMAP
  2
AcDbCellStyleMap
  3
ObjectDBX Classes
 90
     1152
 91
        4
280
     0
281
     0
  0
CLASS
  1
SORTENTSTABLE
  2
AcDbSortentsTable
  3
ObjectDBX Classes
 90
        0
 91
        2
280
     0
281
     0
  0
ENDSEC
  0
SECTION
  2
TABLES
  0
TABLE
  2
VPORT
  5
8
330
0
100
AcDbSymbolTable
 70
     1
  0
VPORT
  5
10C4
330
8
100
AcDbSymbolTableRecord
100
AcDbViewportTableRecord
  2
*Active
 70
     0
 10
0.0
 20
0.0
 11
1.0
 21
1.0
 12
1931.751651761721
 22
982.0678759041099
 13
0.0
 23
0.0
 14
1.0
 24
1.0
 15
0.0
 25
0.0
 16
0.0
 26
0.0
 36
1.0
 17
0.0
 27
0.0
 37
0.0
 40
2540.246117687053
 41
1.669761273209549
 42
50.0
 43
0.0
 44
0.0
 50
0.0
 51
0.0
 71
     0
 72
   100
 73
     1
 74
     1
 75
     0
 76
     0
 77
     0
 78
     0
281
     0
 65
     1
110
0.0
120
0.0
130
0.0
111
1.0
121
0.0
131
0.0
112
0.0
122
1.0
132
0.0
 79
     0
146
0.0
  0
ENDTAB
  0
TABLE
  2
LTYPE
  5
5
330
0
100
AcDbSymbolTable
 70
    26
  0
LTYPE
  5
12
330
5
100
AcDbSymbolTableRecord
100
AcDbLinetypeTableRecord
  2
BYBLOCK
 70
     0
  3

 72
    65
 73
     0
 40
0.0
  0
LTYPE
  5
13
330
5
100
AcDbSymbolTableRecord
100
AcDbLinetypeTableRecord
  2
BYLAYER
 70
     0
  3

 72
    65
 73
     0
 40
0.0
  0
LTYPE
  5
14
330
5
100
AcDbSymbolTableRecord
100
AcDbLinetypeTableRecord
  2
CONTINUOUS
 70
     0
  3
Solid line
 72
    65
 73
     0
 40
0.0
  0
LTYPE
  5
2E
330
5
100
AcDbSymbolTableRecord
100
AcDbLinetypeTableRecord
  2
BORDER
 70
     0
  3
__ __ . __ __ . __ __ . __ __ . __ __ . __ __ .
 72
    65
 73
     6
 40
1.75
 49
0.5
 74
     0
 49
-0.25
 74
     0
 49
0.5
 74
     0
 49
-0.25
 74
     0
 49
0.0
 74
     0
 49
-0.25
 74
     0
  0
LTYPE
  5
2F
330
5
100
AcDbSymbolTableRecord
100
AcDbLinetypeTableRecord
  2
BORDER2
 70
     0
  3
__.__.__.__.__.__.__.__.__.__.__.__.__.__.__.__
 72
    65
 73
     6
 40
0.875
 49
0.25
 74
     0
 49
-0.125
 74
     0
 49
0.25
 74
     0
 49
-0.125
 74
     0
 49
0.0
 74
     0
 49
-0.125
 74
     0
  0
LTYPE
  5
30
330
5
100
AcDbSymbolTableRecord
100
AcDbLinetypeTableRecord
  2
BORDERX2
 70
     0
  3
____  ____  .  ____  ____  .  ____  ____  .  __
 72
    65
 73
     6
 40
3.5
 49
1.0
 74
     0
 49
-0.5
 74
     0
 49
1.0
 74
     0
 49
-0.5
 74
     0
 49
0.0
 74
     0
 49
-0.5
 74
     0
  0
LTYPE
  5
31
330
5
100
AcDbSymbolTableRecord
100
AcDbLinetypeTableRecord
  2
CENTER
 70
     0
  3
____ _ ____ _ ____ _ ____ _ ____ _ ____ _ ____ 
 72
    65
 73
     4
 40
2.0
 49
1.25
 74
     0
 49
-0.25
 74
     0
 49
0.25
 74
     0
 49
-0.25
 74
     0
  0
LTYPE
  5
32
330
5
100
AcDbSymbolTableRecord
100
AcDbLinetypeTableRecord
  2
CENTER2
 70
     0
  3
___ _ ___ _ ___ _ ___ _ ___ _ ___ _ ___ _ ___ _
 72
    65
 73
     4
 40
1.125
 49
0.75
 74
     0
 49
-0.125
 74
     0
 49
0.125
 74
     0
 49
-0.125
 74
     0
  0
LTYPE
  5
33
330
5
100
AcDbSymbolTableRecord
100
AcDbLinetypeTableRecord
  2
CENTERX2
 70
     0
  3
________  __  ________  __  ________  __  _____
 72
    65
 73
     4
 40
4.0
 49
2.5
 74
     0
 49
-0.5
 74
     0
 49
0.5
 74
     0
 49
-0.5
 74
     0
  0
LTYPE
  5
34
330
5
100
AcDbSymbolTableRecord
100
AcDbLinetypeTableRecord
  2
DASHDOT
 70
     0
  3
__ . __ . __ . __ . __ . __ . __ . __ . __ . __
 72
    65
 73
     4
 40
1.0
 49
0.5
 74
     0
 49
-0.25
 74
     0
 49
0.0
 74
     0
 49
-0.25
 74
     0
  0
LTYPE
  5
35
330
5
100
AcDbSymbolTableRecord
100
AcDbLinetypeTableRecord
  2
DASHDOT2
 70
     0
  3
_._._._._._._._._._._._._._._._._._._._._._._._
 72
    65
 73
     4
 40
0.5
 49
0.25
 74
     0
 49
-0.125
 74
     0
 49
0.0
 74
     0
 49
-0.125
 74
     0
  0
LTYPE
  5
36
330
5
100
AcDbSymbolTableRecord
100
AcDbLinetypeTableRecord
  2
DASHDOTX2
 70
     0
  3
____  .  ____  .  ____  .  ____  .  ____  .  __
 72
    65
 73
     4
 40
2.0
 49
1.0
 74
     0
 49
-0.5
 74
     0
 49
0.0
 74
     0
 49
-0.5
 74
     0
  0
LTYPE
  5
37
330
5
100
AcDbSymbolTableRecord
100
AcDbLinetypeTableRecord
  2
DASHED
 70
     0
  3
__ __ __ __ __ __ __ __ __ __ __ __ __ __ __ __
 72
    65
 73
     2
 40
0.75
 49
0.5
 74
     0
 49
-0.25
 74
     0
  0
LTYPE
  5
38
330
5
100
AcDbSymbolTableRecord
100
AcDbLinetypeTableRecord
  2
DASHED2
 70
     0
  3
_ _ _ _ _ _ _ _ _ _ _ _ _ _ _ _ _ _ _ _ _ _ _ _
 72
    65
 73
     2
 40
0.375
 49
0.25
 74
     0
 49
-0.125
 74
     0
  0
LTYPE
  5
39
330
5
100
AcDbSymbolTableRecord
100
AcDbLinetypeTableRecord
  2
DASHEDX2
 70
     0
  3
____  ____  ____  ____  ____  ____  ____  ____ 
 72
    65
 73
     2
 40
1.5
 49
1.0
 74
     0
 49
-0.5
 74
     0
  0
LTYPE
  5
3A
330
5
100
AcDbSymbolTableRecord
100
AcDbLinetypeTableRecord
  2
DIVIDE
 70
     0
  3
____ . . ____ . . ____ . . ____ . . ____ . . __
 72
    65
 73
     6
 40
1.25
 49
0.5
 74
     0
 49
-0.25
 74
     0
 49
0.0
 74
     0
 49
-0.25
 74
     0
 49
0.0
 74
     0
 49
-0.25
 74
     0
  0
LTYPE
  5
3B
330
5
100
AcDbSymbolTableRecord
100
AcDbLinetypeTableRecord
  2
DIVIDE2
 70
     0
  3
__..__..__..__..__..__..__..__..__..__..__..__.
 72
    65
 73
     6
 40
0.625
 49
0.25
 74
     0
 49
-0.125
 74
     0
 49
0.0
 74
     0
 49
-0.125
 74
     0
 49
0.0
 74
     0
 49
-0.125
 74
     0
  0
LTYPE
  5
3C
330
5
100
AcDbSymbolTableRecord
100
AcDbLinetypeTableRecord
  2
DIVIDEX2
 70
     0
  3
________  .  .  ________  .  .  ________  .  . 
 72
    65
 73
     6
 40
2.5
 49
1.0
 74
     0
 49
-0.5
 74
     0
 49
0.0
 74
     0
 49
-0.5
 74
     0
 49
0.0
 74
     0
 49
-0.5
 74
     0
  0
LTYPE
  5
3D
330
5
100
AcDbSymbolTableRecord
100
AcDbLinetypeTableRecord
  2
DOT
 70
     0
  3
. . . . . . . . . . . . . . . . . . . . . . . .
 72
    65
 73
     2
 40
0.25
 49
0.0
 74
     0
 49
-0.25
 74
     0
  0
LTYPE
  5
3E
330
5
100
AcDbSymbolTableRecord
100
AcDbLinetypeTableRecord
  2
DOT2
 70
     0
  3
...............................................
 72
    65
 73
     2
 40
0.125
 49
0.0
 74
     0
 49
-0.125
 74
     0
  0
LTYPE
  5
3F
330
5
100
AcDbSymbolTableRecord
100
AcDbLinetypeTableRecord
  2
DOTX2
 70
     0
  3
.  .  .  .  .  .  .  .  .  .  .  .  .  .  .  . 
 72
    65
 73
     2
 40
0.5
 49
0.0
 74
     0
 49
-0.5
 74
     0
  0
LTYPE
  5
40
330
5
100
AcDbSymbolTableRecord
100
AcDbLinetypeTableRecord
  2
HIDDEN
 70
     0
  3
__ __ __ __ __ __ __ __ __ __ __ __ __ __ __ __
 72
    65
 73
     2
 40
0.375
 49
0.25
 74
     0
 49
-0.125
 74
     0
  0
LTYPE
  5
41
330
5
100
AcDbSymbolTableRecord
100
AcDbLinetypeTableRecord
  2
HIDDEN2
 70
     0
  3
_ _ _ _ _ _ _ _ _ _ _ _ _ _ _ _ _ _ _ _ _ _ _ _
 72
    65
 73
     2
 40
0.1875
 49
0.125
 74
     0
 49
-0.0625
 74
     0
  0
LTYPE
  5
42
330
5
100
AcDbSymbolTableRecord
100
AcDbLinetypeTableRecord
  2
HIDDENX2
 70
     0
  3
____ ____ ____ ____ ____ ____ ____ ____ ____ __
 72
    65
 73
     2
 40
0.75
 49
0.5
 74
     0
 49
-0.25
 74
     0
  0
LTYPE
  5
43
330
5
100
AcDbSymbolTableRecord
100
AcDbLinetypeTableRecord
  2
PHANTOM
 70
     0
  3
______  __  __  ______  __  __  ______  __  __ 
 72
    65
 73
     6
 40
2.5
 49
1.25
 74
     0
 49
-0.25
 74
     0
 49
0.25
 74
     0
 49
-0.25
 74
     0
 49
0.25
 74
     0
 49
-0.25
 74
     0
  0
LTYPE
  5
44
330
5
100
AcDbSymbolTableRecord
100
AcDbLinetypeTableRecord
  2
PHANTOM2
 70
     0
  3
___ _ _ ___ _ _ ___ _ _ ___ _ _ ___ _ _ ___ _ _
 72
    65
 73
     6
 40
1.25
 49
0.625
 74
     0
 49
-0.125
 74
     0
 49
0.125
 74
     0
 49
-0.125
 74
     0
 49
0.125
 74
     0
 49
-0.125
 74
     0
  0
LTYPE
  5
45
330
5
100
AcDbSymbolTableRecord
100
AcDbLinetypeTableRecord
  2
PHANTOMX2
 70
     0
  3
____________    ____    ____    ____________   
 72
    65
 73
     6
 40
5.0
 49
2.5
 74
     0
 49
-0.5
 74
     0
 49
0.5
 74
     0
 49
-0.5
 74
     0
 49
0.5
 74
     0
 49
-0.5
 74
     0
  0
ENDTAB
  0
TABLE
  2
LAYER
  5
2
330
0
100
AcDbSymbolTable
 70
     6
  0
LAYER
  5
F
102
{ACAD_XDICTIONARY
360
111C
102
}
330
2
100
AcDbSymbolTableRecord
100
AcDbLayerTableRecord
  2
0
 70
     0
 62
     7
  6
CONTINUOUS
370
    -3
390
2CF
  0
LAYER
  5
49
102
{ACAD_XDICTIONARY
360
111E
102
}
330
2
100
AcDbSymbolTableRecord
100
AcDbLayerTableRecord
  2
SUNPOU
 70
     0
 62
     3
  6
CONTINUOUS
370
    -3
390
2CF
  0
LAYER
  5
4D
102
{ACAD_XDICTIONARY
360
1120
102
}
330
2
100
AcDbSymbolTableRecord
100
AcDbLayerTableRecord
  2
CT2
 70
     0
 62
     1
  6
CENTER2
370
    -3
390
2CF
  0
LAYER
  5
4F
102
{ACAD_XDICTIONARY
360
1122
102
}
330
2
100
AcDbSymbolTableRecord
100
AcDbLayerTableRecord
  2
SAISEKI
 70
     0
 62
     4
  6
CONTINUOUS
370
    -3
390
2CF
  0
LAYER
  5
50
330
2
100
AcDbSymbolTableRecord
100
AcDbLayerTableRecord
  2
DEFPOINTS
 70
     0
 62
     7
  6
CONTINUOUS
290
     0
370
    -3
390
2CF
  0
LAYER
  5
1204
102
{ACAD_XDICTIONARY
360
1205
102
}
330
2
100
AcDbSymbolTableRecord
100
AcDbLayerTableRecord
  2
KL
 70
     0
 62
     5
  6
HIDDEN
370
    -3
390
2CF
  0
ENDTAB
  0
TABLE
  2
STYLE
  5
3
330
0
100
AcDbSymbolTable
 70
     3
  0
STYLE
  5
10
330
3
100
AcDbSymbolTableRecord
100
AcDbTextStyleTableRecord
  2
STANDARD
 70
     0
 40
0.0
 41
1.0
 50
0.0
 71
     0
 42
0.2
  3
txt
  4

  0
STYLE
  5
2D
330
3
100
AcDbSymbolTableRecord
100
AcDbTextStyleTableRecord
  2
BIGFONT
 70
     0
 40
0.0
 41
1.0
 50
0.0
 71
     0
 42
50.0
  3
simplex
  4
extfont
  0
STYLE
  5
348
330
3
100
AcDbSymbolTableRecord
100
AcDbTextStyleTableRecord
  2
STYLE1
 70
     0
 40
0.0
 41
1.0
 50
0.0
 71
     0
 42
2.5
  3
txt.shx
  4
bigfont.shx
  0
ENDTAB
  0
TABLE
  2
VIEW
  5
6
330
0
100
AcDbSymbolTable
 70
     0
  0
ENDTAB
  0
TABLE
  2
UCS
  5
7
330
0
100
AcDbSymbolTable
 70
     0
  0
ENDTAB
  0
TABLE
  2
APPID
  5
9
330
0
100
AcDbSymbolTable
 70
     3
  0
APPID
  5
11
330
9
100
AcDbSymbolTableRecord
100
AcDbRegAppTableRecord
  2
ACAD
 70
     0
  0
APPID
  5
1117
330
9
100
AcDbSymbolTableRecord
100
AcDbRegAppTableRecord
  2
ACAD_MLEADERVER
 70
     0
  0
APPID
  5
11A4
330
9
100
AcDbSymbolTableRecord
100
AcDbRegAppTableRecord
  2
ACAD_EXEMPT_FROM_CAD_STANDARDS
 70
     0
  0
ENDTAB
  0
TABLE
  2
DIMSTYLE
  5
A
330
0
100
AcDbSymbolTable
 70
     5
100
AcDbDimStyleTable
 71
     1
340
2CA
  0
DIMSTYLE
105
2C5
330
A
100
AcDbSymbolTableRecord
100
AcDbDimStyleTableRecord
  2
STANDARD
 70
     0
340
10
  0
DIMSTYLE
105
2CA
102
{ACAD_REACTORS
330
53A
330
5FC
102
}
330
A
100
AcDbSymbolTableRecord
100
AcDbDimStyleTableRecord
  2
DIA1
 70
     0
 40
10.0
 41
2.0
 42
1.0
 43
10.0
 44
1.0
 73
     0
 74
     0
 77
     1
140
3.0
141
0.0
147
1.0
271
     0
340
2D
341
20
342
20
  0
DIMSTYLE
105
349
102
{ACAD_REACTORS
330
37F
330
388
330
389
330
38B
330
38C
330
393
330
609
330
607
330
604
330
608
330
5FF
102
}
330
A
100
AcDbSymbolTableRecord
100
AcDbDimStyleTableRecord
  2
STYLE10
 70
     0
 40
10.0
 41
1.5
 42
5.0
 43
0.0
 44
0.0
 73
     0
 74
     0
 77
     1
 78
    12
140
2.0
141
2.0
147
1.0
172
     1
176
     3
177
     3
178
     3
340
10
  0
DIMSTYLE
105
786
330
A
100
AcDbSymbolTableRecord
100
AcDbDimStyleTableRecord
  2
P1
 70
     0
 40
10.0
 41
2.0
 42
1.0
 43
10.0
 44
1.0
 73
     0
 74
     0
 77
     2
140
3.0
141
0.0
147
1.0
172
     1
173
     1
176
   256
177
   256
178
   256
271
     0
272
     0
279
     2
288
     1
340
2D
341
20
343
20
344
20
371
    -1
372
    -1
  0
ENDTAB
  0
TABLE
  2
BLOCK_RECORD
  5
1
330
0
100
AcDbSymbolTable
 70
    24
  0
BLOCK_RECORD
  5
18
102
{ACAD_XDICTIONARY
360
116D
102
}
330
1
100
AcDbSymbolTableRecord
100
AcDbBlockTableRecord
  2
*MODEL_SPACE
340
2D2
  0
BLOCK_RECORD
  5
15
330
1
100
AcDbSymbolTableRecord
100
AcDbBlockTableRecord
  2
*PAPER_SPACE
340
2D3
  0
BLOCK_RECORD
  5
1C
330
1
100
AcDbSymbolTableRecord
100
AcDbBlockTableRecord
  2
SYASEN
340
0
  0
BLOCK_RECORD
  5
1D
330
1
100
AcDbSymbolTableRecord
100
AcDbBlockTableRecord
  2
YA2
340
0
  0
BLOCK_RECORD
  5
1E
330
1
100
AcDbSymbolTableRecord
100
AcDbBlockTableRecord
  2
YA_N
340
0
102
{BLKREFS
331
281
102
}
  0
BLOCK_RECORD
  5
1F
330
1
100
AcDbSymbolTableRecord
100
AcDbBlockTableRecord
  2
DOT
340
0
  0
BLOCK_RECORD
  5
20
330
1
100
AcDbSymbolTableRecord
100
AcDbBlockTableRecord
  2
ARROW
340
0
102
{BLKREFS
331
1288
331
128D
102
}
  0
BLOCK_RECORD
  5
21
330
1
100
AcDbSymbolTableRecord
100
AcDbBlockTableRecord
  2
YA3
340
0
  0
BLOCK_RECORD
  5
22
330
1
100
AcDbSymbolTableRecord
100
AcDbBlockTableRecord
  2
BORDER
340
0
  0
BLOCK_RECORD
  5
2FA
330
1
100
AcDbSymbolTableRecord
100
AcDbBlockTableRecord
  2
_CLOSEDBLANK
340
0
  0
BLOCK_RECORD
  5
3AD
330
1
100
AcDbSymbolTableRecord
100
AcDbBlockTableRecord
  2
*D8
340
0
  0
BLOCK_RECORD
  5
3B9
330
1
100
AcDbSymbolTableRecord
100
AcDbBlockTableRecord
  2
*D9
340
0
  0
BLOCK_RECORD
  5
3C4
330
1
100
AcDbSymbolTableRecord
100
AcDbBlockTableRecord
  2
*D10
340
0
  0
BLOCK_RECORD
  5
3CF
330
1
100
AcDbSymbolTableRecord
100
AcDbBlockTableRecord
  2
*D11
340
0
  0
BLOCK_RECORD
  5
3DB
330
1
100
AcDbSymbolTableRecord
100
AcDbBlockTableRecord
  2
*D12
340
0
  0
BLOCK_RECORD
  5
3E6
330
1
100
AcDbSymbolTableRecord
100
AcDbBlockTableRecord
  2
*D13
340
0
  0
BLOCK_RECORD
  5
4C3
330
1
100
AcDbSymbolTableRecord
100
AcDbBlockTableRecord
  2
*X14
340
0
102
{BLKREFS
331
539
331
5FD
102
}
  0
BLOCK_RECORD
  5
53F
330
1
100
AcDbSymbolTableRecord
100
AcDbBlockTableRecord
  2
*D15
340
0
  0
BLOCK_RECORD
  5
627
330
1
100
AcDbSymbolTableRecord
100
AcDbBlockTableRecord
  2
*D16
340
0
  0
BLOCK_RECORD
  5
632
330
1
100
AcDbSymbolTableRecord
100
AcDbBlockTableRecord
  2
*D17
340
0
  0
BLOCK_RECORD
  5
63D
330
1
100
AcDbSymbolTableRecord
100
AcDbBlockTableRecord
  2
*D18
340
0
  0
BLOCK_RECORD
  5
649
330
1
100
AcDbSymbolTableRecord
100
AcDbBlockTableRecord
  2
*D19
340
0
  0
BLOCK_RECORD
  5
654
330
1
100
AcDbSymbolTableRecord
100
AcDbBlockTableRecord
  2
*D20
340
0
  0
BLOCK_RECORD
  5
660
330
1
100
AcDbSymbolTableRecord
100
AcDbBlockTableRecord
  2
*D21
340
0
  0
ENDTAB
  0
ENDSEC
  0
SECTION
  2
BLOCKS
  0
BLOCK
  5
53
330
18
100
AcDbEntity
  8
0
100
AcDbBlockBegin
  2
*MODEL_SPACE
 70
     0
 10
0.0
 20
0.0
 30
0.0
  3
*MODEL_SPACE
  1

  0
ENDBLK
  5
54
330
18
100
AcDbEntity
  8
0
100
AcDbBlockEnd
  0
BLOCK
  5
51
330
15
100
AcDbEntity
 67
     1
  8
0
100
AcDbBlockBegin
  2
*PAPER_SPACE
 70
     0
 10
0.0
 20
0.0
 30
0.0
  3
*PAPER_SPACE
  1

  0
ENDBLK
  5
52
330
15
100
AcDbEntity
 67
     1
  8
0
100
AcDbBlockEnd
  0
BLOCK
  5
55
330
1C
100
AcDbEntity
  8
0
100
AcDbBlockBegin
  2
SYASEN
 70
     0
 10
0.0
 20
0.0
 30
0.0
  3
SYASEN
  1

  0
LINE
  5
56
330
1C
100
AcDbEntity
  8
0
100
AcDbLine
 10
0.0
 20
0.0
 30
0.0
 11
-1.0
 21
0.0
 31
0.0
  0
LINE
  5
57
330
1C
100
AcDbEntity
  8
0
100
AcDbLine
 10
0.5
 20
0.5
 30
0.0
 11
-0.5
 21
-0.5
 31
0.0
  0
ENDBLK
  5
58
330
1C
100
AcDbEntity
  8
0
100
AcDbBlockEnd
  0
BLOCK
  5
59
330
1D
100
AcDbEntity
  8
0
100
AcDbBlockBegin
  2
YA2
 70
     0
 10
0.0
 20
0.0
 30
0.0
  3
YA2
  1

  0
LINE
  5
5A
330
1D
100
AcDbEntity
  8
0
100
AcDbLine
 10
-1.0
 20
0.0
 30
0.0
 11
0.0
 21
0.0
 31
0.0
  0
ENDBLK
  5
5B
330
1D
100
AcDbEntity
  8
0
100
AcDbBlockEnd
  0
BLOCK
  5
5C
330
1E
100
AcDbEntity
  8
0
100
AcDbBlockBegin
  2
YA_N
 70
     0
 10
0.0
 20
0.0
 30
0.0
  3
YA_N
  1

  0
ENDBLK
  5
5D
330
1E
100
AcDbEntity
  8
0
100
AcDbBlockEnd
  0
BLOCK
  5
5E
330
1F
100
AcDbEntity
  8
0
100
AcDbBlockBegin
  2
DOT
 70
     0
 10
0.0
 20
0.0
 30
0.0
  3
DOT
  1

  0
LWPOLYLINE
  5
5F
330
1F
100
AcDbEntity
  8
0
100
AcDbPolyline
 90
        2
 70
     1
 43
0.25
 10
-0.125
 20
0.0
 42
1.0
 10
0.125
 20
0.0
 42
1.0
  0
LINE
  5
63
330
1F
100
AcDbEntity
  8
0
100
AcDbLine
 10
-1.0
 20
0.0
 30
0.0
 11
-0.25
 21
0.0
 31
0.0
  0
ENDBLK
  5
64
330
1F
100
AcDbEntity
  8
0
100
AcDbBlockEnd
  0
BLOCK
  5
65
330
20
100
AcDbEntity
  8
0
100
AcDbBlockBegin
  2
ARROW
 70
     0
 10
0.0
 20
0.0
 30
0.0
  3
ARROW
  1

  0
LINE
  5
66
330
20
100
AcDbEntity
  8
0
100
AcDbLine
 10
-0.9999999999999991
 20
0.1666666667000003
 30
0.0
 11
0.0
 21
0.0
 31
0.0
  0
LINE
  5
67
330
20
100
AcDbEntity
  8
0
100
AcDbLine
 10
-0.9999999999999991
 20
0.0
 30
0.0
 11
0.0
 21
0.0
 31
0.0
  0
LINE
  5
68
330
20
100
AcDbEntity
  8
0
100
AcDbLine
 10
-0.9999999999999991
 20
-0.1666666667000003
 30
0.0
 11
0.0
 21
0.0
 31
0.0
  0
ENDBLK
  5
69
330
20
100
AcDbEntity
  8
0
100
AcDbBlockEnd
  0
BLOCK
  5
6A
330
21
100
AcDbEntity
  8
0
100
AcDbBlockBegin
  2
YA3
 70
     0
 10
0.0
 20
0.0
 30
0.0
  3
YA3
  1

  0
SOLID
  5
6B
330
21
100
AcDbEntity
  8
0
100
AcDbTrace
 10
1.0
 20
-0.1666666666666665
 30
0.0
 11
1.0
 21
0.166666666666667
 31
0.0
 12
0.0
 22
0.0
 32
0.0
 13
0.0
 23
0.0
 33
0.0
  0
ENDBLK
  5
6C
330
21
100
AcDbEntity
  8
0
100
AcDbBlockEnd
  0
BLOCK
  5
6D
330
22
100
AcDbEntity
  8
0
100
AcDbBlockBegin
  2
BORDER
 70
     0
 10
0.0
 20
0.0
 30
0.0
  3
BORDER
  1

  0
LINE
  5
6E
330
22
100
AcDbEntity
  8
0
100
AcDbLine
 10
0.0
 20
0.0
 30
0.0
 11
1.00000000000004
 21
0.0
 31
0.0
  0
LINE
  5
6F
330
22
100
AcDbEntity
  8
0
100
AcDbLine
 10
1.00000000000004
 20
0.0
 30
0.0
 11
1.00000000000004
 21
1.00000000000004
 31
0.0
  0
LINE
  5
70
330
22
100
AcDbEntity
  8
0
100
AcDbLine
 10
1.00000000000004
 20
1.00000000000004
 30
0.0
 11
0.0
 21
1.00000000000004
 31
0.0
  0
LINE
  5
71
330
22
100
AcDbEntity
  8
0
100
AcDbLine
 10
0.0
 20
1.00000000000004
 30
0.0
 11
0.0
 21
0.0
 31
0.0
  0
ENDBLK
  5
72
330
22
100
AcDbEntity
  8
0
100
AcDbBlockEnd
  0
BLOCK
  5
2FE
330
2FA
100
AcDbEntity
  8
0
100
AcDbBlockBegin
  2
_CLOSEDBLANK
 70
     0
 10
0.0
 20
0.0
 30
0.0
  3
_CLOSEDBLANK
  1

  0
LINE
  5
2FB
330
2FA
100
AcDbEntity
  8
0
  6
ByBlock
 62
     0
100
AcDbLine
 10
-1.0
 20
0.1666666666666666
 30
0.0
 11
0.0
 21
0.0
 31
0.0
  0
LINE
  5
2FC
330
2FA
100
AcDbEntity
  8
0
  6
ByBlock
 62
     0
100
AcDbLine
 10
0.0
 20
0.0
 30
0.0
 11
-1.0
 21
-0.1666666666666666
 31
0.0
  0
LINE
  5
2FD
330
2FA
100
AcDbEntity
  8
0
  6
ByBlock
 62
     0
100
AcDbLine
 10
-1.0
 20
0.1666666666666666
 30
0.0
 11
-1.0
 21
-0.1666666666666666
 31
0.0
  0
ENDBLK
  5
2FF
330
2FA
100
AcDbEntity
  8
0
100
AcDbBlockEnd
  0
BLOCK
  5
3B7
330
3AD
100
AcDbEntity
  8
0
100
AcDbBlockBegin
  2
*D8
 70
     1
 10
0.0
 20
0.0
 30
0.0
  3
*D8
  1

  0
LINE
  5
1253
330
3AD
100
AcDbEntity
  8
SUNPOU
370
    -2
100
AcDbLine
 10
860.404767528114
 20
510.1569943480617
 30
0.0
 11
860.404767528114
 21
322.6135904818893
 31
0.0
  0
LINE
  5
1254
330
3AD
100
AcDbEntity
  8
SUNPOU
370
    -2
100
AcDbLine
 10
1520.400534791169
 20
510.1569943480617
 30
0.0
 11
1520.400534791169
 21
322.6135904818893
 31
0.0
  0
LINE
  5
1255
330
3AD
100
AcDbEntity
  8
SUNPOU
370
    -2
100
AcDbLine
 10
885.404767528114
 20
322.6135904818893
 30
0.0
 11
1495.400534791169
 21
322.6135904818893
 31
0.0
  0
SOLID
  5
1256
330
3AD
100
AcDbEntity
  8
SUNPOU
100
AcDbTrace
 10
885.404767528114
 20
326.780257148556
 30
0.0
 11
885.404767528114
 21
318.4469238152226
 31
0.0
 12
860.404767528114
 22
322.6135904818893
 32
0.0
 13
860.404767528114
 23
322.6135904818893
 33
0.0
  0
SOLID
  5
1257
330
3AD
100
AcDbEntity
  8
SUNPOU
100
AcDbTrace
 10
1495.400534791169
 20
326.780257148556
 30
0.0
 11
1495.400534791169
 21
318.4469238152226
 31
0.0
 12
1520.400534791169
 22
322.6135904818893
 32
0.0
 13
1520.400534791169
 23
322.6135904818893
 33
0.0
  0
MTEXT
  5
1258
330
3AD
100
AcDbEntity
  8
SUNPOU
100
AcDbMText
 10
1190.402651159641
 20
347.6135904818893
 30
0.0
 40
30.0
 41
0.0
 71
     5
 72
     1
  1
\A1;660
 73
     1
 44
1.0
  0
POINT
  5
1259
330
3AD
100
AcDbEntity
  8
DEFPOINTS
 62
     0
100
AcDbPoint
 10
860.404767528114
 20
560.1569943480617
 30
0.0
  0
POINT
  5
125A
330
3AD
100
AcDbEntity
  8
DEFPOINTS
 62
     0
100
AcDbPoint
 10
1520.400534791169
 20
560.1569943480617
 30
0.0
  0
POINT
  5
125B
330
3AD
100
AcDbEntity
  8
DEFPOINTS
 62
     0
100
AcDbPoint
 10
1520.400534791169
 20
322.6135904818893
 30
0.0
  0
ENDBLK
  5
3B8
330
3AD
100
AcDbEntity
  8
0
100
AcDbBlockEnd
  0
BLOCK
  5
3C2
330
3B9
100
AcDbEntity
  8
0
100
AcDbBlockBegin
  2
*D9
 70
     1
 10
0.0
 20
0.0
 30
0.0
  3
*D9
  1

  0
LINE
  5
125C
330
3B9
100
AcDbEntity
  8
SUNPOU
370
    -2
100
AcDbLine
 10
834.6087700131306
 20
880.1569943480616
 30
0.0
 11
781.1194862070465
 21
880.1569943480616
 31
0.0
  0
LINE
  5
125D
330
3B9
100
AcDbEntity
  8
SUNPOU
370
    -2
100
AcDbLine
 10
781.1194862070465
 20
955.1569943480616
 30
0.0
 11
781.1194862070465
 21
905.1569943480616
 31
0.0
  0
SOLID
  5
125E
330
3B9
100
AcDbEntity
  8
SUNPOU
100
AcDbTrace
 10
776.9528195403799
 20
955.1569943480616
 30
0.0
 11
785.2861528737131
 21
955.1569943480616
 31
0.0
 12
781.1194862070465
 22
980.1569943480616
 32
0.0
 13
781.1194862070465
 23
980.1569943480616
 33
0.0
  0
SOLID
  5
125F
330
3B9
100
AcDbEntity
  8
SUNPOU
100
AcDbTrace
 10
776.9528195403799
 20
905.1569943480616
 30
0.0
 11
785.2861528737131
 21
905.1569943480616
 31
0.0
 12
781.1194862070465
 22
880.1569943480616
 32
0.0
 13
781.1194862070465
 23
880.1569943480616
 33
0.0
  0
MTEXT
  5
1260
330
3B9
100
AcDbEntity
  8
SUNPOU
100
AcDbMText
 10
756.1194862070464
 20
930.156994348062
 30
0.0
 40
30.0
 41
0.0
 71
     5
 72
     1
  1
\A1;100
 11
0.0000000000000001
 21
1.0
 31
0.0
 73
     1
 44
1.0
  0
POINT
  5
1261
330
3B9
100
AcDbEntity
  8
DEFPOINTS
 62
     0
100
AcDbPoint
 10
879.8330086901827
 20
980.1569943480616
 30
0.0
  0
POINT
  5
1262
330
3B9
100
AcDbEntity
  8
DEFPOINTS
 62
     0
100
AcDbPoint
 10
884.6087700131306
 20
880.1569943480616
 30
0.0
  0
POINT
  5
1263
330
3B9
100
AcDbEntity
  8
DEFPOINTS
 62
     0
100
AcDbPoint
 10
781.1194862070465
 20
880.1569943480616
 30
0.0
  0
ENDBLK
  5
3C3
330
3B9
100
AcDbEntity
  8
0
100
AcDbBlockEnd
  0
BLOCK
  5
3CD
330
3C4
100
AcDbEntity
  8
0
100
AcDbBlockBegin
  2
*D10
 70
     1
 10
0.0
 20
0.0
 30
0.0
  3
*D10
  1

  0
LINE
  5
1264
330
3C4
100
AcDbEntity
  8
SUNPOU
370
    -2
100
AcDbLine
 10
836.6193327127943
 20
660.1569943684209
 30
0.0
 11
781.1194862070465
 21
660.1569943684209
 31
0.0
  0
LINE
  5
1265
330
3C4
100
AcDbEntity
  8
SUNPOU
370
    -2
100
AcDbLine
 10
781.1194862070466
 20
855.1569943480616
 30
0.0
 11
781.1194862070465
 21
685.1569943684209
 31
0.0
  0
SOLID
  5
1266
330
3C4
100
AcDbEntity
  8
SUNPOU
100
AcDbTrace
 10
776.95281954038
 20
855.1569943480616
 30
0.0
 11
785.2861528737133
 21
855.1569943480616
 31
0.0
 12
781.1194862070466
 22
880.1569943480616
 32
0.0
 13
781.1194862070466
 23
880.1569943480616
 33
0.0
  0
SOLID
  5
1267
330
3C4
100
AcDbEntity
  8
SUNPOU
100
AcDbTrace
 10
776.9528195403799
 20
685.1569943684209
 30
0.0
 11
785.2861528737131
 21
685.1569943684209
 31
0.0
 12
781.1194862070465
 22
660.1569943684209
 32
0.0
 13
781.1194862070465
 23
660.1569943684209
 33
0.0
  0
MTEXT
  5
1268
330
3C4
100
AcDbEntity
  8
SUNPOU
100
AcDbMText
 10
756.1194862070464
 20
770.1569943582414
 30
0.0
 40
30.0
 41
0.0
 71
     5
 72
     1
  1
\A1;220
 11
0.0000000000000001
 21
1.0
 31
0.0
 73
     1
 44
1.0
  0
POINT
  5
1269
330
3C4
100
AcDbEntity
  8
DEFPOINTS
 62
     0
100
AcDbPoint
 10
884.6087700131306
 20
880.1569943480616
 30
0.0
  0
POINT
  5
126A
330
3C4
100
AcDbEntity
  8
DEFPOINTS
 62
     0
100
AcDbPoint
 10
886.6193327127943
 20
660.1569943684209
 30
0.0
  0
POINT
  5
126B
330
3C4
100
AcDbEntity
  8
DEFPOINTS
 62
     0
100
AcDbPoint
 10
781.1194862070465
 20
660.1569943684209
 30
0.0
  0
ENDBLK
  5
3CE
330
3C4
100
AcDbEntity
  8
0
100
AcDbBlockEnd
  0
BLOCK
  5
3D9
330
3CF
100
AcDbEntity
  8
0
100
AcDbBlockBegin
  2
*D11
 70
     1
 10
0.0
 20
0.0
 30
0.0
  3
*D11
  1

  0
LINE
  5
126C
330
3CF
100
AcDbEntity
  8
SUNPOU
370
    -2
100
AcDbLine
 10
829.8330086901827
 20
980.1569943480616
 30
0.0
 11
717.6221866226539
 21
980.1569943480618
 31
0.0
  0
LINE
  5
126D
330
3CF
100
AcDbEntity
  8
SUNPOU
370
    -2
100
AcDbLine
 10
836.6193327127943
 20
560.1569943480617
 30
0.0
 11
717.6221866226537
 21
560.1569943480618
 31
0.0
  0
LINE
  5
126E
330
3CF
100
AcDbEntity
  8
SUNPOU
370
    -2
100
AcDbLine
 10
717.6221866226539
 20
955.1569943480618
 30
0.0
 11
717.6221866226537
 21
585.1569943480618
 31
0.0
  0
SOLID
  5
126F
330
3CF
100
AcDbEntity
  8
SUNPOU
100
AcDbTrace
 10
713.4555199559872
 20
955.1569943480618
 30
0.0
 11
721.7888532893205
 21
955.1569943480618
 31
0.0
 12
717.6221866226539
 22
980.1569943480618
 32
0.0
 13
717.6221866226539
 23
980.1569943480618
 33
0.0
  0
SOLID
  5
1270
330
3CF
100
AcDbEntity
  8
SUNPOU
100
AcDbTrace
 10
713.4555199559871
 20
585.1569943480618
 30
0.0
 11
721.7888532893204
 21
585.1569943480618
 31
0.0
 12
717.6221866226537
 22
560.1569943480618
 32
0.0
 13
717.6221866226537
 23
560.1569943480618
 33
0.0
  0
MTEXT
  5
1271
330
3CF
100
AcDbEntity
  8
SUNPOU
100
AcDbMText
 10
692.6221866226536
 20
770.1569943480619
 30
0.0
 40
30.0
 41
0.0
 71
     5
 72
     1
  1
\A1;420
 11
0.0000000000000001
 21
1.0
 31
0.0
 73
     1
 44
1.0
  0
POINT
  5
1272
330
3CF
100
AcDbEntity
  8
DEFPOINTS
 62
     0
100
AcDbPoint
 10
879.8330086901827
 20
980.1569943480616
 30
0.0
  0
POINT
  5
1273
330
3CF
100
AcDbEntity
  8
DEFPOINTS
 62
     0
100
AcDbPoint
 10
886.6193327127943
 20
560.1569943480617
 30
0.0
  0
POINT
  5
1274
330
3CF
100
AcDbEntity
  8
DEFPOINTS
 62
     0
100
AcDbPoint
 10
717.6221866226537
 20
560.1569943480618
 30
0.0
  0
ENDBLK
  5
3DA
330
3CF
100
AcDbEntity
  8
0
100
AcDbBlockEnd
  0
BLOCK
  5
3E4
330
3DB
100
AcDbEntity
  8
0
100
AcDbBlockBegin
  2
*D12
 70
     1
 10
0.0
 20
0.0
 30
0.0
  3
*D12
  1

  0
LINE
  5
1275
330
3DB
100
AcDbEntity
  8
SUNPOU
370
    -2
100
AcDbLine
 10
836.6193327127943
 20
560.1569943480617
 30
0.0
 11
781.1194862070465
 21
560.1569943480617
 31
0.0
  0
LINE
  5
1276
330
3DB
100
AcDbEntity
  8
SUNPOU
370
    -2
100
AcDbLine
 10
781.1194862070465
 20
635.1569943684209
 30
0.0
 11
781.1194862070465
 21
585.1569943480617
 31
0.0
  0
SOLID
  5
1277
330
3DB
100
AcDbEntity
  8
SUNPOU
100
AcDbTrace
 10
776.9528195403799
 20
635.1569943684209
 30
0.0
 11
785.2861528737131
 21
635.1569943684209
 31
0.0
 12
781.1194862070465
 22
660.1569943684209
 32
0.0
 13
781.1194862070465
 23
660.1569943684209
 33
0.0
  0
SOLID
  5
1278
330
3DB
100
AcDbEntity
  8
SUNPOU
100
AcDbTrace
 10
776.9528195403799
 20
585.1569943480617
 30
0.0
 11
785.2861528737131
 21
585.1569943480617
 31
0.0
 12
781.1194862070465
 22
560.1569943480617
 32
0.0
 13
781.1194862070465
 23
560.1569943480617
 33
0.0
  0
MTEXT
  5
1279
330
3DB
100
AcDbEntity
  8
SUNPOU
100
AcDbMText
 10
756.1194862070464
 20
610.1569943582415
 30
0.0
 40
30.0
 41
0.0
 71
     5
 72
     1
  1
\A1;100
 11
0.0000000000000001
 21
1.0
 31
0.0
 73
     1
 44
1.0
  0
POINT
  5
127A
330
3DB
100
AcDbEntity
  8
DEFPOINTS
 62
     0
100
AcDbPoint
 10
886.6193327127943
 20
660.1569943684209
 30
0.0
  0
POINT
  5
127B
330
3DB
100
AcDbEntity
  8
DEFPOINTS
 62
     0
100
AcDbPoint
 10
886.6193327127943
 20
560.1569943480617
 30
0.0
  0
POINT
  5
127C
330
3DB
100
AcDbEntity
  8
DEFPOINTS
 62
     0
100
AcDbPoint
 10
781.1194862070465
 20
560.1569943480617
 30
0.0
  0
ENDBLK
  5
3E5
330
3DB
100
AcDbEntity
  8
0
100
AcDbBlockEnd
  0
BLOCK
  5
3F0
330
3E6
100
AcDbEntity
  8
0
100
AcDbBlockBegin
  2
*D13
 70
     1
 10
0.0
 20
0.0
 30
0.0
  3
*D13
  1

  0
LINE
  5
127D
330
3E6
100
AcDbEntity
  8
SUNPOU
370
    -2
100
AcDbLine
 10
1030.404767528114
 20
510.1569943480617
 30
0.0
 11
1030.404767528114
 21
406.2977102370004
 31
0.0
  0
LINE
  5
127E
330
3E6
100
AcDbEntity
  8
SUNPOU
370
    -2
100
AcDbLine
 10
1350.400534791169
 20
510.1569943480617
 30
0.0
 11
1350.400534791169
 21
406.2977102370004
 31
0.0
  0
LINE
  5
127F
330
3E6
100
AcDbEntity
  8
SUNPOU
370
    -2
100
AcDbLine
 10
1055.404767528114
 20
406.2977102370004
 30
0.0
 11
1325.400534791169
 21
406.2977102370004
 31
0.0
  0
SOLID
  5
1280
330
3E6
100
AcDbEntity
  8
SUNPOU
100
AcDbTrace
 10
1055.404767528114
 20
410.4643769036671
 30
0.0
 11
1055.404767528114
 21
402.1310435703338
 31
0.0
 12
1030.404767528114
 22
406.2977102370004
 32
0.0
 13
1030.404767528114
 23
406.2977102370004
 33
0.0
  0
SOLID
  5
1281
330
3E6
100
AcDbEntity
  8
SUNPOU
100
AcDbTrace
 10
1325.400534791169
 20
410.4643769036671
 30
0.0
 11
1325.400534791169
 21
402.1310435703338
 31
0.0
 12
1350.400534791169
 22
406.2977102370004
 32
0.0
 13
1350.400534791169
 23
406.2977102370004
 33
0.0
  0
MTEXT
  5
1282
330
3E6
100
AcDbEntity
  8
SUNPOU
100
AcDbMText
 10
1190.402651159641
 20
431.2977102370004
 30
0.0
 40
30.0
 41
0.0
 71
     5
 72
     1
  1
\A1;320
 73
     1
 44
1.0
  0
POINT
  5
1283
330
3E6
100
AcDbEntity
  8
DEFPOINTS
 62
     0
100
AcDbPoint
 10
1030.404767528114
 20
560.1569943480617
 30
0.0
  0
POINT
  5
1284
330
3E6
100
AcDbEntity
  8
DEFPOINTS
 62
     0
100
AcDbPoint
 10
1350.400534791169
 20
560.1569943480617
 30
0.0
  0
POINT
  5
1285
330
3E6
100
AcDbEntity
  8
DEFPOINTS
 62
     0
100
AcDbPoint
 10
1350.400534791169
 20
406.2977102370004
 30
0.0
  0
ENDBLK
  5
3F1
330
3E6
100
AcDbEntity
  8
0
100
AcDbBlockEnd
  0
BLOCK
  5
52D
330
4C3
100
AcDbEntity
  8
0
100
AcDbBlockBegin
  2
*X14
 70
     1
 10
0.0
 20
0.0
 30
0.0
  3
*X14
  1

  0
LINE
  5
4C4
330
4C3
100
AcDbEntity
  8
0
 62
     0
100
AcDbLine
 10
1397.195766384843
 20
846.0605766670305
 30
0.0
 11
1398.099609992551
 21
846.964420274738
 31
0.0
  0
LINE
  5
4C5
330
4C3
100
AcDbEntity
  8
0
 62
     0
100
AcDbLine
 10
1468.810288111205
 20
917.6750983933926
 30
0.0
 11
1474.478611632856
 21
923.3434219150431
 31
0.0
  0
LINE
  5
4C6
330
4C3
100
AcDbEntity
  8
0
 62
     0
100
AcDbLine
 10
1394.864371962219
 20
859.0384930699013
 30
0.0
 11
1403.703206727051
 21
867.8773278347332
 31
0.0
  0
LINE
  5
4C7
330
4C3
100
AcDbEntity
  8
0
 62
     0
100
AcDbLine
 10
1421.380876256715
 20
885.5549973643968
 30
0.0
 11
1430.219711021546
 21
894.3938321292288
 31
0.0
  0
LINE
  5
4C8
330
4C3
100
AcDbEntity
  8
0
 62
     0
100
AcDbLine
 10
1447.89738055121
 20
912.0715016588924
 30
0.0
 11
1456.736215316042
 21
920.9103364237243
 31
0.0
  0
LINE
  5
4C9
330
4C3
100
AcDbEntity
  8
0
 62
     0
100
AcDbLine
 10
1474.413884845706
 20
938.588005953388
 30
0.0
 11
1474.922325019208
 21
939.0964461268904
 31
0.0
  0
LINE
  5
4CA
330
4C3
100
AcDbEntity
  8
0
 62
     0
100
AcDbLine
 10
1376.111003367454
 20
855.5944353006308
 30
0.0
 11
1382.790299167056
 21
862.2737311002328
 31
0.0
  0
LINE
  5
4CB
330
4C3
100
AcDbEntity
  8
0
 62
     0
100
AcDbLine
 10
1400.46796869672
 20
879.9514006298965
 30
0.0
 11
1409.306803461551
 21
888.7902353947284
 31
0.0
  0
LINE
  5
4CC
330
4C3
100
AcDbEntity
  8
0
 62
     0
100
AcDbLine
 10
1426.984472991215
 20
906.467904924392
 30
0.0
 11
1435.823307756047
 21
915.306739689224
 31
0.0
  0
LINE
  5
4CD
330
4C3
100
AcDbEntity
  8
0
 62
     0
100
AcDbLine
 10
1453.500977285711
 20
932.9844092188876
 30
0.0
 11
1462.339812050542
 21
941.8232439837195
 31
0.0
  0
LINE
  5
4CE
330
4C3
100
AcDbEntity
  8
0
 62
     0
100
AcDbLine
 10
1380.978897588798
 20
875.7716403474701
 30
0.0
 11
1388.393895901556
 21
883.1866386602282
 31
0.0
  0
LINE
  5
4CF
330
4C3
100
AcDbEntity
  8
0
 62
     0
100
AcDbLine
 10
1406.07156543122
 20
900.8643081898918
 30
0.0
 11
1414.910400196052
 21
909.7031429547238
 31
0.0
  0
LINE
  5
4D0
330
4C3
100
AcDbEntity
  8
0
 62
     0
100
AcDbLine
 10
1432.588069725716
 20
927.3808124843874
 30
0.0
 11
1441.426904490547
 21
936.2196472492193
 31
0.0
  0
LINE
  5
4D1
330
4C3
100
AcDbEntity
  8
0
 62
     0
100
AcDbLine
 10
1411.67516216572
 20
921.7772157498867
 30
0.0
 11
1413.435478322987
 21
923.5375319071533
 31
0.0
  0
LINE
  5
4D2
330
4C3
100
AcDbEntity
  8
0
 62
     0
100
AcDbLine
 10
1566.269749798675
 20
846.7321410004192
 30
0.0
 11
1569.427697678706
 21
849.8900888804502
 31
0.0
  0
LINE
  5
4D3
330
4C3
100
AcDbEntity
  8
0
 62
     0
100
AcDbLine
 10
1481.116640180688
 20
746.2697205569371
 30
0.0
 11
1485.00000000006
 21
750.1530803763091
 31
0.0
  0
LINE
  5
4D4
330
4C3
100
AcDbEntity
  8
0
 62
     0
100
AcDbLine
 10
1485.00000000006
 20
750.153080376309
 30
0.0
 11
1489.955474945519
 21
755.1085553217689
 31
0.0
  0
LINE
  5
4D5
330
4C3
100
AcDbEntity
  8
0
 62
     0
100
AcDbLine
 10
1560.666153064174
 20
825.8192334404238
 30
0.0
 11
1569.504987829006
 21
834.6580682052556
 31
0.0
  0
LINE
  5
4D6
330
4C3
100
AcDbEntity
  8
0
 62
     0
100
AcDbLine
 10
1480.258469382892
 20
730.1022389336471
 30
0.0
 11
1484.351878211019
 21
734.195647761774
 31
0.0
  0
LINE
  5
4D7
330
4C3
100
AcDbEntity
  8
0
 62
     0
100
AcDbLine
 10
1590.156230449287
 20
840.0000000000423
 30
0.0
 11
1590.417895389001
 21
840.2616649397561
 31
0.0
  0
LINE
  5
4D8
330
4C3
100
AcDbEntity
  8
0
 62
     0
100
AcDbLine
 10
1502.029547740683
 20
751.8733172914375
 30
0.0
 11
1510.868382505515
 21
760.7121520562693
 31
0.0
  0
LINE
  5
4D9
330
4C3
100
AcDbEntity
  8
0
 62
     0
100
AcDbLine
 10
1528.546052035178
 20
778.3898215859331
 30
0.0
 11
1530.646896037034
 21
780.4906655877889
 31
0.0
  0
LINE
  5
4DA
330
4C3
100
AcDbEntity
  8
0
 62
     0
100
AcDbLine
 10
1555.062556329674
 20
804.9063258804288
 30
0.0
 11
1563.901391094506
 21
813.7451606452605
 31
0.0
  0
LINE
  5
4DB
330
4C3
100
AcDbEntity
  8
0
 62
     0
100
AcDbLine
 10
1581.57906062417
 20
831.4228301749244
 30
0.0
 11
1590.156230449287
 21
840.0000000000423
 31
0.0
  0
LINE
  5
4DC
330
4C3
100
AcDbEntity
  8
0
 62
     0
100
AcDbLine
 10
1496.425951006183
 20
730.9604097314426
 30
0.0
 11
1505.264785771014
 21
739.7992444962745
 31
0.0
  0
LINE
  5
4DD
330
4C3
100
AcDbEntity
  8
0
 62
     0
100
AcDbLine
 10
1522.942455300678
 20
757.4769140259381
 30
0.0
 11
1531.78129006551
 21
766.31574879077
 31
0.0
  0
LINE
  5
4DE
330
4C3
100
AcDbEntity
  8
0
 62
     0
100
AcDbLine
 10
1549.458959595173
 20
783.9934183204337
 30
0.0
 11
1558.297794360005
 21
792.8322530852656
 31
0.0
  0
LINE
  5
4DF
330
4C3
100
AcDbEntity
  8
0
 62
     0
100
AcDbLine
 10
1575.975463889669
 20
810.5099226149294
 30
0.0
 11
1584.814298654501
 21
819.3487573797611
 31
0.0
  0
LINE
  5
4E0
330
4C3
100
AcDbEntity
  8
0
 62
     0
100
AcDbLine
 10
1517.338858566177
 20
736.5640064659428
 30
0.0
 11
1526.177693331009
 21
745.4028412307747
 31
0.0
  0
LINE
  5
4E1
330
4C3
100
AcDbEntity
  8
0
 62
     0
100
AcDbLine
 10
1543.855362860673
 20
763.0805107604384
 30
0.0
 11
1552.694197625505
 21
771.9193455252702
 31
0.0
  0
LINE
  5
4E2
330
4C3
100
AcDbEntity
  8
0
 62
     0
100
AcDbLine
 10
1570.371867155168
 20
789.597015054934
 30
0.0
 11
1579.21070192
 21
798.4358498197658
 31
0.0
  0
LINE
  5
4E3
330
4C3
100
AcDbEntity
  8
0
 62
     0
100
AcDbLine
 10
1542.011190273901
 20
745.9270273481719
 30
0.0
 11
1547.090600891005
 21
751.0064379652752
 31
0.0
  0
LINE
  5
4E4
330
4C3
100
AcDbEntity
  8
0
 62
     0
100
AcDbLine
 10
1564.768270420669
 20
768.684107494939
 30
0.0
 11
1573.6071051855
 21
777.5229422597708
 31
0.0
  0
LINE
  5
4E5
330
4C3
100
AcDbEntity
  8
0
 62
     0
100
AcDbLine
 10
1394.864371786179
 20
859.038486872855
 30
0.0
 11
1382.790298957566
 21
862.2737249366364
 31
0.0
  0
LINE
  5
4E6
330
4C3
100
AcDbEntity
  8
0
 62
     0
100
AcDbLine
 10
1575.97546421538
 20
810.5099159161323
 30
0.0
 11
1563.901391386766
 21
813.7451539799137
 31
0.0
  0
LINE
  5
4E7
330
4C3
100
AcDbEntity
  8
0
 62
     0
100
AcDbLine
 10
1400.40155119046
 20
846.3476107700055
 30
0.0
 11
1398.099609862204
 21
846.9644140899351
 31
0.0
  0
LINE
  5
4E8
330
4C3
100
AcDbEntity
  8
0
 62
     0
100
AcDbLine
 10
1586.074936916399
 20
796.5965770087875
 30
0.0
 11
1579.210702291405
 21
798.4358431332125
 31
0.0
  0
LINE
  5
4E9
330
4C3
100
AcDbEntity
  8
0
 62
     0
100
AcDbLine
 10
1555.062556634178
 20
804.9063192607755
 30
0.0
 11
1551.745925132692
 21
805.7950079931904
 31
0.0
  0
LINE
  5
4EA
330
4C3
100
AcDbEntity
  8
0
 62
     0
100
AcDbLine
 10
1570.371867538816
 20
789.5970084140743
 30
0.0
 11
1558.297794710203
 21
792.8322464778558
 31
0.0
  0
LINE
  5
4EB
330
4C3
100
AcDbEntity
  8
0
 62
     0
100
AcDbLine
 10
1575.232977542169
 20
777.0872845612307
 30
0.0
 11
1573.607105614841
 21
777.5229356311547
 31
0.0
  0
LINE
  5
4EC
330
4C3
100
AcDbEntity
  8
0
 62
     0
100
AcDbLine
 10
1549.458959957615
 20
783.9934117587177
 30
0.0
 11
1538.102336321055
 21
787.036409890878
 31
0.0
  0
LINE
  5
4ED
330
4C3
100
AcDbEntity
  8
0
 62
     0
100
AcDbLine
 10
1564.768270862253
 20
768.6841009120163
 30
0.0
 11
1552.69419803364
 21
771.9193389757978
 31
0.0
  0
LINE
  5
4EE
330
4C3
100
AcDbEntity
  8
0
 62
     0
100
AcDbLine
 10
1528.546052376413
 20
778.3898151033609
 30
0.0
 11
1527.98480190351
 21
778.5402017143267
 31
0.0
  0
LINE
  5
4EF
330
4C3
100
AcDbEntity
  8
0
 62
     0
100
AcDbLine
 10
1543.855363281052
 20
763.0805042566596
 30
0.0
 11
1531.781290452438
 21
766.3157423204411
 31
0.0
  0
LINE
  5
4F0
330
4C3
100
AcDbEntity
  8
0
 62
     0
100
AcDbLine
 10
1548.959191563273
 20
750.5057442370049
 30
0.0
 11
1547.090601357077
 21
751.0064314737398
 31
0.0
  0
LINE
  5
4F1
330
4C3
100
AcDbEntity
  8
0
 62
     0
100
AcDbLine
 10
1522.94245569985
 20
757.4769076013029
 30
0.0
 11
1510.868382871237
 21
760.7121456650844
 31
0.0
  0
LINE
  5
4F2
330
4C3
100
AcDbEntity
  8
0
 62
     0
100
AcDbLine
 10
1536.294733409059
 20
742.6919822188775
 30
0.0
 11
1526.177693775875
 21
745.402834818383
 31
0.0
  0
LINE
  5
4F3
330
4C3
100
AcDbEntity
  8
0
 62
     0
100
AcDbLine
 10
1502.029548118648
 20
751.8733109459461
 30
0.0
 11
1489.955475290035
 21
755.1085490097275
 31
0.0
  0
LINE
  5
4F4
330
4C3
100
AcDbEntity
  8
0
 62
     0
100
AcDbLine
 10
1481.116640537446
 20
746.2697142905892
 30
0.0
 11
1469.950729435156
 21
749.2616111532055
 31
0.0
  0
LINE
  5
4F5
330
4C3
100
AcDbEntity
  8
0
 62
     0
100
AcDbLine
 10
1517.338859023286
 20
736.5640000992448
 30
0.0
 11
1505.264786194673
 21
739.7992381630262
 31
0.0
  0
LINE
  5
4F6
330
4C3
100
AcDbEntity
  8
0
 62
     0
100
AcDbLine
 10
1485.00000000006
 20
734.0219779055359
 30
0.0
 11
1484.351878613471
 21
734.1956415076694
 31
0.0
  0
LINE
  5
4F7
330
4C3
100
AcDbEntity
  8
0
 62
     0
100
AcDbLine
 10
1496.425951442085
 20
730.960403443888
 30
0.0
 11
1485.00000000006
 21
734.021977905536
 31
0.0
  0
LINE
  5
4F8
330
4C3
100
AcDbEntity
  8
0
 62
     0
100
AcDbLine
 10
1414.302502372001
 20
865.0372488331397
 30
0.0
 11
1403.703206538768
 21
867.877321591993
 31
0.0
  0
LINE
  5
4F9
330
4C3
100
AcDbEntity
  8
0
 62
     0
100
AcDbLine
 10
1592.623084574268
 20
817.2563928381945
 30
0.0
 11
1584.814298967968
 21
819.3487506352704
 31
0.0
  0
LINE
  5
4FA
330
4C3
100
AcDbEntity
  8
0
 62
     0
100
AcDbLine
 10
1560.666153310742
 20
825.8192267628334
 30
0.0
 11
1558.744453346497
 21
826.3341447163478
 31
0.0
  0
LINE
  5
4FB
330
4C3
100
AcDbEntity
  8
0
 62
     0
100
AcDbLine
 10
1400.467968462742
 20
879.9513943749129
 30
0.0
 11
1388.393895634129
 21
883.1866324386945
 31
0.0
  0
LINE
  5
4FC
330
4C3
100
AcDbEntity
  8
0
 62
     0
100
AcDbLine
 10
1581.579060891943
 20
831.4228234181904
 30
0.0
 11
1569.504988063329
 21
834.6580614819718
 31
0.0
  0
LINE
  5
4FD
330
4C3
100
AcDbEntity
  8
0
 62
     0
100
AcDbLine
 10
1421.380876043944
 20
885.5549910302697
 30
0.0
 11
1409.306803215331
 21
888.7902290940511
 31
0.0
  0
LINE
  5
4FE
330
4C3
100
AcDbEntity
  8
0
 62
     0
100
AcDbLine
 10
1594.995767263114
 20
839.0350211340759
 30
0.0
 11
1591.394417107097
 21
840.0000000000423
 31
0.0
  0
LINE
  5
4FF
330
4C3
100
AcDbEntity
  8
0
 62
     0
100
AcDbLine
 10
1591.394417107097
 20
840.0000000000423
 30
0.0
 11
1590.417895644531
 21
840.2616581373285
 31
0.0
  0
LINE
  5
500
330
4C3
100
AcDbEntity
  8
0
 62
     0
100
AcDbLine
 10
1566.269749987304
 20
846.7321342648915
 30
0.0
 11
1559.511870288801
 21
848.5429026726521
 31
0.0
  0
LINE
  5
501
330
4C3
100
AcDbEntity
  8
0
 62
     0
100
AcDbLine
 10
1432.678418074946
 20
893.7350171197325
 30
0.0
 11
1430.219710796533
 21
894.393825749408
 31
0.0
  0
LINE
  5
502
330
4C3
100
AcDbEntity
  8
0
 62
     0
100
AcDbLine
 10
1406.071565139306
 20
900.864301876971
 30
0.0
 11
1395.347868824863
 21
903.7377076443025
 31
0.0
  0
LINE
  5
503
330
4C3
100
AcDbEntity
  8
0
 62
     0
100
AcDbLine
 10
1426.984472720507
 20
906.4678985323277
 30
0.0
 11
1414.910399891894
 21
909.7031365961091
 31
0.0
  0
LINE
  5
504
330
4C3
100
AcDbEntity
  8
0
 62
     0
100
AcDbLine
 10
1447.897380301709
 20
912.0714951876847
 30
0.0
 11
1435.823307473095
 21
915.3067332514661
 31
0.0
  0
LINE
  5
505
330
4C3
100
AcDbEntity
  8
0
 62
     0
100
AcDbLine
 10
1411.675161815869
 20
921.7772093790291
 30
0.0
 11
1411.48658999845
 21
921.8277370452218
 31
0.0
  0
LINE
  5
506
330
4C3
100
AcDbEntity
  8
0
 62
     0
100
AcDbLine
 10
1468.81028788291
 20
917.6750918430412
 30
0.0
 11
1456.736215054297
 21
920.9103299068228
 31
0.0
  0
LINE
  5
507
330
4C3
100
AcDbEntity
  8
0
 62
     0
100
AcDbLine
 10
1432.58806939707
 20
927.3808060343858
 30
0.0
 11
1422.047414468655
 21
930.2051660101497
 31
0.0
  0
LINE
  5
508
330
4C3
100
AcDbEntity
  8
0
 62
     0
100
AcDbLine
 10
1453.500976978273
 20
932.9844026897424
 30
0.0
 11
1441.426904149659
 21
936.2196407535238
 31
0.0
  0
LINE
  5
509
330
4C3
100
AcDbEntity
  8
0
 62
     0
100
AcDbLine
 10
1474.413884559474
 20
938.5879993450991
 30
0.0
 11
1462.339811730861
 21
941.8232374088805
 31
0.0
  0
LINE
  5
50A
330
4C3
100
AcDbEntity
  8
0
 62
     0
100
AcDbLine
 10
1505.26478049809
 20
739.7992409627512
 30
0.0
 11
1502.029542434309
 21
751.8733137913645
 31
0.0
  0
LINE
  5
50B
330
4C3
100
AcDbEntity
  8
0
 62
     0
100
AcDbLine
 10
1456.736209541368
 20
920.9103333919516
 30
0.0
 11
1453.500971477586
 21
932.9844062205649
 31
0.0
  0
LINE
  5
50C
330
4C3
100
AcDbEntity
  8
0
 62
     0
100
AcDbLine
 10
1496.52117237558
 20
730.6050157133149
 30
0.0
 11
1496.425945778952
 21
730.9604062101628
 31
0.0
  0
LINE
  5
50D
330
4C3
100
AcDbEntity
  8
0
 62
     0
100
AcDbLine
 10
1489.955469651389
 20
755.1085518673894
 30
0.0
 11
1487.29564795879
 21
765.0351415632429
 31
0.0
  0
LINE
  5
50E
330
4C3
100
AcDbEntity
  8
0
 62
     0
100
AcDbLine
 10
1449.505660232066
 20
906.06929577678
 30
0.0
 11
1447.897374822229
 21
912.0714986393631
 31
0.0
  0
LINE
  5
50F
330
4C3
100
AcDbEntity
  8
0
 62
     0
100
AcDbLine
 10
1441.426898694667
 20
936.2196442965897
 30
0.0
 11
1440.280135815276
 21
940.4994216267079
 31
0.0
  0
LINE
  5
510
330
4C3
100
AcDbEntity
  8
0
 62
     0
100
AcDbLine
 10
1435.82330203931
 20
915.3067367153882
 30
0.0
 11
1432.588063975528
 21
927.3808095440015
 31
0.0
  0
LINE
  5
511
330
4C3
100
AcDbEntity
  8
0
 62
     0
100
AcDbLine
 10
1484.351872996032
 20
734.1956442861876
 30
0.0
 11
1481.116634932251
 21
746.2697171148009
 31
0.0
  0
LINE
  5
512
330
4C3
100
AcDbEntity
  8
0
 62
     0
100
AcDbLine
 10
1430.219705383953
 20
894.393829134187
 30
0.0
 11
1426.984467320171
 21
906.4679019628004
 31
0.0
  0
LINE
  5
513
330
4C3
100
AcDbEntity
  8
0
 62
     0
100
AcDbLine
 10
1422.484835895587
 20
881.4349400505676
 30
0.0
 11
1421.380870664815
 21
885.5549943815979
 31
0.0
  0
LINE
  5
514
330
4C3
100
AcDbEntity
  8
0
 62
     0
100
AcDbLine
 10
1414.910394537252
 20
909.7031400388246
 30
0.0
 11
1411.67515647347
 21
921.7772128674381
 31
0.0
  0
LINE
  5
515
330
4C3
100
AcDbEntity
  8
0
 62
     0
100
AcDbLine
 10
1409.306797881895
 20
888.7902324576231
 30
0.0
 11
1406.071559818113
 21
900.8643052862364
 31
0.0
  0
LINE
  5
516
330
4C3
100
AcDbEntity
  8
0
 62
     0
100
AcDbLine
 10
1403.703201226538
 20
867.8773248764215
 30
0.0
 11
1400.467963162757
 21
879.951397705035
 31
0.0
  0
LINE
  5
517
330
4C3
100
AcDbEntity
  8
0
 62
     0
100
AcDbLine
 10
1398.099604571181
 20
846.9644172952202
 30
0.0
 11
1394.8643665074
 21
859.0384901238335
 31
0.0
  0
LINE
  5
518
330
4C3
100
AcDbEntity
  8
0
 62
     0
100
AcDbLine
 10
1388.393890379837
 20
883.1866357810602
 30
0.0
 11
1386.724681238482
 21
889.4162091050535
 31
0.0
  0
LINE
  5
519
330
4C3
100
AcDbEntity
  8
0
 62
     0
100
AcDbLine
 10
1382.79029372448
 20
862.2737281998583
 30
0.0
 11
1379.985592257197
 21
872.7410165758232
 31
0.0
  0
LINE
  5
51A
330
4C3
100
AcDbEntity
  8
0
 62
     0
100
AcDbLine
 10
1376.425699614494
 20
844.200901783766
 30
0.0
 11
1375.316620602686
 21
848.3400410054393
 31
0.0
  0
LINE
  5
51B
330
4C3
100
AcDbEntity
  8
0
 62
     0
100
AcDbLine
 10
1517.760185263378
 20
734.9915705216767
 30
0.0
 11
1517.33885328101
 21
736.5640028867262
 31
0.0
  0
LINE
  5
51C
330
4C3
100
AcDbEntity
  8
0
 62
     0
100
AcDbLine
 10
1510.868377153447
 20
760.7121485439529
 30
0.0
 11
1508.690549050157
 21
768.8399136755816
 31
0.0
  0
LINE
  5
51D
330
4C3
100
AcDbEntity
  8
0
 62
     0
100
AcDbLine
 10
1469.936574144815
 20
913.4717170175676
 30
0.0
 11
1468.810282324287
 21
917.6750953159265
 31
0.0
  0
LINE
  5
51E
330
4C3
100
AcDbEntity
  8
0
 62
     0
100
AcDbLine
 10
1462.339806196724
 20
941.8232409731531
 30
0.0
 11
1460.866937931595
 21
947.3200601714726
 31
0.0
  0
LINE
  5
51F
330
4C3
100
AcDbEntity
  8
0
 62
     0
100
AcDbLine
 10
1526.177688000149
 20
745.4028376393141
 30
0.0
 11
1522.942449936367
 21
757.4769104679274
 31
0.0
  0
LINE
  5
520
330
4C3
100
AcDbEntity
  8
0
 62
     0
100
AcDbLine
 10
1474.861002097596
 20
936.9193167036923
 30
0.0
 11
1474.413878979644
 21
938.5880028971277
 31
0.0
  0
LINE
  5
521
330
4C3
100
AcDbEntity
  8
0
 62
     0
100
AcDbLine
 10
1531.781284655505
 20
766.3157452205155
 30
0.0
 11
1528.546046591724
 21
778.389818049129
 31
0.0
  0
LINE
  5
522
330
4C3
100
AcDbEntity
  8
0
 62
     0
100
AcDbLine
 10
1547.090595502206
 20
751.0064343158777
 30
0.0
 11
1543.855357438425
 21
763.080507144491
 31
0.0
  0
LINE
  5
523
330
4C3
100
AcDbEntity
  8
0
 62
     0
100
AcDbLine
 10
1552.694192157563
 20
771.9193418970791
 30
0.0
 11
1549.458954093782
 21
783.9934147256924
 31
0.0
  0
LINE
  5
524
330
4C3
100
AcDbEntity
  8
0
 62
     0
100
AcDbLine
 10
1565.690952983699
 20
765.2405851642376
 30
0.0
 11
1564.768264940483
 21
768.6841038210541
 31
0.0
  0
LINE
  5
525
330
4C3
100
AcDbEntity
  8
0
 62
     0
100
AcDbLine
 10
1558.29778881292
 20
792.8322494782808
 30
0.0
 11
1555.062550749139
 21
804.9063223068941
 31
0.0
  0
LINE
  5
526
330
4C3
100
AcDbEntity
  8
0
 62
     0
100
AcDbLine
 10
1573.607099659621
 20
777.5229385736422
 30
0.0
 11
1570.37186159584
 21
789.5970114022555
 31
0.0
  0
LINE
  5
527
330
4C3
100
AcDbEntity
  8
0
 62
     0
100
AcDbLine
 10
1563.901385468277
 20
813.7451570594823
 30
0.0
 11
1560.666147404495
 21
825.8192298880956
 31
0.0
  0
LINE
  5
528
330
4C3
100
AcDbEntity
  8
0
 62
     0
100
AcDbLine
 10
1579.210696314978
 20
798.4358461548444
 30
0.0
 11
1575.975458251196
 21
810.5099189834577
 31
0.0
  0
LINE
  5
529
330
4C3
100
AcDbEntity
  8
0
 62
     0
100
AcDbLine
 10
1569.504982123634
 20
834.6580646406843
 30
0.0
 11
1568.073614858074
 21
840.0000000000421
 31
0.0
  0
LINE
  5
52A
330
4C3
100
AcDbEntity
  8
0
 62
     0
100
AcDbLine
 10
1568.073614858074
 20
840.0000000000423
 30
0.0
 11
1566.269744059852
 21
846.7321374692978
 31
0.0
  0
LINE
  5
52B
330
4C3
100
AcDbEntity
  8
0
 62
     0
100
AcDbLine
 10
1584.814292970335
 20
819.3487537360454
 30
0.0
 11
1581.579054906553
 21
831.4228265646587
 31
0.0
  0
LINE
  5
52C
330
4C3
100
AcDbEntity
  8
0
 62
     0
100
AcDbLine
 10
1590.417889625691
 20
840.2616613172472
 30
0.0
 11
1587.594273210559
 21
850.7995412396066
 31
0.0
  0
ENDBLK
  5
52E
330
4C3
100
AcDbEntity
  8
0
100
AcDbBlockEnd
  0
BLOCK
  5
545
330
53F
100
AcDbEntity
  8
0
100
AcDbBlockBegin
  2
*D15
 70
     1
 10
0.0
 20
0.0
 30
0.0
  3
*D15
  1

  0
LINE
  5
1286
330
53F
100
AcDbEntity
  8
SUNPOU
 62
     0
370
    -2
100
AcDbLine
 10
1276.297840393334
 20
782.7223612014661
 30
0.0
 11
1139.52431483045
 21
760.4727876903758
 31
0.0
  0
MTEXT
  5
1287
102
{ACAD_XDICTIONARY
360
12C1
102
}
330
53F
100
AcDbEntity
  8
SUNPOU
 62
     0
100
AcDbMText
 10
1213.7672337201
 20
797.8788498266232
 30
0.0
 40
30.0
 41
0.0
 71
     5
 72
     1
  1
\A1;\U+2205150
  7
BIGFONT
 11
0.9870254422063855
 21
0.1605639325542602
 31
0.0
 73
     1
 44
1.0
  0
INSERT
  5
1288
330
53F
100
AcDbEntity
  8
SUNPOU
 62
     0
370
    -2
100
AcDbBlockReference
  2
ARROW
 10
1119.783805986322
 20
757.2615090392905
 30
0.0
 41
20.0
 42
20.0
 43
20.0
 50
189.2396303883287
  0
POINT
  5
1289
330
53F
100
AcDbEntity
  8
DEFPOINTS
 62
     0
100
AcDbPoint
 10
1119.783805986322
 20
757.2615090392905
 30
0.0
  0
POINT
  5
128A
330
53F
100
AcDbEntity
  8
DEFPOINTS
 62
     0
100
AcDbPoint
 10
1267.837622317278
 20
781.3460989224295
 30
0.0
  0
ENDBLK
  5
546
330
53F
100
AcDbEntity
  8
0
100
AcDbBlockEnd
  0
BLOCK
  5
630
330
627
100
AcDbEntity
  8
0
100
AcDbBlockBegin
  2
*D16
 70
     1
 10
0.0
 20
0.0
 30
0.0
  3
*D16
  1

  0
LINE
  5
12B2
330
627
100
AcDbEntity
  8
SUNPOU
370
    -2
100
AcDbLine
 10
2685.515151445837
 20
880.1569943480616
 30
0.0
 11
2632.025867639752
 21
880.1569943480616
 31
0.0
  0
LINE
  5
12B3
330
627
100
AcDbEntity
  8
SUNPOU
370
    -2
100
AcDbLine
 10
2632.025867639752
 20
955.1569943480616
 30
0.0
 11
2632.025867639752
 21
905.1569943480616
 31
0.0
  0
SOLID
  5
12B4
330
627
100
AcDbEntity
  8
SUNPOU
100
AcDbTrace
 10
2627.859200973086
 20
955.1569943480616
 30
0.0
 11
2636.192534306419
 21
955.1569943480616
 31
0.0
 12
2632.025867639752
 22
980.1569943480616
 32
0.0
 13
2632.025867639752
 23
980.1569943480616
 33
0.0
  0
SOLID
  5
12B5
330
627
100
AcDbEntity
  8
SUNPOU
100
AcDbTrace
 10
2627.859200973086
 20
905.1569943480616
 30
0.0
 11
2636.192534306419
 21
905.1569943480616
 31
0.0
 12
2632.025867639752
 22
880.1569943480616
 32
0.0
 13
2632.025867639752
 23
880.1569943480616
 33
0.0
  0
MTEXT
  5
12B6
330
627
100
AcDbEntity
  8
SUNPOU
100
AcDbMText
 10
2607.025867639753
 20
930.1569943480622
 30
0.0
 40
30.0
 41
0.0
 71
     5
 72
     1
  1
\A1;100
 11
0.0000000000000001
 21
1.0
 31
0.0
 73
     1
 44
1.0
  0
POINT
  5
12B7
330
627
100
AcDbEntity
  8
DEFPOINTS
 62
     0
100
AcDbPoint
 10
2730.739390122889
 20
980.1569943480616
 30
0.0
  0
POINT
  5
12B8
330
627
100
AcDbEntity
  8
DEFPOINTS
 62
     0
100
AcDbPoint
 10
2735.515151445837
 20
880.1569943480616
 30
0.0
  0
POINT
  5
12B9
330
627
100
AcDbEntity
  8
DEFPOINTS
 62
     0
100
AcDbPoint
 10
2632.025867639752
 20
880.1569943480616
 30
0.0
  0
ENDBLK
  5
631
330
627
100
AcDbEntity
  8
0
100
AcDbBlockEnd
  0
BLOCK
  5
63B
330
632
100
AcDbEntity
  8
0
100
AcDbBlockBegin
  2
*D17
 70
     1
 10
0.0
 20
0.0
 30
0.0
  3
*D17
  1

  0
LINE
  5
12A2
330
632
100
AcDbEntity
  8
SUNPOU
370
    -2
100
AcDbLine
 10
2687.525714145501
 20
660.1569943684209
 30
0.0
 11
2632.025867639752
 21
660.1569943684209
 31
0.0
  0
LINE
  5
12A3
330
632
100
AcDbEntity
  8
SUNPOU
370
    -2
100
AcDbLine
 10
2632.025867639752
 20
855.1569943480616
 30
0.0
 11
2632.025867639752
 21
685.1569943684209
 31
0.0
  0
SOLID
  5
12A4
330
632
100
AcDbEntity
  8
SUNPOU
100
AcDbTrace
 10
2627.859200973086
 20
855.1569943480616
 30
0.0
 11
2636.192534306419
 21
855.1569943480616
 31
0.0
 12
2632.025867639752
 22
880.1569943480616
 32
0.0
 13
2632.025867639752
 23
880.1569943480616
 33
0.0
  0
SOLID
  5
12A5
330
632
100
AcDbEntity
  8
SUNPOU
100
AcDbTrace
 10
2627.859200973086
 20
685.1569943684209
 30
0.0
 11
2636.192534306419
 21
685.1569943684209
 31
0.0
 12
2632.025867639752
 22
660.1569943684209
 32
0.0
 13
2632.025867639752
 23
660.1569943684209
 33
0.0
  0
MTEXT
  5
12A6
330
632
100
AcDbEntity
  8
SUNPOU
100
AcDbMText
 10
2607.025867639753
 20
770.1569943582418
 30
0.0
 40
30.0
 41
0.0
 71
     5
 72
     1
  1
\A1;220
 11
0.0000000000000001
 21
1.0
 31
0.0
 73
     1
 44
1.0
  0
POINT
  5
12A7
330
632
100
AcDbEntity
  8
DEFPOINTS
 62
     0
100
AcDbPoint
 10
2735.515151445837
 20
880.1569943480616
 30
0.0
  0
POINT
  5
12A8
330
632
100
AcDbEntity
  8
DEFPOINTS
 62
     0
100
AcDbPoint
 10
2737.525714145501
 20
660.1569943684209
 30
0.0
  0
POINT
  5
12A9
330
632
100
AcDbEntity
  8
DEFPOINTS
 62
     0
100
AcDbPoint
 10
2632.025867639752
 20
660.1569943684209
 30
0.0
  0
ENDBLK
  5
63C
330
632
100
AcDbEntity
  8
0
100
AcDbBlockEnd
  0
BLOCK
  5
647
330
63D
100
AcDbEntity
  8
0
100
AcDbBlockBegin
  2
*D18
 70
     1
 10
0.0
 20
0.0
 30
0.0
  3
*D18
  1

  0
LINE
  5
1299
330
63D
100
AcDbEntity
  8
SUNPOU
370
    -2
100
AcDbLine
 10
2680.739390122889
 20
980.1569943480616
 30
0.0
 11
2568.52856805536
 21
980.1569943480616
 31
0.0
  0
LINE
  5
129A
330
63D
100
AcDbEntity
  8
SUNPOU
370
    -2
100
AcDbLine
 10
2687.525714145501
 20
560.1569943480617
 30
0.0
 11
2568.52856805536
 21
560.1569943480617
 31
0.0
  0
LINE
  5
129B
330
63D
100
AcDbEntity
  8
SUNPOU
370
    -2
100
AcDbLine
 10
2568.52856805536
 20
955.1569943480616
 30
0.0
 11
2568.52856805536
 21
585.1569943480617
 31
0.0
  0
SOLID
  5
129C
330
63D
100
AcDbEntity
  8
SUNPOU
100
AcDbTrace
 10
2564.361901388693
 20
955.1569943480616
 30
0.0
 11
2572.695234722026
 21
955.1569943480616
 31
0.0
 12
2568.52856805536
 22
980.1569943480616
 32
0.0
 13
2568.52856805536
 23
980.1569943480616
 33
0.0
  0
SOLID
  5
129D
330
63D
100
AcDbEntity
  8
SUNPOU
100
AcDbTrace
 10
2564.361901388693
 20
585.1569943480617
 30
0.0
 11
2572.695234722026
 21
585.1569943480617
 31
0.0
 12
2568.52856805536
 22
560.1569943480617
 32
0.0
 13
2568.52856805536
 23
560.1569943480617
 33
0.0
  0
MTEXT
  5
129E
330
63D
100
AcDbEntity
  8
SUNPOU
100
AcDbMText
 10
2543.52856805536
 20
770.1569943480621
 30
0.0
 40
30.0
 41
0.0
 71
     5
 72
     1
  1
\A1;420
 11
0.0000000000000001
 21
1.0
 31
0.0
 73
     1
 44
1.0
  0
POINT
  5
129F
330
63D
100
AcDbEntity
  8
DEFPOINTS
 62
     0
100
AcDbPoint
 10
2730.739390122889
 20
980.1569943480616
 30
0.0
  0
POINT
  5
12A0
330
63D
100
AcDbEntity
  8
DEFPOINTS
 62
     0
100
AcDbPoint
 10
2737.525714145501
 20
560.1569943480617
 30
0.0
  0
POINT
  5
12A1
330
63D
100
AcDbEntity
  8
DEFPOINTS
 62
     0
100
AcDbPoint
 10
2568.52856805536
 20
560.1569943480617
 30
0.0
  0
ENDBLK
  5
648
330
63D
100
AcDbEntity
  8
0
100
AcDbBlockEnd
  0
BLOCK
  5
652
330
649
100
AcDbEntity
  8
0
100
AcDbBlockBegin
  2
*D19
 70
     1
 10
0.0
 20
0.0
 30
0.0
  3
*D19
  1

  0
LINE
  5
12AA
330
649
100
AcDbEntity
  8
SUNPOU
370
    -2
100
AcDbLine
 10
2687.525714145501
 20
560.1569943480617
 30
0.0
 11
2632.025867639752
 21
560.1569943480617
 31
0.0
  0
LINE
  5
12AB
330
649
100
AcDbEntity
  8
SUNPOU
370
    -2
100
AcDbLine
 10
2632.025867639752
 20
635.1569943684209
 30
0.0
 11
2632.025867639752
 21
585.1569943480617
 31
0.0
  0
SOLID
  5
12AC
330
649
100
AcDbEntity
  8
SUNPOU
100
AcDbTrace
 10
2627.859200973086
 20
635.1569943684209
 30
0.0
 11
2636.192534306419
 21
635.1569943684209
 31
0.0
 12
2632.025867639752
 22
660.1569943684209
 32
0.0
 13
2632.025867639752
 23
660.1569943684209
 33
0.0
  0
SOLID
  5
12AD
330
649
100
AcDbEntity
  8
SUNPOU
100
AcDbTrace
 10
2627.859200973086
 20
585.1569943480617
 30
0.0
 11
2636.192534306419
 21
585.1569943480617
 31
0.0
 12
2632.025867639752
 22
560.1569943480617
 32
0.0
 13
2632.025867639752
 23
560.1569943480617
 33
0.0
  0
MTEXT
  5
12AE
330
649
100
AcDbEntity
  8
SUNPOU
100
AcDbMText
 10
2607.025867639753
 20
610.1569943582418
 30
0.0
 40
30.0
 41
0.0
 71
     5
 72
     1
  1
\A1;100
 11
0.0000000000000001
 21
1.0
 31
0.0
 73
     1
 44
1.0
  0
POINT
  5
12AF
330
649
100
AcDbEntity
  8
DEFPOINTS
 62
     0
100
AcDbPoint
 10
2737.525714145501
 20
660.1569943684209
 30
0.0
  0
POINT
  5
12B0
330
649
100
AcDbEntity
  8
DEFPOINTS
 62
     0
100
AcDbPoint
 10
2737.525714145501
 20
560.1569943480617
 30
0.0
  0
POINT
  5
12B1
330
649
100
AcDbEntity
  8
DEFPOINTS
 62
     0
100
AcDbPoint
 10
2632.025867639752
 20
560.1569943480617
 30
0.0
  0
ENDBLK
  5
653
330
649
100
AcDbEntity
  8
0
100
AcDbBlockEnd
  0
BLOCK
  5
65E
330
654
100
AcDbEntity
  8
0
100
AcDbBlockBegin
  2
*D20
 70
     1
 10
0.0
 20
0.0
 30
0.0
  3
*D20
  1

  0
LINE
  5
1290
330
654
100
AcDbEntity
  8
SUNPOU
370
    -2
100
AcDbLine
 10
2762.404767528114
 20
510.1569943480618
 30
0.0
 11
2762.404767528114
 21
406.2977102370004
 31
0.0
  0
LINE
  5
1291
330
654
100
AcDbEntity
  8
SUNPOU
370
    -2
100
AcDbLine
 10
3182.400534791169
 20
510.1569943480617
 30
0.0
 11
3182.400534791169
 21
406.2977102370004
 31
0.0
  0
LINE
  5
1292
330
654
100
AcDbEntity
  8
SUNPOU
370
    -2
100
AcDbLine
 10
2787.404767528114
 20
406.2977102370004
 30
0.0
 11
3157.400534791169
 21
406.2977102370004
 31
0.0
  0
SOLID
  5
1293
330
654
100
AcDbEntity
  8
SUNPOU
100
AcDbTrace
 10
2787.404767528114
 20
410.4643769036671
 30
0.0
 11
2787.404767528114
 21
402.1310435703338
 31
0.0
 12
2762.404767528114
 22
406.2977102370004
 32
0.0
 13
2762.404767528114
 23
406.2977102370004
 33
0.0
  0
SOLID
  5
1294
330
654
100
AcDbEntity
  8
SUNPOU
100
AcDbTrace
 10
3157.400534791169
 20
410.4643769036671
 30
0.0
 11
3157.400534791169
 21
402.1310435703338
 31
0.0
 12
3182.400534791169
 22
406.2977102370004
 32
0.0
 13
3182.400534791169
 23
406.2977102370004
 33
0.0
  0
MTEXT
  5
1295
330
654
100
AcDbEntity
  8
SUNPOU
100
AcDbMText
 10
2972.402651159642
 20
431.2977102370004
 30
0.0
 40
30.0
 41
0.0
 71
     5
 72
     1
  1
\A1;420
 73
     1
 44
1.0
  0
POINT
  5
1296
330
654
100
AcDbEntity
  8
DEFPOINTS
 62
     0
100
AcDbPoint
 10
2762.404767528114
 20
560.1569943480618
 30
0.0
  0
POINT
  5
1297
330
654
100
AcDbEntity
  8
DEFPOINTS
 62
     0
100
AcDbPoint
 10
3182.400534791169
 20
560.1569943480617
 30
0.0
  0
POINT
  5
1298
330
654
100
AcDbEntity
  8
DEFPOINTS
 62
     0
100
AcDbPoint
 10
3182.400534791169
 20
406.2977102370004
 30
0.0
  0
ENDBLK
  5
65F
330
654
100
AcDbEntity
  8
0
100
AcDbBlockEnd
  0
BLOCK
  5
666
330
660
100
AcDbEntity
  8
0
100
AcDbBlockBegin
  2
*D21
 70
     1
 10
0.0
 20
0.0
 30
0.0
  3
*D21
  1

  0
LINE
  5
128B
330
660
100
AcDbEntity
  8
SUNPOU
 62
     0
370
    -2
100
AcDbLine
 10
3058.297840393334
 20
782.7223612014664
 30
0.0
 11
2921.524314830449
 21
760.4727876903758
 31
0.0
  0
MTEXT
  5
128C
102
{ACAD_XDICTIONARY
360
12C3
102
}
330
660
100
AcDbEntity
  8
SUNPOU
 62
     0
100
AcDbMText
 10
2995.7672337201
 20
797.8788498266233
 30
0.0
 40
30.0
 41
0.0
 71
     5
 72
     1
  1
\A1;\U+2205150
  7
BIGFONT
 11
0.9870254422063851
 21
0.160563932554263
 31
0.0
 73
     1
 44
1.0
  0
INSERT
  5
128D
330
660
100
AcDbEntity
  8
SUNPOU
 62
     0
370
    -2
100
AcDbBlockReference
  2
ARROW
 10
2901.783805986322
 20
757.2615090392904
 30
0.0
 41
20.0
 42
20.0
 43
20.0
 50
189.2396303883289
  0
POINT
  5
128E
330
660
100
AcDbEntity
  8
DEFPOINTS
 62
     0
100
AcDbPoint
 10
2901.783805986322
 20
757.2615090392904
 30
0.0
  0
POINT
  5
128F
330
660
100
AcDbEntity
  8
DEFPOINTS
 62
     0
100
AcDbPoint
 10
3049.837622317278
 20
781.3460989224294
 30
0.0
  0
ENDBLK
  5
667
330
660
100
AcDbEntity
  8
0
100
AcDbBlockEnd
  0
ENDSEC
  0
SECTION
  2
ENTITIES
  0
INSERT
  5
281
330
18
100
AcDbEntity
  8
0
100
AcDbBlockReference
  2
YA_N
 10
6.0
 20
5.0
 30
0.0
  0
TEXT
  5
2B1
330
18
100
AcDbEntity
  8
0
100
AcDbText
 10
1382.140667447306
 20
1404.699514451186
 30
0.0
 40
50.0
  1
S=1/10
  7
BIGFONT
 11
1382.140667447306
 21
1429.699514451186
 31
0.0
100
AcDbText
 73
     2
  0
DIMENSION
  5
37F
330
18
100
AcDbEntity
  8
SUNPOU
100
AcDbDimension
  2
*D8
 10
1520.400534791169
 20
322.6135904818893
 30
0.0
 11
1190.402651159641
 21
347.6135904818893
 31
0.0
 70
    32
 71
     5
 42
659.9957672630552
  3
STYLE10
100
AcDbAlignedDimension
 13
860.404767528114
 23
560.1569943480617
 33
0.0
 14
1520.400534791169
 24
560.1569943480617
 34
0.0
100
AcDbRotatedDimension
1001
ACAD
1000
DSTYLE
1002
{
1070
    41
1040
2.5
1070
    78
1070
     0
1070
   140
1040
3.0
1070
   141
1040
1.0
1070
   176
1070
   256
1070
   177
1070
   256
1070
   178
1070
   256
1070
   271
1070
     0
1070
   272
1070
     0
1070
   279
1070
     1
1070
   284
1070
     1
1070
   288
1070
     1
1002
}
  0
LINE
  5
380
330
18
100
AcDbEntity
  8
0
100
AcDbLine
 10
1606.854093163427
 20
1180.156994348061
 30
0.0
 11
757.0731434555577
 21
1180.156994348061
 31
0.0
  0
LEADER
  5
383
330
18
100
AcDbEntity
  8
SUNPOU
  6
ByBlock
100
AcDbLeader
  3
STANDARD
 73
     0
 74
     0
 75
     1
 40
35.0
 41
130.6666666666666
 76
     3
 10
1334.715732367842
 20
736.7905452624572
 30
0.0
 10
1503.994991050484
 20
544.0420424782073
 30
0.0
 10
1528.994991050484
 20
544.0420424782073
 30
0.0
340
384
1001
ACAD
1000
DSTYLE
1002
{
1070
   341
1005
2FA
1070
    40
1040
10.0
1070
    41
1040
2.5
1070
    42
1040
0.625
1070
    43
1040
3.75
1070
    44
1040
1.25
1070
    73
1070
     0
1070
    74
1070
     0
1070
    77
1070
     1
1070
    78
1070
     8
1070
   140
1040
2.5
1070
   141
1040
2.5
1070
   143
1040
0.0394
1070
   145
1040
1.0
1070
   147
1040
0.625
1070
   171
1070
     4
1070
   172
1070
     1
1070
   173
1070
     1
1070
   176
1070
   256
1070
   177
1070
   256
1070
   178
1070
   256
1070
   271
1070
     0
1070
   272
1070
     0
1070
   273
1070
     8
1070
   274
1070
     4
1070
   343
1005
2FA
1070
   344
1005
2FA
1002
}
  0
MTEXT
  5
384
102
{ACAD_REACTORS
330
383
102
}
330
18
100
AcDbEntity
  8
SUNPOU
  6
ByBlock
100
AcDbMText
 10
1535.244991050484
 20
567.7920424782073
 30
0.0
 40
35.0
 41
0.0
 71
     4
 72
     1
  1
{\Ftxt.shx,bigfont.shx;ﾌｨﾙﾀｰ砂}
 73
     1
 44
1.0
  0
LINE
  5
385
330
18
100
AcDbEntity
  8
0
  6
ByBlock
100
AcDbLine
 10
894.4119896025563
 20
1160.156994348062
 30
0.0
 11
934.4119896025564
 21
1120.156994348062
 31
0.0
  0
LINE
  5
386
330
18
100
AcDbEntity
  8
0
  6
ByBlock
100
AcDbLine
 10
914.4119896025562
 20
1180.156994348061
 30
0.0
 11
834.4119896025572
 21
1100.156994348062
 31
0.0
  0
LINE
  5
387
330
18
100
AcDbEntity
  8
0
  6
ByBlock
100
AcDbLine
 10
874.4119896025559
 20
1140.15699434806
 30
0.0
 11
914.4119896025545
 21
1100.156994348062
 31
0.0
  0
DIMENSION
  5
388
330
18
100
AcDbEntity
  8
SUNPOU
100
AcDbDimension
  2
*D9
 10
781.1194862070465
 20
880.1569943480616
 30
0.0
 11
756.1194862070464
 21
930.156994348062
 31
0.0
 70
    32
 71
     5
 42
100.0
  3
STYLE10
100
AcDbAlignedDimension
 13
879.8330086901827
 23
980.1569943480616
 33
0.0
 14
884.6087700131306
 24
880.1569943480616
 34
0.0
 50
90.0
100
AcDbRotatedDimension
1001
ACAD
1000
DSTYLE
1002
{
1070
    41
1040
2.5
1070
    75
1070
     1
1070
    78
1070
     0
1070
   140
1040
3.0
1070
   141
1040
1.0
1070
   176
1070
   256
1070
   177
1070
   256
1070
   178
1070
   256
1070
   271
1070
     0
1070
   272
1070
     0
1070
   279
1070
     1
1070
   284
1070
     1
1070
   288
1070
     1
1002
}
  0
DIMENSION
  5
389
330
18
100
AcDbEntity
  8
SUNPOU
100
AcDbDimension
  2
*D10
 10
781.1194862070465
 20
660.1569943684209
 30
0.0
 11
756.1194862070464
 21
770.1569943582414
 31
0.0
 70
    32
 71
     5
 42
219.9999999796408
  3
STYLE10
100
AcDbAlignedDimension
 13
884.6087700131306
 23
880.1569943480616
 33
0.0
 14
886.6193327127943
 24
660.1569943684209
 34
0.0
 50
90.0
100
AcDbRotatedDimension
1001
ACAD
1000
DSTYLE
1002
{
1070
    41
1040
2.5
1070
    75
1070
     1
1070
    78
1070
     0
1070
   140
1040
3.0
1070
   141
1040
1.0
1070
   176
1070
   256
1070
   177
1070
   256
1070
   178
1070
   256
1070
   271
1070
     0
1070
   272
1070
     0
1070
   279
1070
     1
1070
   284
1070
     1
1070
   288
1070
     1
1002
}
  0
MTEXT
  5
38A
102
{ACAD_REACTORS
330
38D
102
}
330
18
100
AcDbEntity
  8
SUNPOU
  6
ByBlock
100
AcDbMText
 10
803.6749755190053
 20
496.8623803886421
 30
0.0
 40
35.0
 41
0.0
 71
     6
 72
     1
  1
{\Ftxt.shx,bigfont.shx;透水ｺﾝｸﾘｰﾄ管}
 73
     1
 44
1.0
  0
DIMENSION
  5
38B
330
18
100
AcDbEntity
  8
SUNPOU
100
AcDbDimension
  2
*D11
 10
717.6221866226537
 20
560.1569943480618
 30
0.0
 11
692.6221866226536
 21
770.1569943480619
 31
0.0
 70
    32
 71
     5
 42
420.0
  3
STYLE10
100
AcDbAlignedDimension
 13
879.8330086901827
 23
980.1569943480616
 33
0.0
 14
886.6193327127943
 24
560.1569943480617
 34
0.0
 50
90.0
100
AcDbRotatedDimension
1001
ACAD
1000
DSTYLE
1002
{
1070
    41
1040
2.5
1070
    78
1070
     0
1070
   140
1040
3.0
1070
   141
1040
1.0
1070
   176
1070
   256
1070
   177
1070
   256
1070
   178
1070
   256
1070
   271
1070
     0
1070
   272
1070
     0
1070
   279
1070
     1
1070
   284
1070
     1
1070
   288
1070
     1
1002
}
  0
DIMENSION
  5
38C
330
18
100
AcDbEntity
  8
SUNPOU
100
AcDbDimension
  2
*D12
 10
781.1194862070465
 20
560.1569943480617
 30
0.0
 11
756.1194862070464
 21
610.1569943582415
 31
0.0
 70
    32
 71
     5
 42
100.0000000203591
  3
STYLE10
100
AcDbAlignedDimension
 13
886.6193327127943
 23
660.1569943684209
 33
0.0
 14
886.6193327127943
 24
560.1569943480617
 34
0.0
 50
90.0
100
AcDbRotatedDimension
1001
ACAD
1000
DSTYLE
1002
{
1070
    41
1040
2.5
1070
    75
1070
     1
1070
    78
1070
     0
1070
   140
1040
3.0
1070
   141
1040
1.0
1070
   176
1070
   256
1070
   177
1070
   256
1070
   178
1070
   256
1070
   271
1070
     0
1070
   272
1070
     0
1070
   279
1070
     1
1070
   284
1070
     1
1070
   288
1070
     1
1002
}
  0
LEADER
  5
38D
330
18
100
AcDbEntity
  8
SUNPOU
  6
ByBlock
100
AcDbLeader
  3
STANDARD
 73
     0
 75
     1
 40
35.00000000000001
 41
242.6666666666667
 76
     3
 10
1112.793493455285
 20
720.8319481678755
 30
0.0
 10
834.9249755190053
 20
473.1123803886421
 30
0.0
 10
809.9249755190053
 20
473.1123803886421
 30
0.0
340
38A
1001
ACAD
1000
DSTYLE
1002
{
1070
   341
1005
2FA
1070
    40
1040
10.0
1070
    41
1040
2.5
1070
    42
1040
0.625
1070
    43
1040
3.75
1070
    44
1040
1.25
1070
    73
1070
     0
1070
    74
1070
     0
1070
    77
1070
     1
1070
    78
1070
     8
1070
   140
1040
2.5
1070
   141
1040
2.5
1070
   143
1040
0.0394
1070
   145
1040
1.0
1070
   147
1040
0.625
1070
   171
1070
     4
1070
   172
1070
     1
1070
   173
1070
     1
1070
   176
1070
   256
1070
   177
1070
   256
1070
   178
1070
   256
1070
   271
1070
     0
1070
   272
1070
     0
1070
   273
1070
     8
1070
   274
1070
     4
1070
   343
1005
2FA
1070
   344
1005
2FA
1002
}
  0
LINE
  5
38E
330
18
100
AcDbEntity
  8
0
  6
ByBlock
100
AcDbLine
 10
834.4119896025564
 20
1180.156994348061
 30
0.0
 11
754.4119896025572
 21
1100.156994348062
 31
0.0
  0
LINE
  5
38F
330
18
100
AcDbEntity
  8
0
  6
ByBlock
100
AcDbLine
 10
874.4119896025564
 20
1180.156994348061
 30
0.0
 11
794.4119896025572
 21
1100.156994348062
 31
0.0
  0
DIMENSION
  5
393
330
18
100
AcDbEntity
  8
SUNPOU
100
AcDbDimension
  2
*D13
 10
1350.400534791169
 20
406.2977102370004
 30
0.0
 11
1190.402651159641
 21
431.2977102370004
 31
0.0
 70
    32
 71
     5
 42
319.9957672630553
  3
STYLE10
100
AcDbAlignedDimension
 13
1030.404767528114
 23
560.1569943480617
 33
0.0
 14
1350.400534791169
 24
560.1569943480617
 34
0.0
100
AcDbRotatedDimension
1001
ACAD
1000
DSTYLE
1002
{
1070
    41
1040
2.5
1070
    78
1070
     0
1070
   140
1040
3.0
1070
   141
1040
1.0
1070
   176
1070
   256
1070
   177
1070
   256
1070
   178
1070
   256
1070
   271
1070
     0
1070
   272
1070
     0
1070
   279
1070
     1
1070
   284
1070
     1
1070
   288
1070
     1
1002
}
  0
LINE
  5
395
330
18
100
AcDbEntity
  8
0
  6
ByBlock
100
AcDbLine
 10
1054.411989602556
 20
1160.156994348061
 30
0.0
 11
1114.411989602557
 21
1100.156994348063
 31
0.0
  0
LINE
  5
396
330
18
100
AcDbEntity
  8
0
  6
ByBlock
100
AcDbLine
 10
1034.411989602555
 20
1140.156994348062
 30
0.0
 11
1074.411989602556
 21
1100.156994348062
 31
0.0
  0
LINE
  5
397
330
18
100
AcDbEntity
  8
0
  6
ByBlock
100
AcDbLine
 10
1074.411989602556
 20
1180.156994348061
 30
0.0
 11
994.4119896025567
 21
1100.156994348062
 31
0.0
  0
LINE
  5
398
330
18
100
AcDbEntity
  8
0
  6
ByBlock
100
AcDbLine
 10
994.4119896025563
 20
1180.156994348061
 30
0.0
 11
914.4119896025562
 21
1100.156994348062
 31
0.0
  0
LINE
  5
399
330
18
100
AcDbEntity
  8
0
  6
ByBlock
100
AcDbLine
 10
1034.411989602556
 20
1180.156994348061
 30
0.0
 11
954.4119896025572
 21
1100.156994348062
 31
0.0
  0
LINE
  5
39A
330
18
100
AcDbEntity
  8
0
  6
ByBlock
100
AcDbLine
 10
914.4119896025562
 20
1180.156994348061
 30
0.0
 11
954.4119896025568
 21
1140.156994348062
 31
0.0
  0
LINE
  5
39B
330
18
100
AcDbEntity
  8
0
  6
ByBlock
100
AcDbLine
 10
1074.411989602556
 20
1180.156994348061
 30
0.0
 11
1154.411989602555
 21
1100.156994348062
 31
0.0
  0
TEXT
  5
3AB
330
18
100
AcDbEntity
  8
0
 62
     7
100
AcDbText
 10
839.980644932574
 20
1497.70892496746
 30
0.0
 40
55.0
  1
透水管 K-150 構造図
  7
STYLE1
 72
     4
 11
1185.563978265907
 21
1525.20892496746
 31
0.0
100
AcDbText
  0
INSERT
  5
539
330
18
100
AcDbEntity
  8
SAISEKI
100
AcDbBlockReference
  2
*X14
 10
-294.5952324719456
 20
-69.84300565198054
 30
0.0
1001
ACAD
1000
HATCH
1002
{
1070
    16
1000
HONEY
1040
100.0
1040
0.7853981633974483
1002
}
  0
DIMENSION
  5
53A
330
18
100
AcDbEntity
  8
SUNPOU
100
AcDbDimension
  2
*D15
 10
1267.837622317278
 20
781.3460989224295
 30
0.0
 11
1217.781332033956
 21
773.2032137714635
 31
0.0
 70
   163
 71
     5
 42
149.9999999999984
  3
DIA1
100
AcDbDiametricDimension
 15
1119.783805986322
 25
757.2615090392905
 35
0.0
 40
0.0
  0
CIRCLE
  5
53B
330
18
100
AcDbEntity
  8
0
100
AcDbCircle
 10
1190.404767528114
 20
770.1569943480617
 30
0.0
 40
110.0
  0
CIRCLE
  5
53C
330
18
100
AcDbEntity
  8
0
100
AcDbCircle
 10
1190.404767528114
 20
770.1569943480617
 30
0.0
 40
75.0
  0
LINE
  5
55C
330
18
100
AcDbEntity
  8
0
100
AcDbLine
 10
1030.404767528114
 20
560.1569943480617
 30
0.0
 11
1350.400534791169
 21
560.1569943480617
 31
0.0
  0
LINE
  5
55F
330
18
100
AcDbEntity
  8
0
100
AcDbLine
 10
1350.400534791169
 20
560.1569943480617
 30
0.0
 11
1520.400534791169
 21
980.1569943480616
 31
0.0
  0
LINE
  5
560
330
18
100
AcDbEntity
  8
0
100
AcDbLine
 10
860.404767528114
 20
980.1569943480616
 30
0.0
 11
1030.404767528114
 21
560.1569943480617
 31
0.0
  0
LINE
  5
565
330
18
100
AcDbEntity
  8
0
100
AcDbLine
 10
860.4047675281137
 20
980.1569943480616
 30
0.0
 11
1520.400534791169
 21
980.1569943480616
 31
0.0
  0
LINE
  5
5F9
330
18
100
AcDbEntity
  8
0
100
AcDbLine
 10
2762.404767528114
 20
560.1569943480618
 30
0.0
 11
3182.400534791169
 21
560.1569943480617
 31
0.0
  0
CIRCLE
  5
5FA
330
18
100
AcDbEntity
  8
0
100
AcDbCircle
 10
2972.404767528114
 20
770.1569943480617
 30
0.0
 40
75.0
  0
CIRCLE
  5
5FB
330
18
100
AcDbEntity
  8
0
100
AcDbCircle
 10
2972.404767528114
 20
770.1569943480617
 30
0.0
 40
110.0
  0
DIMENSION
  5
5FC
330
18
100
AcDbEntity
  8
SUNPOU
100
AcDbDimension
  2
*D21
 10
3049.837622317278
 20
781.3460989224294
 30
0.0
 11
2999.781332033956
 21
773.2032137714638
 31
0.0
 70
   163
 71
     5
 42
149.9999999999982
  3
DIA1
100
AcDbDiametricDimension
 15
2901.783805986322
 25
757.2615090392904
 35
0.0
 40
0.0
  0
INSERT
  5
5FD
330
18
100
AcDbEntity
  8
SAISEKI
100
AcDbBlockReference
  2
*X14
 10
1487.404767528054
 20
-69.84300565198054
 30
0.0
1001
ACAD
1000
HATCH
1002
{
1070
    16
1000
HONEY
1040
100.0
1040
0.7853981633974483
1002
}
  0
TEXT
  5
5FE
330
18
100
AcDbEntity
  8
0
 62
     7
100
AcDbText
 10
2621.980644932574
 20
1497.70892496746
 30
0.0
 40
55.0
  1
透水管 K-150 構造図
  7
STYLE1
 72
     4
 11
2967.563978265907
 21
1525.20892496746
 31
0.0
100
AcDbText
  0
DIMENSION
  5
5FF
330
18
100
AcDbEntity
  8
SUNPOU
100
AcDbDimension
  2
*D20
 10
3182.400534791169
 20
406.2977102370004
 30
0.0
 11
2972.402651159642
 21
431.2977102370004
 31
0.0
 70
    32
 71
     5
 42
419.9957672630553
  3
STYLE10
100
AcDbAlignedDimension
 13
2762.404767528114
 23
560.1569943480618
 33
0.0
 14
3182.400534791169
 24
560.1569943480617
 34
0.0
100
AcDbRotatedDimension
1001
ACAD
1000
DSTYLE
1002
{
1070
    41
1040
2.5
1070
    78
1070
     0
1070
   140
1040
3.0
1070
   141
1040
1.0
1070
   176
1070
   256
1070
   177
1070
   256
1070
   178
1070
   256
1070
   271
1070
     0
1070
   272
1070
     0
1070
   279
1070
     1
1070
   284
1070
     1
1070
   288
1070
     1
1002
}
  0
LINE
  5
600
102
{ACAD_REACTORS
330
11C5
102
}
330
18
100
AcDbEntity
  8
0
100
AcDbLine
 10
3182.400534791169
 20
980.1569943480616
 30
0.0
 11
2762.404767528114
 21
980.1569943480618
 31
0.0
  0
LINE
  5
601
102
{ACAD_REACTORS
330
11C5
102
}
330
18
100
AcDbEntity
  8
0
100
AcDbLine
 10
3390.226398023059
 20
1180.156994348061
 30
0.0
 11
2499.87861354599
 21
1180.156994348061
 31
0.0
  0
LEADER
  5
603
330
18
100
AcDbEntity
  8
SUNPOU
  6
ByBlock
100
AcDbLeader
  3
STANDARD
 73
     0
 75
     1
 40
35.00000000000001
 41
242.6666666666667
 76
     3
 10
2894.793493455285
 20
720.8319481678755
 30
0.0
 10
2708.182390457516
 20
473.1123803886421
 30
0.0
 10
2683.182390457516
 20
473.1123803886421
 30
0.0
340
605
1001
ACAD
1000
DSTYLE
1002
{
1070
   341
1005
2FA
1070
    40
1040
10.0
1070
    41
1040
2.5
1070
    42
1040
0.625
1070
    43
1040
3.75
1070
    44
1040
1.25
1070
    73
1070
     0
1070
    74
1070
     0
1070
    77
1070
     1
1070
    78
1070
     8
1070
   140
1040
2.5
1070
   141
1040
2.5
1070
   143
1040
0.0394
1070
   145
1040
1.0
1070
   147
1040
0.625
1070
   171
1070
     4
1070
   172
1070
     1
1070
   173
1070
     1
1070
   176
1070
   256
1070
   177
1070
   256
1070
   178
1070
   256
1070
   271
1070
     0
1070
   272
1070
     0
1070
   273
1070
     8
1070
   274
1070
     4
1070
   343
1005
2FA
1070
   344
1005
2FA
1002
}
  0
DIMENSION
  5
604
330
18
100
AcDbEntity
  8
SUNPOU
100
AcDbDimension
  2
*D18
 10
2568.52856805536
 20
560.1569943480617
 30
0.0
 11
2543.52856805536
 21
770.1569943480621
 31
0.0
 70
    32
 71
     5
 42
420.0
  3
STYLE10
100
AcDbAlignedDimension
 13
2730.739390122889
 23
980.1569943480616
 33
0.0
 14
2737.525714145501
 24
560.1569943480617
 34
0.0
 50
90.0
100
AcDbRotatedDimension
1001
ACAD
1000
DSTYLE
1002
{
1070
    41
1040
2.5
1070
    78
1070
     0
1070
   140
1040
3.0
1070
   141
1040
1.0
1070
   176
1070
   256
1070
   177
1070
   256
1070
   178
1070
   256
1070
   271
1070
     0
1070
   272
1070
     0
1070
   279
1070
     1
1070
   284
1070
     1
1070
   288
1070
     1
1002
}
  0
MTEXT
  5
605
102
{ACAD_REACTORS
330
603
102
}
330
18
100
AcDbEntity
  8
SUNPOU
  6
ByBlock
100
AcDbMText
 10
2676.932390457516
 20
496.8623803886421
 30
0.0
 40
35.0
 41
0.0
 71
     6
 72
     1
  1
{\Ftxt.shx,bigfont.shx;透水ｺﾝｸﾘｰﾄ管}
 73
     1
 44
1.0
  0
DIMENSION
  5
607
330
18
100
AcDbEntity
  8
SUNPOU
100
AcDbDimension
  2
*D17
 10
2632.025867639752
 20
660.1569943684209
 30
0.0
 11
2607.025867639753
 21
770.1569943582418
 31
0.0
 70
    32
 71
     5
 42
219.9999999796408
  3
STYLE10
100
AcDbAlignedDimension
 13
2735.515151445837
 23
880.1569943480616
 33
0.0
 14
2737.525714145501
 24
660.1569943684209
 34
0.0
 50
90.0
100
AcDbRotatedDimension
1001
ACAD
1000
DSTYLE
1002
{
1070
    41
1040
2.5
1070
    75
1070
     1
1070
    78
1070
     0
1070
   140
1040
3.0
1070
   141
1040
1.0
1070
   176
1070
   256
1070
   177
1070
   256
1070
   178
1070
   256
1070
   271
1070
     0
1070
   272
1070
     0
1070
   279
1070
     1
1070
   284
1070
     1
1070
   288
1070
     1
1002
}
  0
DIMENSION
  5
608
330
18
100
AcDbEntity
  8
SUNPOU
100
AcDbDimension
  2
*D19
 10
2632.025867639752
 20
560.1569943480617
 30
0.0
 11
2607.025867639753
 21
610.1569943582418
 31
0.0
 70
    32
 71
     5
 42
100.0000000203591
  3
STYLE10
100
AcDbAlignedDimension
 13
2737.525714145501
 23
660.1569943684209
 33
0.0
 14
2737.525714145501
 24
560.1569943480617
 34
0.0
 50
90.0
100
AcDbRotatedDimension
1001
ACAD
1000
DSTYLE
1002
{
1070
    41
1040
2.5
1070
    75
1070
     1
1070
    78
1070
     0
1070
   140
1040
3.0
1070
   141
1040
1.0
1070
   176
1070
   256
1070
   177
1070
   256
1070
   178
1070
   256
1070
   271
1070
     0
1070
   272
1070
     0
1070
   279
1070
     1
1070
   284
1070
     1
1070
   288
1070
     1
1002
}
  0
DIMENSION
  5
609
330
18
100
AcDbEntity
  8
SUNPOU
100
AcDbDimension
  2
*D16
 10
2632.025867639752
 20
880.1569943480616
 30
0.0
 11
2607.025867639753
 21
930.1569943480622
 31
0.0
 70
    32
 71
     5
 42
100.0
  3
STYLE10
100
AcDbAlignedDimension
 13
2730.739390122889
 23
980.1569943480616
 33
0.0
 14
2735.515151445837
 24
880.1569943480616
 34
0.0
 50
90.0
100
AcDbRotatedDimension
1001
ACAD
1000
DSTYLE
1002
{
1070
    41
1040
2.5
1070
    75
1070
     1
1070
    78
1070
     0
1070
   140
1040
3.0
1070
   141
1040
1.0
1070
   176
1070
   256
1070
   177
1070
   256
1070
   178
1070
   256
1070
   271
1070
     0
1070
   272
1070
     0
1070
   279
1070
     1
1070
   284
1070
     1
1070
   288
1070
     1
1002
}
  0
LINE
  5
60B
330
18
100
AcDbEntity
  8
0
  6
ByBlock
100
AcDbLine
 10
2503.469163496775
 20
1180.156994348061
 30
0.0
 11
2423.469163496776
 21
1100.156994348062
 31
0.0
  0
LINE
  5
60D
330
18
100
AcDbEntity
  8
0
  6
ByBlock
100
AcDbLine
 10
2663.469163496775
 20
1180.156994348061
 30
0.0
 11
2743.469163496774
 21
1100.156994348062
 31
0.0
  0
LINE
  5
60E
330
18
100
AcDbEntity
  8
0
  6
ByBlock
100
AcDbLine
 10
2643.469163496775
 20
1160.156994348061
 30
0.0
 11
2703.469163496776
 21
1100.156994348063
 31
0.0
  0
LINE
  5
60F
330
18
100
AcDbEntity
  8
0
  6
ByBlock
100
AcDbLine
 10
2623.469163496775
 20
1180.156994348061
 30
0.0
 11
2543.469163496776
 21
1100.156994348062
 31
0.0
  0
LINE
  5
610
330
18
100
AcDbEntity
  8
0
  6
ByBlock
100
AcDbLine
 10
2583.469163496775
 20
1180.156994348061
 30
0.0
 11
2503.469163496775
 21
1100.156994348062
 31
0.0
  0
LINE
  5
611
330
18
100
AcDbEntity
  8
0
  6
ByBlock
100
AcDbLine
 10
2463.469163496775
 20
1140.15699434806
 30
0.0
 11
2503.469163496773
 21
1100.156994348062
 31
0.0
  0
LINE
  5
612
330
18
100
AcDbEntity
  8
0
  6
ByBlock
100
AcDbLine
 10
2483.469163496775
 20
1160.156994348062
 30
0.0
 11
2523.469163496775
 21
1120.156994348062
 31
0.0
  0
LINE
  5
613
330
18
100
AcDbEntity
  8
0
  6
ByBlock
100
AcDbLine
 10
2503.469163496775
 20
1180.156994348061
 30
0.0
 11
2543.469163496775
 21
1140.156994348062
 31
0.0
  0
LINE
  5
614
330
18
100
AcDbEntity
  8
0
  6
ByBlock
100
AcDbLine
 10
2663.469163496775
 20
1180.156994348061
 30
0.0
 11
2583.469163496776
 21
1100.156994348062
 31
0.0
  0
LINE
  5
615
330
18
100
AcDbEntity
  8
0
  6
ByBlock
100
AcDbLine
 10
2623.469163496774
 20
1140.156994348062
 30
0.0
 11
2663.469163496775
 21
1100.156994348062
 31
0.0
  0
MTEXT
  5
617
102
{ACAD_REACTORS
330
618
102
}
330
18
100
AcDbEntity
  8
SUNPOU
  6
ByBlock
100
AcDbMText
 10
3280.743986236672
 20
497.7341482069477
 30
0.0
 40
35.0
 41
0.0
 71
     4
 72
     1
  1
{\Ftxt.shx,bigfont.shx;ﾌｨﾙﾀｰ砂}
 73
     1
 44
1.0
  0
LEADER
  5
618
330
18
100
AcDbEntity
  8
SUNPOU
  6
ByBlock
100
AcDbLeader
  3
STANDARD
 73
     0
 74
     0
 75
     1
 40
35.0
 41
130.6666666666666
 76
     3
 10
3152.214950079718
 20
644.0836722656736
 30
0.0
 10
3249.493986236672
 20
473.9841482069477
 30
0.0
 10
3274.493986236671
 20
473.9841482069477
 30
0.0
340
617
1001
ACAD
1000
DSTYLE
1002
{
1070
   341
1005
2FA
1070
    40
1040
10.0
1070
    41
1040
2.5
1070
    42
1040
0.625
1070
    43
1040
3.75
1070
    44
1040
1.25
1070
    73
1070
     0
1070
    74
1070
     0
1070
    77
1070
     1
1070
    78
1070
     8
1070
   140
1040
2.5
1070
   141
1040
2.5
1070
   143
1040
0.0394
1070
   145
1040
1.0
1070
   147
1040
0.625
1070
   171
1070
     4
1070
   172
1070
     1
1070
   173
1070
     1
1070
   176
1070
   256
1070
   177
1070
   256
1070
   178
1070
   256
1070
   271
1070
     0
1070
   272
1070
     0
1070
   273
1070
     8
1070
   274
1070
     4
1070
   343
1005
2FA
1070
   344
1005
2FA
1002
}
  0
TEXT
  5
61A
330
18
100
AcDbEntity
  8
0
100
AcDbText
 10
3164.140667447306
 20
1404.699514451186
 30
0.0
 40
50.0
  1
S=1/10
  7
BIGFONT
 11
3164.140667447306
 21
1429.699514451186
 31
0.0
100
AcDbText
 73
     2
  0
LINE
  5
6A1
102
{ACAD_REACTORS
330
11C5
102
}
330
18
100
AcDbEntity
  8
0
100
AcDbLine
 10
3182.400534791169
 20
560.1569943480617
 30
0.0
 11
3182.400534791169
 21
1180.156994348061
 31
0.0
  0
LEADER
  5
6E7
330
18
100
AcDbEntity
  8
SUNPOU
  6
ByBlock
100
AcDbLeader
  3
STANDARD
 73
     0
 74
     0
 75
     1
 40
35.0
 41
158.6666666666666
 76
     3
 10
3152.214950079718
 20
1069.955872693264
 30
0.0
 10
3249.493986236672
 20
899.8563486345387
 30
0.0
 10
3274.493986236671
 20
899.8563486345387
 30
0.0
340
6E8
1001
ACAD
1000
DSTYLE
1002
{
1070
   341
1005
2FA
1070
    40
1040
10.0
1070
    41
1040
2.5
1070
    42
1040
0.625
1070
    43
1040
3.75
1070
    44
1040
1.25
1070
    73
1070
     0
1070
    74
1070
     0
1070
    77
1070
     1
1070
    78
1070
     8
1070
   140
1040
2.5
1070
   141
1040
2.5
1070
   143
1040
0.0394
1070
   145
1040
1.0
1070
   147
1040
0.625
1070
   171
1070
     4
1070
   172
1070
     1
1070
   173
1070
     1
1070
   176
1070
   256
1070
   177
1070
   256
1070
   178
1070
   256
1070
   271
1070
     0
1070
   272
1070
     0
1070
   273
1070
     8
1070
   274
1070
     4
1070
   343
1005
2FA
1070
   344
1005
2FA
1002
}
  0
MTEXT
  5
6E8
102
{ACAD_REACTORS
330
6E7
102
}
330
18
100
AcDbEntity
  8
SUNPOU
  6
ByBlock
100
AcDbMText
 10
3280.743986236672
 20
923.6063486345388
 30
0.0
 40
35.0
 41
0.0
 71
     4
 72
     1
  1
{\Ftxt.shx,bigfont.shx;埋戻し土}
 73
     1
 44
1.0
  0
MTEXT
  5
78C
330
18
100
AcDbEntity
  8
0
100
AcDbMText
 10
1313.723504770428
 20
309.6412271069028
 30
0.0
 40
30.0
 41
372.3
 71
     1
 72
     5
  1
{\C1;製品長 Ｌ＝0.600ｍ}
  7
BIGFONT
 73
     1
 44
1.0
  0
MTEXT
  5
78D
330
18
100
AcDbEntity
  8
0
100
AcDbMText
 10
3095.723504770428
 20
309.6412271069028
 30
0.0
 40
30.0
 41
372.3
 71
     1
 72
     5
  1
{\C1;製品長 Ｌ＝0.600ｍ}
  7
BIGFONT
 73
     1
 44
1.0
  0
LINE
  5
116F
102
{ACAD_REACTORS
330
11C5
102
}
330
18
100
AcDbEntity
  8
0
100
AcDbLine
 10
2762.404767528114
 20
560.1569943480618
 30
0.0
 11
2762.404767528114
 21
1180.156994348061
 31
0.0
  0
HATCH
  5
11C5
330
18
100
AcDbEntity
  8
SAISEKI
100
AcDbHatch
 10
0.0
 20
0.0
 30
0.0
210
0.0
220
0.0
230
1.0
  2
ANSI31
 70
     0
 71
     1
 91
        1
 92
        7
 72
     0
 73
     1
 93
        4
 10
2762.404767528114
 20
980.1569943480618
 10
3182.400534791169
 20
980.1569943480616
 10
3182.400534791169
 20
1180.156994348061
 10
2762.404767528114
 20
1180.156994348061
 97
        4
330
601
330
116F
330
600
330
6A1
 75
     0
 76
     1
 52
0.0
 41
200.0
 77
     0
 78
     1
 53
45.0
 43
254.3115389687819
 44
0.0
 45
-17.67766952966368
 46
17.67766952966369
 79
     0
 47
2.485481768063875
 98
        1
 10
2825.95861036395
 20
1095.437023786511
1001
ACAD
1010
0.0
1020
0.0
1030
0.0
  0
HATCH
  5
11E0
330
18
100
AcDbEntity
  8
SAISEKI
100
AcDbHatch
 10
0.0
 20
0.0
 30
0.0
210
0.0
220
0.0
230
1.0
  2
AR-SAND
 70
     0
 71
     0
 91
        2
 92
        7
 72
     1
 73
     1
 93
        6
 10
1261.99729989247
 20
980.1569943480618
 42
0.0
 10
860.4047675281137
 20
980.156994348062
 42
0.0
 10
966.2004351168675
 20
718.7794626581998
 42
0.0
 10
1083.183938873321
 20
745.5868111460687
 42
-0.0563760230135431
 10
1080.404767528114
 20
770.1569943480617
 42
-0.5140686829220811
 10
1225.899620591701
 20
874.2728692471102
 42
0.0
 97
        0
 92
        7
 72
     1
 73
     1
 93
        6
 10
1442.993385364253
 20
788.9158016462689
 42
0.0
 10
1300.102665527604
 20
778.3038449354693
 42
-0.0185346604231373
 10
1300.404767528114
 20
770.1569943480617
 42
-0.4769185474631682
 10
1167.554462394441
 20
662.5565131442213
 42
0.0
 10
1145.808646540691
 20
560.1569943480617
 42
0.0
 10
1350.400534791169
 20
560.1569943480616
 42
0.0
 97
        0
 75
     0
 76
     1
 52
0.0
 41
20.0
 77
     0
 78
     4
 53
37.5
 43
-333.4231121573989
 44
0.0
 45
-1.259867162192163
 46
38.53647538026317
 79
     6
 49
0.0
 49
-30.4
 49
0.0
 49
-34.0
 49
0.0
 49
-32.5
 53
7.499999999999999
 43
-333.4231121573989
 44
0.0
 45
35.39553410535454
 46
56.4429213045948
 79
     6
 49
0.0
 49
-16.4
 49
0.0
 49
-27.4
 49
0.0
 49
-10.5
 53
327.5
 43
-358.0231121573989
 44
0.0
 45
62.2828372350299
 46
0.11318107073929
 79
     6
 49
0.0
 49
-10.0
 49
0.0
 49
-36.0
 49
0.0
 49
-47.0
 53
317.5
 43
-358.0231121573989
 44
0.0
 45
60.12253209144586
 46
17.55351129868498
 79
     6
 49
0.0
 49
-5.0
 49
0.0
 49
-23.6
 49
0.0
 49
-27.0
 47
2.485481768063875
 98
        2
 10
1039.58493957045
 20
911.5113719779264
 10
1288.265238587469
 20
618.2245220683293
1001
ACAD
1010
0.0
1020
0.0
1030
0.0
  0
HATCH
  5
11FB
330
18
100
AcDbEntity
  8
SAISEKI
100
AcDbHatch
 10
0.0
 20
0.0
 30
0.0
210
0.0
220
0.0
230
1.0
  2
AR-SAND
 70
     0
 71
     0
 91
        2
 92
        7
 72
     1
 73
     1
 93
        6
 10
2989.404994333024
 20
878.8353835916534
 42
0.0
 10
3005.254422863263
 20
980.156994348062
 42
0.0
 10
2762.404767528114
 20
980.1569943480616
 42
0.0
 10
2762.404767528114
 20
723.5689615119889
 42
0.0
 10
2865.015682368458
 20
746.3329647020908
 42
-0.0546322792204098
 10
2862.404767528114
 20
770.1569943480617
 42
-0.4604274051370733
 97
        0
 92
        7
 72
     1
 73
     1
 93
        6
 10
3182.400534791169
 20
777.7681409804098
 42
0.0
 10
3082.332587979804
 20
774.1412497039527
 42
-0.0090573545826149
 10
3082.404767528114
 20
770.1569943480617
 42
-0.4814527888849654
 10
2947.96989146778
 20
662.9052492251215
 42
0.0
 10
2924.561033453781
 20
560.1569943480618
 42
0.0
 10
3182.400534791169
 20
560.1569943480618
 42
0.0
 97
        0
 75
     0
 76
     1
 52
0.0
 41
20.0
 77
     0
 78
     4
 53
37.5
 43
254.3115389687819
 44
0.0
 45
-1.259867162192163
 46
38.53647538026317
 79
     6
 49
0.0
 49
-30.4
 49
0.0
 49
-34.0
 49
0.0
 49
-32.5
 53
7.499999999999999
 43
254.3115389687819
 44
0.0
 45
35.39553410535454
 46
56.4429213045948
 79
     6
 49
0.0
 49
-16.4
 49
0.0
 49
-27.4
 49
0.0
 49
-10.5
 53
327.5
 43
229.7115389687819
 44
0.0
 45
62.2828372350299
 46
0.11318107073929
 79
     6
 49
0.0
 49
-10.0
 49
0.0
 49
-36.0
 49
0.0
 49
-47.0
 53
317.5
 43
229.7115389687819
 44
0.0
 45
60.12253209144586
 46
17.55351129868498
 79
     6
 49
0.0
 49
-5.0
 49
0.0
 49
-23.6
 49
0.0
 49
-27.0
 47
2.485481768063875
 98
        2
 10
2813.524599049515
 20
851.8598096819628
 10
3087.072920695405
 20
615.739042958453
1001
ACAD
1010
0.0
1020
0.0
1030
0.0
  0
LWPOLYLINE
  5
120D
330
18
100
AcDbEntity
  8
KL
  6
ByBlock
 62
     0
 48
2.0
100
AcDbPolyline
 90
        4
 70
     1
 43
0.0
 10
299.4026511596421
 20
2242.042107488898
 10
3863.402651159641
 20
2242.042107488895
 10
3863.40265115964
 20
-277.9578925111055
 10
299.4026511596398
 20
-277.9578925111023
  0
ENDSEC
  0
SECTION
  2
OBJECTS
  0
DICTIONARY
  5
C
330
0
100
AcDbDictionary
281
     1
  3
ACAD_COLOR
350
10F0
  3
ACAD_GROUP
350
D
  3
ACAD_LAYOUT
350
2D0
  3
ACAD_MATERIAL
350
10C6
  3
ACAD_MLEADERSTYLE
350
1115
  3
ACAD_MLINESTYLE
350
E
  3
ACAD_PLOTSETTINGS
350
2D1
  3
ACAD_PLOTSTYLENAME
350
2CE
  3
ACAD_SCALELIST
350
10F3
  3
ACAD_TABLESTYLE
350
10F1
  3
ACAD_VISUALSTYLE
350
10DF
  3
ACDB_RECOMPOSE_DATA
350
1134
  3
AcDbVariableDictionary
350
2D8
  0
DICTIONARY
  5
111C
330
F
100
AcDbDictionary
280
     1
281
     1
  3
ADSK_XREC_LAYER_RECONCILED
360
111D
  0
DICTIONARY
  5
111E
330
49
100
AcDbDictionary
280
     1
281
     1
  3
ADSK_XREC_LAYER_RECONCILED
360
111F
  0
DICTIONARY
  5
1120
330
4D
100
AcDbDictionary
280
     1
281
     1
  3
ADSK_XREC_LAYER_RECONCILED
360
1121
  0
DICTIONARY
  5
1122
330
4F
100
AcDbDictionary
280
     1
281
     1
  3
ADSK_XREC_LAYER_RECONCILED
360
1123
  0
DICTIONARY
  5
1205
330
1204
100
AcDbDictionary
280
     1
281
     1
  0
DICTIONARY
  5
116D
330
18
100
AcDbDictionary
280
     1
281
     1
  3
ACAD_SORTENTS
360
116E
  0
DICTIONARY
  5
12C1
330
1287
100
AcDbDictionary
280
     1
281
     1
  3
ACAD_MTEXT_2008_RT
360
12C2
  0
DICTIONARY
  5
12C3
330
128C
100
AcDbDictionary
280
     1
281
     1
  3
ACAD_MTEXT_2008_RT
360
12C4
  0
DICTIONARY
  5
10F0
102
{ACAD_REACTORS
330
C
102
}
330
C
100
AcDbDictionary
281
     1
  0
DICTIONARY
  5
D
102
{ACAD_REACTORS
330
C
102
}
330
C
100
AcDbDictionary
281
     1
  0
DICTIONARY
  5
2D0
102
{ACAD_REACTORS
330
C
102
}
330
C
100
AcDbDictionary
281
     1
  3
Model
350
2D2
  3
ﾚｲｱｳﾄ1
350
2D3
  0
DICTIONARY
  5
10C6
102
{ACAD_REACTORS
330
C
102
}
330
C
100
AcDbDictionary
281
     1
  3
ByBlock
350
10CF
  3
ByLayer
350
10C7
  3
Global
350
10D7
  0
DICTIONARY
  5
1115
102
{ACAD_REACTORS
330
C
102
}
330
C
100
AcDbDictionary
281
     1
  3
Standard
350
1116
  0
DICTIONARY
  5
E
102
{ACAD_REACTORS
330
C
102
}
330
C
100
AcDbDictionary
281
     1
  3
STANDARD
350
1B
  0
DICTIONARY
  5
2D1
102
{ACAD_REACTORS
330
C
102
}
330
C
100
AcDbDictionary
281
     1
  0
ACDBDICTIONARYWDFLT
  5
2CE
102
{ACAD_REACTORS
330
C
102
}
330
C
100
AcDbDictionary
281
     1
  3
Normal
350
2CF
100
AcDbDictionaryWithDefault
340
2CF
  0
DICTIONARY
  5
10F3
102
{ACAD_REACTORS
330
C
102
}
330
C
100
AcDbDictionary
281
     1
  3
A0
350
10F4
  3
A1
350
10F5
  3
A2
350
10F6
  3
A3
350
10F7
  3
A4
350
10F8
  3
A5
350
10F9
  3
A6
350
10FA
  3
A7
350
10FB
  3
A8
350
10FC
  3
A9
350
10FD
  3
B0
350
10FE
  3
B1
350
10FF
  3
B2
350
1100
  3
B3
350
1101
  3
B4
350
1102
  3
B5
350
1103
  3
B6
350
1104
  3
B7
350
1105
  3
B8
350
1106
  3
B9
350
1107
  3
C0
350
1108
  3
C1
350
1109
  3
C2
350
110A
  3
C3
350
110B
  3
C4
350
110C
  3
C5
350
110D
  3
C6
350
110E
  3
C7
350
110F
  3
C8
350
1110
  3
C9
350
1111
  3
D0
350
1112
  3
D1
350
1113
  3
D2
350
1114
  0
DICTIONARY
  5
10F1
102
{ACAD_REACTORS
330
C
102
}
330
C
100
AcDbDictionary
281
     1
  3
Standard
350
10F2
  0
DICTIONARY
  5
10DF
102
{ACAD_REACTORS
330
C
102
}
330
C
100
AcDbDictionary
281
     1
  3
2dWireframe
350
10E5
  3
3D Hidden
350
10E7
  3
3dWireframe
350
10E6
  3
Basic
350
10E4
  3
Brighten
350
10EB
  3
ColorChange
350
10EF
  3
Conceptual
350
10E8
  3
Dim
350
10EA
  3
Facepattern
350
10EE
  3
Flat
350
10E0
  3
FlatWithEdges
350
10E1
  3
Gouraud
350
10E2
  3
GouraudWithEdges
350
10E3
  3
Linepattern
350
10ED
  3
Realistic
350
10E9
  3
Thicken
350
10EC
  0
XRECORD
  5
1134
102
{ACAD_REACTORS
330
C
102
}
330
C
100
AcDbXrecord
280
     1
 90
        1
330
10F2
  0
DICTIONARY
  5
2D8
102
{ACAD_REACTORS
330
C
102
}
330
C
100
AcDbDictionary
281
     1
  3
CANNOSCALE
350
1126
  3
CMLEADERSTYLE
350
1125
  3
CTABLESTYLE
350
1124
  3
LIGHTINGUNITS
350
1136
  3
MSLTSCALE
350
1135
  3
SORTENTS
350
2D9
  0
XRECORD
  5
111D
102
{ACAD_REACTORS
330
111C
102
}
330
111C
100
AcDbXrecord
280
     1
290
     1
  0
XRECORD
  5
111F
102
{ACAD_REACTORS
330
111E
102
}
330
111E
100
AcDbXrecord
280
     1
290
     1
  0
XRECORD
  5
1121
102
{ACAD_REACTORS
330
1120
102
}
330
1120
100
AcDbXrecord
280
     1
290
     1
  0
XRECORD
  5
1123
102
{ACAD_REACTORS
330
1122
102
}
330
1122
100
AcDbXrecord
280
     1
290
     1
  0
SORTENTSTABLE
  5
116E
102
{ACAD_REACTORS
330
116D
102
}
330
116D
100
AcDbSortentsTable
330
18
331
605
  5
60F
331
389
  5
389
331
39A
  5
39A
331
396
  5
396
331
78D
  5
11B0
331
39B
  5
39B
331
2B1
  5
2B1
331
617
  5
116C
331
38A
  5
38A
331
539
  5
539
331
5F9
  5
5FD
331
397
  5
397
331
618
  5
116F
331
5FA
  5
5FE
331
607
  5
610
331
38B
  5
38B
331
53A
  5
53A
331
11FB
  5
5FC
331
55C
  5
560
331
37F
  5
37F
331
38C
  5
38C
331
53B
  5
55C
331
608
  5
611
331
5FB
  5
5FF
331
6E7
  5
11AD
331
61A
  5
11AA
331
5FC
  5
603
331
609
  5
612
331
38D
  5
38D
331
53C
  5
55F
331
380
  5
380
331
6E8
  5
11AE
331
38E
  5
38E
331
5FD
  5
604
331
281
  5
281
331
5FE
  5
605
331
11C5
  5
608
331
60B
  5
613
331
38F
  5
38F
331
55F
  5
565
331
610
  5
618
331
560
  5
5F9
331
5FF
  5
607
331
6A1
  5
11AC
331
383
  5
383
331
611
  5
61A
331
60D
  5
614
331
600
  5
609
331
384
  5
384
331
612
  5
6A1
331
3AB
  5
3AB
331
385
  5
385
331
601
  5
60B
331
116F
  5
11AB
331
11E0
  5
53C
331
60E
  5
615
331
613
  5
6E7
331
60F
  5
617
331
393
  5
393
331
386
  5
386
331
614
  5
70A
331
603
  5
60D
331
387
  5
387
331
398
  5
398
331
615
  5
71E
331
565
  5
5FA
331
78C
  5
11AF
331
604
  5
60E
331
395
  5
395
331
388
  5
388
331
399
  5
399
  0
XRECORD
  5
12C2
102
{ACAD_REACTORS
330
12C1
102
}
330
12C1
100
AcDbXrecord
280
     1
 40
5738.0
  1
\A1;\U+2205150
  0
XRECORD
  5
12C4
102
{ACAD_REACTORS
330
12C3
102
}
330
12C3
100
AcDbXrecord
280
     1
 40
5738.0
  1
\A1;\U+2205150
  0
LAYOUT
  5
2D2
102
{ACAD_REACTORS
330
2D0
102
}
330
2D0
100
AcDbPlotSettings
  1

  2
EPSON LP-8000SX
  4

  6

 40
0.0
 41
0.0
 42
0.0
 43
0.0
 44
0.0
 45
0.0
 46
0.0
 47
0.0
 48
0.0
 49
0.0
140
0.0
141
0.0
142
1.0
143
1.0
 70
  1712
 72
     0
 73
     0
 74
     0
  7

 75
     0
147
1.0
 76
     0
 77
     2
 78
   300
148
0.0
149
0.0
100
AcDbLayout
  1
Model
 70
     1
 71
     0
 10
0.0
 20
0.0
 11
12.0
 21
9.0
 12
0.0
 22
0.0
 32
0.0
 14
0.0
 24
0.0
 34
0.0
 15
0.0
 25
0.0
 35
0.0
146
0.0
 13
0.0
 23
0.0
 33
0.0
 16
1.0
 26
0.0
 36
0.0
 17
0.0
 27
1.0
 37
0.0
 76
     0
330
18
331
10C4
  0
LAYOUT
  5
2D3
102
{ACAD_REACTORS
330
2D0
102
}
330
2D0
100
AcDbPlotSettings
  1

  2
EPSON LP-8000SX
  4

  6

 40
0.0
 41
0.0
 42
0.0
 43
0.0
 44
0.0
 45
0.0
 46
0.0
 47
0.0
 48
0.0
 49
0.0
140
0.0
141
0.0
142
1.0
143
1.0
 70
   688
 72
     0
 73
     0
 74
     5
  7

 75
    16
147
1.0
 76
     0
 77
     2
 78
   300
148
0.0
149
0.0
100
AcDbLayout
  1
ﾚｲｱｳﾄ1
 70
     1
 71
     1
 10
0.0
 20
0.0
 11
12.0
 21
9.0
 12
0.0
 22
0.0
 32
0.0
 14
1.000000000000000E+20
 24
1.000000000000000E+20
 34
1.000000000000000E+20
 15
-1.000000000000000E+20
 25
-1.000000000000000E+20
 35
-1.000000000000000E+20
146
0.0
 13
0.0
 23
0.0
 33
0.0
 16
1.0
 26
0.0
 36
0.0
 17
0.0
 27
1.0
 37
0.0
 76
     0
330
15
  0
MATERIAL
  5
10CF
102
{ACAD_XDICTIONARY
360
10D0
102
}
102
{ACAD_REACTORS
330
10C6
102
}
330
10C6
100
AcDbMaterial
  1
ByBlock
 72
     0
 43
0.0208333333333333
 43
0.0
 43
0.0
 43
0.0
 43
0.0
 43
0.0208333333333333
 43
0.0
 43
0.0
 43
0.0
 43
0.0
 43
1.0
 43
0.0
 43
0.0
 43
0.0
 43
0.0
 43
1.0
 77
     0
 47
0.0208333333333333
 47
0.0
 47
0.0
 47
0.0
 47
0.0
 47
0.0208333333333333
 47
0.0
 47
0.0
 47
0.0
 47
0.0
 47
1.0
 47
0.0
 47
0.0
 47
0.0
 47
0.0
 47
1.0
171
     0
 49
0.0208333333333333
 49
0.0
 49
0.0
 49
0.0
 49
0.0
 49
0.0208333333333333
 49
0.0
 49
0.0
 49
0.0
 49
0.0
 49
1.0
 49
0.0
 49
0.0
 49
0.0
 49
0.0
 49
1.0
175
     0
142
0.0208333333333333
142
0.0
142
0.0
142
0.0
142
0.0
142
0.0208333333333333
142
0.0
142
0.0
142
0.0
142
0.0
142
1.0
142
0.0
142
0.0
142
0.0
142
0.0
142
1.0
179
     0
144
0.0208333333333333
144
0.0
144
0.0
144
0.0
144
0.0
144
0.0208333333333333
144
0.0
144
0.0
144
0.0
144
0.0
144
1.0
144
0.0
144
0.0
144
0.0
144
0.0
144
1.0
147
0.0208333333333333
147
0.0
147
0.0
147
0.0
147
0.0
147
0.0208333333333333
147
0.0
147
0.0
147
0.0
147
0.0
147
1.0
147
0.0
147
0.0
147
0.0
147
0.0
147
1.0
  0
MATERIAL
  5
10C7
102
{ACAD_XDICTIONARY
360
10C8
102
}
102
{ACAD_REACTORS
330
10C6
102
}
330
10C6
100
AcDbMaterial
  1
ByLayer
 72
     0
 43
0.0208333333333333
 43
0.0
 43
0.0
 43
0.0
 43
0.0
 43
0.0208333333333333
 43
0.0
 43
0.0
 43
0.0
 43
0.0
 43
1.0
 43
0.0
 43
0.0
 43
0.0
 43
0.0
 43
1.0
 77
     0
 47
0.0208333333333333
 47
0.0
 47
0.0
 47
0.0
 47
0.0
 47
0.0208333333333333
 47
0.0
 47
0.0
 47
0.0
 47
0.0
 47
1.0
 47
0.0
 47
0.0
 47
0.0
 47
0.0
 47
1.0
171
     0
 49
0.0208333333333333
 49
0.0
 49
0.0
 49
0.0
 49
0.0
 49
0.0208333333333333
 49
0.0
 49
0.0
 49
0.0
 49
0.0
 49
1.0
 49
0.0
 49
0.0
 49
0.0
 49
0.0
 49
1.0
175
     0
142
0.0208333333333333
142
0.0
142
0.0
142
0.0
142
0.0
142
0.0208333333333333
142
0.0
142
0.0
142
0.0
142
0.0
142
1.0
142
0.0
142
0.0
142
0.0
142
0.0
142
1.0
179
     0
144
0.0208333333333333
144
0.0
144
0.0
144
0.0
144
0.0
144
0.0208333333333333
144
0.0
144
0.0
144
0.0
144
0.0
144
1.0
144
0.0
144
0.0
144
0.0
144
0.0
144
1.0
147
0.0208333333333333
147
0.0
147
0.0
147
0.0
147
0.0
147
0.0208333333333333
147
0.0
147
0.0
147
0.0
147
0.0
147
1.0
147
0.0
147
0.0
147
0.0
147
0.0
147
1.0
  0
MATERIAL
  5
10D7
102
{ACAD_XDICTIONARY
360
10D8
102
}
102
{ACAD_REACTORS
330
10C6
102
}
330
10C6
100
AcDbMaterial
  1
Global
 72
     0
 43
0.0208333333333333
 43
0.0
 43
0.0
 43
0.0
 43
0.0
 43
0.0208333333333333
 43
0.0
 43
0.0
 43
0.0
 43
0.0
 43
1.0
 43
0.0
 43
0.0
 43
0.0
 43
0.0
 43
1.0
 77
     0
 47
0.0208333333333333
 47
0.0
 47
0.0
 47
0.0
 47
0.0
 47
0.0208333333333333
 47
0.0
 47
0.0
 47
0.0
 47
0.0
 47
1.0
 47
0.0
 47
0.0
 47
0.0
 47
0.0
 47
1.0
171
     0
 49
0.0208333333333333
 49
0.0
 49
0.0
 49
0.0
 49
0.0
 49
0.0208333333333333
 49
0.0
 49
0.0
 49
0.0
 49
0.0
 49
1.0
 49
0.0
 49
0.0
 49
0.0
 49
0.0
 49
1.0
175
     0
142
0.0208333333333333
142
0.0
142
0.0
142
0.0
142
0.0
142
0.0208333333333333
142
0.0
142
0.0
142
0.0
142
0.0
142
1.0
142
0.0
142
0.0
142
0.0
142
0.0
142
1.0
179
     0
144
0.0208333333333333
144
0.0
144
0.0
144
0.0
144
0.0
144
0.0208333333333333
144
0.0
144
0.0
144
0.0
144
0.0
144
1.0
144
0.0
144
0.0
144
0.0
144
0.0
144
1.0
147
0.0208333333333333
147
0.0
147
0.0
147
0.0
147
0.0
147
0.0208333333333333
147
0.0
147
0.0
147
0.0
147
0.0
147
1.0
147
0.0
147
0.0
147
0.0
147
0.0
147
1.0
  0
MLEADERSTYLE
  5
1116
102
{ACAD_REACTORS
330
1115
102
}
330
1115
100
AcDbMLeaderStyle
170
     2
171
     1
172
     0
 90
        2
 40
0.0
 41
0.0
173
     1
 91
-1056964608
340
12
 92
       -2
290
     1
 42
0.09
291
     1
 43
0.36
  3
Standard
 44
0.18
300

342
10
174
     1
178
     6
175
     1
176
     0
 93
-1056964608
 45
0.18
292
     0
297
     0
 46
0.18
 94
-1056964608
 47
1.0
 49
1.0
140
1.0
293
     1
141
0.0
294
     1
177
     0
142
1.0
295
     0
296
     0
143
0.125
1001
ACAD_MLEADERVER
1070
     2
  0
MLINESTYLE
  5
1B
102
{ACAD_REACTORS
330
E
102
}
330
E
100
AcDbMlineStyle
  2
STANDARD
 70
     0
  3

 62
     0
 51
90.0
 52
90.0
 71
     2
 49
0.5
 62
   256
  6
BYLAYER
 49
-0.5
 62
   256
  6
BYLAYER
  0
ACDBPLACEHOLDER
  5
2CF
102
{ACAD_REACTORS
330
2CE
102
}
330
2CE
  0
SCALE
  5
10F4
102
{ACAD_REACTORS
330
10F3
102
}
330
10F3
100
AcDbScale
 70
     0
300
1:1
140
1.0
141
1.0
290
     1
  0
SCALE
  5
10F5
102
{ACAD_REACTORS
330
10F3
102
}
330
10F3
100
AcDbScale
 70
     0
300
1:2
140
1.0
141
2.0
290
     0
  0
SCALE
  5
10F6
102
{ACAD_REACTORS
330
10F3
102
}
330
10F3
100
AcDbScale
 70
     0
300
1:4
140
1.0
141
4.0
290
     0
  0
SCALE
  5
10F7
102
{ACAD_REACTORS
330
10F3
102
}
330
10F3
100
AcDbScale
 70
     0
300
1:5
140
1.0
141
5.0
290
     0
  0
SCALE
  5
10F8
102
{ACAD_REACTORS
330
10F3
102
}
330
10F3
100
AcDbScale
 70
     0
300
1:8
140
1.0
141
8.0
290
     0
  0
SCALE
  5
10F9
102
{ACAD_REACTORS
330
10F3
102
}
330
10F3
100
AcDbScale
 70
     0
300
1:10
140
1.0
141
10.0
290
     0
  0
SCALE
  5
10FA
102
{ACAD_REACTORS
330
10F3
102
}
330
10F3
100
AcDbScale
 70
     0
300
1:16
140
1.0
141
16.0
290
     0
  0
SCALE
  5
10FB
102
{ACAD_REACTORS
330
10F3
102
}
330
10F3
100
AcDbScale
 70
     0
300
1:20
140
1.0
141
20.0
290
     0
  0
SCALE
  5
10FC
102
{ACAD_REACTORS
330
10F3
102
}
330
10F3
100
AcDbScale
 70
     0
300
1:30
140
1.0
141
30.0
290
     0
  0
SCALE
  5
10FD
102
{ACAD_REACTORS
330
10F3
102
}
330
10F3
100
AcDbScale
 70
     0
300
1:40
140
1.0
141
40.0
290
     0
  0
SCALE
  5
10FE
102
{ACAD_REACTORS
330
10F3
102
}
330
10F3
100
AcDbScale
 70
     0
300
1:50
140
1.0
141
50.0
290
     0
  0
SCALE
  5
10FF
102
{ACAD_REACTORS
330
10F3
102
}
330
10F3
100
AcDbScale
 70
     0
300
1:100
140
1.0
141
100.0
290
     0
  0
SCALE
  5
1100
102
{ACAD_REACTORS
330
10F3
102
}
330
10F3
100
AcDbScale
 70
     0
300
2:1
140
2.0
141
1.0
290
     0
  0
SCALE
  5
1101
102
{ACAD_REACTORS
330
10F3
102
}
330
10F3
100
AcDbScale
 70
     0
300
4:1
140
4.0
141
1.0
290
     0
  0
SCALE
  5
1102
102
{ACAD_REACTORS
330
10F3
102
}
330
10F3
100
AcDbScale
 70
     0
300
8:1
140
8.0
141
1.0
290
     0
  0
SCALE
  5
1103
102
{ACAD_REACTORS
330
10F3
102
}
330
10F3
100
AcDbScale
 70
     0
300
10:1
140
10.0
141
1.0
290
     0
  0
SCALE
  5
1104
102
{ACAD_REACTORS
330
10F3
102
}
330
10F3
100
AcDbScale
 70
     0
300
100:1
140
100.0
141
1.0
290
     0
  0
SCALE
  5
1105
102
{ACAD_REACTORS
330
10F3
102
}
330
10F3
100
AcDbScale
 70
     0
300
1/128" = 1'-0"
140
0.0078125
141
12.0
290
     0
  0
SCALE
  5
1106
102
{ACAD_REACTORS
330
10F3
102
}
330
10F3
100
AcDbScale
 70
     0
300
1/64" = 1'-0"
140
0.015625
141
12.0
290
     0
  0
SCALE
  5
1107
102
{ACAD_REACTORS
330
10F3
102
}
330
10F3
100
AcDbScale
 70
     0
300
1/32" = 1'-0"
140
0.03125
141
12.0
290
     0
  0
SCALE
  5
1108
102
{ACAD_REACTORS
330
10F3
102
}
330
10F3
100
AcDbScale
 70
     0
300
1/16" = 1'-0"
140
0.0625
141
12.0
290
     0
  0
SCALE
  5
1109
102
{ACAD_REACTORS
330
10F3
102
}
330
10F3
100
AcDbScale
 70
     0
300
3/32" = 1'-0"
140
0.09375
141
12.0
290
     0
  0
SCALE
  5
110A
102
{ACAD_REACTORS
330
10F3
102
}
330
10F3
100
AcDbScale
 70
     0
300
1/8" = 1'-0"
140
0.125
141
12.0
290
     0
  0
SCALE
  5
110B
102
{ACAD_REACTORS
330
10F3
102
}
330
10F3
100
AcDbScale
 70
     0
300
3/16" = 1'-0"
140
0.1875
141
12.0
290
     0
  0
SCALE
  5
110C
102
{ACAD_REACTORS
330
10F3
102
}
330
10F3
100
AcDbScale
 70
     0
300
1/4" = 1'-0"
140
0.25
141
12.0
290
     0
  0
SCALE
  5
110D
102
{ACAD_REACTORS
330
10F3
102
}
330
10F3
100
AcDbScale
 70
     0
300
3/8" = 1'-0"
140
0.375
141
12.0
290
     0
  0
SCALE
  5
110E
102
{ACAD_REACTORS
330
10F3
102
}
330
10F3
100
AcDbScale
 70
     0
300
1/2" = 1'-0"
140
0.5
141
12.0
290
     0
  0
SCALE
  5
110F
102
{ACAD_REACTORS
330
10F3
102
}
330
10F3
100
AcDbScale
 70
     0
300
3/4" = 1'-0"
140
0.75
141
12.0
290
     0
  0
SCALE
  5
1110
102
{ACAD_REACTORS
330
10F3
102
}
330
10F3
100
AcDbScale
 70
     0
300
1" = 1'-0"
140
1.0
141
12.0
290
     0
  0
SCALE
  5
1111
102
{ACAD_REACTORS
330
10F3
102
}
330
10F3
100
AcDbScale
 70
     0
300
1-1/2" = 1'-0"
140
1.5
141
12.0
290
     0
  0
SCALE
  5
1112
102
{ACAD_REACTORS
330
10F3
102
}
330
10F3
100
AcDbScale
 70
     0
300
3" = 1'-0"
140
3.0
141
12.0
290
     0
  0
SCALE
  5
1113
102
{ACAD_REACTORS
330
10F3
102
}
330
10F3
100
AcDbScale
 70
     0
300
6" = 1'-0"
140
6.0
141
12.0
290
     0
  0
SCALE
  5
1114
102
{ACAD_REACTORS
330
10F3
102
}
330
10F3
100
AcDbScale
 70
     0
300
1'-0" = 1'-0"
140
12.0
141
12.0
290
     0
  0
TABLESTYLE
  5
10F2
102
{ACAD_XDICTIONARY
360
1132
102
}
102
{ACAD_REACTORS
330
10F1
102
}
330
10F1
100
AcDbTableStyle
  3
Standard
 70
     0
 71
     0
 40
0.06
 41
0.06
280
     0
281
     0
  7
STANDARD
140
0.18
170
     2
 62
     0
 63
     7
283
     0
274
    -2
284
     1
 64
     0
275
    -2
285
     1
 65
     0
276
    -2
286
     1
 66
     0
277
    -2
287
     1
 67
     0
278
    -2
288
     1
 68
     0
279
    -2
289
     1
 69
     0
  7
STANDARD
140
0.25
170
     5
 62
     0
 63
     7
283
     0
274
    -2
284
     1
 64
     0
275
    -2
285
     1
 65
     0
276
    -2
286
     1
 66
     0
277
    -2
287
     1
 67
     0
278
    -2
288
     1
 68
     0
279
    -2
289
     1
 69
     0
  7
STANDARD
140
0.18
170
     5
 62
     0
 63
     7
283
     0
274
    -2
284
     1
 64
     0
275
    -2
285
     1
 65
     0
276
    -2
286
     1
 66
     0
277
    -2
287
     1
 67
     0
278
    -2
288
     1
 68
     0
279
    -2
289
     1
 69
     0
  0
VISUALSTYLE
  5
10E5
102
{ACAD_REACTORS
330
10DF
102
}
330
10DF
100
AcDbVisualStyle
  2
2dWireframe
 70
     4
 71
     0
 72
     2
 73
     0
 90
        0
 40
-0.6
 41
-30.0
 62
     5
 63
     7
421
 16777215
 74
     1
 91
        4
 64
     7
 65
   257
 75
     1
175
     1
 42
1.0
 92
        0
 66
   257
 43
1.0
 76
     1
 77
     6
 78
     2
 67
     7
 79
     5
170
     0
171
     0
290
     0
174
     0
 93
        1
 44
0.0
173
     0
291
     0
 45
0.0
1001
ACAD
1000
AcDbSavedByObjectVersion
1070
     0
  0
VISUALSTYLE
  5
10E7
102
{ACAD_REACTORS
330
10DF
102
}
330
10DF
100
AcDbVisualStyle
  2
3D Hidden
 70
     6
 71
     1
 72
     2
 73
     2
 90
        0
 40
-0.6
 41
-30.0
 62
     5
 63
     7
421
 16777215
 74
     2
 91
        2
 64
     7
 65
   257
 75
     2
175
     1
 42
40.0
 92
        0
 66
   257
 43
1.0
 76
     1
 77
     6
 78
     2
 67
     7
 79
     3
170
     0
171
     0
290
     0
174
     0
 93
        1
 44
0.0
173
     0
291
     0
 45
0.0
1001
ACAD
1000
AcDbSavedByObjectVersion
1070
     0
  0
VISUALSTYLE
  5
10E6
102
{ACAD_REACTORS
330
10DF
102
}
330
10DF
100
AcDbVisualStyle
  2
3dWireframe
 70
     5
 71
     0
 72
     2
 73
     0
 90
        0
 40
-0.6
 41
-30.0
 62
     5
 63
     7
421
 16777215
 74
     1
 91
        4
 64
     7
 65
   257
 75
     1
175
     1
 42
1.0
 92
        0
 66
   257
 43
1.0
 76
     1
 77
     6
 78
     2
 67
     7
 79
     5
170
     0
171
     0
290
     0
174
     0
 93
        1
 44
0.0
173
     0
291
     0
 45
0.0
1001
ACAD
1000
AcDbSavedByObjectVersion
1070
     0
  0
VISUALSTYLE
  5
10E4
102
{ACAD_REACTORS
330
10DF
102
}
330
10DF
100
AcDbVisualStyle
  2
Basic
 70
     7
 71
     1
 72
     0
 73
     1
 90
        0
 40
-0.6
 41
-30.0
 62
     5
 63
     7
421
 16777215
 74
     0
 91
        4
 64
     7
 65
   257
 75
     1
175
     1
 42
1.0
 92
        8
 66
     7
 43
1.0
 76
     1
 77
     6
 78
     2
 67
     7
 79
     5
170
     0
171
     0
290
     0
174
     0
 93
        1
 44
0.0
173
     0
291
     1
 45
0.0
1001
ACAD
1000
AcDbSavedByObjectVersion
1070
     0
  0
VISUALSTYLE
  5
10EB
102
{ACAD_REACTORS
330
10DF
102
}
330
10DF
100
AcDbVisualStyle
  2
Brighten
 70
    12
 71
     2
 72
     2
 73
     0
 90
        0
 40
-0.6
 41
-30.0
 62
     5
 63
     7
421
 16777215
 74
     1
 91
        4
 64
     7
 65
   257
 75
     1
175
     1
 42
1.0
 92
        8
 66
     7
 43
1.0
 76
     1
 77
     6
 78
     2
 67
     7
 79
     5
170
     0
171
     0
290
     0
174
     0
 93
        1
 44
50.0
173
     0
291
     1
 45
0.0
1001
ACAD
1000
AcDbSavedByObjectVersion
1070
     0
  0
VISUALSTYLE
  5
10EF
102
{ACAD_REACTORS
330
10DF
102
}
330
10DF
100
AcDbVisualStyle
  2
ColorChange
 70
    16
 71
     2
 72
     2
 73
     3
 90
        0
 40
-0.6
 41
-30.0
 62
     5
 63
     8
421
  8421504
 74
     1
 91
        4
 64
     7
 65
   257
 75
     1
175
     1
 42
1.0
 92
        8
 66
     8
424
  8421504
 43
1.0
 76
     1
 77
     6
 78
     2
 67
     7
 79
     5
170
     0
171
     0
290
     0
174
     0
 93
        1
 44
0.0
173
     0
291
     1
 45
0.0
1001
ACAD
1000
AcDbSavedByObjectVersion
1070
     0
  0
VISUALSTYLE
  5
10E8
102
{ACAD_REACTORS
330
10DF
102
}
330
10DF
100
AcDbVisualStyle
  2
Conceptual
 70
     9
 71
     3
 72
     2
 73
     0
 90
        0
 40
-0.6
 41
-30.0
 62
     5
 63
     7
421
 16777215
 74
     2
 91
        2
 64
     7
 65
   257
 75
     1
175
     1
 42
40.0
 92
        8
 66
     7
 43
1.0
 76
     1
 77
     6
 78
     2
 67
     7
 79
     3
170
     0
171
     0
290
     0
174
     0
 93
        1
 44
0.0
173
     0
291
     0
 45
0.0
1001
ACAD
1000
AcDbSavedByObjectVersion
1070
     0
  0
VISUALSTYLE
  5
10EA
102
{ACAD_REACTORS
330
10DF
102
}
330
10DF
100
AcDbVisualStyle
  2
Dim
 70
    11
 71
     2
 72
     2
 73
     0
 90
        0
 40
-0.6
 41
-30.0
 62
     5
 63
     7
421
 16777215
 74
     1
 91
        4
 64
     7
 65
   257
 75
     1
175
     1
 42
1.0
 92
        8
 66
     7
 43
1.0
 76
     1
 77
     6
 78
     2
 67
     7
 79
     5
170
     0
171
     0
290
     0
174
     0
 93
        1
 44
-50.0
173
     0
291
     1
 45
0.0
1001
ACAD
1000
AcDbSavedByObjectVersion
1070
     0
  0
VISUALSTYLE
  5
10EE
102
{ACAD_REACTORS
330
10DF
102
}
330
10DF
100
AcDbVisualStyle
  2
Facepattern
 70
    15
 71
     2
 72
     2
 73
     0
 90
        0
 40
-0.6
 41
-30.0
 62
     5
 63
     7
421
 16777215
 74
     1
 91
        4
 64
     7
 65
   257
 75
     1
175
     1
 42
1.0
 92
        8
 66
     7
 43
1.0
 76
     1
 77
     6
 78
     2
 67
     7
 79
     5
170
     0
171
     0
290
     0
174
     0
 93
        1
 44
0.0
173
     0
291
     1
 45
0.0
1001
ACAD
1000
AcDbSavedByObjectVersion
1070
     0
  0
VISUALSTYLE
  5
10E0
102
{ACAD_REACTORS
330
10DF
102
}
330
10DF
100
AcDbVisualStyle
  2
Flat
 70
     0
 71
     2
 72
     1
 73
     1
 90
        2
 40
-0.6
 41
30.0
 62
     5
 63
     7
421
 16777215
 74
     0
 91
        4
 64
     7
 65
   257
 75
     1
175
     1
 42
1.0
 92
        8
 66
     7
 43
1.0
 76
     1
 77
     6
 78
     2
 67
     7
 79
     5
170
     0
171
     0
290
     0
174
     0
 93
       13
 44
0.0
173
     0
291
     1
 45
0.0
1001
ACAD
1000
AcDbSavedByObjectVersion
1070
     0
  0
VISUALSTYLE
  5
10E1
102
{ACAD_REACTORS
330
10DF
102
}
330
10DF
100
AcDbVisualStyle
  2
FlatWithEdges
 70
     1
 71
     2
 72
     1
 73
     1
 90
        2
 40
-0.6
 41
30.0
 62
     5
 63
     7
421
 16777215
 74
     1
 91
        4
 64
     7
 65
   257
 75
     1
175
     1
 42
1.0
 92
        0
 66
   257
 43
1.0
 76
     1
 77
     6
 78
     2
 67
     7
 79
     5
170
     0
171
     0
290
     0
174
     0
 93
       13
 44
0.0
173
     0
291
     1
 45
0.0
1001
ACAD
1000
AcDbSavedByObjectVersion
1070
     0
  0
VISUALSTYLE
  5
10E2
102
{ACAD_REACTORS
330
10DF
102
}
330
10DF
100
AcDbVisualStyle
  2
Gouraud
 70
     2
 71
     2
 72
     2
 73
     1
 90
        2
 40
-0.6
 41
30.0
 62
     5
 63
     7
421
 16777215
 74
     0
 91
        4
 64
     7
 65
   257
 75
     1
175
     1
 42
1.0
 92
        0
 66
     7
 43
1.0
 76
     1
 77
     6
 78
     2
 67
     7
 79
     5
170
     0
171
     0
290
     0
174
     0
 93
       13
 44
0.0
173
     0
291
     1
 45
0.0
1001
ACAD
1000
AcDbSavedByObjectVersion
1070
     0
  0
VISUALSTYLE
  5
10E3
102
{ACAD_REACTORS
330
10DF
102
}
330
10DF
100
AcDbVisualStyle
  2
GouraudWithEdges
 70
     3
 71
     2
 72
     2
 73
     1
 90
        2
 40
-0.6
 41
30.0
 62
     5
 63
     7
421
 16777215
 74
     1
 91
        4
 64
     7
 65
   257
 75
     1
175
     1
 42
1.0
 92
        0
 66
   257
 43
1.0
 76
     1
 77
     6
 78
     2
 67
     7
 79
     5
170
     0
171
     0
290
     0
174
     0
 93
       13
 44
0.0
173
     0
291
     1
 45
0.0
1001
ACAD
1000
AcDbSavedByObjectVersion
1070
     0
  0
VISUALSTYLE
  5
10ED
102
{ACAD_REACTORS
330
10DF
102
}
330
10DF
100
AcDbVisualStyle
  2
Linepattern
 70
    14
 71
     2
 72
     2
 73
     0
 90
        0
 40
-0.6
 41
-30.0
 62
     5
 63
     7
421
 16777215
 74
     1
 91
        4
 64
     7
 65
   257
 75
     7
175
     7
 42
1.0
 92
        8
 66
     7
 43
1.0
 76
     1
 77
     6
 78
     2
 67
     7
 79
     5
170
     0
171
     0
290
     0
174
     0
 93
        1
 44
0.0
173
     0
291
     1
 45
0.0
1001
ACAD
1000
AcDbSavedByObjectVersion
1070
     0
  0
VISUALSTYLE
  5
10E9
102
{ACAD_REACTORS
330
10DF
102
}
330
10DF
100
AcDbVisualStyle
  2
Realistic
 70
     8
 71
     2
 72
     2
 73
     0
 90
        0
 40
-0.6
 41
-30.0
 62
     5
 63
     7
421
 16777215
 74
     1
 91
        0
 64
     7
 65
   257
 75
     1
175
     1
 42
1.0
 92
        8
 66
     8
424
  7895160
 43
1.0
 76
     1
 77
     6
 78
     2
 67
     7
 79
     5
170
     0
171
     0
290
     0
174
     0
 93
       13
 44
0.0
173
     0
291
     0
 45
0.0
1001
ACAD
1000
AcDbSavedByObjectVersion
1070
     0
  0
VISUALSTYLE
  5
10EC
102
{ACAD_REACTORS
330
10DF
102
}
330
10DF
100
AcDbVisualStyle
  2
Thicken
 70
    13
 71
     2
 72
     2
 73
     0
 90
        0
 40
-0.6
 41
-30.0
 62
     5
 63
     7
421
 16777215
 74
     1
 91
        4
 64
     7
 65
   257
 75
     1
175
     1
 42
1.0
 92
       12
 66
     7
 43
1.0
 76
     1
 77
     6
 78
     2
 67
     7
 79
     5
170
     0
171
     0
290
     0
174
     0
 93
        1
 44
0.0
173
     0
291
     1
 45
0.0
1001
ACAD
1000
AcDbSavedByObjectVersion
1070
     0
  0
DICTIONARYVAR
  5
1126
102
{ACAD_REACTORS
330
2D8
102
}
330
2D8
100
DictionaryVariables
280
     0
  1
1:1
  0
DICTIONARYVAR
  5
1125
102
{ACAD_REACTORS
330
2D8
102
}
330
2D8
100
DictionaryVariables
280
     0
  1
STANDARD
  0
DICTIONARYVAR
  5
1124
102
{ACAD_REACTORS
330
2D8
102
}
330
2D8
100
DictionaryVariables
280
     0
  1
STANDARD
  0
DICTIONARYVAR
  5
1136
102
{ACAD_REACTORS
330
2D8
102
}
330
2D8
100
DictionaryVariables
280
     0
  1
0
  0
DICTIONARYVAR
  5
1135
102
{ACAD_REACTORS
330
2D8
102
}
330
2D8
100
DictionaryVariables
280
     0
  1
0
  0
DICTIONARYVAR
  5
2D9
102
{ACAD_REACTORS
330
2D8
102
}
330
2D8
100
DictionaryVariables
280
     0
  1
96
  0
DICTIONARY
  5
10D0
330
10CF
100
AcDbDictionary
280
     1
281
     1
  3
ACAD_XREC_ROUNDTRIP
360
12BE
  3
BUMPTILE
360
10D2
  3
DIFFUSETILE
360
10D1
  3
OPACITYTILE
360
10D5
  3
REFLECTIONTILE
360
10D4
  3
REFRACTIONTILE
360
10D6
  3
SPECULARTILE
360
10D3
  0
DICTIONARY
  5
10C8
330
10C7
100
AcDbDictionary
280
     1
281
     1
  3
ACAD_XREC_ROUNDTRIP
360
12BD
  3
BUMPTILE
360
10CA
  3
DIFFUSETILE
360
10C9
  3
OPACITYTILE
360
10CD
  3
REFLECTIONTILE
360
10CC
  3
REFRACTIONTILE
360
10CE
  3
SPECULARTILE
360
10CB
  0
DICTIONARY
  5
10D8
330
10D7
100
AcDbDictionary
280
     1
281
     1
  3
ACAD_XREC_ROUNDTRIP
360
12BF
  3
BUMPTILE
360
10DA
  3
DIFFUSETILE
360
10D9
  3
OPACITYTILE
360
10DD
  3
REFLECTIONTILE
360
10DC
  3
REFRACTIONTILE
360
10DE
  3
SPECULARTILE
360
10DB
  0
DICTIONARY
  5
1132
330
10F2
100
AcDbDictionary
280
     1
281
     1
  3
ACAD_ROUNDTRIP_2008_TABLESTYLE_CELLSTYLEMAP
360
12BC
  3
ACAD_XREC_ROUNDTRIP
360
12C0
  0
XRECORD
  5
12BE
102
{ACAD_REACTORS
330
10D0
102
}
330
10D0
100
AcDbXrecord
280
     1
102
MATERIAL
148
0.0
149
0.0
149
0.0
 93
        0
 94
      127
282
     0
 72
     0
 77
     0
171
     0
175
     0
179
     0
273
     0
  0
XRECORD
  5
10D2
102
{ACAD_REACTORS
330
10D0
102
}
330
10D0
100
AcDbXrecord
280
     1
270
     1
271
     1
  0
XRECORD
  5
10D1
102
{ACAD_REACTORS
330
10D0
102
}
330
10D0
100
AcDbXrecord
280
     1
270
     1
271
     1
  0
XRECORD
  5
10D5
102
{ACAD_REACTORS
330
10D0
102
}
330
10D0
100
AcDbXrecord
280
     1
270
     1
271
     1
  0
XRECORD
  5
10D4
102
{ACAD_REACTORS
330
10D0
102
}
330
10D0
100
AcDbXrecord
280
     1
270
     1
271
     1
  0
XRECORD
  5
10D6
102
{ACAD_REACTORS
330
10D0
102
}
330
10D0
100
AcDbXrecord
280
     1
270
     1
271
     1
  0
XRECORD
  5
10D3
102
{ACAD_REACTORS
330
10D0
102
}
330
10D0
100
AcDbXrecord
280
     1
270
     1
271
     1
  0
XRECORD
  5
12BD
102
{ACAD_REACTORS
330
10C8
102
}
330
10C8
100
AcDbXrecord
280
     1
102
MATERIAL
148
0.0
149
0.0
149
0.0
 93
        0
 94
      127
282
     0
 72
     0
 77
     0
171
     0
175
     0
179
     0
273
     0
  0
XRECORD
  5
10CA
102
{ACAD_REACTORS
330
10C8
102
}
330
10C8
100
AcDbXrecord
280
     1
270
     1
271
     1
  0
XRECORD
  5
10C9
102
{ACAD_REACTORS
330
10C8
102
}
330
10C8
100
AcDbXrecord
280
     1
270
     1
271
     1
  0
XRECORD
  5
10CD
102
{ACAD_REACTORS
330
10C8
102
}
330
10C8
100
AcDbXrecord
280
     1
270
     1
271
     1
  0
XRECORD
  5
10CC
102
{ACAD_REACTORS
330
10C8
102
}
330
10C8
100
AcDbXrecord
280
     1
270
     1
271
     1
  0
XRECORD
  5
10CE
102
{ACAD_REACTORS
330
10C8
102
}
330
10C8
100
AcDbXrecord
280
     1
270
     1
271
     1
  0
XRECORD
  5
10CB
102
{ACAD_REACTORS
330
10C8
102
}
330
10C8
100
AcDbXrecord
280
     1
270
     1
271
     1
  0
XRECORD
  5
12BF
102
{ACAD_REACTORS
330
10D8
102
}
330
10D8
100
AcDbXrecord
280
     1
102
MATERIAL
148
0.0
149
0.0
149
0.0
 93
        0
 94
      127
282
     0
 72
     0
 77
     0
171
     0
175
     0
179
     0
273
     0
  0
XRECORD
  5
10DA
102
{ACAD_REACTORS
330
10D8
102
}
330
10D8
100
AcDbXrecord
280
     1
270
     1
271
     1
  0
XRECORD
  5
10D9
102
{ACAD_REACTORS
330
10D8
102
}
330
10D8
100
AcDbXrecord
280
     1
270
     1
271
     1
  0
XRECORD
  5
10DD
102
{ACAD_REACTORS
330
10D8
102
}
330
10D8
100
AcDbXrecord
280
     1
270
     1
271
     1
  0
XRECORD
  5
10DC
102
{ACAD_REACTORS
330
10D8
102
}
330
10D8
100
AcDbXrecord
280
     1
270
     1
271
     1
  0
XRECORD
  5
10DE
102
{ACAD_REACTORS
330
10D8
102
}
330
10D8
100
AcDbXrecord
280
     1
270
     1
271
     1
  0
XRECORD
  5
10DB
102
{ACAD_REACTORS
330
10D8
102
}
330
10D8
100
AcDbXrecord
280
     1
270
     1
271
     1
  0
CELLSTYLEMAP
  5
12BC
102
{ACAD_REACTORS
330
1132
102
}
330
1132
100
AcDbCellStyleMap
 90
        3
300
CELLSTYLE
  1
TABLEFORMAT_BEGIN
 90
        5
170
     1
 91
        0
 92
    32768
 62
   257
 93
        1
300
CONTENTFORMAT
  1
CONTENTFORMAT_BEGIN
 90
        0
 91
        0
 92
      512
 93
        0
300

 40
0.0
140
1.0
 94
        5
 62
     0
340
10
144
0.25
309
CONTENTFORMAT_END
171
     0
 94
        0
309
TABLEFORMAT_END
  1
CELLSTYLE_BEGIN
 90
        1
 91
        1
300
_TITLE
309
CELLSTYLE_END
300
CELLSTYLE
  1
TABLEFORMAT_BEGIN
 90
        5
170
     1
 91
        0
 92
        0
 62
   257
 93
        1
300
CONTENTFORMAT
  1
CONTENTFORMAT_BEGIN
 90
        0
 91
        0
 92
      512
 93
        0
300

 40
0.0
140
1.0
 94
        5
 62
     0
340
10
144
0.18
309
CONTENTFORMAT_END
171
     0
 94
        0
309
TABLEFORMAT_END
  1
CELLSTYLE_BEGIN
 90
        2
 91
        1
300
_HEADER
309
CELLSTYLE_END
300
CELLSTYLE
  1
TABLEFORMAT_BEGIN
 90
        5
170
     1
 91
        0
 92
        0
 62
   257
 93
        1
300
CONTENTFORMAT
  1
CONTENTFORMAT_BEGIN
 90
        0
 91
        0
 92
      512
 93
        0
300

 40
0.0
140
1.0
 94
        2
 62
     0
340
10
144
0.18
309
CONTENTFORMAT_END
171
     0
 94
        0
309
TABLEFORMAT_END
  1
CELLSTYLE_BEGIN
 90
        3
 91
        2
300
_DATA
309
CELLSTYLE_END
  0
XRECORD
  5
12C0
102
{ACAD_REACTORS
330
1132
102
}
330
1132
100
AcDbXrecord
280
     1
102
ACAD_ROUNDTRIP_PRE2007_TABLESTYLE
 90
      512
 91
        0
  1

 92
      512
 93
        0
  2

 94
      512
 95
        0
  3

  0
ENDSEC
  0
EOF
