  0
SECTION
  2
HEADER
  9
$ACADVER
  1
AC1018
  9
$ACADMAINTVER
 70
   104
  9
$DWGCODEPAGE
  3
ANSI_932
  9
$LASTSAVEDBY
  1
poracon
  9
$INSBASE
 10
0.0
 20
0.0
 30
0.0
  9
$EXTMIN
 10
377.125077175836
 20
-419.9935869080873
 30
-0.0015258207003583
  9
$EXTMAX
 10
3941.320508625942
 20
2100.224309088924
 30
0.0000000349246037
  9
$LIMMIN
 10
0.0
 20
0.0
  9
$LIMMAX
 10
2970.0
 20
2100.0
  9
$ORTHOMODE
 70
     0
  9
$REGENMODE
 70
     1
  9
$FILLMODE
 70
     1
  9
$QTEXTMODE
 70
     0
  9
$MIRRTEXT
 70
     1
  9
$LTSCALE
 40
60.0
  9
$ATTMODE
 70
     1
  9
$TEXTSIZE
 40
50.0
  9
$TRACEWID
 40
0.05
  9
$TEXTSTYLE
  7
BIGFONT
  9
$CLAYER
  8
DEFPOINTS
  9
$CELTYPE
  6
BYLAYER
  9
$CECOLOR
 62
   256
  9
$CELTSCALE
 40
1.0
  9
$DISPSILH
 70
     0
  9
$DIMSCALE
 40
10.0
  9
$DIMASZ
 40
2.0
  9
$DIMEXO
 40
1.0
  9
$DIMDLI
 40
10.0
  9
$DIMRND
 40
0.0
  9
$DIMDLE
 40
0.0
  9
$DIMEXE
 40
1.0
  9
$DIMTP
 40
0.0
  9
$DIMTM
 40
0.0
  9
$DIMTXT
 40
3.0
  9
$DIMCEN
 40
0.0
  9
$DIMTSZ
 40
0.0
  9
$DIMTOL
 70
     0
  9
$DIMLIM
 70
     0
  9
$DIMTIH
 70
     0
  9
$DIMTOH
 70
     0
  9
$DIMSE1
 70
     0
  9
$DIMSE2
 70
     0
  9
$DIMTAD
 70
     1
  9
$DIMZIN
 70
     0
  9
$DIMBLK
  1
ARROW
  9
$DIMASO
 70
     1
  9
$DIMSHO
 70
     1
  9
$DIMPOST
  1

  9
$DIMAPOST
  1

  9
$DIMALT
 70
     0
  9
$DIMALTD
 70
     2
  9
$DIMALTF
 40
25.4
  9
$DIMLFAC
 40
1.0
  9
$DIMTOFL
 70
     0
  9
$DIMTVP
 40
0.0
  9
$DIMTIX
 70
     0
  9
$DIMSOXD
 70
     0
  9
$DIMSAH
 70
     1
  9
$DIMBLK1
  1
ARROW
  9
$DIMBLK2
  1
ARROW
  9
$DIMSTYLE
  2
DIA1
  9
$DIMCLRD
 70
     0
  9
$DIMCLRE
 70
     0
  9
$DIMCLRT
 70
     0
  9
$DIMTFAC
 40
1.0
  9
$DIMGAP
 40
1.0
  9
$DIMJUST
 70
     0
  9
$DIMSD1
 70
     0
  9
$DIMSD2
 70
     0
  9
$DIMTOLJ
 70
     1
  9
$DIMTZIN
 70
     0
  9
$DIMALTZ
 70
     0
  9
$DIMALTTZ
 70
     0
  9
$DIMUPT
 70
     0
  9
$DIMDEC
 70
     0
  9
$DIMTDEC
 70
     4
  9
$DIMALTU
 70
     2
  9
$DIMALTTD
 70
     2
  9
$DIMTXSTY
  7
BIGFONT
  9
$DIMAUNIT
 70
     0
  9
$DIMADEC
 70
     0
  9
$DIMALTRND
 40
0.0
  9
$DIMAZIN
 70
     0
  9
$DIMDSEP
 70
    46
  9
$DIMATFIT
 70
     3
  9
$DIMFRAC
 70
     0
  9
$DIMLDRBLK
  1
ARROW
  9
$DIMLUNIT
 70
     2
  9
$DIMLWD
 70
    -2
  9
$DIMLWE
 70
    -2
  9
$DIMTMOVE
 70
     0
  9
$LUNITS
 70
     2
  9
$LUPREC
 70
     1
  9
$SKETCHINC
 40
0.1
  9
$FILLETRAD
 40
0.0
  9
$AUNITS
 70
     1
  9
$AUPREC
 70
     2
  9
$MENU
  1
MASTERS
  9
$ELEVATION
 40
0.0
  9
$PELEVATION
 40
0.0
  9
$THICKNESS
 40
0.0
  9
$LIMCHECK
 70
     0
  9
$CHAMFERA
 40
0.0
  9
$CHAMFERB
 40
0.0
  9
$CHAMFERC
 40
0.0
  9
$CHAMFERD
 40
0.0
  9
$SKPOLY
 70
     0
  9
$TDCREATE
 40
2449337.661539352
  9
$TDUCREATE
 40
2449337.286539352
  9
$TDUPDATE
 40
2456937.465896018
  9
$TDUUPDATE
 40
2456937.090896019
  9
$TDINDWG
 40
0.0781222338
  9
$TDUSRTIMER
 40
0.0781222338
  9
$USRTIMER
 70
     1
  9
$ANGBASE
 50
0.0
  9
$ANGDIR
 70
     0
  9
$PDMODE
 70
     0
  9
$PDSIZE
 40
0.0
  9
$PLINEWID
 40
0.0
  9
$SPLFRAME
 70
     0
  9
$SPLINETYPE
 70
     6
  9
$SPLINESEGS
 70
     8
  9
$HANDSEED
  5
B4F
  9
$SURFTAB1
 70
     6
  9
$SURFTAB2
 70
     6
  9
$SURFTYPE
 70
     6
  9
$SURFU
 70
     6
  9
$SURFV
 70
     6
  9
$UCSBASE
  2

  9
$UCSNAME
  2

  9
$UCSORG
 10
0.0
 20
0.0
 30
0.0
  9
$UCSXDIR
 10
1.0
 20
0.0
 30
0.0
  9
$UCSYDIR
 10
0.0
 20
1.0
 30
0.0
  9
$UCSORTHOREF
  2

  9
$UCSORTHOVIEW
 70
     0
  9
$UCSORGTOP
 10
0.0
 20
0.0
 30
0.0
  9
$UCSORGBOTTOM
 10
0.0
 20
0.0
 30
0.0
  9
$UCSORGLEFT
 10
0.0
 20
0.0
 30
0.0
  9
$UCSORGRIGHT
 10
0.0
 20
0.0
 30
0.0
  9
$UCSORGFRONT
 10
0.0
 20
0.0
 30
0.0
  9
$UCSORGBACK
 10
0.0
 20
0.0
 30
0.0
  9
$PUCSBASE
  2

  9
$PUCSNAME
  2

  9
$PUCSORG
 10
0.0
 20
0.0
 30
0.0
  9
$PUCSXDIR
 10
1.0
 20
0.0
 30
0.0
  9
$PUCSYDIR
 10
0.0
 20
1.0
 30
0.0
  9
$PUCSORTHOREF
  2

  9
$PUCSORTHOVIEW
 70
     0
  9
$PUCSORGTOP
 10
0.0
 20
0.0
 30
0.0
  9
$PUCSORGBOTTOM
 10
0.0
 20
0.0
 30
0.0
  9
$PUCSORGLEFT
 10
0.0
 20
0.0
 30
0.0
  9
$PUCSORGRIGHT
 10
0.0
 20
0.0
 30
0.0
  9
$PUCSORGFRONT
 10
0.0
 20
0.0
 30
0.0
  9
$PUCSORGBACK
 10
0.0
 20
0.0
 30
0.0
  9
$USERI1
 70
     0
  9
$USERI2
 70
     0
  9
$USERI3
 70
     0
  9
$USERI4
 70
     0
  9
$USERI5
 70
     0
  9
$USERR1
 40
0.0
  9
$USERR2
 40
0.0
  9
$USERR3
 40
0.0
  9
$USERR4
 40
0.0
  9
$USERR5
 40
0.0
  9
$WORLDVIEW
 70
     1
  9
$SHADEDGE
 70
     3
  9
$SHADEDIF
 70
    70
  9
$TILEMODE
 70
     1
  9
$MAXACTVP
 70
    16
  9
$PINSBASE
 10
0.0
 20
0.0
 30
0.0
  9
$PLIMCHECK
 70
     0
  9
$PEXTMIN
 10
1.000000000000000E+20
 20
1.000000000000000E+20
 30
1.000000000000000E+20
  9
$PEXTMAX
 10
-1.000000000000000E+20
 20
-1.000000000000000E+20
 30
-1.000000000000000E+20
  9
$PLIMMIN
 10
0.0
 20
0.0
  9
$PLIMMAX
 10
12.0
 20
9.0
  9
$UNITMODE
 70
     0
  9
$VISRETAIN
 70
     0
  9
$PLINEGEN
 70
     0
  9
$PSLTSCALE
 70
     1
  9
$TREEDEPTH
 70
  3020
  9
$CMLSTYLE
  2
STANDARD
  9
$CMLJUST
 70
     0
  9
$CMLSCALE
 40
1.0
  9
$PROXYGRAPHICS
 70
     1
  9
$MEASUREMENT
 70
     0
  9
$CELWEIGHT
370
    -1
  9
$ENDCAPS
280
     0
  9
$JOINSTYLE
280
     0
  9
$LWDISPLAY
290
     0
  9
$INSUNITS
 70
     0
  9
$HYPERLINKBASE
  1

  9
$STYLESHEET
  1

  9
$XEDIT
290
     1
  9
$CEPSNTYPE
380
     0
  9
$PSTYLEMODE
290
     1
  9
$FINGERPRINTGUID
  2
{241947D8-10E5-11D6-BA8D-8D48D945A249}
  9
$VERSIONGUID
  2
{5544900C-B567-4B6A-B6A4-22956B0F3C49}
  9
$EXTNAMES
290
     1
  9
$PSVPSCALE
 40
0.0
  9
$OLESTARTUP
290
     0
  9
$SORTENTS
280
    96
  9
$INDEXCTL
280
     0
  9
$HIDETEXT
280
     0
  9
$XCLIPFRAME
290
     0
  9
$HALOGAP
280
     0
  9
$OBSCOLOR
 70
   257
  9
$OBSLTYPE
280
     0
  9
$INTERSECTIONDISPLAY
280
     0
  9
$INTERSECTIONCOLOR
 70
   257
  9
$DIMASSOC
280
     1
  9
$PROJECTNAME
  1

  0
ENDSEC
  0
SECTION
  2
CLASSES
  0
CLASS
  1
ACDBDICTIONARYWDFLT
  2
AcDbDictionaryWithDefault
  3
ObjectDBX Classes
 90
        0
 91
        1
280
     0
281
     0
  0
CLASS
  1
DICTIONARYVAR
  2
AcDbDictionaryVar
  3
ObjectDBX Classes
 90
        0
 91
        6
280
     0
281
     0
  0
CLASS
  1
MATERIAL
  2
AcDbMaterial
  3
ObjectDBX Classes
 90
     1153
 91
        3
280
     0
281
     0
  0
CLASS
  1
VISUALSTYLE
  2
AcDbVisualStyle
  3
ObjectDBX Classes
 90
     4095
 91
       16
280
     0
281
     0
  0
CLASS
  1
TABLESTYLE
  2
AcDbTableStyle
  3
ObjectDBX Classes
 90
     4095
 91
        1
280
     0
281
     0
  0
CLASS
  1
SCALE
  2
AcDbScale
  3
ObjectDBX Classes
 90
     1153
 91
       33
280
     0
281
     0
  0
CLASS
  1
MLEADERSTYLE
  2
AcDbMLeaderStyle
  3
ACDB_MLEADERSTYLE_CLASS
 90
     4095
 91
        1
280
     0
281
     0
  0
CLASS
  1
CELLSTYLEMAP
  2
AcDbCellStyleMap
  3
ObjectDBX Classes
 90
     1152
 91
        3
280
     0
281
     0
  0
CLASS
  1
SORTENTSTABLE
  2
AcDbSortentsTable
  3
ObjectDBX Classes
 90
        0
 91
        2
280
     0
281
     0
  0
ENDSEC
  0
SECTION
  2
TABLES
  0
TABLE
  2
VPORT
  5
8
330
0
100
AcDbSymbolTable
 70
     1
  0
VPORT
  5
921
330
8
100
AcDbSymbolTableRecord
100
AcDbViewportTableRecord
  2
*Active
 70
     0
 10
0.0
 20
0.0
 11
1.0
 21
1.0
 12
1970.660254312971
 22
840.1153610904179
 13
0.0
 23
0.0
 14
1.0
 24
1.0
 15
0.0
 25
0.0
 16
0.0
 26
0.0
 36
1.0
 17
0.0
 27
0.0
 37
0.0
 40
2540.246117687053
 41
1.669761273209549
 42
50.0
 43
0.0
 44
0.0
 50
0.0
 51
0.0
 71
     0
 72
   100
 73
     1
 74
     1
 75
     0
 76
     0
 77
     0
 78
     0
281
     0
 65
     1
110
0.0
120
0.0
130
0.0
111
1.0
121
0.0
131
0.0
112
0.0
122
1.0
132
0.0
 79
     0
146
0.0
  0
ENDTAB
  0
TABLE
  2
LTYPE
  5
5
330
0
100
AcDbSymbolTable
 70
    26
  0
LTYPE
  5
12
330
5
100
AcDbSymbolTableRecord
100
AcDbLinetypeTableRecord
  2
BYBLOCK
 70
     0
  3

 72
    65
 73
     0
 40
0.0
  0
LTYPE
  5
13
330
5
100
AcDbSymbolTableRecord
100
AcDbLinetypeTableRecord
  2
BYLAYER
 70
     0
  3

 72
    65
 73
     0
 40
0.0
  0
LTYPE
  5
14
330
5
100
AcDbSymbolTableRecord
100
AcDbLinetypeTableRecord
  2
CONTINUOUS
 70
     0
  3
Solid line
 72
    65
 73
     0
 40
0.0
  0
LTYPE
  5
2E
330
5
100
AcDbSymbolTableRecord
100
AcDbLinetypeTableRecord
  2
BORDER
 70
     0
  3
__ __ . __ __ . __ __ . __ __ . __ __ . __ __ .
 72
    65
 73
     6
 40
1.75
 49
0.5
 74
     0
 49
-0.25
 74
     0
 49
0.5
 74
     0
 49
-0.25
 74
     0
 49
0.0
 74
     0
 49
-0.25
 74
     0
  0
LTYPE
  5
2F
330
5
100
AcDbSymbolTableRecord
100
AcDbLinetypeTableRecord
  2
BORDER2
 70
     0
  3
__.__.__.__.__.__.__.__.__.__.__.__.__.__.__.__
 72
    65
 73
     6
 40
0.875
 49
0.25
 74
     0
 49
-0.125
 74
     0
 49
0.25
 74
     0
 49
-0.125
 74
     0
 49
0.0
 74
     0
 49
-0.125
 74
     0
  0
LTYPE
  5
30
330
5
100
AcDbSymbolTableRecord
100
AcDbLinetypeTableRecord
  2
BORDERX2
 70
     0
  3
____  ____  .  ____  ____  .  ____  ____  .  __
 72
    65
 73
     6
 40
3.5
 49
1.0
 74
     0
 49
-0.5
 74
     0
 49
1.0
 74
     0
 49
-0.5
 74
     0
 49
0.0
 74
     0
 49
-0.5
 74
     0
  0
LTYPE
  5
31
330
5
100
AcDbSymbolTableRecord
100
AcDbLinetypeTableRecord
  2
CENTER
 70
     0
  3
____ _ ____ _ ____ _ ____ _ ____ _ ____ _ ____ 
 72
    65
 73
     4
 40
2.0
 49
1.25
 74
     0
 49
-0.25
 74
     0
 49
0.25
 74
     0
 49
-0.25
 74
     0
  0
LTYPE
  5
32
330
5
100
AcDbSymbolTableRecord
100
AcDbLinetypeTableRecord
  2
CENTER2
 70
     0
  3
___ _ ___ _ ___ _ ___ _ ___ _ ___ _ ___ _ ___ _
 72
    65
 73
     4
 40
1.125
 49
0.75
 74
     0
 49
-0.125
 74
     0
 49
0.125
 74
     0
 49
-0.125
 74
     0
  0
LTYPE
  5
33
330
5
100
AcDbSymbolTableRecord
100
AcDbLinetypeTableRecord
  2
CENTERX2
 70
     0
  3
________  __  ________  __  ________  __  _____
 72
    65
 73
     4
 40
4.0
 49
2.5
 74
     0
 49
-0.5
 74
     0
 49
0.5
 74
     0
 49
-0.5
 74
     0
  0
LTYPE
  5
34
330
5
100
AcDbSymbolTableRecord
100
AcDbLinetypeTableRecord
  2
DASHDOT
 70
     0
  3
__ . __ . __ . __ . __ . __ . __ . __ . __ . __
 72
    65
 73
     4
 40
1.0
 49
0.5
 74
     0
 49
-0.25
 74
     0
 49
0.0
 74
     0
 49
-0.25
 74
     0
  0
LTYPE
  5
35
330
5
100
AcDbSymbolTableRecord
100
AcDbLinetypeTableRecord
  2
DASHDOT2
 70
     0
  3
_._._._._._._._._._._._._._._._._._._._._._._._
 72
    65
 73
     4
 40
0.5
 49
0.25
 74
     0
 49
-0.125
 74
     0
 49
0.0
 74
     0
 49
-0.125
 74
     0
  0
LTYPE
  5
36
330
5
100
AcDbSymbolTableRecord
100
AcDbLinetypeTableRecord
  2
DASHDOTX2
 70
     0
  3
____  .  ____  .  ____  .  ____  .  ____  .  __
 72
    65
 73
     4
 40
2.0
 49
1.0
 74
     0
 49
-0.5
 74
     0
 49
0.0
 74
     0
 49
-0.5
 74
     0
  0
LTYPE
  5
37
330
5
100
AcDbSymbolTableRecord
100
AcDbLinetypeTableRecord
  2
DASHED
 70
     0
  3
__ __ __ __ __ __ __ __ __ __ __ __ __ __ __ __
 72
    65
 73
     2
 40
0.75
 49
0.5
 74
     0
 49
-0.25
 74
     0
  0
LTYPE
  5
38
330
5
100
AcDbSymbolTableRecord
100
AcDbLinetypeTableRecord
  2
DASHED2
 70
     0
  3
_ _ _ _ _ _ _ _ _ _ _ _ _ _ _ _ _ _ _ _ _ _ _ _
 72
    65
 73
     2
 40
0.375
 49
0.25
 74
     0
 49
-0.125
 74
     0
  0
LTYPE
  5
39
330
5
100
AcDbSymbolTableRecord
100
AcDbLinetypeTableRecord
  2
DASHEDX2
 70
     0
  3
____  ____  ____  ____  ____  ____  ____  ____ 
 72
    65
 73
     2
 40
1.5
 49
1.0
 74
     0
 49
-0.5
 74
     0
  0
LTYPE
  5
3A
330
5
100
AcDbSymbolTableRecord
100
AcDbLinetypeTableRecord
  2
DIVIDE
 70
     0
  3
____ . . ____ . . ____ . . ____ . . ____ . . __
 72
    65
 73
     6
 40
1.25
 49
0.5
 74
     0
 49
-0.25
 74
     0
 49
0.0
 74
     0
 49
-0.25
 74
     0
 49
0.0
 74
     0
 49
-0.25
 74
     0
  0
LTYPE
  5
3B
330
5
100
AcDbSymbolTableRecord
100
AcDbLinetypeTableRecord
  2
DIVIDE2
 70
     0
  3
__..__..__..__..__..__..__..__..__..__..__..__.
 72
    65
 73
     6
 40
0.625
 49
0.25
 74
     0
 49
-0.125
 74
     0
 49
0.0
 74
     0
 49
-0.125
 74
     0
 49
0.0
 74
     0
 49
-0.125
 74
     0
  0
LTYPE
  5
3C
330
5
100
AcDbSymbolTableRecord
100
AcDbLinetypeTableRecord
  2
DIVIDEX2
 70
     0
  3
________  .  .  ________  .  .  ________  .  . 
 72
    65
 73
     6
 40
2.5
 49
1.0
 74
     0
 49
-0.5
 74
     0
 49
0.0
 74
     0
 49
-0.5
 74
     0
 49
0.0
 74
     0
 49
-0.5
 74
     0
  0
LTYPE
  5
3D
330
5
100
AcDbSymbolTableRecord
100
AcDbLinetypeTableRecord
  2
DOT
 70
     0
  3
. . . . . . . . . . . . . . . . . . . . . . . .
 72
    65
 73
     2
 40
0.25
 49
0.0
 74
     0
 49
-0.25
 74
     0
  0
LTYPE
  5
3E
330
5
100
AcDbSymbolTableRecord
100
AcDbLinetypeTableRecord
  2
DOT2
 70
     0
  3
...............................................
 72
    65
 73
     2
 40
0.125
 49
0.0
 74
     0
 49
-0.125
 74
     0
  0
LTYPE
  5
3F
330
5
100
AcDbSymbolTableRecord
100
AcDbLinetypeTableRecord
  2
DOTX2
 70
     0
  3
.  .  .  .  .  .  .  .  .  .  .  .  .  .  .  . 
 72
    65
 73
     2
 40
0.5
 49
0.0
 74
     0
 49
-0.5
 74
     0
  0
LTYPE
  5
40
330
5
100
AcDbSymbolTableRecord
100
AcDbLinetypeTableRecord
  2
HIDDEN
 70
     0
  3
__ __ __ __ __ __ __ __ __ __ __ __ __ __ __ __
 72
    65
 73
     2
 40
0.375
 49
0.25
 74
     0
 49
-0.125
 74
     0
  0
LTYPE
  5
41
330
5
100
AcDbSymbolTableRecord
100
AcDbLinetypeTableRecord
  2
HIDDEN2
 70
     0
  3
_ _ _ _ _ _ _ _ _ _ _ _ _ _ _ _ _ _ _ _ _ _ _ _
 72
    65
 73
     2
 40
0.1875
 49
0.125
 74
     0
 49
-0.0625
 74
     0
  0
LTYPE
  5
42
330
5
100
AcDbSymbolTableRecord
100
AcDbLinetypeTableRecord
  2
HIDDENX2
 70
     0
  3
____ ____ ____ ____ ____ ____ ____ ____ ____ __
 72
    65
 73
     2
 40
0.75
 49
0.5
 74
     0
 49
-0.25
 74
     0
  0
LTYPE
  5
43
330
5
100
AcDbSymbolTableRecord
100
AcDbLinetypeTableRecord
  2
PHANTOM
 70
     0
  3
______  __  __  ______  __  __  ______  __  __ 
 72
    65
 73
     6
 40
2.5
 49
1.25
 74
     0
 49
-0.25
 74
     0
 49
0.25
 74
     0
 49
-0.25
 74
     0
 49
0.25
 74
     0
 49
-0.25
 74
     0
  0
LTYPE
  5
44
330
5
100
AcDbSymbolTableRecord
100
AcDbLinetypeTableRecord
  2
PHANTOM2
 70
     0
  3
___ _ _ ___ _ _ ___ _ _ ___ _ _ ___ _ _ ___ _ _
 72
    65
 73
     6
 40
1.25
 49
0.625
 74
     0
 49
-0.125
 74
     0
 49
0.125
 74
     0
 49
-0.125
 74
     0
 49
0.125
 74
     0
 49
-0.125
 74
     0
  0
LTYPE
  5
45
330
5
100
AcDbSymbolTableRecord
100
AcDbLinetypeTableRecord
  2
PHANTOMX2
 70
     0
  3
____________    ____    ____    ____________   
 72
    65
 73
     6
 40
5.0
 49
2.5
 74
     0
 49
-0.5
 74
     0
 49
0.5
 74
     0
 49
-0.5
 74
     0
 49
0.5
 74
     0
 49
-0.5
 74
     0
  0
ENDTAB
  0
TABLE
  2
LAYER
  5
2
330
0
100
AcDbSymbolTable
 70
     6
  0
LAYER
  5
F
102
{ACAD_XDICTIONARY
360
979
102
}
330
2
100
AcDbSymbolTableRecord
100
AcDbLayerTableRecord
  2
0
 70
     0
 62
     7
  6
CONTINUOUS
370
    -3
390
2CF
  0
LAYER
  5
49
102
{ACAD_XDICTIONARY
360
97B
102
}
330
2
100
AcDbSymbolTableRecord
100
AcDbLayerTableRecord
  2
SUNPOU
 70
     0
 62
     3
  6
CONTINUOUS
370
    -3
390
2CF
  0
LAYER
  5
4D
102
{ACAD_XDICTIONARY
360
97D
102
}
330
2
100
AcDbSymbolTableRecord
100
AcDbLayerTableRecord
  2
CT2
 70
     0
 62
     1
  6
CENTER2
370
    -3
390
2CF
  0
LAYER
  5
4F
102
{ACAD_XDICTIONARY
360
97F
102
}
330
2
100
AcDbSymbolTableRecord
100
AcDbLayerTableRecord
  2
SAISEKI
 70
     0
 62
     4
  6
CONTINUOUS
370
    -3
390
2CF
  0
LAYER
  5
50
330
2
100
AcDbSymbolTableRecord
100
AcDbLayerTableRecord
  2
DEFPOINTS
 70
     0
 62
     7
  6
CONTINUOUS
290
     0
370
    -3
390
2CF
  0
LAYER
  5
A5F
102
{ACAD_XDICTIONARY
360
A60
102
}
330
2
100
AcDbSymbolTableRecord
100
AcDbLayerTableRecord
  2
KL
 70
     0
 62
     5
  6
HIDDEN
370
    -3
390
2CF
  0
ENDTAB
  0
TABLE
  2
STYLE
  5
3
330
0
100
AcDbSymbolTable
 70
     3
  0
STYLE
  5
10
330
3
100
AcDbSymbolTableRecord
100
AcDbTextStyleTableRecord
  2
STANDARD
 70
     0
 40
0.0
 41
1.0
 50
0.0
 71
     0
 42
0.2
  3
txt
  4

  0
STYLE
  5
2D
330
3
100
AcDbSymbolTableRecord
100
AcDbTextStyleTableRecord
  2
BIGFONT
 70
     0
 40
0.0
 41
1.0
 50
0.0
 71
     0
 42
50.0
  3
simplex
  4
extfont
  0
STYLE
  5
348
330
3
100
AcDbSymbolTableRecord
100
AcDbTextStyleTableRecord
  2
STYLE1
 70
     0
 40
0.0
 41
1.0
 50
0.0
 71
     0
 42
2.5
  3
txt.shx
  4
bigfont.shx
  0
ENDTAB
  0
TABLE
  2
VIEW
  5
6
330
0
100
AcDbSymbolTable
 70
     0
  0
ENDTAB
  0
TABLE
  2
UCS
  5
7
330
0
100
AcDbSymbolTable
 70
     0
  0
ENDTAB
  0
TABLE
  2
APPID
  5
9
330
0
100
AcDbSymbolTable
 70
     3
  0
APPID
  5
11
330
9
100
AcDbSymbolTableRecord
100
AcDbRegAppTableRecord
  2
ACAD
 70
     0
  0
APPID
  5
974
330
9
100
AcDbSymbolTableRecord
100
AcDbRegAppTableRecord
  2
ACAD_MLEADERVER
 70
     0
  0
APPID
  5
A01
330
9
100
AcDbSymbolTableRecord
100
AcDbRegAppTableRecord
  2
ACAD_EXEMPT_FROM_CAD_STANDARDS
 70
     0
  0
ENDTAB
  0
TABLE
  2
DIMSTYLE
  5
A
330
0
100
AcDbSymbolTable
 70
     5
100
AcDbDimStyleTable
 71
     1
340
2CA
  0
DIMSTYLE
105
2C5
330
A
100
AcDbSymbolTableRecord
100
AcDbDimStyleTableRecord
  2
STANDARD
 70
     0
340
10
  0
DIMSTYLE
105
2CA
102
{ACAD_REACTORS
330
6DF
330
7D8
102
}
330
A
100
AcDbSymbolTableRecord
100
AcDbDimStyleTableRecord
  2
DIA1
 70
     0
 40
10.0
 41
2.0
 42
1.0
 43
10.0
 44
1.0
 73
     0
 74
     0
 77
     1
140
3.0
141
0.0
147
1.0
271
     0
340
2D
341
20
342
20
  0
DIMSTYLE
105
349
102
{ACAD_REACTORS
330
37F
330
388
330
389
330
38B
330
38C
330
393
330
7E5
330
7E4
330
7E3
330
7E2
330
7DC
102
}
330
A
100
AcDbSymbolTableRecord
100
AcDbDimStyleTableRecord
  2
STYLE10
 70
     0
 40
10.0
 41
1.5
 42
5.0
 43
0.0
 44
0.0
 73
     0
 74
     0
 77
     1
 78
    12
140
2.0
141
2.0
147
1.0
172
     1
176
     3
177
     3
178
     3
340
10
  0
DIMSTYLE
105
919
330
A
100
AcDbSymbolTableRecord
100
AcDbDimStyleTableRecord
  2
P1
 70
     0
 40
10.0
 41
2.0
 42
1.0
 43
10.0
 44
1.0
 73
     0
 74
     0
 77
     2
140
3.0
141
0.0
147
1.0
172
     1
173
     1
176
   256
177
   256
178
   256
271
     0
272
     0
279
     2
288
     1
340
2D
341
20
343
20
344
20
371
    -1
372
    -1
  0
ENDTAB
  0
TABLE
  2
BLOCK_RECORD
  5
1
330
0
100
AcDbSymbolTable
 70
    24
  0
BLOCK_RECORD
  5
18
102
{ACAD_XDICTIONARY
360
99B
102
}
330
1
100
AcDbSymbolTableRecord
100
AcDbBlockTableRecord
  2
*MODEL_SPACE
340
2D2
  0
BLOCK_RECORD
  5
15
330
1
100
AcDbSymbolTableRecord
100
AcDbBlockTableRecord
  2
*PAPER_SPACE
340
2D3
  0
BLOCK_RECORD
  5
1C
330
1
100
AcDbSymbolTableRecord
100
AcDbBlockTableRecord
  2
SYASEN
340
0
  0
BLOCK_RECORD
  5
1D
330
1
100
AcDbSymbolTableRecord
100
AcDbBlockTableRecord
  2
YA2
340
0
  0
BLOCK_RECORD
  5
1E
330
1
100
AcDbSymbolTableRecord
100
AcDbBlockTableRecord
  2
YA_N
340
0
102
{BLKREFS
331
281
102
}
  0
BLOCK_RECORD
  5
1F
330
1
100
AcDbSymbolTableRecord
100
AcDbBlockTableRecord
  2
DOT
340
0
  0
BLOCK_RECORD
  5
20
330
1
100
AcDbSymbolTableRecord
100
AcDbBlockTableRecord
  2
ARROW
340
0
102
{BLKREFS
331
B13
331
B18
102
}
  0
BLOCK_RECORD
  5
21
330
1
100
AcDbSymbolTableRecord
100
AcDbBlockTableRecord
  2
YA3
340
0
  0
BLOCK_RECORD
  5
22
330
1
100
AcDbSymbolTableRecord
100
AcDbBlockTableRecord
  2
BORDER
340
0
  0
BLOCK_RECORD
  5
2FA
330
1
100
AcDbSymbolTableRecord
100
AcDbBlockTableRecord
  2
_CLOSEDBLANK
340
0
  0
BLOCK_RECORD
  5
3AD
330
1
100
AcDbSymbolTableRecord
100
AcDbBlockTableRecord
  2
*D8
340
0
  0
BLOCK_RECORD
  5
3B9
330
1
100
AcDbSymbolTableRecord
100
AcDbBlockTableRecord
  2
*D9
340
0
  0
BLOCK_RECORD
  5
3C4
330
1
100
AcDbSymbolTableRecord
100
AcDbBlockTableRecord
  2
*D10
340
0
  0
BLOCK_RECORD
  5
3CF
330
1
100
AcDbSymbolTableRecord
100
AcDbBlockTableRecord
  2
*D11
340
0
  0
BLOCK_RECORD
  5
3DB
330
1
100
AcDbSymbolTableRecord
100
AcDbBlockTableRecord
  2
*D12
340
0
  0
BLOCK_RECORD
  5
3E6
330
1
100
AcDbSymbolTableRecord
100
AcDbBlockTableRecord
  2
*D13
340
0
  0
BLOCK_RECORD
  5
636
330
1
100
AcDbSymbolTableRecord
100
AcDbBlockTableRecord
  2
*X14
340
0
102
{BLKREFS
331
6E0
331
7D7
102
}
  0
BLOCK_RECORD
  5
6E1
330
1
100
AcDbSymbolTableRecord
100
AcDbBlockTableRecord
  2
*D15
340
0
  0
BLOCK_RECORD
  5
803
330
1
100
AcDbSymbolTableRecord
100
AcDbBlockTableRecord
  2
*D16
340
0
  0
BLOCK_RECORD
  5
80E
330
1
100
AcDbSymbolTableRecord
100
AcDbBlockTableRecord
  2
*D17
340
0
  0
BLOCK_RECORD
  5
819
330
1
100
AcDbSymbolTableRecord
100
AcDbBlockTableRecord
  2
*D18
340
0
  0
BLOCK_RECORD
  5
825
330
1
100
AcDbSymbolTableRecord
100
AcDbBlockTableRecord
  2
*D19
340
0
  0
BLOCK_RECORD
  5
830
330
1
100
AcDbSymbolTableRecord
100
AcDbBlockTableRecord
  2
*D20
340
0
  0
BLOCK_RECORD
  5
83C
330
1
100
AcDbSymbolTableRecord
100
AcDbBlockTableRecord
  2
*D21
340
0
  0
ENDTAB
  0
ENDSEC
  0
SECTION
  2
BLOCKS
  0
BLOCK
  5
53
330
18
100
AcDbEntity
  8
0
100
AcDbBlockBegin
  2
*MODEL_SPACE
 70
     0
 10
0.0
 20
0.0
 30
0.0
  3
*MODEL_SPACE
  1

  0
ENDBLK
  5
54
330
18
100
AcDbEntity
  8
0
100
AcDbBlockEnd
  0
BLOCK
  5
51
330
15
100
AcDbEntity
 67
     1
  8
0
100
AcDbBlockBegin
  2
*PAPER_SPACE
 70
     0
 10
0.0
 20
0.0
 30
0.0
  3
*PAPER_SPACE
  1

  0
ENDBLK
  5
52
330
15
100
AcDbEntity
 67
     1
  8
0
100
AcDbBlockEnd
  0
BLOCK
  5
55
330
1C
100
AcDbEntity
  8
0
100
AcDbBlockBegin
  2
SYASEN
 70
     0
 10
0.0
 20
0.0
 30
0.0
  3
SYASEN
  1

  0
LINE
  5
56
330
1C
100
AcDbEntity
  8
0
100
AcDbLine
 10
0.0
 20
0.0
 30
0.0
 11
-1.0
 21
0.0
 31
0.0
  0
LINE
  5
57
330
1C
100
AcDbEntity
  8
0
100
AcDbLine
 10
0.5
 20
0.5
 30
0.0
 11
-0.5
 21
-0.5
 31
0.0
  0
ENDBLK
  5
58
330
1C
100
AcDbEntity
  8
0
100
AcDbBlockEnd
  0
BLOCK
  5
59
330
1D
100
AcDbEntity
  8
0
100
AcDbBlockBegin
  2
YA2
 70
     0
 10
0.0
 20
0.0
 30
0.0
  3
YA2
  1

  0
LINE
  5
5A
330
1D
100
AcDbEntity
  8
0
100
AcDbLine
 10
-1.0
 20
0.0
 30
0.0
 11
0.0
 21
0.0
 31
0.0
  0
ENDBLK
  5
5B
330
1D
100
AcDbEntity
  8
0
100
AcDbBlockEnd
  0
BLOCK
  5
5C
330
1E
100
AcDbEntity
  8
0
100
AcDbBlockBegin
  2
YA_N
 70
     0
 10
0.0
 20
0.0
 30
0.0
  3
YA_N
  1

  0
ENDBLK
  5
5D
330
1E
100
AcDbEntity
  8
0
100
AcDbBlockEnd
  0
BLOCK
  5
5E
330
1F
100
AcDbEntity
  8
0
100
AcDbBlockBegin
  2
DOT
 70
     0
 10
0.0
 20
0.0
 30
0.0
  3
DOT
  1

  0
LWPOLYLINE
  5
5F
330
1F
100
AcDbEntity
  8
0
100
AcDbPolyline
 90
        2
 70
     1
 43
0.25
 10
-0.125
 20
0.0
 42
1.0
 10
0.125
 20
0.0
 42
1.0
  0
LINE
  5
63
330
1F
100
AcDbEntity
  8
0
100
AcDbLine
 10
-1.0
 20
0.0
 30
0.0
 11
-0.25
 21
0.0
 31
0.0
  0
ENDBLK
  5
64
330
1F
100
AcDbEntity
  8
0
100
AcDbBlockEnd
  0
BLOCK
  5
65
330
20
100
AcDbEntity
  8
0
100
AcDbBlockBegin
  2
ARROW
 70
     0
 10
0.0
 20
0.0
 30
0.0
  3
ARROW
  1

  0
LINE
  5
66
330
20
100
AcDbEntity
  8
0
100
AcDbLine
 10
-0.9999999999999991
 20
0.1666666667000003
 30
0.0
 11
0.0
 21
0.0
 31
0.0
  0
LINE
  5
67
330
20
100
AcDbEntity
  8
0
100
AcDbLine
 10
-0.9999999999999991
 20
0.0
 30
0.0
 11
0.0
 21
0.0
 31
0.0
  0
LINE
  5
68
330
20
100
AcDbEntity
  8
0
100
AcDbLine
 10
-0.9999999999999991
 20
-0.1666666667000003
 30
0.0
 11
0.0
 21
0.0
 31
0.0
  0
ENDBLK
  5
69
330
20
100
AcDbEntity
  8
0
100
AcDbBlockEnd
  0
BLOCK
  5
6A
330
21
100
AcDbEntity
  8
0
100
AcDbBlockBegin
  2
YA3
 70
     0
 10
0.0
 20
0.0
 30
0.0
  3
YA3
  1

  0
SOLID
  5
6B
330
21
100
AcDbEntity
  8
0
100
AcDbTrace
 10
1.0
 20
-0.1666666666666665
 30
0.0
 11
1.0
 21
0.166666666666667
 31
0.0
 12
0.0
 22
0.0
 32
0.0
 13
0.0
 23
0.0
 33
0.0
  0
ENDBLK
  5
6C
330
21
100
AcDbEntity
  8
0
100
AcDbBlockEnd
  0
BLOCK
  5
6D
330
22
100
AcDbEntity
  8
0
100
AcDbBlockBegin
  2
BORDER
 70
     0
 10
0.0
 20
0.0
 30
0.0
  3
BORDER
  1

  0
LINE
  5
6E
330
22
100
AcDbEntity
  8
0
100
AcDbLine
 10
0.0
 20
0.0
 30
0.0
 11
1.00000000000004
 21
0.0
 31
0.0
  0
LINE
  5
6F
330
22
100
AcDbEntity
  8
0
100
AcDbLine
 10
1.00000000000004
 20
0.0
 30
0.0
 11
1.00000000000004
 21
1.00000000000004
 31
0.0
  0
LINE
  5
70
330
22
100
AcDbEntity
  8
0
100
AcDbLine
 10
1.00000000000004
 20
1.00000000000004
 30
0.0
 11
0.0
 21
1.00000000000004
 31
0.0
  0
LINE
  5
71
330
22
100
AcDbEntity
  8
0
100
AcDbLine
 10
0.0
 20
1.00000000000004
 30
0.0
 11
0.0
 21
0.0
 31
0.0
  0
ENDBLK
  5
72
330
22
100
AcDbEntity
  8
0
100
AcDbBlockEnd
  0
BLOCK
  5
2FE
330
2FA
100
AcDbEntity
  8
0
100
AcDbBlockBegin
  2
_CLOSEDBLANK
 70
     0
 10
0.0
 20
0.0
 30
0.0
  3
_CLOSEDBLANK
  1

  0
LINE
  5
2FB
330
2FA
100
AcDbEntity
  8
0
  6
ByBlock
 62
     0
100
AcDbLine
 10
-1.0
 20
0.1666666666666666
 30
0.0
 11
0.0
 21
0.0
 31
0.0
  0
LINE
  5
2FC
330
2FA
100
AcDbEntity
  8
0
  6
ByBlock
 62
     0
100
AcDbLine
 10
0.0
 20
0.0
 30
0.0
 11
-1.0
 21
-0.1666666666666666
 31
0.0
  0
LINE
  5
2FD
330
2FA
100
AcDbEntity
  8
0
  6
ByBlock
 62
     0
100
AcDbLine
 10
-1.0
 20
0.1666666666666666
 30
0.0
 11
-1.0
 21
-0.1666666666666666
 31
0.0
  0
ENDBLK
  5
2FF
330
2FA
100
AcDbEntity
  8
0
100
AcDbBlockEnd
  0
BLOCK
  5
3B7
330
3AD
100
AcDbEntity
  8
0
100
AcDbBlockBegin
  2
*D8
 70
     1
 10
0.0
 20
0.0
 30
0.0
  3
*D8
  1

  0
LINE
  5
ADE
330
3AD
100
AcDbEntity
  8
SUNPOU
370
    -2
100
AcDbLine
 10
888.3068013710785
 20
577.4298021143492
 30
0.0
 11
888.3068013710785
 21
390.3888569058272
 31
0.0
  0
LINE
  5
ADF
330
3AD
100
AcDbEntity
  8
SUNPOU
370
    -2
100
AcDbLine
 10
1648.306801371078
 20
577.4298021143492
 30
0.0
 11
1648.306801371078
 21
390.3888569058272
 31
0.0
  0
LINE
  5
AE0
330
3AD
100
AcDbEntity
  8
SUNPOU
370
    -2
100
AcDbLine
 10
913.3068013710785
 20
390.3888569058272
 30
0.0
 11
1623.306801371078
 21
390.3888569058272
 31
0.0
  0
SOLID
  5
AE1
330
3AD
100
AcDbEntity
  8
SUNPOU
100
AcDbTrace
 10
913.3068013710785
 20
394.5555235724939
 30
0.0
 11
913.3068013710785
 21
386.2221902391605
 31
0.0
 12
888.3068013710785
 22
390.3888569058272
 32
0.0
 13
888.3068013710785
 23
390.3888569058272
 33
0.0
  0
SOLID
  5
AE2
330
3AD
100
AcDbEntity
  8
SUNPOU
100
AcDbTrace
 10
1623.306801371078
 20
394.5555235724939
 30
0.0
 11
1623.306801371078
 21
386.2221902391605
 31
0.0
 12
1648.306801371078
 22
390.3888569058272
 32
0.0
 13
1648.306801371078
 23
390.3888569058272
 33
0.0
  0
MTEXT
  5
AE3
330
3AD
100
AcDbEntity
  8
SUNPOU
100
AcDbMText
 10
1268.306801371078
 20
415.3888569058271
 30
0.0
 40
30.0
 41
0.0
 71
     5
 72
     1
  1
\A1;760
 73
     1
 44
1.0
  0
POINT
  5
AE4
330
3AD
100
AcDbEntity
  8
DEFPOINTS
 62
     0
100
AcDbPoint
 10
888.3068013710785
 20
627.4298021143492
 30
0.0
  0
POINT
  5
AE5
330
3AD
100
AcDbEntity
  8
DEFPOINTS
 62
     0
100
AcDbPoint
 10
1648.306801371078
 20
627.4298021143492
 30
0.0
  0
POINT
  5
AE6
330
3AD
100
AcDbEntity
  8
DEFPOINTS
 62
     0
100
AcDbPoint
 10
1648.306801371078
 20
390.3888569058272
 30
0.0
  0
ENDBLK
  5
3B8
330
3AD
100
AcDbEntity
  8
0
100
AcDbBlockEnd
  0
BLOCK
  5
3C2
330
3B9
100
AcDbEntity
  8
0
100
AcDbBlockBegin
  2
*D9
 70
     1
 10
0.0
 20
0.0
 30
0.0
  3
*D9
  1

  0
LINE
  5
AE7
330
3B9
100
AcDbEntity
  8
SUNPOU
370
    -2
100
AcDbLine
 10
843.0588370878307
 20
1007.384500774828
 30
0.0
 11
789.5695532817467
 21
1007.384500774828
 31
0.0
  0
LINE
  5
AE8
330
3B9
100
AcDbEntity
  8
SUNPOU
370
    -2
100
AcDbLine
 10
789.5695532817467
 20
1082.384500774828
 30
0.0
 11
789.5695532817467
 21
1032.384500774828
 31
0.0
  0
SOLID
  5
AE9
330
3B9
100
AcDbEntity
  8
SUNPOU
100
AcDbTrace
 10
785.4028866150801
 20
1082.384500774828
 30
0.0
 11
793.7362199484133
 21
1082.384500774828
 31
0.0
 12
789.5695532817467
 22
1107.384500774828
 32
0.0
 13
789.5695532817467
 23
1107.384500774828
 33
0.0
  0
SOLID
  5
AEA
330
3B9
100
AcDbEntity
  8
SUNPOU
100
AcDbTrace
 10
785.4028866150801
 20
1032.384500774828
 30
0.0
 11
793.7362199484133
 21
1032.384500774828
 31
0.0
 12
789.5695532817467
 22
1007.384500774828
 32
0.0
 13
789.5695532817467
 23
1007.384500774828
 33
0.0
  0
MTEXT
  5
AEB
330
3B9
100
AcDbEntity
  8
SUNPOU
100
AcDbMText
 10
764.5695532817466
 20
1057.384500774828
 30
0.0
 40
30.0
 41
0.0
 71
     5
 72
     1
  1
\A1;100
 11
0.0000000000000001
 21
1.0
 31
0.0
 73
     1
 44
1.0
  0
POINT
  5
AEC
330
3B9
100
AcDbEntity
  8
DEFPOINTS
 62
     0
100
AcDbPoint
 10
888.2830757648831
 20
1107.384500774828
 30
0.0
  0
POINT
  5
AED
330
3B9
100
AcDbEntity
  8
DEFPOINTS
 62
     0
100
AcDbPoint
 10
893.0588370878309
 20
1007.384500774828
 30
0.0
  0
POINT
  5
AEE
330
3B9
100
AcDbEntity
  8
DEFPOINTS
 62
     0
100
AcDbPoint
 10
789.5695532817467
 20
1007.384500774828
 30
0.0
  0
ENDBLK
  5
3C3
330
3B9
100
AcDbEntity
  8
0
100
AcDbBlockEnd
  0
BLOCK
  5
3CD
330
3C4
100
AcDbEntity
  8
0
100
AcDbBlockBegin
  2
*D10
 70
     1
 10
0.0
 20
0.0
 30
0.0
  3
*D10
  1

  0
LINE
  5
AEF
330
3C4
100
AcDbEntity
  8
SUNPOU
370
    -2
100
AcDbLine
 10
834.0394233418381
 20
727.3845007748282
 30
0.0
 11
789.5695532817467
 21
727.3845007748282
 31
0.0
  0
LINE
  5
AF0
330
3C4
100
AcDbEntity
  8
SUNPOU
370
    -2
100
AcDbLine
 10
789.5695532817468
 20
982.3845007748282
 30
0.0
 11
789.5695532817467
 21
752.3845007748282
 31
0.0
  0
SOLID
  5
AF1
330
3C4
100
AcDbEntity
  8
SUNPOU
100
AcDbTrace
 10
785.4028866150802
 20
982.3845007748282
 30
0.0
 11
793.7362199484135
 21
982.3845007748282
 31
0.0
 12
789.5695532817468
 22
1007.384500774828
 32
0.0
 13
789.5695532817468
 23
1007.384500774828
 33
0.0
  0
SOLID
  5
AF2
330
3C4
100
AcDbEntity
  8
SUNPOU
100
AcDbTrace
 10
785.4028866150801
 20
752.3845007748282
 30
0.0
 11
793.7362199484133
 21
752.3845007748282
 31
0.0
 12
789.5695532817467
 22
727.3845007748282
 32
0.0
 13
789.5695532817467
 23
727.3845007748282
 33
0.0
  0
MTEXT
  5
AF3
330
3C4
100
AcDbEntity
  8
SUNPOU
100
AcDbMText
 10
764.5695532817466
 20
867.3845007748283
 30
0.0
 40
30.0
 41
0.0
 71
     5
 72
     1
  1
\A1;280
 11
0.0000000000000001
 21
1.0
 31
0.0
 73
     1
 44
1.0
  0
POINT
  5
AF4
330
3C4
100
AcDbEntity
  8
DEFPOINTS
 62
     0
100
AcDbPoint
 10
884.0394233418381
 20
1007.384500774828
 30
0.0
  0
POINT
  5
AF5
330
3C4
100
AcDbEntity
  8
DEFPOINTS
 62
     0
100
AcDbPoint
 10
884.0394233418381
 20
727.3845007748282
 30
0.0
  0
POINT
  5
AF6
330
3C4
100
AcDbEntity
  8
DEFPOINTS
 62
     0
100
AcDbPoint
 10
789.5695532817467
 20
727.3845007748282
 30
0.0
  0
ENDBLK
  5
3CE
330
3C4
100
AcDbEntity
  8
0
100
AcDbBlockEnd
  0
BLOCK
  5
3D9
330
3CF
100
AcDbEntity
  8
0
100
AcDbBlockBegin
  2
*D11
 70
     1
 10
0.0
 20
0.0
 30
0.0
  3
*D11
  1

  0
LINE
  5
AF7
330
3CF
100
AcDbEntity
  8
SUNPOU
370
    -2
100
AcDbLine
 10
838.2830757648831
 20
1107.384500774828
 30
0.0
 11
726.072253697354
 21
1107.384500774828
 31
0.0
  0
LINE
  5
AF8
330
3CF
100
AcDbEntity
  8
SUNPOU
370
    -2
100
AcDbLine
 10
834.0394233418381
 20
627.4298021143492
 30
0.0
 11
726.0722536973539
 21
627.4298021143493
 31
0.0
  0
LINE
  5
AF9
330
3CF
100
AcDbEntity
  8
SUNPOU
370
    -2
100
AcDbLine
 10
726.072253697354
 20
1082.384500774828
 30
0.0
 11
726.0722536973539
 21
652.4298021143493
 31
0.0
  0
SOLID
  5
AFA
330
3CF
100
AcDbEntity
  8
SUNPOU
100
AcDbTrace
 10
721.9055870306874
 20
1082.384500774828
 30
0.0
 11
730.2389203640207
 21
1082.384500774828
 31
0.0
 12
726.072253697354
 22
1107.384500774828
 32
0.0
 13
726.072253697354
 23
1107.384500774828
 33
0.0
  0
SOLID
  5
AFB
330
3CF
100
AcDbEntity
  8
SUNPOU
100
AcDbTrace
 10
721.9055870306873
 20
652.4298021143493
 30
0.0
 11
730.2389203640205
 21
652.4298021143493
 31
0.0
 12
726.0722536973539
 22
627.4298021143493
 32
0.0
 13
726.0722536973539
 23
627.4298021143493
 33
0.0
  0
MTEXT
  5
AFC
330
3CF
100
AcDbEntity
  8
SUNPOU
100
AcDbMText
 10
701.0722536973538
 20
867.4071514445888
 30
0.0
 40
30.0
 41
0.0
 71
     5
 72
     1
  1
\A1;480
 11
0.0000000000000001
 21
1.0
 31
0.0
 73
     1
 44
1.0
  0
POINT
  5
AFD
330
3CF
100
AcDbEntity
  8
DEFPOINTS
 62
     0
100
AcDbPoint
 10
888.2830757648831
 20
1107.384500774828
 30
0.0
  0
POINT
  5
AFE
330
3CF
100
AcDbEntity
  8
DEFPOINTS
 62
     0
100
AcDbPoint
 10
884.0394233418381
 20
627.4298021143492
 30
0.0
  0
POINT
  5
AFF
330
3CF
100
AcDbEntity
  8
DEFPOINTS
 62
     0
100
AcDbPoint
 10
726.0722536973539
 20
627.4298021143493
 30
0.0
  0
ENDBLK
  5
3DA
330
3CF
100
AcDbEntity
  8
0
100
AcDbBlockEnd
  0
BLOCK
  5
3E4
330
3DB
100
AcDbEntity
  8
0
100
AcDbBlockBegin
  2
*D12
 70
     1
 10
0.0
 20
0.0
 30
0.0
  3
*D12
  1

  0
LINE
  5
B00
330
3DB
100
AcDbEntity
  8
SUNPOU
370
    -2
100
AcDbLine
 10
834.0394233418381
 20
627.4298021143492
 30
0.0
 11
789.5695532817464
 21
627.4298021143492
 31
0.0
  0
LINE
  5
B01
330
3DB
100
AcDbEntity
  8
SUNPOU
370
    -2
100
AcDbLine
 10
789.5695532817464
 20
702.3845007748282
 30
0.0
 11
789.5695532817464
 21
652.4298021143492
 31
0.0
  0
SOLID
  5
B02
330
3DB
100
AcDbEntity
  8
SUNPOU
100
AcDbTrace
 10
785.4028866150798
 20
702.3845007748282
 30
0.0
 11
793.7362199484131
 21
702.3845007748282
 31
0.0
 12
789.5695532817464
 22
727.3845007748282
 32
0.0
 13
789.5695532817464
 23
727.3845007748282
 33
0.0
  0
SOLID
  5
B03
330
3DB
100
AcDbEntity
  8
SUNPOU
100
AcDbTrace
 10
785.4028866150798
 20
652.4298021143492
 30
0.0
 11
793.7362199484131
 21
652.4298021143492
 31
0.0
 12
789.5695532817464
 22
627.4298021143492
 32
0.0
 13
789.5695532817464
 23
627.4298021143492
 33
0.0
  0
MTEXT
  5
B04
330
3DB
100
AcDbEntity
  8
SUNPOU
100
AcDbMText
 10
764.5695532817463
 20
677.4071514445888
 30
0.0
 40
30.0
 41
0.0
 71
     5
 72
     1
  1
\A1;100
 11
0.0000000000000001
 21
1.0
 31
0.0
 73
     1
 44
1.0
  0
POINT
  5
B05
330
3DB
100
AcDbEntity
  8
DEFPOINTS
 62
     0
100
AcDbPoint
 10
884.0394233418381
 20
727.3845007748282
 30
0.0
  0
POINT
  5
B06
330
3DB
100
AcDbEntity
  8
DEFPOINTS
 62
     0
100
AcDbPoint
 10
884.0394233418381
 20
627.4298021143492
 30
0.0
  0
POINT
  5
B07
330
3DB
100
AcDbEntity
  8
DEFPOINTS
 62
     0
100
AcDbPoint
 10
789.5695532817464
 20
627.4298021143492
 30
0.0
  0
ENDBLK
  5
3E5
330
3DB
100
AcDbEntity
  8
0
100
AcDbBlockEnd
  0
BLOCK
  5
3F0
330
3E6
100
AcDbEntity
  8
0
100
AcDbBlockBegin
  2
*D13
 70
     1
 10
0.0
 20
0.0
 30
0.0
  3
*D13
  1

  0
LINE
  5
B08
330
3E6
100
AcDbEntity
  8
SUNPOU
370
    -2
100
AcDbLine
 10
1078.306801371079
 20
577.4298021143492
 30
0.0
 11
1078.306801371079
 21
474.0729766609383
 31
0.0
  0
LINE
  5
B09
330
3E6
100
AcDbEntity
  8
SUNPOU
370
    -2
100
AcDbLine
 10
1458.306801371078
 20
577.4298021143492
 30
0.0
 11
1458.306801371078
 21
474.0729766609383
 31
0.0
  0
LINE
  5
B0A
330
3E6
100
AcDbEntity
  8
SUNPOU
370
    -2
100
AcDbLine
 10
1103.306801371079
 20
474.0729766609383
 30
0.0
 11
1433.306801371078
 21
474.0729766609383
 31
0.0
  0
SOLID
  5
B0B
330
3E6
100
AcDbEntity
  8
SUNPOU
100
AcDbTrace
 10
1103.306801371079
 20
478.239643327605
 30
0.0
 11
1103.306801371079
 21
469.9063099942716
 31
0.0
 12
1078.306801371079
 22
474.0729766609383
 32
0.0
 13
1078.306801371079
 23
474.0729766609383
 33
0.0
  0
SOLID
  5
B0C
330
3E6
100
AcDbEntity
  8
SUNPOU
100
AcDbTrace
 10
1433.306801371078
 20
478.239643327605
 30
0.0
 11
1433.306801371078
 21
469.9063099942716
 31
0.0
 12
1458.306801371078
 22
474.0729766609383
 32
0.0
 13
1458.306801371078
 23
474.0729766609383
 33
0.0
  0
MTEXT
  5
B0D
330
3E6
100
AcDbEntity
  8
SUNPOU
100
AcDbMText
 10
1268.306801371078
 20
499.0729766609383
 30
0.0
 40
30.0
 41
0.0
 71
     5
 72
     1
  1
\A1;380
 73
     1
 44
1.0
  0
POINT
  5
B0E
330
3E6
100
AcDbEntity
  8
DEFPOINTS
 62
     0
100
AcDbPoint
 10
1078.306801371079
 20
627.4298021143492
 30
0.0
  0
POINT
  5
B0F
330
3E6
100
AcDbEntity
  8
DEFPOINTS
 62
     0
100
AcDbPoint
 10
1458.306801371078
 20
627.4298021143492
 30
0.0
  0
POINT
  5
B10
330
3E6
100
AcDbEntity
  8
DEFPOINTS
 62
     0
100
AcDbPoint
 10
1458.306801371078
 20
474.0729766609383
 30
0.0
  0
ENDBLK
  5
3F1
330
3E6
100
AcDbEntity
  8
0
100
AcDbBlockEnd
  0
BLOCK
  5
6C6
330
636
100
AcDbEntity
  8
0
100
AcDbBlockBegin
  2
*X14
 70
     1
 10
0.0
 20
0.0
 30
0.0
  3
*X14
  1

  0
LINE
  5
637
330
636
100
AcDbEntity
  8
0
 62
     0
100
AcDbLine
 10
1368.347867667724
 20
832.5219887754057
 30
0.0
 11
1377.186702432555
 21
841.3608235402374
 31
0.0
  0
LINE
  5
638
330
636
100
AcDbEntity
  8
0
 62
     0
100
AcDbLine
 10
1394.864371962219
 20
859.0384930699013
 30
0.0
 11
1402.857422592058
 21
867.03154369974
 31
0.0
  0
LINE
  5
639
330
636
100
AcDbEntity
  8
0
 62
     0
100
AcDbLine
 10
1427.968456300362
 20
892.1425774080436
 30
0.0
 11
1430.219711021546
 21
894.3938321292288
 31
0.0
  0
LINE
  5
63A
330
636
100
AcDbEntity
  8
0
 62
     0
100
AcDbLine
 10
1447.89738055121
 20
912.0715016588924
 30
0.0
 11
1456.736215316042
 21
920.9103364237243
 31
0.0
  0
LINE
  5
63B
330
636
100
AcDbEntity
  8
0
 62
     0
100
AcDbLine
 10
1347.434960107728
 20
826.9183920409053
 30
0.0
 11
1356.27379487256
 21
835.7572268057372
 31
0.0
  0
LINE
  5
63C
330
636
100
AcDbEntity
  8
0
 62
     0
100
AcDbLine
 10
1373.951464402224
 20
853.4348963354009
 30
0.0
 11
1382.790299167055
 21
862.2737311002328
 31
0.0
  0
LINE
  5
63D
330
636
100
AcDbEntity
  8
0
 62
     0
100
AcDbLine
 10
1400.467968696719
 20
879.9514006298965
 30
0.0
 11
1409.306803461551
 21
888.7902353947284
 31
0.0
  0
LINE
  5
63E
330
636
100
AcDbEntity
  8
0
 62
     0
100
AcDbLine
 10
1426.984472991215
 20
906.467904924392
 30
0.0
 11
1435.823307756046
 21
915.306739689224
 31
0.0
  0
LINE
  5
63F
330
636
100
AcDbEntity
  8
0
 62
     0
100
AcDbLine
 10
1453.50097728571
 20
932.9844092188876
 30
0.0
 11
1462.020876364623
 21
941.5043082978007
 31
0.0
  0
LINE
  5
640
330
636
100
AcDbEntity
  8
0
 62
     0
100
AcDbLine
 10
1353.038556842229
 20
847.8312996009005
 30
0.0
 11
1361.877391607061
 21
856.6701343657324
 31
0.0
  0
LINE
  5
641
330
636
100
AcDbEntity
  8
0
 62
     0
100
AcDbLine
 10
1379.555061136725
 20
874.3478038953961
 30
0.0
 11
1388.393895901556
 21
883.186638660228
 31
0.0
  0
LINE
  5
642
330
636
100
AcDbEntity
  8
0
 62
     0
100
AcDbLine
 10
1406.07156543122
 20
900.8643081898917
 30
0.0
 11
1414.910400196052
 21
909.7031429547236
 31
0.0
  0
LINE
  5
643
330
636
100
AcDbEntity
  8
0
 62
     0
100
AcDbLine
 10
1432.588069725716
 20
927.3808124843872
 30
0.0
 11
1441.426904490547
 21
936.2196472492192
 31
0.0
  0
LINE
  5
644
330
636
100
AcDbEntity
  8
0
 62
     0
100
AcDbLine
 10
1358.642153576729
 20
868.7442071608957
 30
0.0
 11
1367.480988341561
 21
877.5830419257275
 31
0.0
  0
LINE
  5
645
330
636
100
AcDbEntity
  8
0
 62
     0
100
AcDbLine
 10
1385.158657871224
 20
895.2607114553913
 30
0.0
 11
1393.997492636056
 21
904.099546220223
 31
0.0
  0
LINE
  5
646
330
636
100
AcDbEntity
  8
0
 62
     0
100
AcDbLine
 10
1411.67516216572
 20
921.7772157498869
 30
0.0
 11
1420.513996930552
 21
930.6160505147188
 31
0.0
  0
LINE
  5
647
330
636
100
AcDbEntity
  8
0
 62
     0
100
AcDbLine
 10
1451.536821613401
 20
686.0712803386607
 30
0.0
 11
1452.231777182023
 21
686.7662359072832
 31
0.0
  0
LINE
  5
648
330
636
100
AcDbEntity
  8
0
 62
     0
100
AcDbLine
 10
1469.909446711687
 20
704.443905436947
 30
0.0
 11
1475.882090232593
 21
710.4165489578528
 31
0.0
  0
LINE
  5
649
330
636
100
AcDbEntity
  8
0
 62
     0
100
AcDbLine
 10
1584.58345104225
 20
819.1179097675094
 30
0.0
 11
1584.814298654501
 21
819.3487573797609
 31
0.0
  0
LINE
  5
64A
330
636
100
AcDbEntity
  8
0
 62
     0
100
AcDbLine
 10
1464.305849977187
 20
683.5309978769519
 30
0.0
 11
1473.144684742018
 21
692.3698326417837
 31
0.0
  0
LINE
  5
64B
330
636
100
AcDbEntity
  8
0
 62
     0
100
AcDbLine
 10
1596.888371449664
 20
816.1135193494294
 30
0.0
 11
1604.101301208532
 21
823.3264491082971
 31
0.0
  0
LINE
  5
64C
330
636
100
AcDbEntity
  8
0
 62
     0
100
AcDbLine
 10
1490.822354271682
 20
710.0475021714474
 30
0.0
 11
1490.952149702902
 21
710.1772976026668
 31
0.0
  0
LINE
  5
64D
330
636
100
AcDbEntity
  8
0
 62
     0
100
AcDbLine
 10
1467.21803424787
 20
671.1338713221397
 30
0.0
 11
1467.541088007518
 21
671.4569250817884
 31
0.0
  0
LINE
  5
64E
330
636
100
AcDbEntity
  8
0
 62
     0
100
AcDbLine
 10
1617.801279009659
 20
821.7171160839299
 30
0.0
 11
1619.00693062765
 21
822.9227677019203
 31
0.0
  0
LINE
  5
64F
330
636
100
AcDbEntity
  8
0
 62
     0
100
AcDbLine
 10
1485.218757537182
 20
689.1345946114523
 30
0.0
 11
1494.057592302014
 21
697.9734293762842
 31
0.0
  0
LINE
  5
650
330
636
100
AcDbEntity
  8
0
 62
     0
100
AcDbLine
 10
1591.284774715164
 20
795.2006117894344
 30
0.0
 11
1600.123609479996
 21
804.0394465542663
 31
0.0
  0
LINE
  5
651
330
636
100
AcDbEntity
  8
0
 62
     0
100
AcDbLine
 10
1481.438775090788
 20
670.0453013395635
 30
0.0
 11
1485.00000000006
 21
673.6065262488348
 31
0.0
  0
LINE
  5
652
330
636
100
AcDbEntity
  8
0
 62
     0
100
AcDbLine
 10
1485.00000000006
 20
673.6065262488351
 30
0.0
 11
1488.453995567513
 21
677.060521816289
 31
0.0
  0
LINE
  5
653
330
636
100
AcDbEntity
  8
0
 62
     0
100
AcDbLine
 10
1506.131665097177
 20
694.7381913459527
 30
0.0
 11
1514.970499862009
 21
703.5770261107845
 31
0.0
  0
LINE
  5
654
330
636
100
AcDbEntity
  8
0
 62
     0
100
AcDbLine
 10
1532.648169391672
 20
721.2546956404483
 30
0.0
 11
1534.50970716199
 21
723.1162334107658
 31
0.0
  0
LINE
  5
655
330
636
100
AcDbEntity
  8
0
 62
     0
100
AcDbLine
 10
1585.681177980664
 20
774.2877042294393
 30
0.0
 11
1594.520012745495
 21
783.1265389942712
 31
0.0
  0
LINE
  5
656
330
636
100
AcDbEntity
  8
0
 62
     0
100
AcDbLine
 10
1612.197682275159
 20
800.8042085239349
 30
0.0
 11
1621.036517039991
 21
809.6430432887668
 31
0.0
  0
LINE
  5
657
330
636
100
AcDbEntity
  8
0
 62
     0
100
AcDbLine
 10
1500.528068362677
 20
673.8252837859573
 30
0.0
 11
1509.366903127508
 21
682.6641185507892
 31
0.0
  0
LINE
  5
658
330
636
100
AcDbEntity
  8
0
 62
     0
100
AcDbLine
 10
1527.044572657172
 20
700.3417880804529
 30
0.0
 11
1535.883407422004
 21
709.1806228452847
 31
0.0
  0
LINE
  5
659
330
636
100
AcDbEntity
  8
0
 62
     0
100
AcDbLine
 10
1553.561076951668
 20
726.8582923749485
 30
0.0
 11
1562.399911716499
 21
735.6971271397803
 31
0.0
  0
LINE
  5
65A
330
636
100
AcDbEntity
  8
0
 62
     0
100
AcDbLine
 10
1580.077581246163
 20
753.374796669444
 30
0.0
 11
1588.916416010995
 21
762.213631434276
 31
0.0
  0
LINE
  5
65B
330
636
100
AcDbEntity
  8
0
 62
     0
100
AcDbLine
 10
1606.594085540659
 20
779.8913009639396
 30
0.0
 11
1615.43292030549
 21
788.7301357287715
 31
0.0
  0
LINE
  5
65C
330
636
100
AcDbEntity
  8
0
 62
     0
100
AcDbLine
 10
1521.440975922672
 20
679.4288805204579
 30
0.0
 11
1530.279810687503
 21
688.2677152852898
 31
0.0
  0
LINE
  5
65D
330
636
100
AcDbEntity
  8
0
 62
     0
100
AcDbLine
 10
1547.957480217167
 20
705.9453848149535
 30
0.0
 11
1556.796314981999
 21
714.7842195797854
 31
0.0
  0
LINE
  5
65E
330
636
100
AcDbEntity
  8
0
 62
     0
100
AcDbLine
 10
1574.473984511663
 20
732.461889109449
 30
0.0
 11
1583.312819276494
 21
741.3007238742809
 31
0.0
  0
LINE
  5
65F
330
636
100
AcDbEntity
  8
0
 62
     0
100
AcDbLine
 10
1600.990488806158
 20
758.9783934039446
 30
0.0
 11
1609.82932357099
 21
767.8172281687765
 31
0.0
  0
LINE
  5
660
330
636
100
AcDbEntity
  8
0
 62
     0
100
AcDbLine
 10
1542.353883482667
 20
685.0324772549582
 30
0.0
 11
1551.192718247499
 21
693.87131201979
 31
0.0
  0
LINE
  5
661
330
636
100
AcDbEntity
  8
0
 62
     0
100
AcDbLine
 10
1568.870387777162
 20
711.5489815494537
 30
0.0
 11
1577.709222541994
 21
720.3878163142856
 31
0.0
  0
LINE
  5
662
330
636
100
AcDbEntity
  8
0
 62
     0
100
AcDbLine
 10
1595.386892071658
 20
738.0654858439493
 30
0.0
 11
1604.225726836489
 21
746.9043206087811
 31
0.0
  0
LINE
  5
663
330
636
100
AcDbEntity
  8
0
 62
     0
100
AcDbLine
 10
1368.347867528414
 20
832.5219827154402
 30
0.0
 11
1356.273794699801
 21
835.7572207792216
 31
0.0
  0
LINE
  5
664
330
636
100
AcDbEntity
  8
0
 62
     0
100
AcDbLine
 10
1617.800101095758
 20
765.6814581809308
 30
0.0
 11
1609.829324100681
 21
767.8172214398101
 31
0.0
  0
LINE
  5
665
330
636
100
AcDbEntity
  8
0
 62
     0
100
AcDbLine
 10
1585.681178443455
 20
774.2876975673731
 30
0.0
 11
1579.064447101254
 21
776.0606453870494
 31
0.0
  0
LINE
  5
666
330
636
100
AcDbEntity
  8
0
 62
     0
100
AcDbLine
 10
1347.434959947213
 20
826.9183860600834
 30
0.0
 11
1346.070995783279
 21
827.2838591563147
 31
0.0
  0
LINE
  5
667
330
636
100
AcDbEntity
  8
0
 62
     0
100
AcDbLine
 10
1600.990489348093
 20
758.9783867206719
 30
0.0
 11
1588.91641651948
 21
762.2136247844533
 31
0.0
  0
LINE
  5
668
330
636
100
AcDbEntity
  8
0
 62
     0
100
AcDbLine
 10
1609.282410482404
 20
745.5493797959043
 30
0.0
 11
1604.225727424118
 21
746.9043139377521
 31
0.0
  0
LINE
  5
669
330
636
100
AcDbEntity
  8
0
 62
     0
100
AcDbLine
 10
1580.077581766892
 20
753.3747900653152
 30
0.0
 11
1569.329405657726
 21
756.2547551738737
 31
0.0
  0
LINE
  5
66A
330
636
100
AcDbEntity
  8
0
 62
     0
100
AcDbLine
 10
1595.38689267153
 20
738.0654792186137
 30
0.0
 11
1583.312819842917
 21
741.3007172823952
 31
0.0
  0
LINE
  5
66B
330
636
100
AcDbEntity
  8
0
 62
     0
100
AcDbLine
 10
1574.473985090328
 20
732.4618825632569
 30
0.0
 11
1562.399912261715
 21
735.6971206270384
 31
0.0
  0
LINE
  5
66C
330
636
100
AcDbEntity
  8
0
 62
     0
100
AcDbLine
 10
1589.782586228827
 20
717.1527618978195
 30
0.0
 11
1577.709223166353
 21
720.3878097803372
 31
0.0
  0
LINE
  5
66D
330
636
100
AcDbEntity
  8
0
 62
     0
100
AcDbLine
 10
1553.561077509126
 20
726.8582859079002
 30
0.0
 11
1544.160459161361
 21
729.3771740025371
 31
0.0
  0
LINE
  5
66E
330
636
100
AcDbEntity
  8
0
 62
     0
100
AcDbLine
 10
1568.870388413765
 20
711.5489750611989
 30
0.0
 11
1556.796315585152
 21
714.7842131249803
 31
0.0
  0
LINE
  5
66F
330
636
100
AcDbEntity
  8
0
 62
     0
100
AcDbLine
 10
1532.648169927925
 20
721.2546892525434
 30
0.0
 11
1531.617637432491
 21
721.530819602469
 31
0.0
  0
LINE
  5
670
330
636
100
AcDbEntity
  8
0
 62
     0
100
AcDbLine
 10
1547.957480832563
 20
705.9453784058422
 30
0.0
 11
1535.88340800395
 21
709.1806164696237
 31
0.0
  0
LINE
  5
671
330
636
100
AcDbEntity
  8
0
 62
     0
100
AcDbLine
 10
1559.697204540968
 20
691.5925355656843
 30
0.0
 11
1551.192718908589
 21
693.8713056229224
 31
0.0
  0
LINE
  5
672
330
636
100
AcDbEntity
  8
0
 62
     0
100
AcDbLine
 10
1527.044573251362
 20
700.3417817504855
 30
0.0
 11
1514.970500422748
 21
703.577019814267
 31
0.0
  0
LINE
  5
673
330
636
100
AcDbEntity
  8
0
 62
     0
100
AcDbLine
 10
1490.822354765522
 20
710.0474959418301
 30
0.0
 11
1490.445799055257
 21
710.1483937403009
 31
0.0
  0
LINE
  5
674
330
636
100
AcDbEntity
  8
0
 62
     0
100
AcDbLine
 10
1469.90944718432
 20
704.4438992864732
 30
0.0
 11
1465.351250345704
 21
705.6652644483222
 31
0.0
  0
LINE
  5
675
330
636
100
AcDbEntity
  8
0
 62
     0
100
AcDbLine
 10
1542.353884156
 20
685.0324709037842
 30
0.0
 11
1530.279811327386
 21
688.2677089675657
 31
0.0
  0
LINE
  5
676
330
636
100
AcDbEntity
  8
0
 62
     0
100
AcDbLine
 10
1506.13166567016
 20
694.7381850951288
 30
0.0
 11
1494.057592841547
 21
697.9734231589102
 31
0.0
  0
LINE
  5
677
330
636
100
AcDbEntity
  8
0
 62
     0
100
AcDbLine
 10
1485.00000000006
 20
689.1932044930301
 30
0.0
 11
1473.144685260345
 21
692.3698265035534
 31
0.0
  0
LINE
  5
678
330
636
100
AcDbEntity
  8
0
 62
     0
100
AcDbLine
 10
1521.440976574799
 20
679.4288742484275
 30
0.0
 11
1509.366903746185
 21
682.6641123122089
 31
0.0
  0
LINE
  5
679
330
636
100
AcDbEntity
  8
0
 62
     0
100
AcDbLine
 10
1485.218758088958
 20
689.134588439772
 30
0.0
 11
1485.000000000059
 21
689.1932044930304
 31
0.0
  0
LINE
  5
67A
330
636
100
AcDbEntity
  8
0
 62
     0
100
AcDbLine
 10
1464.305850507757
 20
683.5309917844151
 30
0.0
 11
1452.231777679143
 21
686.7662298481966
 31
0.0
  0
LINE
  5
67B
330
636
100
AcDbEntity
  8
0
 62
     0
100
AcDbLine
 10
1500.528068993597
 20
673.8252775930707
 30
0.0
 11
1488.453996164984
 21
677.0605156568522
 31
0.0
  0
LINE
  5
67C
330
636
100
AcDbEntity
  8
0
 62
     0
100
AcDbLine
 10
1469.951032117726
 20
670.8111765777705
 30
0.0
 11
1467.541088583782
 21
671.4569190014955
 31
0.0
  0
LINE
  5
67D
330
636
100
AcDbEntity
  8
0
 62
     0
100
AcDbLine
 10
1389.053047362874
 20
838.1812398527822
 30
0.0
 11
1377.186702281003
 21
841.3608174345785
 31
0.0
  0
LINE
  5
67E
330
636
100
AcDbEntity
  8
0
 62
     0
100
AcDbLine
 10
1353.038556623776
 20
847.8312935621415
 30
0.0
 11
1350.408142323322
 21
848.5361109497073
 31
0.0
  0
LINE
  5
67F
330
636
100
AcDbEntity
  8
0
 62
     0
100
AcDbLine
 10
1606.594086024656
 20
779.8912942227298
 30
0.0
 11
1594.520013196043
 21
783.1265322865113
 31
0.0
  0
LINE
  5
680
330
636
100
AcDbEntity
  8
0
 62
     0
100
AcDbLine
 10
1373.951464204978
 20
853.4348902174983
 30
0.0
 11
1361.877391376364
 21
856.6701282812797
 31
0.0
  0
LINE
  5
681
330
636
100
AcDbEntity
  8
0
 62
     0
100
AcDbLine
 10
1623.045846138299
 20
786.6902517393351
 30
0.0
 11
1615.432920777245
 21
788.730128941868
 31
0.0
  0
LINE
  5
682
330
636
100
AcDbEntity
  8
0
 62
     0
100
AcDbLine
 10
1591.284775120018
 20
795.2006050694311
 30
0.0
 11
1584.165526003036
 21
797.1082021210423
 31
0.0
  0
LINE
  5
683
330
636
100
AcDbEntity
  8
0
 62
     0
100
AcDbLine
 10
1394.864371786179
 20
859.0384868728548
 30
0.0
 11
1382.790298957566
 21
862.2737249366364
 31
0.0
  0
LINE
  5
684
330
636
100
AcDbEntity
  8
0
 62
     0
100
AcDbLine
 10
1358.642153300339
 20
868.7442010641994
 30
0.0
 11
1358.000442420231
 21
868.9161469762987
 31
0.0
  0
LINE
  5
685
330
636
100
AcDbEntity
  8
0
 62
     0
100
AcDbLine
 10
1612.19768270122
 20
800.8042017247879
 30
0.0
 11
1600.123609872606
 21
804.0394397885693
 31
0.0
  0
LINE
  5
686
330
636
100
AcDbEntity
  8
0
 62
     0
100
AcDbLine
 10
1379.555060881541
 20
874.347797719556
 30
0.0
 11
1367.480988052928
 21
877.5830357833376
 31
0.0
  0
LINE
  5
687
330
636
100
AcDbEntity
  8
0
 62
     0
100
AcDbLine
 10
1624.992828239315
 20
808.5829461639429
 30
0.0
 11
1621.036517453809
 21
809.6430364439259
 31
0.0
  0
LINE
  5
688
330
636
100
AcDbEntity
  8
0
 62
     0
100
AcDbLine
 10
1596.888371796582
 20
816.1135125714888
 30
0.0
 11
1584.814298967968
 21
819.3487506352703
 31
0.0
  0
LINE
  5
689
330
636
100
AcDbEntity
  8
0
 62
     0
100
AcDbLine
 10
1400.467968462742
 20
879.9513943749129
 30
0.0
 11
1388.393895634129
 21
883.1866324386945
 31
0.0
  0
LINE
  5
68A
330
636
100
AcDbEntity
  8
0
 62
     0
100
AcDbLine
 10
1617.801279377783
 20
821.7171092268458
 30
0.0
 11
1612.660218221485
 21
823.0946524119147
 31
0.0
  0
LINE
  5
68B
330
636
100
AcDbEntity
  8
0
 62
     0
100
AcDbLine
 10
1419.939122503034
 20
885.9413077272412
 30
0.0
 11
1409.306803215331
 21
888.7902290940512
 31
0.0
  0
LINE
  5
68C
330
636
100
AcDbEntity
  8
0
 62
     0
100
AcDbLine
 10
1385.158657558104
 20
895.2607052216142
 30
0.0
 11
1375.905242843327
 21
897.7401502216691
 31
0.0
  0
LINE
  5
68D
330
636
100
AcDbEntity
  8
0
 62
     0
100
AcDbLine
 10
1431.020064781396
 20
894.1793715455045
 30
0.0
 11
1430.219710796533
 21
894.3938257494078
 31
0.0
  0
LINE
  5
68E
330
636
100
AcDbEntity
  8
0
 62
     0
100
AcDbLine
 10
1406.071565139306
 20
900.8643018769708
 30
0.0
 11
1393.997492310692
 21
904.0995399407524
 31
0.0
  0
LINE
  5
68F
330
636
100
AcDbEntity
  8
0
 62
     0
100
AcDbLine
 10
1426.984472720507
 20
906.4678985323277
 30
0.0
 11
1414.910399891894
 21
909.7031365961091
 31
0.0
  0
LINE
  5
690
330
636
100
AcDbEntity
  8
0
 62
     0
100
AcDbLine
 10
1447.897380301709
 20
912.0714951876847
 30
0.0
 11
1435.823307473095
 21
915.3067332514661
 31
0.0
  0
LINE
  5
691
330
636
100
AcDbEntity
  8
0
 62
     0
100
AcDbLine
 10
1411.675161815869
 20
921.7772093790291
 30
0.0
 11
1403.637969651557
 21
923.9307685288704
 31
0.0
  0
LINE
  5
692
330
636
100
AcDbEntity
  8
0
 62
     0
100
AcDbLine
 10
1462.747604225667
 20
919.2995830329651
 30
0.0
 11
1456.736215054297
 21
920.9103299068228
 31
0.0
  0
LINE
  5
693
330
636
100
AcDbEntity
  8
0
 62
     0
100
AcDbLine
 10
1432.588069397071
 20
927.380806034386
 30
0.0
 11
1420.513996568457
 21
930.6160440981674
 31
0.0
  0
LINE
  5
694
330
636
100
AcDbEntity
  8
0
 62
     0
100
AcDbLine
 10
1453.500976978273
 20
932.9844026897426
 30
0.0
 11
1441.426904149659
 21
936.219640753524
 31
0.0
  0
LINE
  5
695
330
636
100
AcDbEntity
  8
0
 62
     0
100
AcDbLine
 10
1509.366898034078
 20
682.6641148957094
 30
0.0
 11
1506.131659970297
 21
694.7381877243227
 31
0.0
  0
LINE
  5
696
330
636
100
AcDbEntity
  8
0
 62
     0
100
AcDbLine
 10
1450.133847051221
 20
903.7248706510505
 30
0.0
 11
1447.897374822229
 21
912.0714986393632
 31
0.0
  0
LINE
  5
697
330
636
100
AcDbEntity
  8
0
 62
     0
100
AcDbLine
 10
1441.426898694667
 20
936.2196442965899
 30
0.0
 11
1439.748110518411
 21
942.4849670655204
 31
0.0
  0
LINE
  5
698
330
636
100
AcDbEntity
  8
0
 62
     0
100
AcDbLine
 10
1501.297984726416
 20
670.9518943176581
 30
0.0
 11
1500.52806331494
 21
673.8252801431212
 31
0.0
  0
LINE
  5
699
330
636
100
AcDbEntity
  8
0
 62
     0
100
AcDbLine
 10
1494.057587187377
 20
697.9734258003478
 30
0.0
 11
1490.822349123595
 21
710.0474986289611
 31
0.0
  0
LINE
  5
69A
330
636
100
AcDbEntity
  8
0
 62
     0
100
AcDbLine
 10
1435.82330203931
 20
915.306736715388
 30
0.0
 11
1432.588063975528
 21
927.3808095440013
 31
0.0
  0
LINE
  5
69B
330
636
100
AcDbEntity
  8
0
 62
     0
100
AcDbLine
 10
1488.45399053202
 20
677.0605182191464
 30
0.0
 11
1485.218752468239
 21
689.1345910477597
 31
0.0
  0
LINE
  5
69C
330
636
100
AcDbEntity
  8
0
 62
     0
100
AcDbLine
 10
1430.219705383953
 20
894.3938291341869
 30
0.0
 11
1426.984467320172
 21
906.4679019628002
 31
0.0
  0
LINE
  5
69D
330
636
100
AcDbEntity
  8
0
 62
     0
100
AcDbLine
 10
1420.513991192609
 20
930.6160476200268
 30
0.0
 11
1419.656724048313
 21
933.8154121581977
 31
0.0
  0
LINE
  5
69E
330
636
100
AcDbEntity
  8
0
 62
     0
100
AcDbLine
 10
1473.144679685319
 20
692.3698291237847
 30
0.0
 11
1469.909441621537
 21
704.443901952398
 31
0.0
  0
LINE
  5
69F
330
636
100
AcDbEntity
  8
0
 62
     0
100
AcDbLine
 10
1414.910394537252
 20
909.7031400388249
 30
0.0
 11
1411.67515647347
 21
921.7772128674383
 31
0.0
  0
LINE
  5
6A0
330
636
100
AcDbEntity
  8
0
 62
     0
100
AcDbLine
 10
1467.541083029962
 20
671.456921542583
 30
0.0
 11
1464.305844966181
 21
683.5309943711963
 31
0.0
  0
LINE
  5
6A1
330
636
100
AcDbEntity
  8
0
 62
     0
100
AcDbLine
 10
1409.306797881895
 20
888.7902324576232
 30
0.0
 11
1406.071559818114
 21
900.8643052862366
 31
0.0
  0
LINE
  5
6A2
330
636
100
AcDbEntity
  8
0
 62
     0
100
AcDbLine
 10
1452.231772183261
 20
686.7662324472214
 30
0.0
 11
1452.175321354288
 21
686.9769098090787
 31
0.0
  0
LINE
  5
6A3
330
636
100
AcDbEntity
  8
0
 62
     0
100
AcDbLine
 10
1403.634289068358
 20
868.1345085520101
 30
0.0
 11
1400.467963162757
 21
879.9513977050349
 31
0.0
  0
LINE
  5
6A4
330
636
100
AcDbEntity
  8
0
 62
     0
100
AcDbLine
 10
1393.997487035194
 20
904.0995433622615
 30
0.0
 11
1391.331512378656
 21
914.0490962321525
 31
0.0
  0
LINE
  5
6A5
330
636
100
AcDbEntity
  8
0
 62
     0
100
AcDbLine
 10
1395.860174107841
 20
855.3220855644234
 30
0.0
 11
1394.8643665074
 21
859.0384901238335
 31
0.0
  0
LINE
  5
6A6
330
636
100
AcDbEntity
  8
0
 62
     0
100
AcDbLine
 10
1388.393890379837
 20
883.1866357810604
 30
0.0
 11
1385.158652316055
 21
895.2607086096737
 31
0.0
  0
LINE
  5
6A7
330
636
100
AcDbEntity
  8
0
 62
     0
100
AcDbLine
 10
1382.79029372448
 20
862.2737281998583
 30
0.0
 11
1379.555055660699
 21
874.3478010284716
 31
0.0
  0
LINE
  5
6A8
330
636
100
AcDbEntity
  8
0
 62
     0
100
AcDbLine
 10
1377.186697069123
 20
841.3608206186566
 30
0.0
 11
1373.951459005342
 21
853.4348934472701
 31
0.0
  0
LINE
  5
6A9
330
636
100
AcDbEntity
  8
0
 62
     0
100
AcDbLine
 10
1367.480982877779
 20
877.5830391044967
 30
0.0
 11
1365.880447210731
 21
883.5563195332444
 31
0.0
  0
LINE
  5
6AA
330
636
100
AcDbEntity
  8
0
 62
     0
100
AcDbLine
 10
1371.301713403795
 20
821.4980636552596
 30
0.0
 11
1368.347862349985
 21
832.5219858660684
 31
0.0
  0
LINE
  5
6AB
330
636
100
AcDbEntity
  8
0
 62
     0
100
AcDbLine
 10
1361.877386222422
 20
856.670131523295
 30
0.0
 11
1358.642148158641
 21
868.7442043519084
 31
0.0
  0
LINE
  5
6AC
330
636
100
AcDbEntity
  8
0
 62
     0
100
AcDbLine
 10
1356.273789567065
 20
835.7572239420941
 30
0.0
 11
1353.038551503284
 21
847.8312967707074
 31
0.0
  0
LINE
  5
6AD
330
636
100
AcDbEntity
  8
0
 62
     0
100
AcDbLine
 10
1349.78330706447
 20
818.1542194033013
 30
0.0
 11
1347.434954847927
 21
826.9183891895053
 31
0.0
  0
LINE
  5
6AE
330
636
100
AcDbEntity
  8
0
 62
     0
100
AcDbLine
 10
1522.58994946573
 20
675.140830125805
 30
0.0
 11
1521.440970816998
 21
679.4288768196846
 31
0.0
  0
LINE
  5
6AF
330
636
100
AcDbEntity
  8
0
 62
     0
100
AcDbLine
 10
1514.970494689435
 20
703.5770224769113
 30
0.0
 11
1512.236457721842
 21
713.7805873497379
 31
0.0
  0
LINE
  5
6B0
330
636
100
AcDbEntity
  8
0
 62
     0
100
AcDbLine
 10
1456.736209541368
 20
920.9103333919518
 30
0.0
 11
1453.500971477586
 21
932.9844062205651
 31
0.0
  0
LINE
  5
6B1
330
636
100
AcDbEntity
  8
0
 62
     0
100
AcDbLine
 10
1530.279805536136
 20
688.2677115722729
 30
0.0
 11
1527.044567472354
 21
700.3417844008862
 31
0.0
  0
LINE
  5
6B2
330
636
100
AcDbEntity
  8
0
 62
     0
100
AcDbLine
 10
1461.964610015263
 20
943.223492185174
 30
0.0
 11
1460.717425119053
 21
947.8780495842611
 31
0.0
  0
LINE
  5
6B3
330
636
100
AcDbEntity
  8
0
 62
     0
100
AcDbLine
 10
1543.00995348046
 20
682.583967660302
 30
0.0
 11
1542.353878319056
 21
685.0324734962473
 31
0.0
  0
LINE
  5
6B4
330
636
100
AcDbEntity
  8
0
 62
     0
100
AcDbLine
 10
1535.883402191493
 20
709.180619153474
 30
0.0
 11
1532.648164127711
 21
721.2546919820873
 31
0.0
  0
LINE
  5
6B5
330
636
100
AcDbEntity
  8
0
 62
     0
100
AcDbLine
 10
1551.192713038195
 20
693.8713082488357
 30
0.0
 11
1547.957474974413
 21
705.945381077449
 31
0.0
  0
LINE
  5
6B6
330
636
100
AcDbEntity
  8
0
 62
     0
100
AcDbLine
 10
1556.796309693551
 20
714.7842158300379
 30
0.0
 11
1553.561071629769
 21
726.8582886586512
 31
0.0
  0
LINE
  5
6B7
330
636
100
AcDbEntity
  8
0
 62
     0
100
AcDbLine
 10
1571.901646781962
 20
700.2361453547474
 30
0.0
 11
1568.870382476471
 21
711.5489777540124
 31
0.0
  0
LINE
  5
6B8
330
636
100
AcDbEntity
  8
0
 62
     0
100
AcDbLine
 10
1562.399906348908
 20
735.6971234112391
 30
0.0
 11
1560.163794264261
 21
744.0424073225592
 31
0.0
  0
LINE
  5
6B9
330
636
100
AcDbEntity
  8
0
 62
     0
100
AcDbLine
 10
1577.709217195609
 20
720.3878125066005
 30
0.0
 11
1574.473979131828
 21
732.4618853352139
 31
0.0
  0
LINE
  5
6BA
330
636
100
AcDbEntity
  8
0
 62
     0
100
AcDbLine
 10
1583.312813850966
 20
741.3007200878022
 30
0.0
 11
1580.077575787184
 21
753.3747929164156
 31
0.0
  0
LINE
  5
6BB
330
636
100
AcDbEntity
  8
0
 62
     0
100
AcDbLine
 10
1598.188743651639
 20
727.6088092659776
 30
0.0
 11
1595.386886633886
 21
738.0654820117773
 31
0.0
  0
LINE
  5
6BC
330
636
100
AcDbEntity
  8
0
 62
     0
100
AcDbLine
 10
1588.916410506323
 20
762.213627669004
 30
0.0
 11
1585.681172442541
 21
774.2877004976174
 31
0.0
  0
LINE
  5
6BD
330
636
100
AcDbEntity
  8
0
 62
     0
100
AcDbLine
 10
1604.225721353024
 20
746.9043167643652
 30
0.0
 11
1600.990483289242
 21
758.9783895929786
 31
0.0
  0
LINE
  5
6BE
330
636
100
AcDbEntity
  8
0
 62
     0
100
AcDbLine
 10
1594.520007161679
 20
783.1265352502052
 30
0.0
 11
1591.284769097898
 21
795.2006080788186
 31
0.0
  0
LINE
  5
6BF
330
636
100
AcDbEntity
  8
0
 62
     0
100
AcDbLine
 10
1584.814292970335
 20
819.3487537360454
 30
0.0
 11
1584.408000108479
 21
820.8650593392427
 31
0.0
  0
LINE
  5
6C0
330
636
100
AcDbEntity
  8
0
 62
     0
100
AcDbLine
 10
1609.829318008381
 20
767.8172243455668
 30
0.0
 11
1606.594079944599
 21
779.8912971741802
 31
0.0
  0
LINE
  5
6C1
330
636
100
AcDbEntity
  8
0
 62
     0
100
AcDbLine
 10
1600.123603817036
 20
804.0394428314069
 30
0.0
 11
1598.526477337261
 21
810.0000000000422
 31
0.0
  0
LINE
  5
6C2
330
636
100
AcDbEntity
  8
0
 62
     0
100
AcDbLine
 10
1598.526477337261
 20
810.0000000000422
 30
0.0
 11
1596.888365753255
 21
816.1135156600202
 31
0.0
  0
LINE
  5
6C3
330
636
100
AcDbEntity
  8
0
 62
     0
100
AcDbLine
 10
1615.432914663737
 20
788.7301319267688
 30
0.0
 11
1612.197676599955
 21
800.8042047553821
 31
0.0
  0
LINE
  5
6C4
330
636
100
AcDbEntity
  8
0
 62
     0
100
AcDbLine
 10
1621.036511319094
 20
809.6430395079702
 30
0.0
 11
1620.940864043514
 21
810.000000000042
 31
0.0
  0
LINE
  5
6C5
330
636
100
AcDbEntity
  8
0
 62
     0
100
AcDbLine
 10
1620.940864043513
 20
810.0000000000422
 30
0.0
 11
1617.801273255312
 21
821.7171123365838
 31
0.0
  0
ENDBLK
  5
6C7
330
636
100
AcDbEntity
  8
0
100
AcDbBlockEnd
  0
BLOCK
  5
6E7
330
6E1
100
AcDbEntity
  8
0
100
AcDbBlockBegin
  2
*D15
 70
     1
 10
0.0
 20
0.0
 30
0.0
  3
*D15
  1

  0
LINE
  5
B11
330
6E1
100
AcDbEntity
  8
SUNPOU
 62
     0
370
    -2
100
AcDbLine
 10
1320.13921180864
 20
905.4115212925696
 30
0.0
 11
1203.804246159892
 21
820.0619863527503
 31
0.0
  0
MTEXT
  5
B12
102
{ACAD_XDICTIONARY
360
B4B
102
}
330
6E1
100
AcDbEntity
  8
SUNPOU
 62
     0
100
AcDbMText
 10
1255.246262628765
 20
888.8091166289157
 30
0.0
 40
30.0
 41
0.0
 71
     5
 72
     1
  1
\A1;\U+2205200
  7
BIGFONT
 11
0.8062819401398375
 21
0.5915314302759739
 31
0.0
 73
     1
 44
1.0
  0
INSERT
  5
B13
330
6E1
100
AcDbEntity
  8
SUNPOU
 62
     0
370
    -2
100
AcDbBlockReference
  2
ARROW
 10
1187.678607357095
 20
808.2313577472309
 30
0.0
 41
20.0
 42
20.0
 43
20.0
 50
216.265758613903
  0
POINT
  5
B14
330
6E1
100
AcDbEntity
  8
DEFPOINTS
 62
     0
100
AcDbPoint
 10
1187.678607357095
 20
808.2313577472309
 30
0.0
  0
POINT
  5
B15
330
6E1
100
AcDbEntity
  8
DEFPOINTS
 62
     0
100
AcDbPoint
 10
1348.934995385062
 20
926.5376438024251
 30
0.0
  0
ENDBLK
  5
6E8
330
6E1
100
AcDbEntity
  8
0
100
AcDbBlockEnd
  0
BLOCK
  5
80C
330
803
100
AcDbEntity
  8
0
100
AcDbBlockBegin
  2
*D16
 70
     1
 10
0.0
 20
0.0
 30
0.0
  3
*D16
  1

  0
LINE
  5
B3D
330
803
100
AcDbEntity
  8
SUNPOU
370
    -2
100
AcDbLine
 10
2757.707438818558
 20
1007.384500774828
 30
0.0
 11
2704.218155012473
 21
1007.384500774828
 31
0.0
  0
LINE
  5
B3E
330
803
100
AcDbEntity
  8
SUNPOU
370
    -2
100
AcDbLine
 10
2704.218155012474
 20
1082.384500774828
 30
0.0
 11
2704.218155012474
 21
1032.384500774828
 31
0.0
  0
SOLID
  5
B3F
330
803
100
AcDbEntity
  8
SUNPOU
100
AcDbTrace
 10
2700.051488345807
 20
1082.384500774828
 30
0.0
 11
2708.38482167914
 21
1082.384500774828
 31
0.0
 12
2704.218155012474
 22
1107.384500774828
 32
0.0
 13
2704.218155012474
 23
1107.384500774828
 33
0.0
  0
SOLID
  5
B40
330
803
100
AcDbEntity
  8
SUNPOU
100
AcDbTrace
 10
2700.051488345807
 20
1032.384500774828
 30
0.0
 11
2708.38482167914
 21
1032.384500774828
 31
0.0
 12
2704.218155012473
 22
1007.384500774828
 32
0.0
 13
2704.218155012473
 23
1007.384500774828
 33
0.0
  0
MTEXT
  5
B41
330
803
100
AcDbEntity
  8
SUNPOU
100
AcDbMText
 10
2679.218155012474
 20
1057.384500774828
 30
0.0
 40
30.0
 41
0.0
 71
     5
 72
     1
  1
\A1;100
 11
0.0000000000000001
 21
1.0
 31
0.0
 73
     1
 44
1.0
  0
POINT
  5
B42
330
803
100
AcDbEntity
  8
DEFPOINTS
 62
     0
100
AcDbPoint
 10
2802.93167749561
 20
1107.384500774828
 30
0.0
  0
POINT
  5
B43
330
803
100
AcDbEntity
  8
DEFPOINTS
 62
     0
100
AcDbPoint
 10
2807.707438818558
 20
1007.384500774828
 30
0.0
  0
POINT
  5
B44
330
803
100
AcDbEntity
  8
DEFPOINTS
 62
     0
100
AcDbPoint
 10
2704.218155012473
 20
1007.384500774828
 30
0.0
  0
ENDBLK
  5
80D
330
803
100
AcDbEntity
  8
0
100
AcDbBlockEnd
  0
BLOCK
  5
817
330
80E
100
AcDbEntity
  8
0
100
AcDbBlockBegin
  2
*D17
 70
     1
 10
0.0
 20
0.0
 30
0.0
  3
*D17
  1

  0
LINE
  5
B35
330
80E
100
AcDbEntity
  8
SUNPOU
370
    -2
100
AcDbLine
 10
2748.688025072564
 20
727.3845007748282
 30
0.0
 11
2704.218155012473
 21
727.3845007748282
 31
0.0
  0
LINE
  5
B36
330
80E
100
AcDbEntity
  8
SUNPOU
370
    -2
100
AcDbLine
 10
2704.218155012473
 20
982.3845007748282
 30
0.0
 11
2704.218155012473
 21
752.3845007748282
 31
0.0
  0
SOLID
  5
B37
330
80E
100
AcDbEntity
  8
SUNPOU
100
AcDbTrace
 10
2700.051488345807
 20
982.3845007748282
 30
0.0
 11
2708.38482167914
 21
982.3845007748282
 31
0.0
 12
2704.218155012473
 22
1007.384500774828
 32
0.0
 13
2704.218155012473
 23
1007.384500774828
 33
0.0
  0
SOLID
  5
B38
330
80E
100
AcDbEntity
  8
SUNPOU
100
AcDbTrace
 10
2700.051488345807
 20
752.3845007748282
 30
0.0
 11
2708.38482167914
 21
752.3845007748282
 31
0.0
 12
2704.218155012473
 22
727.3845007748282
 32
0.0
 13
2704.218155012473
 23
727.3845007748282
 33
0.0
  0
MTEXT
  5
B39
330
80E
100
AcDbEntity
  8
SUNPOU
100
AcDbMText
 10
2679.218155012474
 20
867.3845007748287
 30
0.0
 40
30.0
 41
0.0
 71
     5
 72
     1
  1
\A1;280
 11
0.0000000000000001
 21
1.0
 31
0.0
 73
     1
 44
1.0
  0
POINT
  5
B3A
330
80E
100
AcDbEntity
  8
DEFPOINTS
 62
     0
100
AcDbPoint
 10
2798.688025072565
 20
1007.384500774828
 30
0.0
  0
POINT
  5
B3B
330
80E
100
AcDbEntity
  8
DEFPOINTS
 62
     0
100
AcDbPoint
 10
2798.688025072565
 20
727.3845007748282
 30
0.0
  0
POINT
  5
B3C
330
80E
100
AcDbEntity
  8
DEFPOINTS
 62
     0
100
AcDbPoint
 10
2704.218155012473
 20
727.3845007748282
 30
0.0
  0
ENDBLK
  5
818
330
80E
100
AcDbEntity
  8
0
100
AcDbBlockEnd
  0
BLOCK
  5
823
330
819
100
AcDbEntity
  8
0
100
AcDbBlockBegin
  2
*D18
 70
     1
 10
0.0
 20
0.0
 30
0.0
  3
*D18
  1

  0
LINE
  5
B2C
330
819
100
AcDbEntity
  8
SUNPOU
370
    -2
100
AcDbLine
 10
2752.93167749561
 20
1107.384500774828
 30
0.0
 11
2640.720855428081
 21
1107.384500774828
 31
0.0
  0
LINE
  5
B2D
330
819
100
AcDbEntity
  8
SUNPOU
370
    -2
100
AcDbLine
 10
2748.688025072564
 20
627.4298021143492
 30
0.0
 11
2640.720855428081
 21
627.4298021143492
 31
0.0
  0
LINE
  5
B2E
330
819
100
AcDbEntity
  8
SUNPOU
370
    -2
100
AcDbLine
 10
2640.720855428081
 20
1082.384500774828
 30
0.0
 11
2640.720855428081
 21
652.4298021143492
 31
0.0
  0
SOLID
  5
B2F
330
819
100
AcDbEntity
  8
SUNPOU
100
AcDbTrace
 10
2636.554188761415
 20
1082.384500774828
 30
0.0
 11
2644.887522094748
 21
1082.384500774828
 31
0.0
 12
2640.720855428081
 22
1107.384500774828
 32
0.0
 13
2640.720855428081
 23
1107.384500774828
 33
0.0
  0
SOLID
  5
B30
330
819
100
AcDbEntity
  8
SUNPOU
100
AcDbTrace
 10
2636.554188761414
 20
652.4298021143492
 30
0.0
 11
2644.887522094747
 21
652.4298021143492
 31
0.0
 12
2640.720855428081
 22
627.4298021143492
 32
0.0
 13
2640.720855428081
 23
627.4298021143492
 33
0.0
  0
MTEXT
  5
B31
330
819
100
AcDbEntity
  8
SUNPOU
100
AcDbMText
 10
2615.720855428081
 20
867.4071514445891
 30
0.0
 40
30.0
 41
0.0
 71
     5
 72
     1
  1
\A1;480
 11
0.0000000000000001
 21
1.0
 31
0.0
 73
     1
 44
1.0
  0
POINT
  5
B32
330
819
100
AcDbEntity
  8
DEFPOINTS
 62
     0
100
AcDbPoint
 10
2802.93167749561
 20
1107.384500774828
 30
0.0
  0
POINT
  5
B33
330
819
100
AcDbEntity
  8
DEFPOINTS
 62
     0
100
AcDbPoint
 10
2798.688025072565
 20
627.4298021143492
 30
0.0
  0
POINT
  5
B34
330
819
100
AcDbEntity
  8
DEFPOINTS
 62
     0
100
AcDbPoint
 10
2640.720855428081
 20
627.4298021143492
 30
0.0
  0
ENDBLK
  5
824
330
819
100
AcDbEntity
  8
0
100
AcDbBlockEnd
  0
BLOCK
  5
82E
330
825
100
AcDbEntity
  8
0
100
AcDbBlockBegin
  2
*D19
 70
     1
 10
0.0
 20
0.0
 30
0.0
  3
*D19
  1

  0
LINE
  5
B24
330
825
100
AcDbEntity
  8
SUNPOU
370
    -2
100
AcDbLine
 10
2748.688025072564
 20
627.4298021143492
 30
0.0
 11
2704.218155012473
 21
627.4298021143492
 31
0.0
  0
LINE
  5
B25
330
825
100
AcDbEntity
  8
SUNPOU
370
    -2
100
AcDbLine
 10
2704.218155012473
 20
702.3845007748282
 30
0.0
 11
2704.218155012473
 21
652.4298021143492
 31
0.0
  0
SOLID
  5
B26
330
825
100
AcDbEntity
  8
SUNPOU
100
AcDbTrace
 10
2700.051488345807
 20
702.3845007748282
 30
0.0
 11
2708.38482167914
 21
702.3845007748282
 31
0.0
 12
2704.218155012473
 22
727.3845007748282
 32
0.0
 13
2704.218155012473
 23
727.3845007748282
 33
0.0
  0
SOLID
  5
B27
330
825
100
AcDbEntity
  8
SUNPOU
100
AcDbTrace
 10
2700.051488345807
 20
652.4298021143492
 30
0.0
 11
2708.38482167914
 21
652.4298021143492
 31
0.0
 12
2704.218155012473
 22
627.4298021143492
 32
0.0
 13
2704.218155012473
 23
627.4298021143492
 33
0.0
  0
MTEXT
  5
B28
330
825
100
AcDbEntity
  8
SUNPOU
100
AcDbMText
 10
2679.218155012474
 20
677.4071514445892
 30
0.0
 40
30.0
 41
0.0
 71
     5
 72
     1
  1
\A1;100
 11
0.0000000000000001
 21
1.0
 31
0.0
 73
     1
 44
1.0
  0
POINT
  5
B29
330
825
100
AcDbEntity
  8
DEFPOINTS
 62
     0
100
AcDbPoint
 10
2798.688025072565
 20
727.3845007748282
 30
0.0
  0
POINT
  5
B2A
330
825
100
AcDbEntity
  8
DEFPOINTS
 62
     0
100
AcDbPoint
 10
2798.688025072565
 20
627.4298021143492
 30
0.0
  0
POINT
  5
B2B
330
825
100
AcDbEntity
  8
DEFPOINTS
 62
     0
100
AcDbPoint
 10
2704.218155012473
 20
627.4298021143492
 30
0.0
  0
ENDBLK
  5
82F
330
825
100
AcDbEntity
  8
0
100
AcDbBlockEnd
  0
BLOCK
  5
83A
330
830
100
AcDbEntity
  8
0
100
AcDbBlockBegin
  2
*D20
 70
     1
 10
0.0
 20
0.0
 30
0.0
  3
*D20
  1

  0
LINE
  5
B1B
330
830
100
AcDbEntity
  8
SUNPOU
370
    -2
100
AcDbLine
 10
2810.306801371079
 20
577.4298021143492
 30
0.0
 11
2810.306801371079
 21
474.0729766609383
 31
0.0
  0
LINE
  5
B1C
330
830
100
AcDbEntity
  8
SUNPOU
370
    -2
100
AcDbLine
 10
3290.306801371078
 20
577.4298021143493
 30
0.0
 11
3290.306801371078
 21
474.0729766609383
 31
0.0
  0
LINE
  5
B1D
330
830
100
AcDbEntity
  8
SUNPOU
370
    -2
100
AcDbLine
 10
2835.306801371079
 20
474.0729766609383
 30
0.0
 11
3265.306801371078
 21
474.0729766609383
 31
0.0
  0
SOLID
  5
B1E
330
830
100
AcDbEntity
  8
SUNPOU
100
AcDbTrace
 10
2835.306801371079
 20
478.239643327605
 30
0.0
 11
2835.306801371079
 21
469.9063099942716
 31
0.0
 12
2810.306801371079
 22
474.0729766609383
 32
0.0
 13
2810.306801371079
 23
474.0729766609383
 33
0.0
  0
SOLID
  5
B1F
330
830
100
AcDbEntity
  8
SUNPOU
100
AcDbTrace
 10
3265.306801371078
 20
478.239643327605
 30
0.0
 11
3265.306801371078
 21
469.9063099942716
 31
0.0
 12
3290.306801371078
 22
474.0729766609383
 32
0.0
 13
3290.306801371078
 23
474.0729766609383
 33
0.0
  0
MTEXT
  5
B20
330
830
100
AcDbEntity
  8
SUNPOU
100
AcDbMText
 10
3050.306801371078
 20
499.0729766609383
 30
0.0
 40
30.0
 41
0.0
 71
     5
 72
     1
  1
\A1;480
 73
     1
 44
1.0
  0
POINT
  5
B21
330
830
100
AcDbEntity
  8
DEFPOINTS
 62
     0
100
AcDbPoint
 10
2810.306801371079
 20
627.4298021143492
 30
0.0
  0
POINT
  5
B22
330
830
100
AcDbEntity
  8
DEFPOINTS
 62
     0
100
AcDbPoint
 10
3290.306801371078
 20
627.4298021143493
 30
0.0
  0
POINT
  5
B23
330
830
100
AcDbEntity
  8
DEFPOINTS
 62
     0
100
AcDbPoint
 10
3290.306801371078
 20
474.0729766609383
 30
0.0
  0
ENDBLK
  5
83B
330
830
100
AcDbEntity
  8
0
100
AcDbBlockEnd
  0
BLOCK
  5
842
330
83C
100
AcDbEntity
  8
0
100
AcDbBlockBegin
  2
*D21
 70
     1
 10
0.0
 20
0.0
 30
0.0
  3
*D21
  1

  0
LINE
  5
B16
330
83C
100
AcDbEntity
  8
SUNPOU
 62
     0
370
    -2
100
AcDbLine
 10
3102.139211808641
 20
905.4115212925697
 30
0.0
 11
2985.804246159892
 21
820.0619863527503
 31
0.0
  0
MTEXT
  5
B17
102
{ACAD_XDICTIONARY
360
B4D
102
}
330
83C
100
AcDbEntity
  8
SUNPOU
 62
     0
100
AcDbMText
 10
3037.246262628766
 20
888.8091166289159
 30
0.0
 40
30.0
 41
0.0
 71
     5
 72
     1
  1
\A1;\U+2205200
  7
BIGFONT
 11
0.8062819401398384
 21
0.5915314302759728
 31
0.0
 73
     1
 44
1.0
  0
INSERT
  5
B18
330
83C
100
AcDbEntity
  8
SUNPOU
 62
     0
370
    -2
100
AcDbBlockReference
  2
ARROW
 10
2969.678607357095
 20
808.2313577472309
 30
0.0
 41
20.0
 42
20.0
 43
20.0
 50
216.265758613903
  0
POINT
  5
B19
330
83C
100
AcDbEntity
  8
DEFPOINTS
 62
     0
100
AcDbPoint
 10
2969.678607357095
 20
808.2313577472309
 30
0.0
  0
POINT
  5
B1A
330
83C
100
AcDbEntity
  8
DEFPOINTS
 62
     0
100
AcDbPoint
 10
3130.934995385063
 20
926.5376438024251
 30
0.0
  0
ENDBLK
  5
843
330
83C
100
AcDbEntity
  8
0
100
AcDbBlockEnd
  0
ENDSEC
  0
SECTION
  2
ENTITIES
  0
INSERT
  5
281
330
18
100
AcDbEntity
  8
0
100
AcDbBlockReference
  2
YA_N
 10
6.0
 20
5.0
 30
0.0
  0
TEXT
  5
2B1
330
18
100
AcDbEntity
  8
0
100
AcDbText
 10
1673.684336467933
 20
1632.717414179223
 30
0.0
 40
50.0
  1
S=1/10
  7
BIGFONT
 11
1673.684336467933
 21
1657.717414179224
 31
0.0
100
AcDbText
 73
     2
  0
DIMENSION
  5
37F
330
18
100
AcDbEntity
  8
SUNPOU
100
AcDbDimension
  2
*D8
 10
1648.306801371078
 20
390.3888569058272
 30
0.0
 11
1268.306801371078
 21
415.3888569058271
 31
0.0
 70
    32
 71
     5
 42
760.0
  3
STYLE10
100
AcDbAlignedDimension
 13
888.3068013710785
 23
627.4298021143492
 33
0.0
 14
1648.306801371078
 24
627.4298021143492
 34
0.0
100
AcDbRotatedDimension
1001
ACAD
1000
DSTYLE
1002
{
1070
    41
1040
2.5
1070
    78
1070
     0
1070
   140
1040
3.0
1070
   141
1040
1.0
1070
   176
1070
   256
1070
   177
1070
   256
1070
   178
1070
   256
1070
   271
1070
     0
1070
   272
1070
     0
1070
   279
1070
     1
1070
   284
1070
     1
1070
   288
1070
     1
1002
}
  0
LINE
  5
380
330
18
100
AcDbEntity
  8
0
100
AcDbLine
 10
1688.864440328685
 20
1307.384500774828
 30
0.0
 11
721.8508224676557
 21
1307.384500774828
 31
0.0
  0
LEADER
  5
383
330
18
100
AcDbEntity
  8
SUNPOU
  6
ByBlock
100
AcDbLeader
  3
STANDARD
 73
     0
 74
     0
 75
     1
 40
35.0
 41
130.6666666666666
 76
     3
 10
1452.416667374731
 20
932.3028015988352
 30
0.0
 10
1621.695926057373
 20
692.7606784543863
 30
0.0
 10
1646.695926057373
 20
692.7606784543863
 30
0.0
340
384
1001
ACAD
1000
DSTYLE
1002
{
1070
   341
1005
2FA
1070
    40
1040
10.0
1070
    41
1040
2.5
1070
    42
1040
0.625
1070
    43
1040
3.75
1070
    44
1040
1.25
1070
    73
1070
     0
1070
    74
1070
     0
1070
    77
1070
     1
1070
    78
1070
     8
1070
   140
1040
2.5
1070
   141
1040
2.5
1070
   143
1040
0.0394
1070
   145
1040
1.0
1070
   147
1040
0.625
1070
   171
1070
     4
1070
   172
1070
     1
1070
   173
1070
     1
1070
   176
1070
   256
1070
   177
1070
   256
1070
   178
1070
   256
1070
   271
1070
     0
1070
   272
1070
     0
1070
   273
1070
     8
1070
   274
1070
     4
1070
   343
1005
2FA
1070
   344
1005
2FA
1002
}
  0
MTEXT
  5
384
102
{ACAD_REACTORS
330
383
102
}
330
18
100
AcDbEntity
  8
SUNPOU
  6
ByBlock
100
AcDbMText
 10
1652.945926057373
 20
716.5106784543864
 30
0.0
 40
35.0
 41
0.0
 71
     4
 72
     1
  1
{\Ftxt.shx,bigfont.shx;ﾌｨﾙﾀｰ砂}
 73
     1
 44
1.0
  0
LINE
  5
385
330
18
100
AcDbEntity
  8
0
  6
ByBlock
100
AcDbLine
 10
859.1896686146542
 20
1287.384500774829
 30
0.0
 11
899.1896686146542
 21
1247.384500774828
 31
0.0
  0
LINE
  5
386
330
18
100
AcDbEntity
  8
0
  6
ByBlock
100
AcDbLine
 10
879.1896686146541
 20
1307.384500774828
 30
0.0
 11
799.1896686146551
 21
1227.384500774829
 31
0.0
  0
LINE
  5
387
330
18
100
AcDbEntity
  8
0
  6
ByBlock
100
AcDbLine
 10
839.1896686146537
 20
1267.384500774827
 30
0.0
 11
879.1896686146523
 21
1227.384500774829
 31
0.0
  0
DIMENSION
  5
388
330
18
100
AcDbEntity
  8
SUNPOU
100
AcDbDimension
  2
*D9
 10
789.5695532817467
 20
1007.384500774828
 30
0.0
 11
764.5695532817466
 21
1057.384500774828
 31
0.0
 70
    32
 71
     5
 42
100.0
  3
STYLE10
100
AcDbAlignedDimension
 13
888.2830757648831
 23
1107.384500774828
 33
0.0
 14
893.0588370878309
 24
1007.384500774828
 34
0.0
 50
90.0
100
AcDbRotatedDimension
1001
ACAD
1000
DSTYLE
1002
{
1070
    41
1040
2.5
1070
    75
1070
     1
1070
    78
1070
     0
1070
   140
1040
3.0
1070
   141
1040
1.0
1070
   176
1070
   256
1070
   177
1070
   256
1070
   178
1070
   256
1070
   271
1070
     0
1070
   272
1070
     0
1070
   279
1070
     1
1070
   284
1070
     1
1070
   288
1070
     1
1002
}
  0
DIMENSION
  5
389
330
18
100
AcDbEntity
  8
SUNPOU
100
AcDbDimension
  2
*D10
 10
789.5695532817467
 20
727.3845007748282
 30
0.0
 11
764.5695532817466
 21
867.3845007748283
 31
0.0
 70
    32
 71
     5
 42
280.0
  3
STYLE10
100
AcDbAlignedDimension
 13
884.0394233418381
 23
1007.384500774828
 33
0.0
 14
884.0394233418381
 24
727.3845007748282
 34
0.0
 50
90.0
100
AcDbRotatedDimension
1001
ACAD
1000
DSTYLE
1002
{
1070
    41
1040
2.5
1070
    75
1070
     1
1070
    78
1070
     0
1070
   140
1040
3.0
1070
   141
1040
1.0
1070
   176
1070
   256
1070
   177
1070
   256
1070
   178
1070
   256
1070
   271
1070
     0
1070
   272
1070
     0
1070
   279
1070
     1
1070
   284
1070
     1
1070
   288
1070
     1
1002
}
  0
MTEXT
  5
38A
102
{ACAD_REACTORS
330
38D
102
}
330
18
100
AcDbEntity
  8
SUNPOU
  6
ByBlock
100
AcDbMText
 10
888.3068013710785
 20
549.1827292613447
 30
0.0
 40
35.0
 41
0.0
 71
     6
 72
     1
  1
{\Ftxt.shx,bigfont.shx;透水ｺﾝｸﾘｰﾄ管}
 73
     1
 44
1.0
  0
DIMENSION
  5
38B
330
18
100
AcDbEntity
  8
SUNPOU
100
AcDbDimension
  2
*D11
 10
726.0722536973539
 20
627.4298021143493
 30
0.0
 11
701.0722536973538
 21
867.4071514445888
 31
0.0
 70
    32
 71
     5
 42
479.954698660479
  3
STYLE10
100
AcDbAlignedDimension
 13
888.2830757648831
 23
1107.384500774828
 33
0.0
 14
884.0394233418381
 24
627.4298021143492
 34
0.0
 50
90.0
100
AcDbRotatedDimension
1001
ACAD
1000
DSTYLE
1002
{
1070
    41
1040
2.5
1070
    78
1070
     0
1070
   140
1040
3.0
1070
   141
1040
1.0
1070
   176
1070
   256
1070
   177
1070
   256
1070
   178
1070
   256
1070
   271
1070
     0
1070
   272
1070
     0
1070
   279
1070
     1
1070
   284
1070
     1
1070
   288
1070
     1
1002
}
  0
DIMENSION
  5
38C
330
18
100
AcDbEntity
  8
SUNPOU
100
AcDbDimension
  2
*D12
 10
789.5695532817464
 20
627.4298021143492
 30
0.0
 11
764.5695532817463
 21
677.4071514445888
 31
0.0
 70
    32
 71
     5
 42
99.95469866047905
  3
STYLE10
100
AcDbAlignedDimension
 13
884.0394233418381
 23
727.3845007748282
 33
0.0
 14
884.0394233418381
 24
627.4298021143492
 34
0.0
 50
90.0
100
AcDbRotatedDimension
1001
ACAD
1000
DSTYLE
1002
{
1070
    41
1040
2.5
1070
    75
1070
     1
1070
    78
1070
     0
1070
   140
1040
3.0
1070
   141
1040
1.0
1070
   176
1070
   256
1070
   177
1070
   256
1070
   178
1070
   256
1070
   271
1070
     0
1070
   272
1070
     0
1070
   279
1070
     1
1070
   284
1070
     1
1070
   288
1070
     1
1002
}
  0
LEADER
  5
38D
330
18
100
AcDbEntity
  8
SUNPOU
  6
ByBlock
100
AcDbLeader
  3
STANDARD
 73
     0
 75
     1
 40
35.00000000000001
 41
242.6666666666667
 76
     3
 10
1190.697643666722
 20
790.6522970405781
 30
0.0
 10
919.5568013710785
 20
525.4327292613448
 30
0.0
 10
894.5568013710785
 20
525.4327292613448
 30
0.0
340
38A
1001
ACAD
1000
DSTYLE
1002
{
1070
   341
1005
2FA
1070
    40
1040
10.0
1070
    41
1040
2.5
1070
    42
1040
0.625
1070
    43
1040
3.75
1070
    44
1040
1.25
1070
    73
1070
     0
1070
    74
1070
     0
1070
    77
1070
     1
1070
    78
1070
     8
1070
   140
1040
2.5
1070
   141
1040
2.5
1070
   143
1040
0.0394
1070
   145
1040
1.0
1070
   147
1040
0.625
1070
   171
1070
     4
1070
   172
1070
     1
1070
   173
1070
     1
1070
   176
1070
   256
1070
   177
1070
   256
1070
   178
1070
   256
1070
   271
1070
     0
1070
   272
1070
     0
1070
   273
1070
     8
1070
   274
1070
     4
1070
   343
1005
2FA
1070
   344
1005
2FA
1002
}
  0
LINE
  5
38E
330
18
100
AcDbEntity
  8
0
  6
ByBlock
100
AcDbLine
 10
799.1896686146542
 20
1307.384500774828
 30
0.0
 11
719.1896686146551
 21
1227.384500774829
 31
0.0
  0
LINE
  5
38F
330
18
100
AcDbEntity
  8
0
  6
ByBlock
100
AcDbLine
 10
839.1896686146543
 20
1307.384500774828
 30
0.0
 11
759.1896686146551
 21
1227.384500774829
 31
0.0
  0
DIMENSION
  5
393
330
18
100
AcDbEntity
  8
SUNPOU
100
AcDbDimension
  2
*D13
 10
1458.306801371078
 20
474.0729766609383
 30
0.0
 11
1268.306801371078
 21
499.0729766609383
 31
0.0
 70
    32
 71
     5
 42
379.9999999999986
  3
STYLE10
100
AcDbAlignedDimension
 13
1078.306801371079
 23
627.4298021143492
 33
0.0
 14
1458.306801371078
 24
627.4298021143492
 34
0.0
100
AcDbRotatedDimension
1001
ACAD
1000
DSTYLE
1002
{
1070
    41
1040
2.5
1070
    78
1070
     0
1070
   140
1040
3.0
1070
   141
1040
1.0
1070
   176
1070
   256
1070
   177
1070
   256
1070
   178
1070
   256
1070
   271
1070
     0
1070
   272
1070
     0
1070
   279
1070
     1
1070
   284
1070
     1
1070
   288
1070
     1
1002
}
  0
LINE
  5
395
330
18
100
AcDbEntity
  8
0
  6
ByBlock
100
AcDbLine
 10
1019.189668614654
 20
1287.384500774827
 30
0.0
 11
1079.189668614655
 21
1227.38450077483
 31
0.0
  0
LINE
  5
396
330
18
100
AcDbEntity
  8
0
  6
ByBlock
100
AcDbLine
 10
999.1896686146533
 20
1267.384500774828
 30
0.0
 11
1039.189668614654
 21
1227.384500774829
 31
0.0
  0
LINE
  5
397
330
18
100
AcDbEntity
  8
0
  6
ByBlock
100
AcDbLine
 10
1039.189668614654
 20
1307.384500774828
 30
0.0
 11
959.1896686146547
 21
1227.384500774829
 31
0.0
  0
LINE
  5
398
330
18
100
AcDbEntity
  8
0
  6
ByBlock
100
AcDbLine
 10
959.1896686146542
 20
1307.384500774828
 30
0.0
 11
879.1896686146541
 21
1227.384500774829
 31
0.0
  0
LINE
  5
399
330
18
100
AcDbEntity
  8
0
  6
ByBlock
100
AcDbLine
 10
999.1896686146542
 20
1307.384500774828
 30
0.0
 11
919.189668614655
 21
1227.384500774829
 31
0.0
  0
LINE
  5
39A
330
18
100
AcDbEntity
  8
0
  6
ByBlock
100
AcDbLine
 10
879.1896686146541
 20
1307.384500774828
 30
0.0
 11
919.1896686146547
 21
1267.384500774828
 31
0.0
  0
LINE
  5
39B
330
18
100
AcDbEntity
  8
0
  6
ByBlock
100
AcDbLine
 10
1039.189668614654
 20
1307.384500774828
 30
0.0
 11
1119.189668614653
 21
1227.384500774829
 31
0.0
  0
TEXT
  5
3AB
330
18
100
AcDbEntity
  8
0
 62
     7
100
AcDbText
 10
913.3014618106777
 20
1628.114927607969
 30
0.0
 40
55.0
  1
透水管 K-200 構造図
  7
STYLE1
 72
     4
 11
1263.468128477344
 21
1655.614927607969
 31
0.0
100
AcDbText
  0
CIRCLE
  5
6DB
330
18
100
AcDbEntity
  8
0
100
AcDbCircle
 10
1268.306801371079
 20
867.3845007748282
 30
0.0
 40
140.0
  0
CIRCLE
  5
6DC
330
18
100
AcDbEntity
  8
0
100
AcDbCircle
 10
1268.306801371079
 20
867.3845007748282
 30
0.0
 40
100.0
  0
DIMENSION
  5
6DF
330
18
100
AcDbEntity
  8
SUNPOU
100
AcDbDimension
  2
*D15
 10
1348.934995385062
 20
926.5376438024251
 30
0.0
 11
1270.034548385664
 21
868.6520681254199
 31
0.0
 70
   163
 71
     5
 42
199.9999999999993
  3
DIA1
100
AcDbDiametricDimension
 15
1187.678607357095
 25
808.2313577472309
 35
0.0
 40
0.0
  0
INSERT
  5
6E0
330
18
100
AcDbEntity
  8
SAISEKI
100
AcDbBlockReference
  2
*X14
 10
-216.6931986289801
 20
57.38450077478569
 30
0.0
1001
ACAD
1000
HATCH
1002
{
1070
    16
1000
HONEY
1040
100.0
1040
0.7853981633974483
1002
}
  0
LINE
  5
6F5
330
18
100
AcDbEntity
  8
0
100
AcDbLine
 10
1078.306801371079
 20
627.4298021143492
 30
0.0
 11
1458.306801371078
 21
627.4298021143492
 31
0.0
  0
LINE
  5
6F6
330
18
100
AcDbEntity
  8
0
100
AcDbLine
 10
888.3068013710785
 20
1107.384500774828
 30
0.0
 11
1648.306801371078
 21
1107.384500774828
 31
0.0
  0
LINE
  5
7A0
330
18
100
AcDbEntity
  8
0
100
AcDbLine
 10
1078.306801371079
 20
627.4298021143492
 30
0.0
 11
888.3068013710785
 21
1107.384500774828
 31
0.0
  0
LINE
  5
7A1
330
18
100
AcDbEntity
  8
0
100
AcDbLine
 10
1458.306801371078
 20
627.4298021143492
 30
0.0
 11
1648.306801371078
 21
1107.384500774828
 31
0.0
  0
LINE
  5
7D5
102
{ACAD_REACTORS
330
A21
102
}
330
18
100
AcDbEntity
  8
0
100
AcDbLine
 10
2810.306801371079
 20
1107.384500774827
 30
0.0
 11
3290.306801371078
 21
1107.384500774828
 31
0.0
  0
LINE
  5
7D6
330
18
100
AcDbEntity
  8
0
100
AcDbLine
 10
2810.306801371079
 20
627.4298021143492
 30
0.0
 11
3290.306801371078
 21
627.4298021143493
 31
0.0
  0
INSERT
  5
7D7
330
18
100
AcDbEntity
  8
SAISEKI
100
AcDbBlockReference
  2
*X14
 10
1565.306801371019
 20
57.38450077478569
 30
0.0
1001
ACAD
1000
HATCH
1002
{
1070
    16
1000
HONEY
1040
100.0
1040
0.7853981633974483
1002
}
  0
DIMENSION
  5
7D8
330
18
100
AcDbEntity
  8
SUNPOU
100
AcDbDimension
  2
*D21
 10
3130.934995385063
 20
926.5376438024251
 30
0.0
 11
3052.034548385665
 21
868.6520681254199
 31
0.0
 70
   163
 71
     5
 42
199.9999999999995
  3
DIA1
100
AcDbDiametricDimension
 15
2969.678607357095
 25
808.2313577472309
 35
0.0
 40
0.0
  0
CIRCLE
  5
7D9
330
18
100
AcDbEntity
  8
0
100
AcDbCircle
 10
3050.306801371079
 20
867.3845007748282
 30
0.0
 40
100.0
  0
CIRCLE
  5
7DA
330
18
100
AcDbEntity
  8
0
100
AcDbCircle
 10
3050.306801371079
 20
867.3845007748282
 30
0.0
 40
140.0
  0
TEXT
  5
7DB
330
18
100
AcDbEntity
  8
0
 62
     7
100
AcDbText
 10
2695.301461810677
 20
1628.114927607969
 30
0.0
 40
55.0
  1
透水管 K-200 構造図
  7
STYLE1
 72
     4
 11
3045.468128477344
 21
1655.614927607969
 31
0.0
100
AcDbText
  0
DIMENSION
  5
7DC
330
18
100
AcDbEntity
  8
SUNPOU
100
AcDbDimension
  2
*D20
 10
3290.306801371078
 20
474.0729766609383
 30
0.0
 11
3050.306801371078
 21
499.0729766609383
 31
0.0
 70
    32
 71
     5
 42
479.9999999999986
  3
STYLE10
100
AcDbAlignedDimension
 13
2810.306801371079
 23
627.4298021143492
 33
0.0
 14
3290.306801371078
 24
627.4298021143493
 34
0.0
100
AcDbRotatedDimension
1001
ACAD
1000
DSTYLE
1002
{
1070
    41
1040
2.5
1070
    78
1070
     0
1070
   140
1040
3.0
1070
   141
1040
1.0
1070
   176
1070
   256
1070
   177
1070
   256
1070
   178
1070
   256
1070
   271
1070
     0
1070
   272
1070
     0
1070
   279
1070
     1
1070
   284
1070
     1
1070
   288
1070
     1
1002
}
  0
LINE
  5
7DD
102
{ACAD_REACTORS
330
A21
102
}
330
18
100
AcDbEntity
  8
0
100
AcDbLine
 10
3580.306801371079
 20
1307.384500774828
 30
0.0
 11
2442.96795522408
 21
1307.384500774828
 31
0.0
  0
LEADER
  5
7E0
330
18
100
AcDbEntity
  8
SUNPOU
  6
ByBlock
100
AcDbLeader
  3
STANDARD
 73
     0
 75
     1
 40
35.00000000000001
 41
242.6666666666667
 76
     3
 10
2972.697643666722
 20
790.6522970405781
 30
0.0
 10
2801.961459676608
 20
525.4327292613448
 30
0.0
 10
2776.961459676608
 20
525.4327292613448
 30
0.0
340
7E1
1001
ACAD
1000
DSTYLE
1002
{
1070
   341
1005
2FA
1070
    40
1040
10.0
1070
    41
1040
2.5
1070
    42
1040
0.625
1070
    43
1040
3.75
1070
    44
1040
1.25
1070
    73
1070
     0
1070
    74
1070
     0
1070
    77
1070
     1
1070
    78
1070
     8
1070
   140
1040
2.5
1070
   141
1040
2.5
1070
   143
1040
0.0394
1070
   145
1040
1.0
1070
   147
1040
0.625
1070
   171
1070
     4
1070
   172
1070
     1
1070
   173
1070
     1
1070
   176
1070
   256
1070
   177
1070
   256
1070
   178
1070
   256
1070
   271
1070
     0
1070
   272
1070
     0
1070
   273
1070
     8
1070
   274
1070
     4
1070
   343
1005
2FA
1070
   344
1005
2FA
1002
}
  0
MTEXT
  5
7E1
102
{ACAD_REACTORS
330
7E0
102
}
330
18
100
AcDbEntity
  8
SUNPOU
  6
ByBlock
100
AcDbMText
 10
2770.711459676608
 20
549.1827292613447
 30
0.0
 40
35.0
 41
0.0
 71
     6
 72
     1
  1
{\Ftxt.shx,bigfont.shx;透水ｺﾝｸﾘｰﾄ管}
 73
     1
 44
1.0
  0
DIMENSION
  5
7E2
330
18
100
AcDbEntity
  8
SUNPOU
100
AcDbDimension
  2
*D19
 10
2704.218155012473
 20
627.4298021143492
 30
0.0
 11
2679.218155012474
 21
677.4071514445892
 31
0.0
 70
    32
 71
     5
 42
99.95469866047905
  3
STYLE10
100
AcDbAlignedDimension
 13
2798.688025072565
 23
727.3845007748282
 33
0.0
 14
2798.688025072565
 24
627.4298021143492
 34
0.0
 50
90.0
100
AcDbRotatedDimension
1001
ACAD
1000
DSTYLE
1002
{
1070
    41
1040
2.5
1070
    75
1070
     1
1070
    78
1070
     0
1070
   140
1040
3.0
1070
   141
1040
1.0
1070
   176
1070
   256
1070
   177
1070
   256
1070
   178
1070
   256
1070
   271
1070
     0
1070
   272
1070
     0
1070
   279
1070
     1
1070
   284
1070
     1
1070
   288
1070
     1
1002
}
  0
DIMENSION
  5
7E3
330
18
100
AcDbEntity
  8
SUNPOU
100
AcDbDimension
  2
*D18
 10
2640.720855428081
 20
627.4298021143492
 30
0.0
 11
2615.720855428081
 21
867.4071514445891
 31
0.0
 70
    32
 71
     5
 42
479.9546986604791
  3
STYLE10
100
AcDbAlignedDimension
 13
2802.93167749561
 23
1107.384500774828
 33
0.0
 14
2798.688025072565
 24
627.4298021143492
 34
0.0
 50
90.0
100
AcDbRotatedDimension
1001
ACAD
1000
DSTYLE
1002
{
1070
    41
1040
2.5
1070
    78
1070
     0
1070
   140
1040
3.0
1070
   141
1040
1.0
1070
   176
1070
   256
1070
   177
1070
   256
1070
   178
1070
   256
1070
   271
1070
     0
1070
   272
1070
     0
1070
   279
1070
     1
1070
   284
1070
     1
1070
   288
1070
     1
1002
}
  0
DIMENSION
  5
7E4
330
18
100
AcDbEntity
  8
SUNPOU
100
AcDbDimension
  2
*D17
 10
2704.218155012473
 20
727.3845007748282
 30
0.0
 11
2679.218155012474
 21
867.3845007748287
 31
0.0
 70
    32
 71
     5
 42
280.0
  3
STYLE10
100
AcDbAlignedDimension
 13
2798.688025072565
 23
1007.384500774828
 33
0.0
 14
2798.688025072565
 24
727.3845007748282
 34
0.0
 50
90.0
100
AcDbRotatedDimension
1001
ACAD
1000
DSTYLE
1002
{
1070
    41
1040
2.5
1070
    75
1070
     1
1070
    78
1070
     0
1070
   140
1040
3.0
1070
   141
1040
1.0
1070
   176
1070
   256
1070
   177
1070
   256
1070
   178
1070
   256
1070
   271
1070
     0
1070
   272
1070
     0
1070
   279
1070
     1
1070
   284
1070
     1
1070
   288
1070
     1
1002
}
  0
DIMENSION
  5
7E5
330
18
100
AcDbEntity
  8
SUNPOU
100
AcDbDimension
  2
*D16
 10
2704.218155012473
 20
1007.384500774828
 30
0.0
 11
2679.218155012474
 21
1057.384500774828
 31
0.0
 70
    32
 71
     5
 42
100.0000000000001
  3
STYLE10
100
AcDbAlignedDimension
 13
2802.93167749561
 23
1107.384500774828
 33
0.0
 14
2807.707438818558
 24
1007.384500774828
 34
0.0
 50
90.0
100
AcDbRotatedDimension
1001
ACAD
1000
DSTYLE
1002
{
1070
    41
1040
2.5
1070
    75
1070
     1
1070
    78
1070
     0
1070
   140
1040
3.0
1070
   141
1040
1.0
1070
   176
1070
   256
1070
   177
1070
   256
1070
   178
1070
   256
1070
   271
1070
     0
1070
   272
1070
     0
1070
   279
1070
     1
1070
   284
1070
     1
1070
   288
1070
     1
1002
}
  0
LINE
  5
7E7
330
18
100
AcDbEntity
  8
0
  6
ByBlock
100
AcDbLine
 10
2503.532200052047
 20
1267.384500774827
 30
0.0
 11
2543.532200052045
 21
1227.384500774829
 31
0.0
  0
LINE
  5
7E8
330
18
100
AcDbEntity
  8
0
  6
ByBlock
100
AcDbLine
 10
2543.532200052047
 20
1307.384500774828
 30
0.0
 11
2463.532200052048
 21
1227.384500774829
 31
0.0
  0
LINE
  5
7E9
330
18
100
AcDbEntity
  8
0
  6
ByBlock
100
AcDbLine
 10
2523.532200052047
 20
1287.384500774829
 30
0.0
 11
2563.532200052048
 21
1247.384500774828
 31
0.0
  0
LINE
  5
7EA
330
18
100
AcDbEntity
  8
0
  6
ByBlock
100
AcDbLine
 10
2463.532200052048
 20
1307.384500774828
 30
0.0
 11
2383.532200052048
 21
1227.384500774829
 31
0.0
  0
LINE
  5
7EB
330
18
100
AcDbEntity
  8
0
  6
ByBlock
100
AcDbLine
 10
2503.532200052048
 20
1307.384500774828
 30
0.0
 11
2423.532200052048
 21
1227.384500774829
 31
0.0
  0
LINE
  5
7EC
330
18
100
AcDbEntity
  8
0
  6
ByBlock
100
AcDbLine
 10
2703.532200052047
 20
1307.384500774828
 30
0.0
 11
2783.532200052047
 21
1227.384500774829
 31
0.0
  0
LINE
  5
7ED
330
18
100
AcDbEntity
  8
0
  6
ByBlock
100
AcDbLine
 10
2663.532200052048
 20
1307.384500774828
 30
0.0
 11
2583.532200052048
 21
1227.384500774829
 31
0.0
  0
LINE
  5
7EE
330
18
100
AcDbEntity
  8
0
  6
ByBlock
100
AcDbLine
 10
2703.532200052047
 20
1307.384500774828
 30
0.0
 11
2623.532200052048
 21
1227.384500774829
 31
0.0
  0
LINE
  5
7EF
330
18
100
AcDbEntity
  8
0
  6
ByBlock
100
AcDbLine
 10
2623.532200052047
 20
1307.384500774828
 30
0.0
 11
2543.532200052047
 21
1227.384500774829
 31
0.0
  0
LINE
  5
7F0
330
18
100
AcDbEntity
  8
0
  6
ByBlock
100
AcDbLine
 10
2543.532200052047
 20
1307.384500774828
 30
0.0
 11
2583.532200052048
 21
1267.384500774828
 31
0.0
  0
LINE
  5
7F1
330
18
100
AcDbEntity
  8
0
  6
ByBlock
100
AcDbLine
 10
2663.532200052046
 20
1267.384500774828
 30
0.0
 11
2703.532200052047
 21
1227.384500774829
 31
0.0
  0
LINE
  5
7F2
330
18
100
AcDbEntity
  8
0
  6
ByBlock
100
AcDbLine
 10
2683.532200052047
 20
1287.384500774827
 30
0.0
 11
2743.532200052048
 21
1227.38450077483
 31
0.0
  0
MTEXT
  5
7F3
102
{ACAD_REACTORS
330
7F4
102
}
330
18
100
AcDbEntity
  8
SUNPOU
  6
ByBlock
100
AcDbMText
 10
3349.098705841534
 20
567.3917653529128
 30
0.0
 40
35.0
 41
0.0
 71
     4
 72
     1
  1
{\Ftxt.shx,bigfont.shx;ﾌｨﾙﾀｰ砂}
 73
     1
 44
1.0
  0
LEADER
  5
7F4
330
18
100
AcDbEntity
  8
SUNPOU
  6
ByBlock
100
AcDbLeader
  3
STANDARD
 73
     0
 74
     0
 75
     1
 40
35.0
 41
130.6666666666666
 76
     3
 10
3188.193982118817
 20
723.7822082705674
 30
0.0
 10
3317.848705841534
 20
543.6417653529129
 30
0.0
 10
3342.848705841535
 20
543.6417653529129
 30
0.0
340
7F3
1001
ACAD
1000
DSTYLE
1002
{
1070
   341
1005
2FA
1070
    40
1040
10.0
1070
    41
1040
2.5
1070
    42
1040
0.625
1070
    43
1040
3.75
1070
    44
1040
1.25
1070
    73
1070
     0
1070
    74
1070
     0
1070
    77
1070
     1
1070
    78
1070
     8
1070
   140
1040
2.5
1070
   141
1040
2.5
1070
   143
1040
0.0394
1070
   145
1040
1.0
1070
   147
1040
0.625
1070
   171
1070
     4
1070
   172
1070
     1
1070
   173
1070
     1
1070
   176
1070
   256
1070
   177
1070
   256
1070
   178
1070
   256
1070
   271
1070
     0
1070
   272
1070
     0
1070
   273
1070
     8
1070
   274
1070
     4
1070
   343
1005
2FA
1070
   344
1005
2FA
1002
}
  0
TEXT
  5
7F6
330
18
100
AcDbEntity
  8
0
100
AcDbText
 10
3455.684336467932
 20
1632.717414179223
 30
0.0
 40
50.0
  1
S=1/10
  7
BIGFONT
 11
3455.684336467932
 21
1657.717414179224
 31
0.0
100
AcDbText
 73
     2
  0
LEADER
  5
8A1
330
18
100
AcDbEntity
  8
SUNPOU
  6
ByBlock
100
AcDbLeader
  3
STANDARD
 73
     0
 74
     0
 75
     1
 40
35.0
 41
158.6666666666667
 76
     3
 10
3188.193982118817
 20
1188.609367176104
 30
0.0
 10
3317.848705841534
 20
1008.468924258449
 30
0.0
 10
3342.848705841535
 20
1008.468924258449
 30
0.0
340
8A2
1001
ACAD
1000
DSTYLE
1002
{
1070
   341
1005
2FA
1070
    40
1040
10.0
1070
    41
1040
2.5
1070
    42
1040
0.625
1070
    43
1040
3.75
1070
    44
1040
1.25
1070
    73
1070
     0
1070
    74
1070
     0
1070
    77
1070
     1
1070
    78
1070
     8
1070
   140
1040
2.5
1070
   141
1040
2.5
1070
   143
1040
0.0394
1070
   145
1040
1.0
1070
   147
1040
0.625
1070
   171
1070
     4
1070
   172
1070
     1
1070
   173
1070
     1
1070
   176
1070
   256
1070
   177
1070
   256
1070
   178
1070
   256
1070
   271
1070
     0
1070
   272
1070
     0
1070
   273
1070
     8
1070
   274
1070
     4
1070
   343
1005
2FA
1070
   344
1005
2FA
1002
}
  0
MTEXT
  5
8A2
102
{ACAD_REACTORS
330
8A1
102
}
330
18
100
AcDbEntity
  8
SUNPOU
  6
ByBlock
100
AcDbMText
 10
3349.098705841534
 20
1032.218924258449
 30
0.0
 40
35.0
 41
0.0
 71
     4
 72
     1
  1
{\Ftxt.shx,bigfont.shx;埋戻し砂}
 73
     1
 44
1.0
  0
MTEXT
  5
91F
330
18
100
AcDbEntity
  8
0
100
AcDbMText
 10
1433.029329807652
 20
319.9841760813372
 30
0.0
 40
30.0
 41
372.3
 71
     1
 72
     5
  1
{\C1;製品長 Ｌ＝1.000ｍ}
  7
BIGFONT
 73
     1
 44
1.0
  0
MTEXT
  5
920
330
18
100
AcDbEntity
  8
0
100
AcDbMText
 10
3215.029329807652
 20
319.9841760813372
 30
0.0
 40
30.0
 41
372.3
 71
     1
 72
     5
  1
{\C1;製品長 Ｌ＝1.000ｍ}
  7
BIGFONT
 73
     1
 44
1.0
  0
LINE
  5
99A
102
{ACAD_REACTORS
330
A21
102
}
330
18
100
AcDbEntity
  8
0
100
AcDbLine
 10
2810.306801371079
 20
627.4298021143492
 30
0.0
 11
2810.306801371079
 21
1307.384500774828
 31
0.0
  0
LINE
  5
99D
102
{ACAD_REACTORS
330
A21
102
}
330
18
100
AcDbEntity
  8
0
100
AcDbLine
 10
3290.306801371078
 20
627.4298021143493
 30
0.0
 11
3290.306801371078
 21
1307.384500774828
 31
0.0
  0
HATCH
  5
A21
330
18
100
AcDbEntity
  8
DEFPOINTS
100
AcDbHatch
 10
0.0
 20
0.0
 30
0.0
210
0.0
220
0.0
230
1.0
  2
ANSI31
 70
     0
 71
     1
 91
        1
 92
        7
 72
     0
 73
     1
 93
        4
 10
3290.306801371078
 20
1107.384500774828
 10
3290.306801371078
 20
1307.384500774828
 10
2810.306801371078
 20
1307.384500774828
 10
2810.306801371079
 20
1107.384500774827
 97
        4
330
7DD
330
99A
330
7D5
330
99D
 75
     0
 76
     1
 52
0.0
 41
200.0
 77
     0
 78
     1
 53
45.0
 43
127.4891844159165
 44
127.2275064267665
 45
-17.67766952966368
 46
17.67766952966369
 79
     0
 47
2.182478381845304
 98
        1
 10
2889.847601855019
 20
1165.004754248796
1001
ACAD
1010
0.0
1020
0.0
1030
0.0
  0
HATCH
  5
A3C
330
18
100
AcDbEntity
  8
DEFPOINTS
100
AcDbHatch
 10
0.0
 20
0.0
 30
0.0
210
0.0
220
0.0
230
1.0
  2
AR-SAND
 70
     0
 71
     0
 91
        2
 92
        7
 72
     1
 73
     1
 93
        6
 10
1300.326880365963
 20
1003.673585228284
 42
0.0
 10
1324.692967508959
 20
1107.384500774828
 42
0.0
 10
888.3068013710788
 20
1107.384500774827
 42
0.0
 10
1007.85726018895
 20
805.3907932134949
 42
0.0
 10
1132.111800378408
 20
834.9665781916936
 42
-0.0584859133119411
 10
1128.306801371079
 20
867.3845007748282
 42
-0.4835342047778568
 97
        0
 92
        7
 72
     1
 73
     1
 93
        6
 10
1555.883865983146
 20
873.9170160199236
 42
0.0
 10
1408.270695121672
 20
870.5638790431267
 42
-0.0056780103376595
 10
1408.306801371079
 20
867.3845007748282
 42
-0.4817264042054316
 10
1237.086610149892
 20
730.9099622699754
 42
0.0
 10
1213.41427959614
 20
627.4298021143492
 42
0.0
 10
1458.306801371078
 20
627.4298021143492
 42
0.0
 97
        0
 75
     0
 76
     1
 52
0.0
 41
20.0
 77
     0
 78
     4
 53
37.5
 43
-255.518961945962
 44
127.2275064267665
 45
-1.259867162192163
 46
38.53647538026317
 79
     6
 49
0.0
 49
-30.4
 49
0.0
 49
-34.0
 49
0.0
 49
-32.5
 53
7.499999999999999
 43
-255.518961945962
 44
127.2275064267665
 45
35.39553410535454
 46
56.4429213045948
 79
     6
 49
0.0
 49
-16.4
 49
0.0
 49
-27.4
 49
0.0
 49
-10.5
 53
327.5
 43
-280.118961945962
 44
127.2275064267665
 45
62.2828372350299
 46
0.11318107073929
 79
     6
 49
0.0
 49
-10.0
 49
0.0
 49
-36.0
 49
0.0
 49
-47.0
 53
317.5
 43
-280.118961945962
 44
127.2275064267665
 45
60.12253209144586
 46
17.55351129868498
 79
     6
 49
0.0
 49
-5.0
 49
0.0
 49
-23.6
 49
0.0
 49
-27.0
 47
2.182478381845304
 98
        2
 10
1002.312530147938
 20
975.1291353351748
 10
1443.407506669912
 20
689.2244674668996
1001
ACAD
1010
0.0
1020
0.0
1030
0.0
  0
HATCH
  5
A56
330
18
100
AcDbEntity
  8
DEFPOINTS
100
AcDbHatch
 10
0.0
 20
0.0
 30
0.0
210
0.0
220
0.0
230
1.0
  2
AR-SAND
 70
     0
 71
     0
 91
        2
 92
        7
 72
     1
 73
     1
 93
        6
 10
3096.139056054554
 20
1107.384500774827
 42
0.0
 10
2810.306801371078
 20
1107.384500774827
 42
0.0
 10
2810.306801371079
 20
815.366812324542
 42
0.0
 10
2913.483649030197
 20
837.7294003112696
 42
-0.0534104604007437
 10
2910.306801371079
 20
867.3845007748282
 42
-0.4706254248460298
 10
3076.567720750662
 20
1004.89946037319
 42
0.0
 97
        0
 92
        7
 72
     1
 73
     1
 93
        5
 10
3290.306801371078
 20
862.9285698549036
 42
0.0
 10
3190.282677878006
 20
864.7856556241167
 42
-0.513291576180758
 10
3003.003420839169
 20
735.6180779264661
 42
0.0
 10
2964.164458156535
 20
627.4298021143492
 42
0.0
 10
3290.306801371078
 20
627.4298021143493
 42
0.0
 97
        0
 75
     0
 76
     1
 52
0.0
 41
20.0
 77
     0
 78
     4
 53
37.5
 43
127.4891844159165
 44
127.2275064267665
 45
-1.259867162192163
 46
38.53647538026317
 79
     6
 49
0.0
 49
-30.4
 49
0.0
 49
-34.0
 49
0.0
 49
-32.5
 53
7.499999999999999
 43
127.4891844159165
 44
127.2275064267665
 45
35.39553410535454
 46
56.4429213045948
 79
     6
 49
0.0
 49
-16.4
 49
0.0
 49
-27.4
 49
0.0
 49
-10.5
 53
327.5
 43
102.8891844159165
 44
127.2275064267665
 45
62.2828372350299
 46
0.11318107073929
 79
     6
 49
0.0
 49
-10.0
 49
0.0
 49
-36.0
 49
0.0
 49
-47.0
 53
317.5
 43
102.8891844159165
 44
127.2275064267665
 45
60.12253209144586
 46
17.55351129868498
 79
     6
 49
0.0
 49
-5.0
 49
0.0
 49
-23.6
 49
0.0
 49
-27.0
 47
2.182478381845304
 98
        2
 10
2870.19485401265
 20
1027.508615885619
 10
3173.720608450171
 20
697.9543796131347
1001
ACAD
1010
0.0
1020
0.0
1030
0.0
  0
LWPOLYLINE
  5
A68
330
18
100
AcDbEntity
  8
KL
  6
ByBlock
 62
     0
 48
2.0
100
AcDbPolyline
 90
        4
 70
     1
 43
0.0
 10
377.306801371079
 20
2100.15246097406
 10
3941.306801371079
 20
2100.152460974058
 10
3941.306801371077
 20
-419.8475390259432
 10
377.3068013710767
 20
-419.84753902594
  0
LINE
  5
A75
330
18
100
AcDbEntity
  8
DEFPOINTS
100
AcDbLine
 10
3050.306801371078
 20
474.0729766609383
 30
0.0
 11
3050.306801371078
 21
474.0729766609383
 31
0.0
  0
ENDSEC
  0
SECTION
  2
OBJECTS
  0
DICTIONARY
  5
C
330
0
100
AcDbDictionary
281
     1
  3
ACAD_COLOR
350
94D
  3
ACAD_GROUP
350
D
  3
ACAD_LAYOUT
350
2D0
  3
ACAD_MATERIAL
350
923
  3
ACAD_MLEADERSTYLE
350
972
  3
ACAD_MLINESTYLE
350
E
  3
ACAD_PLOTSETTINGS
350
2D1
  3
ACAD_PLOTSTYLENAME
350
2CE
  3
ACAD_SCALELIST
350
950
  3
ACAD_TABLESTYLE
350
94E
  3
ACAD_VISUALSTYLE
350
93C
  3
ACDB_RECOMPOSE_DATA
350
991
  3
AcDbVariableDictionary
350
2D8
  0
DICTIONARY
  5
979
330
F
100
AcDbDictionary
280
     1
281
     1
  3
ADSK_XREC_LAYER_RECONCILED
360
97A
  0
DICTIONARY
  5
97B
330
49
100
AcDbDictionary
280
     1
281
     1
  3
ADSK_XREC_LAYER_RECONCILED
360
97C
  0
DICTIONARY
  5
97D
330
4D
100
AcDbDictionary
280
     1
281
     1
  3
ADSK_XREC_LAYER_RECONCILED
360
97E
  0
DICTIONARY
  5
97F
330
4F
100
AcDbDictionary
280
     1
281
     1
  3
ADSK_XREC_LAYER_RECONCILED
360
980
  0
DICTIONARY
  5
A60
330
A5F
100
AcDbDictionary
280
     1
281
     1
  0
DICTIONARY
  5
99B
330
18
100
AcDbDictionary
280
     1
281
     1
  3
ACAD_SORTENTS
360
99C
  0
DICTIONARY
  5
B4B
330
B12
100
AcDbDictionary
280
     1
281
     1
  3
ACAD_MTEXT_2008_RT
360
B4C
  0
DICTIONARY
  5
B4D
330
B17
100
AcDbDictionary
280
     1
281
     1
  3
ACAD_MTEXT_2008_RT
360
B4E
  0
DICTIONARY
  5
94D
102
{ACAD_REACTORS
330
C
102
}
330
C
100
AcDbDictionary
281
     1
  0
DICTIONARY
  5
D
102
{ACAD_REACTORS
330
C
102
}
330
C
100
AcDbDictionary
281
     1
  0
DICTIONARY
  5
2D0
102
{ACAD_REACTORS
330
C
102
}
330
C
100
AcDbDictionary
281
     1
  3
Model
350
2D2
  3
ﾚｲｱｳﾄ1
350
2D3
  0
DICTIONARY
  5
923
102
{ACAD_REACTORS
330
C
102
}
330
C
100
AcDbDictionary
281
     1
  3
ByBlock
350
92C
  3
ByLayer
350
924
  3
Global
350
934
  0
DICTIONARY
  5
972
102
{ACAD_REACTORS
330
C
102
}
330
C
100
AcDbDictionary
281
     1
  3
Standard
350
973
  0
DICTIONARY
  5
E
102
{ACAD_REACTORS
330
C
102
}
330
C
100
AcDbDictionary
281
     1
  3
STANDARD
350
1B
  0
DICTIONARY
  5
2D1
102
{ACAD_REACTORS
330
C
102
}
330
C
100
AcDbDictionary
281
     1
  0
ACDBDICTIONARYWDFLT
  5
2CE
102
{ACAD_REACTORS
330
C
102
}
330
C
100
AcDbDictionary
281
     1
  3
Normal
350
2CF
100
AcDbDictionaryWithDefault
340
2CF
  0
DICTIONARY
  5
950
102
{ACAD_REACTORS
330
C
102
}
330
C
100
AcDbDictionary
281
     1
  3
A0
350
951
  3
A1
350
952
  3
A2
350
953
  3
A3
350
954
  3
A4
350
955
  3
A5
350
956
  3
A6
350
957
  3
A7
350
958
  3
A8
350
959
  3
A9
350
95A
  3
B0
350
95B
  3
B1
350
95C
  3
B2
350
95D
  3
B3
350
95E
  3
B4
350
95F
  3
B5
350
960
  3
B6
350
961
  3
B7
350
962
  3
B8
350
963
  3
B9
350
964
  3
C0
350
965
  3
C1
350
966
  3
C2
350
967
  3
C3
350
968
  3
C4
350
969
  3
C5
350
96A
  3
C6
350
96B
  3
C7
350
96C
  3
C8
350
96D
  3
C9
350
96E
  3
D0
350
96F
  3
D1
350
970
  3
D2
350
971
  0
DICTIONARY
  5
94E
102
{ACAD_REACTORS
330
C
102
}
330
C
100
AcDbDictionary
281
     1
  3
Standard
350
94F
  0
DICTIONARY
  5
93C
102
{ACAD_REACTORS
330
C
102
}
330
C
100
AcDbDictionary
281
     1
  3
2dWireframe
350
942
  3
3D Hidden
350
944
  3
3dWireframe
350
943
  3
Basic
350
941
  3
Brighten
350
948
  3
ColorChange
350
94C
  3
Conceptual
350
945
  3
Dim
350
947
  3
Facepattern
350
94B
  3
Flat
350
93D
  3
FlatWithEdges
350
93E
  3
Gouraud
350
93F
  3
GouraudWithEdges
350
940
  3
Linepattern
350
94A
  3
Realistic
350
946
  3
Thicken
350
949
  0
XRECORD
  5
991
102
{ACAD_REACTORS
330
C
102
}
330
C
100
AcDbXrecord
280
     1
 90
        1
330
94F
  0
DICTIONARY
  5
2D8
102
{ACAD_REACTORS
330
C
102
}
330
C
100
AcDbDictionary
281
     1
  3
CANNOSCALE
350
983
  3
CMLEADERSTYLE
350
982
  3
CTABLESTYLE
350
981
  3
LIGHTINGUNITS
350
993
  3
MSLTSCALE
350
992
  3
SORTENTS
350
2D9
  0
XRECORD
  5
97A
102
{ACAD_REACTORS
330
979
102
}
330
979
100
AcDbXrecord
280
     1
290
     1
  0
XRECORD
  5
97C
102
{ACAD_REACTORS
330
97B
102
}
330
97B
100
AcDbXrecord
280
     1
290
     1
  0
XRECORD
  5
97E
102
{ACAD_REACTORS
330
97D
102
}
330
97D
100
AcDbXrecord
280
     1
290
     1
  0
XRECORD
  5
980
102
{ACAD_REACTORS
330
97F
102
}
330
97F
100
AcDbXrecord
280
     1
290
     1
  0
SORTENTSTABLE
  5
99C
102
{ACAD_REACTORS
330
99B
102
}
330
99B
100
AcDbSortentsTable
330
18
331
7EA
  5
7F0
331
7DD
  5
7E5
331
8A1
  5
A09
331
6F5
  5
7A0
331
397
  5
397
331
38A
  5
38A
331
39B
  5
39B
331
2B1
  5
2B1
331
A56
  5
7D9
331
7EB
  5
7F1
331
91F
  5
A0B
331
6F6
  5
7A1
331
8A2
  5
A0A
331
38B
  5
38B
331
7EC
  5
7F2
331
38C
  5
38C
331
37F
  5
37F
331
7ED
  5
7F3
331
7E0
  5
7E7
331
38D
  5
38D
331
380
  5
380
331
7EE
  5
7F4
331
A3C
  5
6DC
331
6DB
  5
6DF
331
7E1
  5
7E8
331
38E
  5
38E
331
7EF
  5
7F6
331
7E2
  5
7E9
331
6DC
  5
6E0
331
38F
  5
38F
331
7F0
  5
87E
331
281
  5
281
331
A21
  5
7D8
331
7E3
  5
7EA
331
7A0
  5
7D6
331
383
  5
383
331
7F1
  5
8A2
331
7E4
  5
7EB
331
7A1
  5
7D7
331
384
  5
384
331
7F2
  5
8C8
331
6DF
  5
6F5
331
7E5
  5
7EC
331
99A
  5
A07
331
7D8
  5
7E0
331
3AB
  5
3AB
331
385
  5
385
331
7F3
  5
91F
331
7D5
  5
7DB
331
6E0
  5
6F6
331
7D9
  5
7E1
331
393
  5
393
331
7F4
  5
99A
331
386
  5
386
331
7D6
  5
7DC
331
7E7
  5
7ED
331
7DA
  5
7E2
331
387
  5
387
331
398
  5
398
331
7D7
  5
7DD
331
7E8
  5
7EE
331
99D
  5
A08
331
7DB
  5
7E3
331
395
  5
395
331
920
  5
A0C
331
7F6
  5
99D
331
388
  5
388
331
399
  5
399
331
7E9
  5
7EF
331
7DC
  5
7E4
331
396
  5
396
331
389
  5
389
331
39A
  5
39A
  0
XRECORD
  5
B4C
102
{ACAD_REACTORS
330
B4B
102
}
330
B4B
100
AcDbXrecord
280
     1
 40
5685.0
  1
\A1;\U+2205200
  0
XRECORD
  5
B4E
102
{ACAD_REACTORS
330
B4D
102
}
330
B4D
100
AcDbXrecord
280
     1
 40
5685.0
  1
\A1;\U+2205200
  0
LAYOUT
  5
2D2
102
{ACAD_REACTORS
330
2D0
102
}
330
2D0
100
AcDbPlotSettings
  1

  2
EPSON LP-8000SX
  4

  6

 40
0.0
 41
0.0
 42
0.0
 43
0.0
 44
0.0
 45
0.0
 46
0.0
 47
0.0
 48
0.0
 49
0.0
140
0.0
141
0.0
142
1.0
143
1.0
 70
  1712
 72
     0
 73
     0
 74
     0
  7

 75
     0
147
1.0
 76
     0
 77
     2
 78
   300
148
0.0
149
0.0
100
AcDbLayout
  1
Model
 70
     1
 71
     0
 10
0.0
 20
0.0
 11
12.0
 21
9.0
 12
0.0
 22
0.0
 32
0.0
 14
0.0
 24
0.0
 34
0.0
 15
0.0
 25
0.0
 35
0.0
146
0.0
 13
0.0
 23
0.0
 33
0.0
 16
1.0
 26
0.0
 36
0.0
 17
0.0
 27
1.0
 37
0.0
 76
     0
330
18
331
921
  0
LAYOUT
  5
2D3
102
{ACAD_REACTORS
330
2D0
102
}
330
2D0
100
AcDbPlotSettings
  1

  2
EPSON LP-8000SX
  4

  6

 40
0.0
 41
0.0
 42
0.0
 43
0.0
 44
0.0
 45
0.0
 46
0.0
 47
0.0
 48
0.0
 49
0.0
140
0.0
141
0.0
142
1.0
143
1.0
 70
   688
 72
     0
 73
     0
 74
     5
  7

 75
    16
147
1.0
 76
     0
 77
     2
 78
   300
148
0.0
149
0.0
100
AcDbLayout
  1
ﾚｲｱｳﾄ1
 70
     1
 71
     1
 10
0.0
 20
0.0
 11
12.0
 21
9.0
 12
0.0
 22
0.0
 32
0.0
 14
1.000000000000000E+20
 24
1.000000000000000E+20
 34
1.000000000000000E+20
 15
-1.000000000000000E+20
 25
-1.000000000000000E+20
 35
-1.000000000000000E+20
146
0.0
 13
0.0
 23
0.0
 33
0.0
 16
1.0
 26
0.0
 36
0.0
 17
0.0
 27
1.0
 37
0.0
 76
     0
330
15
  0
MATERIAL
  5
92C
102
{ACAD_XDICTIONARY
360
92D
102
}
102
{ACAD_REACTORS
330
923
102
}
330
923
100
AcDbMaterial
  1
ByBlock
 72
     0
 43
0.0208333333333333
 43
0.0
 43
0.0
 43
0.0
 43
0.0
 43
0.0208333333333333
 43
0.0
 43
0.0
 43
0.0
 43
0.0
 43
1.0
 43
0.0
 43
0.0
 43
0.0
 43
0.0
 43
1.0
 77
     0
 47
0.0208333333333333
 47
0.0
 47
0.0
 47
0.0
 47
0.0
 47
0.0208333333333333
 47
0.0
 47
0.0
 47
0.0
 47
0.0
 47
1.0
 47
0.0
 47
0.0
 47
0.0
 47
0.0
 47
1.0
171
     0
 49
0.0208333333333333
 49
0.0
 49
0.0
 49
0.0
 49
0.0
 49
0.0208333333333333
 49
0.0
 49
0.0
 49
0.0
 49
0.0
 49
1.0
 49
0.0
 49
0.0
 49
0.0
 49
0.0
 49
1.0
175
     0
142
0.0208333333333333
142
0.0
142
0.0
142
0.0
142
0.0
142
0.0208333333333333
142
0.0
142
0.0
142
0.0
142
0.0
142
1.0
142
0.0
142
0.0
142
0.0
142
0.0
142
1.0
179
     0
144
0.0208333333333333
144
0.0
144
0.0
144
0.0
144
0.0
144
0.0208333333333333
144
0.0
144
0.0
144
0.0
144
0.0
144
1.0
144
0.0
144
0.0
144
0.0
144
0.0
144
1.0
147
0.0208333333333333
147
0.0
147
0.0
147
0.0
147
0.0
147
0.0208333333333333
147
0.0
147
0.0
147
0.0
147
0.0
147
1.0
147
0.0
147
0.0
147
0.0
147
0.0
147
1.0
  0
MATERIAL
  5
924
102
{ACAD_XDICTIONARY
360
925
102
}
102
{ACAD_REACTORS
330
923
102
}
330
923
100
AcDbMaterial
  1
ByLayer
 72
     0
 43
0.0208333333333333
 43
0.0
 43
0.0
 43
0.0
 43
0.0
 43
0.0208333333333333
 43
0.0
 43
0.0
 43
0.0
 43
0.0
 43
1.0
 43
0.0
 43
0.0
 43
0.0
 43
0.0
 43
1.0
 77
     0
 47
0.0208333333333333
 47
0.0
 47
0.0
 47
0.0
 47
0.0
 47
0.0208333333333333
 47
0.0
 47
0.0
 47
0.0
 47
0.0
 47
1.0
 47
0.0
 47
0.0
 47
0.0
 47
0.0
 47
1.0
171
     0
 49
0.0208333333333333
 49
0.0
 49
0.0
 49
0.0
 49
0.0
 49
0.0208333333333333
 49
0.0
 49
0.0
 49
0.0
 49
0.0
 49
1.0
 49
0.0
 49
0.0
 49
0.0
 49
0.0
 49
1.0
175
     0
142
0.0208333333333333
142
0.0
142
0.0
142
0.0
142
0.0
142
0.0208333333333333
142
0.0
142
0.0
142
0.0
142
0.0
142
1.0
142
0.0
142
0.0
142
0.0
142
0.0
142
1.0
179
     0
144
0.0208333333333333
144
0.0
144
0.0
144
0.0
144
0.0
144
0.0208333333333333
144
0.0
144
0.0
144
0.0
144
0.0
144
1.0
144
0.0
144
0.0
144
0.0
144
0.0
144
1.0
147
0.0208333333333333
147
0.0
147
0.0
147
0.0
147
0.0
147
0.0208333333333333
147
0.0
147
0.0
147
0.0
147
0.0
147
1.0
147
0.0
147
0.0
147
0.0
147
0.0
147
1.0
  0
MATERIAL
  5
934
102
{ACAD_XDICTIONARY
360
935
102
}
102
{ACAD_REACTORS
330
923
102
}
330
923
100
AcDbMaterial
  1
Global
 72
     0
 43
0.0208333333333333
 43
0.0
 43
0.0
 43
0.0
 43
0.0
 43
0.0208333333333333
 43
0.0
 43
0.0
 43
0.0
 43
0.0
 43
1.0
 43
0.0
 43
0.0
 43
0.0
 43
0.0
 43
1.0
 77
     0
 47
0.0208333333333333
 47
0.0
 47
0.0
 47
0.0
 47
0.0
 47
0.0208333333333333
 47
0.0
 47
0.0
 47
0.0
 47
0.0
 47
1.0
 47
0.0
 47
0.0
 47
0.0
 47
0.0
 47
1.0
171
     0
 49
0.0208333333333333
 49
0.0
 49
0.0
 49
0.0
 49
0.0
 49
0.0208333333333333
 49
0.0
 49
0.0
 49
0.0
 49
0.0
 49
1.0
 49
0.0
 49
0.0
 49
0.0
 49
0.0
 49
1.0
175
     0
142
0.0208333333333333
142
0.0
142
0.0
142
0.0
142
0.0
142
0.0208333333333333
142
0.0
142
0.0
142
0.0
142
0.0
142
1.0
142
0.0
142
0.0
142
0.0
142
0.0
142
1.0
179
     0
144
0.0208333333333333
144
0.0
144
0.0
144
0.0
144
0.0
144
0.0208333333333333
144
0.0
144
0.0
144
0.0
144
0.0
144
1.0
144
0.0
144
0.0
144
0.0
144
0.0
144
1.0
147
0.0208333333333333
147
0.0
147
0.0
147
0.0
147
0.0
147
0.0208333333333333
147
0.0
147
0.0
147
0.0
147
0.0
147
1.0
147
0.0
147
0.0
147
0.0
147
0.0
147
1.0
  0
MLEADERSTYLE
  5
973
102
{ACAD_REACTORS
330
972
102
}
330
972
100
AcDbMLeaderStyle
170
     2
171
     1
172
     0
 90
        2
 40
0.0
 41
0.0
173
     1
 91
-1056964608
340
12
 92
       -2
290
     1
 42
0.09
291
     1
 43
0.36
  3
Standard
 44
0.18
300

342
10
174
     1
178
     6
175
     1
176
     0
 93
-1056964608
 45
0.18
292
     0
297
     0
 46
0.18
 94
-1056964608
 47
1.0
 49
1.0
140
1.0
293
     1
141
0.0
294
     1
177
     0
142
1.0
295
     0
296
     0
143
0.125
1001
ACAD_MLEADERVER
1070
     2
  0
MLINESTYLE
  5
1B
102
{ACAD_REACTORS
330
E
102
}
330
E
100
AcDbMlineStyle
  2
STANDARD
 70
     0
  3

 62
     0
 51
90.0
 52
90.0
 71
     2
 49
0.5
 62
   256
  6
BYLAYER
 49
-0.5
 62
   256
  6
BYLAYER
  0
ACDBPLACEHOLDER
  5
2CF
102
{ACAD_REACTORS
330
2CE
102
}
330
2CE
  0
SCALE
  5
951
102
{ACAD_REACTORS
330
950
102
}
330
950
100
AcDbScale
 70
     0
300
1:1
140
1.0
141
1.0
290
     1
  0
SCALE
  5
952
102
{ACAD_REACTORS
330
950
102
}
330
950
100
AcDbScale
 70
     0
300
1:2
140
1.0
141
2.0
290
     0
  0
SCALE
  5
953
102
{ACAD_REACTORS
330
950
102
}
330
950
100
AcDbScale
 70
     0
300
1:4
140
1.0
141
4.0
290
     0
  0
SCALE
  5
954
102
{ACAD_REACTORS
330
950
102
}
330
950
100
AcDbScale
 70
     0
300
1:5
140
1.0
141
5.0
290
     0
  0
SCALE
  5
955
102
{ACAD_REACTORS
330
950
102
}
330
950
100
AcDbScale
 70
     0
300
1:8
140
1.0
141
8.0
290
     0
  0
SCALE
  5
956
102
{ACAD_REACTORS
330
950
102
}
330
950
100
AcDbScale
 70
     0
300
1:10
140
1.0
141
10.0
290
     0
  0
SCALE
  5
957
102
{ACAD_REACTORS
330
950
102
}
330
950
100
AcDbScale
 70
     0
300
1:16
140
1.0
141
16.0
290
     0
  0
SCALE
  5
958
102
{ACAD_REACTORS
330
950
102
}
330
950
100
AcDbScale
 70
     0
300
1:20
140
1.0
141
20.0
290
     0
  0
SCALE
  5
959
102
{ACAD_REACTORS
330
950
102
}
330
950
100
AcDbScale
 70
     0
300
1:30
140
1.0
141
30.0
290
     0
  0
SCALE
  5
95A
102
{ACAD_REACTORS
330
950
102
}
330
950
100
AcDbScale
 70
     0
300
1:40
140
1.0
141
40.0
290
     0
  0
SCALE
  5
95B
102
{ACAD_REACTORS
330
950
102
}
330
950
100
AcDbScale
 70
     0
300
1:50
140
1.0
141
50.0
290
     0
  0
SCALE
  5
95C
102
{ACAD_REACTORS
330
950
102
}
330
950
100
AcDbScale
 70
     0
300
1:100
140
1.0
141
100.0
290
     0
  0
SCALE
  5
95D
102
{ACAD_REACTORS
330
950
102
}
330
950
100
AcDbScale
 70
     0
300
2:1
140
2.0
141
1.0
290
     0
  0
SCALE
  5
95E
102
{ACAD_REACTORS
330
950
102
}
330
950
100
AcDbScale
 70
     0
300
4:1
140
4.0
141
1.0
290
     0
  0
SCALE
  5
95F
102
{ACAD_REACTORS
330
950
102
}
330
950
100
AcDbScale
 70
     0
300
8:1
140
8.0
141
1.0
290
     0
  0
SCALE
  5
960
102
{ACAD_REACTORS
330
950
102
}
330
950
100
AcDbScale
 70
     0
300
10:1
140
10.0
141
1.0
290
     0
  0
SCALE
  5
961
102
{ACAD_REACTORS
330
950
102
}
330
950
100
AcDbScale
 70
     0
300
100:1
140
100.0
141
1.0
290
     0
  0
SCALE
  5
962
102
{ACAD_REACTORS
330
950
102
}
330
950
100
AcDbScale
 70
     0
300
1/128" = 1'-0"
140
0.0078125
141
12.0
290
     0
  0
SCALE
  5
963
102
{ACAD_REACTORS
330
950
102
}
330
950
100
AcDbScale
 70
     0
300
1/64" = 1'-0"
140
0.015625
141
12.0
290
     0
  0
SCALE
  5
964
102
{ACAD_REACTORS
330
950
102
}
330
950
100
AcDbScale
 70
     0
300
1/32" = 1'-0"
140
0.03125
141
12.0
290
     0
  0
SCALE
  5
965
102
{ACAD_REACTORS
330
950
102
}
330
950
100
AcDbScale
 70
     0
300
1/16" = 1'-0"
140
0.0625
141
12.0
290
     0
  0
SCALE
  5
966
102
{ACAD_REACTORS
330
950
102
}
330
950
100
AcDbScale
 70
     0
300
3/32" = 1'-0"
140
0.09375
141
12.0
290
     0
  0
SCALE
  5
967
102
{ACAD_REACTORS
330
950
102
}
330
950
100
AcDbScale
 70
     0
300
1/8" = 1'-0"
140
0.125
141
12.0
290
     0
  0
SCALE
  5
968
102
{ACAD_REACTORS
330
950
102
}
330
950
100
AcDbScale
 70
     0
300
3/16" = 1'-0"
140
0.1875
141
12.0
290
     0
  0
SCALE
  5
969
102
{ACAD_REACTORS
330
950
102
}
330
950
100
AcDbScale
 70
     0
300
1/4" = 1'-0"
140
0.25
141
12.0
290
     0
  0
SCALE
  5
96A
102
{ACAD_REACTORS
330
950
102
}
330
950
100
AcDbScale
 70
     0
300
3/8" = 1'-0"
140
0.375
141
12.0
290
     0
  0
SCALE
  5
96B
102
{ACAD_REACTORS
330
950
102
}
330
950
100
AcDbScale
 70
     0
300
1/2" = 1'-0"
140
0.5
141
12.0
290
     0
  0
SCALE
  5
96C
102
{ACAD_REACTORS
330
950
102
}
330
950
100
AcDbScale
 70
     0
300
3/4" = 1'-0"
140
0.75
141
12.0
290
     0
  0
SCALE
  5
96D
102
{ACAD_REACTORS
330
950
102
}
330
950
100
AcDbScale
 70
     0
300
1" = 1'-0"
140
1.0
141
12.0
290
     0
  0
SCALE
  5
96E
102
{ACAD_REACTORS
330
950
102
}
330
950
100
AcDbScale
 70
     0
300
1-1/2" = 1'-0"
140
1.5
141
12.0
290
     0
  0
SCALE
  5
96F
102
{ACAD_REACTORS
330
950
102
}
330
950
100
AcDbScale
 70
     0
300
3" = 1'-0"
140
3.0
141
12.0
290
     0
  0
SCALE
  5
970
102
{ACAD_REACTORS
330
950
102
}
330
950
100
AcDbScale
 70
     0
300
6" = 1'-0"
140
6.0
141
12.0
290
     0
  0
SCALE
  5
971
102
{ACAD_REACTORS
330
950
102
}
330
950
100
AcDbScale
 70
     0
300
1'-0" = 1'-0"
140
12.0
141
12.0
290
     0
  0
TABLESTYLE
  5
94F
102
{ACAD_XDICTIONARY
360
98F
102
}
102
{ACAD_REACTORS
330
94E
102
}
330
94E
100
AcDbTableStyle
  3
Standard
 70
     0
 71
     0
 40
0.06
 41
0.06
280
     0
281
     0
  7
STANDARD
140
0.18
170
     2
 62
     0
 63
     7
283
     0
274
    -2
284
     1
 64
     0
275
    -2
285
     1
 65
     0
276
    -2
286
     1
 66
     0
277
    -2
287
     1
 67
     0
278
    -2
288
     1
 68
     0
279
    -2
289
     1
 69
     0
  7
STANDARD
140
0.25
170
     5
 62
     0
 63
     7
283
     0
274
    -2
284
     1
 64
     0
275
    -2
285
     1
 65
     0
276
    -2
286
     1
 66
     0
277
    -2
287
     1
 67
     0
278
    -2
288
     1
 68
     0
279
    -2
289
     1
 69
     0
  7
STANDARD
140
0.18
170
     5
 62
     0
 63
     7
283
     0
274
    -2
284
     1
 64
     0
275
    -2
285
     1
 65
     0
276
    -2
286
     1
 66
     0
277
    -2
287
     1
 67
     0
278
    -2
288
     1
 68
     0
279
    -2
289
     1
 69
     0
  0
VISUALSTYLE
  5
942
102
{ACAD_REACTORS
330
93C
102
}
330
93C
100
AcDbVisualStyle
  2
2dWireframe
 70
     4
 71
     0
 72
     2
 73
     0
 90
        0
 40
-0.6
 41
-30.0
 62
     5
 63
     7
421
 16777215
 74
     1
 91
        4
 64
     7
 65
   257
 75
     1
175
     1
 42
1.0
 92
        0
 66
   257
 43
1.0
 76
     1
 77
     6
 78
     2
 67
     7
 79
     5
170
     0
171
     0
290
     0
174
     0
 93
        1
 44
0.0
173
     0
291
     0
 45
0.0
1001
ACAD
1000
AcDbSavedByObjectVersion
1070
     0
  0
VISUALSTYLE
  5
944
102
{ACAD_REACTORS
330
93C
102
}
330
93C
100
AcDbVisualStyle
  2
3D Hidden
 70
     6
 71
     1
 72
     2
 73
     2
 90
        0
 40
-0.6
 41
-30.0
 62
     5
 63
     7
421
 16777215
 74
     2
 91
        2
 64
     7
 65
   257
 75
     2
175
     1
 42
40.0
 92
        0
 66
   257
 43
1.0
 76
     1
 77
     6
 78
     2
 67
     7
 79
     3
170
     0
171
     0
290
     0
174
     0
 93
        1
 44
0.0
173
     0
291
     0
 45
0.0
1001
ACAD
1000
AcDbSavedByObjectVersion
1070
     0
  0
VISUALSTYLE
  5
943
102
{ACAD_REACTORS
330
93C
102
}
330
93C
100
AcDbVisualStyle
  2
3dWireframe
 70
     5
 71
     0
 72
     2
 73
     0
 90
        0
 40
-0.6
 41
-30.0
 62
     5
 63
     7
421
 16777215
 74
     1
 91
        4
 64
     7
 65
   257
 75
     1
175
     1
 42
1.0
 92
        0
 66
   257
 43
1.0
 76
     1
 77
     6
 78
     2
 67
     7
 79
     5
170
     0
171
     0
290
     0
174
     0
 93
        1
 44
0.0
173
     0
291
     0
 45
0.0
1001
ACAD
1000
AcDbSavedByObjectVersion
1070
     0
  0
VISUALSTYLE
  5
941
102
{ACAD_REACTORS
330
93C
102
}
330
93C
100
AcDbVisualStyle
  2
Basic
 70
     7
 71
     1
 72
     0
 73
     1
 90
        0
 40
-0.6
 41
-30.0
 62
     5
 63
     7
421
 16777215
 74
     0
 91
        4
 64
     7
 65
   257
 75
     1
175
     1
 42
1.0
 92
        8
 66
     7
 43
1.0
 76
     1
 77
     6
 78
     2
 67
     7
 79
     5
170
     0
171
     0
290
     0
174
     0
 93
        1
 44
0.0
173
     0
291
     1
 45
0.0
1001
ACAD
1000
AcDbSavedByObjectVersion
1070
     0
  0
VISUALSTYLE
  5
948
102
{ACAD_REACTORS
330
93C
102
}
330
93C
100
AcDbVisualStyle
  2
Brighten
 70
    12
 71
     2
 72
     2
 73
     0
 90
        0
 40
-0.6
 41
-30.0
 62
     5
 63
     7
421
 16777215
 74
     1
 91
        4
 64
     7
 65
   257
 75
     1
175
     1
 42
1.0
 92
        8
 66
     7
 43
1.0
 76
     1
 77
     6
 78
     2
 67
     7
 79
     5
170
     0
171
     0
290
     0
174
     0
 93
        1
 44
50.0
173
     0
291
     1
 45
0.0
1001
ACAD
1000
AcDbSavedByObjectVersion
1070
     0
  0
VISUALSTYLE
  5
94C
102
{ACAD_REACTORS
330
93C
102
}
330
93C
100
AcDbVisualStyle
  2
ColorChange
 70
    16
 71
     2
 72
     2
 73
     3
 90
        0
 40
-0.6
 41
-30.0
 62
     5
 63
     8
421
  8421504
 74
     1
 91
        4
 64
     7
 65
   257
 75
     1
175
     1
 42
1.0
 92
        8
 66
     8
424
  8421504
 43
1.0
 76
     1
 77
     6
 78
     2
 67
     7
 79
     5
170
     0
171
     0
290
     0
174
     0
 93
        1
 44
0.0
173
     0
291
     1
 45
0.0
1001
ACAD
1000
AcDbSavedByObjectVersion
1070
     0
  0
VISUALSTYLE
  5
945
102
{ACAD_REACTORS
330
93C
102
}
330
93C
100
AcDbVisualStyle
  2
Conceptual
 70
     9
 71
     3
 72
     2
 73
     0
 90
        0
 40
-0.6
 41
-30.0
 62
     5
 63
     7
421
 16777215
 74
     2
 91
        2
 64
     7
 65
   257
 75
     1
175
     1
 42
40.0
 92
        8
 66
     7
 43
1.0
 76
     1
 77
     6
 78
     2
 67
     7
 79
     3
170
     0
171
     0
290
     0
174
     0
 93
        1
 44
0.0
173
     0
291
     0
 45
0.0
1001
ACAD
1000
AcDbSavedByObjectVersion
1070
     0
  0
VISUALSTYLE
  5
947
102
{ACAD_REACTORS
330
93C
102
}
330
93C
100
AcDbVisualStyle
  2
Dim
 70
    11
 71
     2
 72
     2
 73
     0
 90
        0
 40
-0.6
 41
-30.0
 62
     5
 63
     7
421
 16777215
 74
     1
 91
        4
 64
     7
 65
   257
 75
     1
175
     1
 42
1.0
 92
        8
 66
     7
 43
1.0
 76
     1
 77
     6
 78
     2
 67
     7
 79
     5
170
     0
171
     0
290
     0
174
     0
 93
        1
 44
-50.0
173
     0
291
     1
 45
0.0
1001
ACAD
1000
AcDbSavedByObjectVersion
1070
     0
  0
VISUALSTYLE
  5
94B
102
{ACAD_REACTORS
330
93C
102
}
330
93C
100
AcDbVisualStyle
  2
Facepattern
 70
    15
 71
     2
 72
     2
 73
     0
 90
        0
 40
-0.6
 41
-30.0
 62
     5
 63
     7
421
 16777215
 74
     1
 91
        4
 64
     7
 65
   257
 75
     1
175
     1
 42
1.0
 92
        8
 66
     7
 43
1.0
 76
     1
 77
     6
 78
     2
 67
     7
 79
     5
170
     0
171
     0
290
     0
174
     0
 93
        1
 44
0.0
173
     0
291
     1
 45
0.0
1001
ACAD
1000
AcDbSavedByObjectVersion
1070
     0
  0
VISUALSTYLE
  5
93D
102
{ACAD_REACTORS
330
93C
102
}
330
93C
100
AcDbVisualStyle
  2
Flat
 70
     0
 71
     2
 72
     1
 73
     1
 90
        2
 40
-0.6
 41
30.0
 62
     5
 63
     7
421
 16777215
 74
     0
 91
        4
 64
     7
 65
   257
 75
     1
175
     1
 42
1.0
 92
        8
 66
     7
 43
1.0
 76
     1
 77
     6
 78
     2
 67
     7
 79
     5
170
     0
171
     0
290
     0
174
     0
 93
       13
 44
0.0
173
     0
291
     1
 45
0.0
1001
ACAD
1000
AcDbSavedByObjectVersion
1070
     0
  0
VISUALSTYLE
  5
93E
102
{ACAD_REACTORS
330
93C
102
}
330
93C
100
AcDbVisualStyle
  2
FlatWithEdges
 70
     1
 71
     2
 72
     1
 73
     1
 90
        2
 40
-0.6
 41
30.0
 62
     5
 63
     7
421
 16777215
 74
     1
 91
        4
 64
     7
 65
   257
 75
     1
175
     1
 42
1.0
 92
        0
 66
   257
 43
1.0
 76
     1
 77
     6
 78
     2
 67
     7
 79
     5
170
     0
171
     0
290
     0
174
     0
 93
       13
 44
0.0
173
     0
291
     1
 45
0.0
1001
ACAD
1000
AcDbSavedByObjectVersion
1070
     0
  0
VISUALSTYLE
  5
93F
102
{ACAD_REACTORS
330
93C
102
}
330
93C
100
AcDbVisualStyle
  2
Gouraud
 70
     2
 71
     2
 72
     2
 73
     1
 90
        2
 40
-0.6
 41
30.0
 62
     5
 63
     7
421
 16777215
 74
     0
 91
        4
 64
     7
 65
   257
 75
     1
175
     1
 42
1.0
 92
        0
 66
     7
 43
1.0
 76
     1
 77
     6
 78
     2
 67
     7
 79
     5
170
     0
171
     0
290
     0
174
     0
 93
       13
 44
0.0
173
     0
291
     1
 45
0.0
1001
ACAD
1000
AcDbSavedByObjectVersion
1070
     0
  0
VISUALSTYLE
  5
940
102
{ACAD_REACTORS
330
93C
102
}
330
93C
100
AcDbVisualStyle
  2
GouraudWithEdges
 70
     3
 71
     2
 72
     2
 73
     1
 90
        2
 40
-0.6
 41
30.0
 62
     5
 63
     7
421
 16777215
 74
     1
 91
        4
 64
     7
 65
   257
 75
     1
175
     1
 42
1.0
 92
        0
 66
   257
 43
1.0
 76
     1
 77
     6
 78
     2
 67
     7
 79
     5
170
     0
171
     0
290
     0
174
     0
 93
       13
 44
0.0
173
     0
291
     1
 45
0.0
1001
ACAD
1000
AcDbSavedByObjectVersion
1070
     0
  0
VISUALSTYLE
  5
94A
102
{ACAD_REACTORS
330
93C
102
}
330
93C
100
AcDbVisualStyle
  2
Linepattern
 70
    14
 71
     2
 72
     2
 73
     0
 90
        0
 40
-0.6
 41
-30.0
 62
     5
 63
     7
421
 16777215
 74
     1
 91
        4
 64
     7
 65
   257
 75
     7
175
     7
 42
1.0
 92
        8
 66
     7
 43
1.0
 76
     1
 77
     6
 78
     2
 67
     7
 79
     5
170
     0
171
     0
290
     0
174
     0
 93
        1
 44
0.0
173
     0
291
     1
 45
0.0
1001
ACAD
1000
AcDbSavedByObjectVersion
1070
     0
  0
VISUALSTYLE
  5
946
102
{ACAD_REACTORS
330
93C
102
}
330
93C
100
AcDbVisualStyle
  2
Realistic
 70
     8
 71
     2
 72
     2
 73
     0
 90
        0
 40
-0.6
 41
-30.0
 62
     5
 63
     7
421
 16777215
 74
     1
 91
        0
 64
     7
 65
   257
 75
     1
175
     1
 42
1.0
 92
        8
 66
     8
424
  7895160
 43
1.0
 76
     1
 77
     6
 78
     2
 67
     7
 79
     5
170
     0
171
     0
290
     0
174
     0
 93
       13
 44
0.0
173
     0
291
     0
 45
0.0
1001
ACAD
1000
AcDbSavedByObjectVersion
1070
     0
  0
VISUALSTYLE
  5
949
102
{ACAD_REACTORS
330
93C
102
}
330
93C
100
AcDbVisualStyle
  2
Thicken
 70
    13
 71
     2
 72
     2
 73
     0
 90
        0
 40
-0.6
 41
-30.0
 62
     5
 63
     7
421
 16777215
 74
     1
 91
        4
 64
     7
 65
   257
 75
     1
175
     1
 42
1.0
 92
       12
 66
     7
 43
1.0
 76
     1
 77
     6
 78
     2
 67
     7
 79
     5
170
     0
171
     0
290
     0
174
     0
 93
        1
 44
0.0
173
     0
291
     1
 45
0.0
1001
ACAD
1000
AcDbSavedByObjectVersion
1070
     0
  0
DICTIONARYVAR
  5
983
102
{ACAD_REACTORS
330
2D8
102
}
330
2D8
100
DictionaryVariables
280
     0
  1
1:1
  0
DICTIONARYVAR
  5
982
102
{ACAD_REACTORS
330
2D8
102
}
330
2D8
100
DictionaryVariables
280
     0
  1
STANDARD
  0
DICTIONARYVAR
  5
981
102
{ACAD_REACTORS
330
2D8
102
}
330
2D8
100
DictionaryVariables
280
     0
  1
STANDARD
  0
DICTIONARYVAR
  5
993
102
{ACAD_REACTORS
330
2D8
102
}
330
2D8
100
DictionaryVariables
280
     0
  1
0
  0
DICTIONARYVAR
  5
992
102
{ACAD_REACTORS
330
2D8
102
}
330
2D8
100
DictionaryVariables
280
     0
  1
0
  0
DICTIONARYVAR
  5
2D9
102
{ACAD_REACTORS
330
2D8
102
}
330
2D8
100
DictionaryVariables
280
     0
  1
96
  0
DICTIONARY
  5
92D
330
92C
100
AcDbDictionary
280
     1
281
     1
  3
ACAD_XREC_ROUNDTRIP
360
B48
  3
BUMPTILE
360
92F
  3
DIFFUSETILE
360
92E
  3
OPACITYTILE
360
932
  3
REFLECTIONTILE
360
931
  3
REFRACTIONTILE
360
933
  3
SPECULARTILE
360
930
  0
DICTIONARY
  5
925
330
924
100
AcDbDictionary
280
     1
281
     1
  3
ACAD_XREC_ROUNDTRIP
360
B47
  3
BUMPTILE
360
927
  3
DIFFUSETILE
360
926
  3
OPACITYTILE
360
92A
  3
REFLECTIONTILE
360
929
  3
REFRACTIONTILE
360
92B
  3
SPECULARTILE
360
928
  0
DICTIONARY
  5
935
330
934
100
AcDbDictionary
280
     1
281
     1
  3
ACAD_XREC_ROUNDTRIP
360
B49
  3
BUMPTILE
360
937
  3
DIFFUSETILE
360
936
  3
OPACITYTILE
360
93A
  3
REFLECTIONTILE
360
939
  3
REFRACTIONTILE
360
93B
  3
SPECULARTILE
360
938
  0
DICTIONARY
  5
98F
330
94F
100
AcDbDictionary
280
     1
281
     1
  3
ACAD_ROUNDTRIP_2008_TABLESTYLE_CELLSTYLEMAP
360
B46
  3
ACAD_XREC_ROUNDTRIP
360
B4A
  0
XRECORD
  5
B48
102
{ACAD_REACTORS
330
92D
102
}
330
92D
100
AcDbXrecord
280
     1
102
MATERIAL
148
0.0
149
0.0
149
0.0
 93
        0
 94
      127
282
     0
 72
     0
 77
     0
171
     0
175
     0
179
     0
273
     0
  0
XRECORD
  5
92F
102
{ACAD_REACTORS
330
92D
102
}
330
92D
100
AcDbXrecord
280
     1
270
     1
271
     1
  0
XRECORD
  5
92E
102
{ACAD_REACTORS
330
92D
102
}
330
92D
100
AcDbXrecord
280
     1
270
     1
271
     1
  0
XRECORD
  5
932
102
{ACAD_REACTORS
330
92D
102
}
330
92D
100
AcDbXrecord
280
     1
270
     1
271
     1
  0
XRECORD
  5
931
102
{ACAD_REACTORS
330
92D
102
}
330
92D
100
AcDbXrecord
280
     1
270
     1
271
     1
  0
XRECORD
  5
933
102
{ACAD_REACTORS
330
92D
102
}
330
92D
100
AcDbXrecord
280
     1
270
     1
271
     1
  0
XRECORD
  5
930
102
{ACAD_REACTORS
330
92D
102
}
330
92D
100
AcDbXrecord
280
     1
270
     1
271
     1
  0
XRECORD
  5
B47
102
{ACAD_REACTORS
330
925
102
}
330
925
100
AcDbXrecord
280
     1
102
MATERIAL
148
0.0
149
0.0
149
0.0
 93
        0
 94
      127
282
     0
 72
     0
 77
     0
171
     0
175
     0
179
     0
273
     0
  0
XRECORD
  5
927
102
{ACAD_REACTORS
330
925
102
}
330
925
100
AcDbXrecord
280
     1
270
     1
271
     1
  0
XRECORD
  5
926
102
{ACAD_REACTORS
330
925
102
}
330
925
100
AcDbXrecord
280
     1
270
     1
271
     1
  0
XRECORD
  5
92A
102
{ACAD_REACTORS
330
925
102
}
330
925
100
AcDbXrecord
280
     1
270
     1
271
     1
  0
XRECORD
  5
929
102
{ACAD_REACTORS
330
925
102
}
330
925
100
AcDbXrecord
280
     1
270
     1
271
     1
  0
XRECORD
  5
92B
102
{ACAD_REACTORS
330
925
102
}
330
925
100
AcDbXrecord
280
     1
270
     1
271
     1
  0
XRECORD
  5
928
102
{ACAD_REACTORS
330
925
102
}
330
925
100
AcDbXrecord
280
     1
270
     1
271
     1
  0
XRECORD
  5
B49
102
{ACAD_REACTORS
330
935
102
}
330
935
100
AcDbXrecord
280
     1
102
MATERIAL
148
0.0
149
0.0
149
0.0
 93
        0
 94
      127
282
     0
 72
     0
 77
     0
171
     0
175
     0
179
     0
273
     0
  0
XRECORD
  5
937
102
{ACAD_REACTORS
330
935
102
}
330
935
100
AcDbXrecord
280
     1
270
     1
271
     1
  0
XRECORD
  5
936
102
{ACAD_REACTORS
330
935
102
}
330
935
100
AcDbXrecord
280
     1
270
     1
271
     1
  0
XRECORD
  5
93A
102
{ACAD_REACTORS
330
935
102
}
330
935
100
AcDbXrecord
280
     1
270
     1
271
     1
  0
XRECORD
  5
939
102
{ACAD_REACTORS
330
935
102
}
330
935
100
AcDbXrecord
280
     1
270
     1
271
     1
  0
XRECORD
  5
93B
102
{ACAD_REACTORS
330
935
102
}
330
935
100
AcDbXrecord
280
     1
270
     1
271
     1
  0
XRECORD
  5
938
102
{ACAD_REACTORS
330
935
102
}
330
935
100
AcDbXrecord
280
     1
270
     1
271
     1
  0
CELLSTYLEMAP
  5
B46
102
{ACAD_REACTORS
330
98F
102
}
330
98F
100
AcDbCellStyleMap
 90
        3
300
CELLSTYLE
  1
TABLEFORMAT_BEGIN
 90
        5
170
     1
 91
        0
 92
    32768
 62
   257
 93
        1
300
CONTENTFORMAT
  1
CONTENTFORMAT_BEGIN
 90
        0
 91
        0
 92
      512
 93
        0
300

 40
0.0
140
1.0
 94
        5
 62
     0
340
10
144
0.25
309
CONTENTFORMAT_END
171
     0
 94
        0
309
TABLEFORMAT_END
  1
CELLSTYLE_BEGIN
 90
        1
 91
        1
300
_TITLE
309
CELLSTYLE_END
300
CELLSTYLE
  1
TABLEFORMAT_BEGIN
 90
        5
170
     1
 91
        0
 92
        0
 62
   257
 93
        1
300
CONTENTFORMAT
  1
CONTENTFORMAT_BEGIN
 90
        0
 91
        0
 92
      512
 93
        0
300

 40
0.0
140
1.0
 94
        5
 62
     0
340
10
144
0.18
309
CONTENTFORMAT_END
171
     0
 94
        0
309
TABLEFORMAT_END
  1
CELLSTYLE_BEGIN
 90
        2
 91
        1
300
_HEADER
309
CELLSTYLE_END
300
CELLSTYLE
  1
TABLEFORMAT_BEGIN
 90
        5
170
     1
 91
        0
 92
        0
 62
   257
 93
        1
300
CONTENTFORMAT
  1
CONTENTFORMAT_BEGIN
 90
        0
 91
        0
 92
      512
 93
        0
300

 40
0.0
140
1.0
 94
        2
 62
     0
340
10
144
0.18
309
CONTENTFORMAT_END
171
     0
 94
        0
309
TABLEFORMAT_END
  1
CELLSTYLE_BEGIN
 90
        3
 91
        2
300
_DATA
309
CELLSTYLE_END
  0
XRECORD
  5
B4A
102
{ACAD_REACTORS
330
98F
102
}
330
98F
100
AcDbXrecord
280
     1
102
ACAD_ROUNDTRIP_PRE2007_TABLESTYLE
 90
      512
 91
        0
  1

 92
      512
 93
        0
  2

 94
      512
 95
        0
  3

  0
ENDSEC
  0
EOF
