  0
SECTION
  2
HEADER
  9
$ACADVER
  1
AC1018
  9
$ACADMAINTVER
 70
   104
  9
$DWGCODEPAGE
  3
ANSI_932
  9
$LASTSAVEDBY
  1
poracon
  9
$INSBASE
 10
0.0
 20
0.0
 30
0.0
  9
$EXTMIN
 10
263.7209627377779
 20
-1322.657794686455
 30
-0.0015258207003583
  9
$EXTMAX
 10
5303.942773497633
 20
2241.552266736171
 30
0.0000000349246037
  9
$LIMMIN
 10
0.0
 20
0.0
  9
$LIMMAX
 10
2970.0
 20
2100.0
  9
$ORTHOMODE
 70
     1
  9
$REGENMODE
 70
     1
  9
$FILLMODE
 70
     1
  9
$QTEXTMODE
 70
     0
  9
$MIRRTEXT
 70
     1
  9
$LTSCALE
 40
60.0
  9
$ATTMODE
 70
     1
  9
$TEXTSIZE
 40
50.0
  9
$TRACEWID
 40
0.05
  9
$TEXTSTYLE
  7
BIGFONT
  9
$CLAYER
  8
0
  9
$CELTYPE
  6
BYLAYER
  9
$CECOLOR
 62
   256
  9
$CELTSCALE
 40
1.0
  9
$DISPSILH
 70
     0
  9
$DIMSCALE
 40
10.0
  9
$DIMASZ
 40
2.0
  9
$DIMEXO
 40
1.0
  9
$DIMDLI
 40
10.0
  9
$DIMRND
 40
0.0
  9
$DIMDLE
 40
0.0
  9
$DIMEXE
 40
1.0
  9
$DIMTP
 40
0.0
  9
$DIMTM
 40
0.0
  9
$DIMTXT
 40
3.0
  9
$DIMCEN
 40
0.0
  9
$DIMTSZ
 40
0.0
  9
$DIMTOL
 70
     0
  9
$DIMLIM
 70
     0
  9
$DIMTIH
 70
     0
  9
$DIMTOH
 70
     0
  9
$DIMSE1
 70
     0
  9
$DIMSE2
 70
     0
  9
$DIMTAD
 70
     1
  9
$DIMZIN
 70
     0
  9
$DIMBLK
  1
ARROW
  9
$DIMASO
 70
     1
  9
$DIMSHO
 70
     1
  9
$DIMPOST
  1

  9
$DIMAPOST
  1

  9
$DIMALT
 70
     0
  9
$DIMALTD
 70
     2
  9
$DIMALTF
 40
25.4
  9
$DIMLFAC
 40
1.0
  9
$DIMTOFL
 70
     0
  9
$DIMTVP
 40
0.0
  9
$DIMTIX
 70
     0
  9
$DIMSOXD
 70
     0
  9
$DIMSAH
 70
     1
  9
$DIMBLK1
  1
ARROW
  9
$DIMBLK2
  1
ARROW
  9
$DIMSTYLE
  2
DIA1
  9
$DIMCLRD
 70
     0
  9
$DIMCLRE
 70
     0
  9
$DIMCLRT
 70
     0
  9
$DIMTFAC
 40
1.0
  9
$DIMGAP
 40
1.0
  9
$DIMJUST
 70
     0
  9
$DIMSD1
 70
     0
  9
$DIMSD2
 70
     0
  9
$DIMTOLJ
 70
     1
  9
$DIMTZIN
 70
     0
  9
$DIMALTZ
 70
     0
  9
$DIMALTTZ
 70
     0
  9
$DIMUPT
 70
     0
  9
$DIMDEC
 70
     0
  9
$DIMTDEC
 70
     4
  9
$DIMALTU
 70
     2
  9
$DIMALTTD
 70
     2
  9
$DIMTXSTY
  7
BIGFONT
  9
$DIMAUNIT
 70
     0
  9
$DIMADEC
 70
     0
  9
$DIMALTRND
 40
0.0
  9
$DIMAZIN
 70
     0
  9
$DIMDSEP
 70
    46
  9
$DIMATFIT
 70
     3
  9
$DIMFRAC
 70
     0
  9
$DIMLDRBLK
  1
ARROW
  9
$DIMLUNIT
 70
     2
  9
$DIMLWD
 70
    -2
  9
$DIMLWE
 70
    -2
  9
$DIMTMOVE
 70
     0
  9
$LUNITS
 70
     2
  9
$LUPREC
 70
     1
  9
$SKETCHINC
 40
0.1
  9
$FILLETRAD
 40
0.0
  9
$AUNITS
 70
     1
  9
$AUPREC
 70
     2
  9
$MENU
  1
MASTERS
  9
$ELEVATION
 40
0.0
  9
$PELEVATION
 40
0.0
  9
$THICKNESS
 40
0.0
  9
$LIMCHECK
 70
     0
  9
$CHAMFERA
 40
0.0
  9
$CHAMFERB
 40
0.0
  9
$CHAMFERC
 40
0.0
  9
$CHAMFERD
 40
0.0
  9
$SKPOLY
 70
     0
  9
$TDCREATE
 40
2449337.661539352
  9
$TDUCREATE
 40
2449337.286539352
  9
$TDUPDATE
 40
2456937.471384884
  9
$TDUUPDATE
 40
2456937.096384884
  9
$TDINDWG
 40
0.0988460880
  9
$TDUSRTIMER
 40
0.0988460880
  9
$USRTIMER
 70
     1
  9
$ANGBASE
 50
0.0
  9
$ANGDIR
 70
     0
  9
$PDMODE
 70
     0
  9
$PDSIZE
 40
0.0
  9
$PLINEWID
 40
0.0
  9
$SPLFRAME
 70
     0
  9
$SPLINETYPE
 70
     6
  9
$SPLINESEGS
 70
     8
  9
$HANDSEED
  5
F29
  9
$SURFTAB1
 70
     6
  9
$SURFTAB2
 70
     6
  9
$SURFTYPE
 70
     6
  9
$SURFU
 70
     6
  9
$SURFV
 70
     6
  9
$UCSBASE
  2

  9
$UCSNAME
  2

  9
$UCSORG
 10
0.0
 20
0.0
 30
0.0
  9
$UCSXDIR
 10
1.0
 20
0.0
 30
0.0
  9
$UCSYDIR
 10
0.0
 20
1.0
 30
0.0
  9
$UCSORTHOREF
  2

  9
$UCSORTHOVIEW
 70
     0
  9
$UCSORGTOP
 10
0.0
 20
0.0
 30
0.0
  9
$UCSORGBOTTOM
 10
0.0
 20
0.0
 30
0.0
  9
$UCSORGLEFT
 10
0.0
 20
0.0
 30
0.0
  9
$UCSORGRIGHT
 10
0.0
 20
0.0
 30
0.0
  9
$UCSORGFRONT
 10
0.0
 20
0.0
 30
0.0
  9
$UCSORGBACK
 10
0.0
 20
0.0
 30
0.0
  9
$PUCSBASE
  2

  9
$PUCSNAME
  2

  9
$PUCSORG
 10
0.0
 20
0.0
 30
0.0
  9
$PUCSXDIR
 10
1.0
 20
0.0
 30
0.0
  9
$PUCSYDIR
 10
0.0
 20
1.0
 30
0.0
  9
$PUCSORTHOREF
  2

  9
$PUCSORTHOVIEW
 70
     0
  9
$PUCSORGTOP
 10
0.0
 20
0.0
 30
0.0
  9
$PUCSORGBOTTOM
 10
0.0
 20
0.0
 30
0.0
  9
$PUCSORGLEFT
 10
0.0
 20
0.0
 30
0.0
  9
$PUCSORGRIGHT
 10
0.0
 20
0.0
 30
0.0
  9
$PUCSORGFRONT
 10
0.0
 20
0.0
 30
0.0
  9
$PUCSORGBACK
 10
0.0
 20
0.0
 30
0.0
  9
$USERI1
 70
     0
  9
$USERI2
 70
     0
  9
$USERI3
 70
     0
  9
$USERI4
 70
     0
  9
$USERI5
 70
     0
  9
$USERR1
 40
0.0
  9
$USERR2
 40
0.0
  9
$USERR3
 40
0.0
  9
$USERR4
 40
0.0
  9
$USERR5
 40
0.0
  9
$WORLDVIEW
 70
     1
  9
$SHADEDGE
 70
     3
  9
$SHADEDIF
 70
    70
  9
$TILEMODE
 70
     1
  9
$MAXACTVP
 70
    16
  9
$PINSBASE
 10
0.0
 20
0.0
 30
0.0
  9
$PLIMCHECK
 70
     0
  9
$PEXTMIN
 10
1.000000000000000E+20
 20
1.000000000000000E+20
 30
1.000000000000000E+20
  9
$PEXTMAX
 10
-1.000000000000000E+20
 20
-1.000000000000000E+20
 30
-1.000000000000000E+20
  9
$PLIMMIN
 10
0.0
 20
0.0
  9
$PLIMMAX
 10
12.0
 20
9.0
  9
$UNITMODE
 70
     0
  9
$VISRETAIN
 70
     0
  9
$PLINEGEN
 70
     0
  9
$PSLTSCALE
 70
     1
  9
$TREEDEPTH
 70
  3020
  9
$CMLSTYLE
  2
STANDARD
  9
$CMLJUST
 70
     0
  9
$CMLSCALE
 40
1.0
  9
$PROXYGRAPHICS
 70
     1
  9
$MEASUREMENT
 70
     0
  9
$CELWEIGHT
370
    -1
  9
$ENDCAPS
280
     0
  9
$JOINSTYLE
280
     0
  9
$LWDISPLAY
290
     0
  9
$INSUNITS
 70
     0
  9
$HYPERLINKBASE
  1

  9
$STYLESHEET
  1

  9
$XEDIT
290
     1
  9
$CEPSNTYPE
380
     0
  9
$PSTYLEMODE
290
     1
  9
$FINGERPRINTGUID
  2
{241947D8-10E5-11D6-BA8D-8D48D945A249}
  9
$VERSIONGUID
  2
{CCC5649C-9C33-404D-8991-6996B080DAAA}
  9
$EXTNAMES
290
     1
  9
$PSVPSCALE
 40
0.0
  9
$OLESTARTUP
290
     0
  9
$SORTENTS
280
    96
  9
$INDEXCTL
280
     0
  9
$HIDETEXT
280
     0
  9
$XCLIPFRAME
290
     0
  9
$HALOGAP
280
     0
  9
$OBSCOLOR
 70
   257
  9
$OBSLTYPE
280
     0
  9
$INTERSECTIONDISPLAY
280
     0
  9
$INTERSECTIONCOLOR
 70
   257
  9
$DIMASSOC
280
     1
  9
$PROJECTNAME
  1

  0
ENDSEC
  0
SECTION
  2
CLASSES
  0
CLASS
  1
ACDBDICTIONARYWDFLT
  2
AcDbDictionaryWithDefault
  3
ObjectDBX Classes
 90
        0
 91
        1
280
     0
281
     0
  0
CLASS
  1
DICTIONARYVAR
  2
AcDbDictionaryVar
  3
ObjectDBX Classes
 90
        0
 91
        6
280
     0
281
     0
  0
CLASS
  1
MATERIAL
  2
AcDbMaterial
  3
ObjectDBX Classes
 90
     1153
 91
        3
280
     0
281
     0
  0
CLASS
  1
VISUALSTYLE
  2
AcDbVisualStyle
  3
ObjectDBX Classes
 90
     4095
 91
       16
280
     0
281
     0
  0
CLASS
  1
TABLESTYLE
  2
AcDbTableStyle
  3
ObjectDBX Classes
 90
     4095
 91
        1
280
     0
281
     0
  0
CLASS
  1
SCALE
  2
AcDbScale
  3
ObjectDBX Classes
 90
     1153
 91
       33
280
     0
281
     0
  0
CLASS
  1
MLEADERSTYLE
  2
AcDbMLeaderStyle
  3
ACDB_MLEADERSTYLE_CLASS
 90
     4095
 91
        1
280
     0
281
     0
  0
CLASS
  1
CELLSTYLEMAP
  2
AcDbCellStyleMap
  3
ObjectDBX Classes
 90
     1152
 91
        3
280
     0
281
     0
  0
CLASS
  1
SORTENTSTABLE
  2
AcDbSortentsTable
  3
ObjectDBX Classes
 90
        0
 91
        2
280
     0
281
     0
  0
ENDSEC
  0
SECTION
  2
TABLES
  0
TABLE
  2
VPORT
  5
8
330
0
100
AcDbSymbolTable
 70
     1
  0
VPORT
  5
CEE
330
8
100
AcDbSymbolTableRecord
100
AcDbViewportTableRecord
  2
*Active
 70
     0
 10
0.0
 20
0.0
 11
1.0
 21
1.0
 12
2651.971386748817
 22
459.447236024858
 13
0.0
 23
0.0
 14
1.0
 24
1.0
 15
0.0
 25
0.0
 16
0.0
 26
0.0
 36
1.0
 17
0.0
 27
0.0
 37
0.0
 40
3592.534909592873
 41
1.669761273209549
 42
50.0
 43
0.0
 44
0.0
 50
0.0
 51
0.0
 71
     0
 72
   100
 73
     1
 74
     1
 75
     0
 76
     0
 77
     0
 78
     0
281
     0
 65
     1
110
0.0
120
0.0
130
0.0
111
1.0
121
0.0
131
0.0
112
0.0
122
1.0
132
0.0
 79
     0
146
0.0
  0
ENDTAB
  0
TABLE
  2
LTYPE
  5
5
330
0
100
AcDbSymbolTable
 70
    26
  0
LTYPE
  5
12
330
5
100
AcDbSymbolTableRecord
100
AcDbLinetypeTableRecord
  2
BYBLOCK
 70
     0
  3

 72
    65
 73
     0
 40
0.0
  0
LTYPE
  5
13
330
5
100
AcDbSymbolTableRecord
100
AcDbLinetypeTableRecord
  2
BYLAYER
 70
     0
  3

 72
    65
 73
     0
 40
0.0
  0
LTYPE
  5
14
330
5
100
AcDbSymbolTableRecord
100
AcDbLinetypeTableRecord
  2
CONTINUOUS
 70
     0
  3
Solid line
 72
    65
 73
     0
 40
0.0
  0
LTYPE
  5
2E
330
5
100
AcDbSymbolTableRecord
100
AcDbLinetypeTableRecord
  2
BORDER
 70
     0
  3
__ __ . __ __ . __ __ . __ __ . __ __ . __ __ .
 72
    65
 73
     6
 40
1.75
 49
0.5
 74
     0
 49
-0.25
 74
     0
 49
0.5
 74
     0
 49
-0.25
 74
     0
 49
0.0
 74
     0
 49
-0.25
 74
     0
  0
LTYPE
  5
2F
330
5
100
AcDbSymbolTableRecord
100
AcDbLinetypeTableRecord
  2
BORDER2
 70
     0
  3
__.__.__.__.__.__.__.__.__.__.__.__.__.__.__.__
 72
    65
 73
     6
 40
0.875
 49
0.25
 74
     0
 49
-0.125
 74
     0
 49
0.25
 74
     0
 49
-0.125
 74
     0
 49
0.0
 74
     0
 49
-0.125
 74
     0
  0
LTYPE
  5
30
330
5
100
AcDbSymbolTableRecord
100
AcDbLinetypeTableRecord
  2
BORDERX2
 70
     0
  3
____  ____  .  ____  ____  .  ____  ____  .  __
 72
    65
 73
     6
 40
3.5
 49
1.0
 74
     0
 49
-0.5
 74
     0
 49
1.0
 74
     0
 49
-0.5
 74
     0
 49
0.0
 74
     0
 49
-0.5
 74
     0
  0
LTYPE
  5
31
330
5
100
AcDbSymbolTableRecord
100
AcDbLinetypeTableRecord
  2
CENTER
 70
     0
  3
____ _ ____ _ ____ _ ____ _ ____ _ ____ _ ____ 
 72
    65
 73
     4
 40
2.0
 49
1.25
 74
     0
 49
-0.25
 74
     0
 49
0.25
 74
     0
 49
-0.25
 74
     0
  0
LTYPE
  5
32
330
5
100
AcDbSymbolTableRecord
100
AcDbLinetypeTableRecord
  2
CENTER2
 70
     0
  3
___ _ ___ _ ___ _ ___ _ ___ _ ___ _ ___ _ ___ _
 72
    65
 73
     4
 40
1.125
 49
0.75
 74
     0
 49
-0.125
 74
     0
 49
0.125
 74
     0
 49
-0.125
 74
     0
  0
LTYPE
  5
33
330
5
100
AcDbSymbolTableRecord
100
AcDbLinetypeTableRecord
  2
CENTERX2
 70
     0
  3
________  __  ________  __  ________  __  _____
 72
    65
 73
     4
 40
4.0
 49
2.5
 74
     0
 49
-0.5
 74
     0
 49
0.5
 74
     0
 49
-0.5
 74
     0
  0
LTYPE
  5
34
330
5
100
AcDbSymbolTableRecord
100
AcDbLinetypeTableRecord
  2
DASHDOT
 70
     0
  3
__ . __ . __ . __ . __ . __ . __ . __ . __ . __
 72
    65
 73
     4
 40
1.0
 49
0.5
 74
     0
 49
-0.25
 74
     0
 49
0.0
 74
     0
 49
-0.25
 74
     0
  0
LTYPE
  5
35
330
5
100
AcDbSymbolTableRecord
100
AcDbLinetypeTableRecord
  2
DASHDOT2
 70
     0
  3
_._._._._._._._._._._._._._._._._._._._._._._._
 72
    65
 73
     4
 40
0.5
 49
0.25
 74
     0
 49
-0.125
 74
     0
 49
0.0
 74
     0
 49
-0.125
 74
     0
  0
LTYPE
  5
36
330
5
100
AcDbSymbolTableRecord
100
AcDbLinetypeTableRecord
  2
DASHDOTX2
 70
     0
  3
____  .  ____  .  ____  .  ____  .  ____  .  __
 72
    65
 73
     4
 40
2.0
 49
1.0
 74
     0
 49
-0.5
 74
     0
 49
0.0
 74
     0
 49
-0.5
 74
     0
  0
LTYPE
  5
37
330
5
100
AcDbSymbolTableRecord
100
AcDbLinetypeTableRecord
  2
DASHED
 70
     0
  3
__ __ __ __ __ __ __ __ __ __ __ __ __ __ __ __
 72
    65
 73
     2
 40
0.75
 49
0.5
 74
     0
 49
-0.25
 74
     0
  0
LTYPE
  5
38
330
5
100
AcDbSymbolTableRecord
100
AcDbLinetypeTableRecord
  2
DASHED2
 70
     0
  3
_ _ _ _ _ _ _ _ _ _ _ _ _ _ _ _ _ _ _ _ _ _ _ _
 72
    65
 73
     2
 40
0.375
 49
0.25
 74
     0
 49
-0.125
 74
     0
  0
LTYPE
  5
39
330
5
100
AcDbSymbolTableRecord
100
AcDbLinetypeTableRecord
  2
DASHEDX2
 70
     0
  3
____  ____  ____  ____  ____  ____  ____  ____ 
 72
    65
 73
     2
 40
1.5
 49
1.0
 74
     0
 49
-0.5
 74
     0
  0
LTYPE
  5
3A
330
5
100
AcDbSymbolTableRecord
100
AcDbLinetypeTableRecord
  2
DIVIDE
 70
     0
  3
____ . . ____ . . ____ . . ____ . . ____ . . __
 72
    65
 73
     6
 40
1.25
 49
0.5
 74
     0
 49
-0.25
 74
     0
 49
0.0
 74
     0
 49
-0.25
 74
     0
 49
0.0
 74
     0
 49
-0.25
 74
     0
  0
LTYPE
  5
3B
330
5
100
AcDbSymbolTableRecord
100
AcDbLinetypeTableRecord
  2
DIVIDE2
 70
     0
  3
__..__..__..__..__..__..__..__..__..__..__..__.
 72
    65
 73
     6
 40
0.625
 49
0.25
 74
     0
 49
-0.125
 74
     0
 49
0.0
 74
     0
 49
-0.125
 74
     0
 49
0.0
 74
     0
 49
-0.125
 74
     0
  0
LTYPE
  5
3C
330
5
100
AcDbSymbolTableRecord
100
AcDbLinetypeTableRecord
  2
DIVIDEX2
 70
     0
  3
________  .  .  ________  .  .  ________  .  . 
 72
    65
 73
     6
 40
2.5
 49
1.0
 74
     0
 49
-0.5
 74
     0
 49
0.0
 74
     0
 49
-0.5
 74
     0
 49
0.0
 74
     0
 49
-0.5
 74
     0
  0
LTYPE
  5
3D
330
5
100
AcDbSymbolTableRecord
100
AcDbLinetypeTableRecord
  2
DOT
 70
     0
  3
. . . . . . . . . . . . . . . . . . . . . . . .
 72
    65
 73
     2
 40
0.25
 49
0.0
 74
     0
 49
-0.25
 74
     0
  0
LTYPE
  5
3E
330
5
100
AcDbSymbolTableRecord
100
AcDbLinetypeTableRecord
  2
DOT2
 70
     0
  3
...............................................
 72
    65
 73
     2
 40
0.125
 49
0.0
 74
     0
 49
-0.125
 74
     0
  0
LTYPE
  5
3F
330
5
100
AcDbSymbolTableRecord
100
AcDbLinetypeTableRecord
  2
DOTX2
 70
     0
  3
.  .  .  .  .  .  .  .  .  .  .  .  .  .  .  . 
 72
    65
 73
     2
 40
0.5
 49
0.0
 74
     0
 49
-0.5
 74
     0
  0
LTYPE
  5
40
330
5
100
AcDbSymbolTableRecord
100
AcDbLinetypeTableRecord
  2
HIDDEN
 70
     0
  3
__ __ __ __ __ __ __ __ __ __ __ __ __ __ __ __
 72
    65
 73
     2
 40
0.375
 49
0.25
 74
     0
 49
-0.125
 74
     0
  0
LTYPE
  5
41
330
5
100
AcDbSymbolTableRecord
100
AcDbLinetypeTableRecord
  2
HIDDEN2
 70
     0
  3
_ _ _ _ _ _ _ _ _ _ _ _ _ _ _ _ _ _ _ _ _ _ _ _
 72
    65
 73
     2
 40
0.1875
 49
0.125
 74
     0
 49
-0.0625
 74
     0
  0
LTYPE
  5
42
330
5
100
AcDbSymbolTableRecord
100
AcDbLinetypeTableRecord
  2
HIDDENX2
 70
     0
  3
____ ____ ____ ____ ____ ____ ____ ____ ____ __
 72
    65
 73
     2
 40
0.75
 49
0.5
 74
     0
 49
-0.25
 74
     0
  0
LTYPE
  5
43
330
5
100
AcDbSymbolTableRecord
100
AcDbLinetypeTableRecord
  2
PHANTOM
 70
     0
  3
______  __  __  ______  __  __  ______  __  __ 
 72
    65
 73
     6
 40
2.5
 49
1.25
 74
     0
 49
-0.25
 74
     0
 49
0.25
 74
     0
 49
-0.25
 74
     0
 49
0.25
 74
     0
 49
-0.25
 74
     0
  0
LTYPE
  5
44
330
5
100
AcDbSymbolTableRecord
100
AcDbLinetypeTableRecord
  2
PHANTOM2
 70
     0
  3
___ _ _ ___ _ _ ___ _ _ ___ _ _ ___ _ _ ___ _ _
 72
    65
 73
     6
 40
1.25
 49
0.625
 74
     0
 49
-0.125
 74
     0
 49
0.125
 74
     0
 49
-0.125
 74
     0
 49
0.125
 74
     0
 49
-0.125
 74
     0
  0
LTYPE
  5
45
330
5
100
AcDbSymbolTableRecord
100
AcDbLinetypeTableRecord
  2
PHANTOMX2
 70
     0
  3
____________    ____    ____    ____________   
 72
    65
 73
     6
 40
5.0
 49
2.5
 74
     0
 49
-0.5
 74
     0
 49
0.5
 74
     0
 49
-0.5
 74
     0
 49
0.5
 74
     0
 49
-0.5
 74
     0
  0
ENDTAB
  0
TABLE
  2
LAYER
  5
2
330
0
100
AcDbSymbolTable
 70
     6
  0
LAYER
  5
F
102
{ACAD_XDICTIONARY
360
D46
102
}
330
2
100
AcDbSymbolTableRecord
100
AcDbLayerTableRecord
  2
0
 70
     0
 62
     7
  6
CONTINUOUS
370
    -3
390
2CF
  0
LAYER
  5
49
102
{ACAD_XDICTIONARY
360
D48
102
}
330
2
100
AcDbSymbolTableRecord
100
AcDbLayerTableRecord
  2
SUNPOU
 70
     0
 62
     3
  6
CONTINUOUS
370
    -3
390
2CF
  0
LAYER
  5
4D
102
{ACAD_XDICTIONARY
360
D4A
102
}
330
2
100
AcDbSymbolTableRecord
100
AcDbLayerTableRecord
  2
CT2
 70
     0
 62
     1
  6
CENTER2
370
    -3
390
2CF
  0
LAYER
  5
4F
102
{ACAD_XDICTIONARY
360
D4C
102
}
330
2
100
AcDbSymbolTableRecord
100
AcDbLayerTableRecord
  2
SAISEKI
 70
     0
 62
     4
  6
CONTINUOUS
370
    -3
390
2CF
  0
LAYER
  5
50
330
2
100
AcDbSymbolTableRecord
100
AcDbLayerTableRecord
  2
DEFPOINTS
 70
     0
 62
     7
  6
CONTINUOUS
290
     0
370
    -3
390
2CF
  0
LAYER
  5
E44
102
{ACAD_XDICTIONARY
360
E45
102
}
330
2
100
AcDbSymbolTableRecord
100
AcDbLayerTableRecord
  2
KL
 70
     0
 62
     5
  6
HIDDEN
370
    -3
390
2CF
  0
ENDTAB
  0
TABLE
  2
STYLE
  5
3
330
0
100
AcDbSymbolTable
 70
     3
  0
STYLE
  5
10
330
3
100
AcDbSymbolTableRecord
100
AcDbTextStyleTableRecord
  2
STANDARD
 70
     0
 40
0.0
 41
1.0
 50
0.0
 71
     0
 42
0.2
  3
txt
  4

  0
STYLE
  5
2D
330
3
100
AcDbSymbolTableRecord
100
AcDbTextStyleTableRecord
  2
BIGFONT
 70
     0
 40
0.0
 41
1.0
 50
0.0
 71
     0
 42
50.0
  3
simplex
  4
extfont
  0
STYLE
  5
348
330
3
100
AcDbSymbolTableRecord
100
AcDbTextStyleTableRecord
  2
STYLE1
 70
     0
 40
0.0
 41
1.0
 50
0.0
 71
     0
 42
2.5
  3
txt.shx
  4
bigfont.shx
  0
ENDTAB
  0
TABLE
  2
VIEW
  5
6
330
0
100
AcDbSymbolTable
 70
     0
  0
ENDTAB
  0
TABLE
  2
UCS
  5
7
330
0
100
AcDbSymbolTable
 70
     0
  0
ENDTAB
  0
TABLE
  2
APPID
  5
9
330
0
100
AcDbSymbolTable
 70
     3
  0
APPID
  5
11
330
9
100
AcDbSymbolTableRecord
100
AcDbRegAppTableRecord
  2
ACAD
 70
     0
  0
APPID
  5
D41
330
9
100
AcDbSymbolTableRecord
100
AcDbRegAppTableRecord
  2
ACAD_MLEADERVER
 70
     0
  0
APPID
  5
D68
330
9
100
AcDbSymbolTableRecord
100
AcDbRegAppTableRecord
  2
ACAD_EXEMPT_FROM_CAD_STANDARDS
 70
     0
  0
ENDTAB
  0
TABLE
  2
DIMSTYLE
  5
A
330
0
100
AcDbSymbolTable
 70
     5
100
AcDbDimStyleTable
 71
     1
340
2CA
  0
DIMSTYLE
105
2C5
330
A
100
AcDbSymbolTableRecord
100
AcDbDimStyleTableRecord
  2
STANDARD
 70
     0
340
10
  0
DIMSTYLE
105
2CA
102
{ACAD_REACTORS
330
A3F
330
B6C
102
}
330
A
100
AcDbSymbolTableRecord
100
AcDbDimStyleTableRecord
  2
DIA1
 70
     0
 40
10.0
 41
2.0
 42
1.0
 43
10.0
 44
1.0
 73
     0
 74
     0
 77
     1
140
3.0
141
0.0
147
1.0
271
     0
340
2D
341
20
342
20
  0
DIMSTYLE
105
349
102
{ACAD_REACTORS
330
37F
330
388
330
389
330
38B
330
38C
330
393
330
B6B
330
B6A
330
B68
330
B67
330
B61
102
}
330
A
100
AcDbSymbolTableRecord
100
AcDbDimStyleTableRecord
  2
STYLE10
 70
     0
 40
10.0
 41
1.5
 42
5.0
 43
0.0
 44
0.0
 73
     0
 74
     0
 77
     1
 78
    12
140
2.0
141
2.0
147
1.0
172
     1
176
     3
177
     3
178
     3
340
10
  0
DIMSTYLE
105
CE6
330
A
100
AcDbSymbolTableRecord
100
AcDbDimStyleTableRecord
  2
P1
 70
     0
 40
10.0
 41
2.0
 42
1.0
 43
10.0
 44
1.0
 73
     0
 74
     0
 77
     2
140
3.0
141
0.0
147
1.0
172
     1
173
     1
176
   256
177
   256
178
   256
271
     0
272
     0
279
     2
288
     1
340
2D
341
20
343
20
344
20
371
    -1
372
    -1
  0
ENDTAB
  0
TABLE
  2
BLOCK_RECORD
  5
1
330
0
100
AcDbSymbolTable
 70
    23
  0
BLOCK_RECORD
  5
18
102
{ACAD_XDICTIONARY
360
D70
102
}
330
1
100
AcDbSymbolTableRecord
100
AcDbBlockTableRecord
  2
*MODEL_SPACE
340
2D2
  0
BLOCK_RECORD
  5
15
330
1
100
AcDbSymbolTableRecord
100
AcDbBlockTableRecord
  2
*PAPER_SPACE
340
2D3
  0
BLOCK_RECORD
  5
1C
330
1
100
AcDbSymbolTableRecord
100
AcDbBlockTableRecord
  2
SYASEN
340
0
  0
BLOCK_RECORD
  5
1D
330
1
100
AcDbSymbolTableRecord
100
AcDbBlockTableRecord
  2
YA2
340
0
  0
BLOCK_RECORD
  5
1E
330
1
100
AcDbSymbolTableRecord
100
AcDbBlockTableRecord
  2
YA_N
340
0
102
{BLKREFS
331
281
102
}
  0
BLOCK_RECORD
  5
1F
330
1
100
AcDbSymbolTableRecord
100
AcDbBlockTableRecord
  2
DOT
340
0
  0
BLOCK_RECORD
  5
20
330
1
100
AcDbSymbolTableRecord
100
AcDbBlockTableRecord
  2
ARROW
340
0
102
{BLKREFS
331
EED
331
F1C
102
}
  0
BLOCK_RECORD
  5
21
330
1
100
AcDbSymbolTableRecord
100
AcDbBlockTableRecord
  2
YA3
340
0
  0
BLOCK_RECORD
  5
22
330
1
100
AcDbSymbolTableRecord
100
AcDbBlockTableRecord
  2
BORDER
340
0
  0
BLOCK_RECORD
  5
2FA
330
1
100
AcDbSymbolTableRecord
100
AcDbBlockTableRecord
  2
_CLOSEDBLANK
340
0
  0
BLOCK_RECORD
  5
3AD
330
1
100
AcDbSymbolTableRecord
100
AcDbBlockTableRecord
  2
*D8
340
0
  0
BLOCK_RECORD
  5
3B9
330
1
100
AcDbSymbolTableRecord
100
AcDbBlockTableRecord
  2
*D9
340
0
  0
BLOCK_RECORD
  5
3C4
330
1
100
AcDbSymbolTableRecord
100
AcDbBlockTableRecord
  2
*D10
340
0
  0
BLOCK_RECORD
  5
3CF
330
1
100
AcDbSymbolTableRecord
100
AcDbBlockTableRecord
  2
*D11
340
0
  0
BLOCK_RECORD
  5
3DB
330
1
100
AcDbSymbolTableRecord
100
AcDbBlockTableRecord
  2
*D12
340
0
  0
BLOCK_RECORD
  5
3E6
330
1
100
AcDbSymbolTableRecord
100
AcDbBlockTableRecord
  2
*D13
340
0
  0
BLOCK_RECORD
  5
A42
330
1
100
AcDbSymbolTableRecord
100
AcDbBlockTableRecord
  2
*D14
340
0
  0
BLOCK_RECORD
  5
B8A
330
1
100
AcDbSymbolTableRecord
100
AcDbBlockTableRecord
  2
*D15
340
0
  0
BLOCK_RECORD
  5
B95
330
1
100
AcDbSymbolTableRecord
100
AcDbBlockTableRecord
  2
*D16
340
0
  0
BLOCK_RECORD
  5
BA0
330
1
100
AcDbSymbolTableRecord
100
AcDbBlockTableRecord
  2
*D17
340
0
  0
BLOCK_RECORD
  5
BAC
330
1
100
AcDbSymbolTableRecord
100
AcDbBlockTableRecord
  2
*D18
340
0
  0
BLOCK_RECORD
  5
BB7
330
1
100
AcDbSymbolTableRecord
100
AcDbBlockTableRecord
  2
*D19
340
0
  0
BLOCK_RECORD
  5
BC3
330
1
100
AcDbSymbolTableRecord
100
AcDbBlockTableRecord
  2
*D20
340
0
  0
ENDTAB
  0
ENDSEC
  0
SECTION
  2
BLOCKS
  0
BLOCK
  5
53
330
18
100
AcDbEntity
  8
0
100
AcDbBlockBegin
  2
*MODEL_SPACE
 70
     0
 10
0.0
 20
0.0
 30
0.0
  3
*MODEL_SPACE
  1

  0
ENDBLK
  5
54
330
18
100
AcDbEntity
  8
0
100
AcDbBlockEnd
  0
BLOCK
  5
51
330
15
100
AcDbEntity
 67
     1
  8
0
100
AcDbBlockBegin
  2
*PAPER_SPACE
 70
     0
 10
0.0
 20
0.0
 30
0.0
  3
*PAPER_SPACE
  1

  0
ENDBLK
  5
52
330
15
100
AcDbEntity
 67
     1
  8
0
100
AcDbBlockEnd
  0
BLOCK
  5
55
330
1C
100
AcDbEntity
  8
0
100
AcDbBlockBegin
  2
SYASEN
 70
     0
 10
0.0
 20
0.0
 30
0.0
  3
SYASEN
  1

  0
LINE
  5
56
330
1C
100
AcDbEntity
  8
0
100
AcDbLine
 10
0.0
 20
0.0
 30
0.0
 11
-1.0
 21
0.0
 31
0.0
  0
LINE
  5
57
330
1C
100
AcDbEntity
  8
0
100
AcDbLine
 10
0.5
 20
0.5
 30
0.0
 11
-0.5
 21
-0.5
 31
0.0
  0
ENDBLK
  5
58
330
1C
100
AcDbEntity
  8
0
100
AcDbBlockEnd
  0
BLOCK
  5
59
330
1D
100
AcDbEntity
  8
0
100
AcDbBlockBegin
  2
YA2
 70
     0
 10
0.0
 20
0.0
 30
0.0
  3
YA2
  1

  0
LINE
  5
5A
330
1D
100
AcDbEntity
  8
0
100
AcDbLine
 10
-1.0
 20
0.0
 30
0.0
 11
0.0
 21
0.0
 31
0.0
  0
ENDBLK
  5
5B
330
1D
100
AcDbEntity
  8
0
100
AcDbBlockEnd
  0
BLOCK
  5
5C
330
1E
100
AcDbEntity
  8
0
100
AcDbBlockBegin
  2
YA_N
 70
     0
 10
0.0
 20
0.0
 30
0.0
  3
YA_N
  1

  0
ENDBLK
  5
5D
330
1E
100
AcDbEntity
  8
0
100
AcDbBlockEnd
  0
BLOCK
  5
5E
330
1F
100
AcDbEntity
  8
0
100
AcDbBlockBegin
  2
DOT
 70
     0
 10
0.0
 20
0.0
 30
0.0
  3
DOT
  1

  0
LWPOLYLINE
  5
5F
330
1F
100
AcDbEntity
  8
0
100
AcDbPolyline
 90
        2
 70
     1
 43
0.25
 10
-0.125
 20
0.0
 42
1.0
 10
0.125
 20
0.0
 42
1.0
  0
LINE
  5
63
330
1F
100
AcDbEntity
  8
0
100
AcDbLine
 10
-1.0
 20
0.0
 30
0.0
 11
-0.25
 21
0.0
 31
0.0
  0
ENDBLK
  5
64
330
1F
100
AcDbEntity
  8
0
100
AcDbBlockEnd
  0
BLOCK
  5
65
330
20
100
AcDbEntity
  8
0
100
AcDbBlockBegin
  2
ARROW
 70
     0
 10
0.0
 20
0.0
 30
0.0
  3
ARROW
  1

  0
LINE
  5
66
330
20
100
AcDbEntity
  8
0
100
AcDbLine
 10
-0.9999999999999991
 20
0.1666666667000003
 30
0.0
 11
0.0
 21
0.0
 31
0.0
  0
LINE
  5
67
330
20
100
AcDbEntity
  8
0
100
AcDbLine
 10
-0.9999999999999991
 20
0.0
 30
0.0
 11
0.0
 21
0.0
 31
0.0
  0
LINE
  5
68
330
20
100
AcDbEntity
  8
0
100
AcDbLine
 10
-0.9999999999999991
 20
-0.1666666667000003
 30
0.0
 11
0.0
 21
0.0
 31
0.0
  0
ENDBLK
  5
69
330
20
100
AcDbEntity
  8
0
100
AcDbBlockEnd
  0
BLOCK
  5
6A
330
21
100
AcDbEntity
  8
0
100
AcDbBlockBegin
  2
YA3
 70
     0
 10
0.0
 20
0.0
 30
0.0
  3
YA3
  1

  0
SOLID
  5
6B
330
21
100
AcDbEntity
  8
0
100
AcDbTrace
 10
1.0
 20
-0.1666666666666665
 30
0.0
 11
1.0
 21
0.166666666666667
 31
0.0
 12
0.0
 22
0.0
 32
0.0
 13
0.0
 23
0.0
 33
0.0
  0
ENDBLK
  5
6C
330
21
100
AcDbEntity
  8
0
100
AcDbBlockEnd
  0
BLOCK
  5
6D
330
22
100
AcDbEntity
  8
0
100
AcDbBlockBegin
  2
BORDER
 70
     0
 10
0.0
 20
0.0
 30
0.0
  3
BORDER
  1

  0
LINE
  5
6E
330
22
100
AcDbEntity
  8
0
100
AcDbLine
 10
0.0
 20
0.0
 30
0.0
 11
1.00000000000004
 21
0.0
 31
0.0
  0
LINE
  5
6F
330
22
100
AcDbEntity
  8
0
100
AcDbLine
 10
1.00000000000004
 20
0.0
 30
0.0
 11
1.00000000000004
 21
1.00000000000004
 31
0.0
  0
LINE
  5
70
330
22
100
AcDbEntity
  8
0
100
AcDbLine
 10
1.00000000000004
 20
1.00000000000004
 30
0.0
 11
0.0
 21
1.00000000000004
 31
0.0
  0
LINE
  5
71
330
22
100
AcDbEntity
  8
0
100
AcDbLine
 10
0.0
 20
1.00000000000004
 30
0.0
 11
0.0
 21
0.0
 31
0.0
  0
ENDBLK
  5
72
330
22
100
AcDbEntity
  8
0
100
AcDbBlockEnd
  0
BLOCK
  5
2FE
330
2FA
100
AcDbEntity
  8
0
100
AcDbBlockBegin
  2
_CLOSEDBLANK
 70
     0
 10
0.0
 20
0.0
 30
0.0
  3
_CLOSEDBLANK
  1

  0
LINE
  5
2FB
330
2FA
100
AcDbEntity
  8
0
  6
ByBlock
 62
     0
100
AcDbLine
 10
-1.0
 20
0.1666666666666666
 30
0.0
 11
0.0
 21
0.0
 31
0.0
  0
LINE
  5
2FC
330
2FA
100
AcDbEntity
  8
0
  6
ByBlock
 62
     0
100
AcDbLine
 10
0.0
 20
0.0
 30
0.0
 11
-1.0
 21
-0.1666666666666666
 31
0.0
  0
LINE
  5
2FD
330
2FA
100
AcDbEntity
  8
0
  6
ByBlock
 62
     0
100
AcDbLine
 10
-1.0
 20
0.1666666666666666
 30
0.0
 11
-1.0
 21
-0.1666666666666666
 31
0.0
  0
ENDBLK
  5
2FF
330
2FA
100
AcDbEntity
  8
0
100
AcDbBlockEnd
  0
BLOCK
  5
3B7
330
3AD
100
AcDbEntity
  8
0
100
AcDbBlockBegin
  2
*D8
 70
     1
 10
0.0
 20
0.0
 30
0.0
  3
*D8
  1

  0
LINE
  5
EB8
330
3AD
100
AcDbEntity
  8
SUNPOU
370
    -2
100
AcDbLine
 10
1013.825763317041
 20
34.39673474006208
 30
0.0
 11
1013.825763317041
 21
-98.9505189464527
 31
0.0
  0
LINE
  5
EB9
330
3AD
100
AcDbEntity
  8
SUNPOU
370
    -2
100
AcDbLine
 10
2033.825763317041
 20
34.39673474006202
 30
0.0
 11
2033.825763317041
 21
-98.9505189464527
 31
0.0
  0
LINE
  5
EBA
330
3AD
100
AcDbEntity
  8
SUNPOU
370
    -2
100
AcDbLine
 10
1038.825763317041
 20
-98.9505189464527
 30
0.0
 11
2008.825763317041
 21
-98.9505189464527
 31
0.0
  0
SOLID
  5
EBB
330
3AD
100
AcDbEntity
  8
SUNPOU
100
AcDbTrace
 10
1038.825763317041
 20
-94.78385227978602
 30
0.0
 11
1038.825763317041
 21
-103.1171856131193
 31
0.0
 12
1013.825763317041
 22
-98.9505189464527
 32
0.0
 13
1013.825763317041
 23
-98.9505189464527
 33
0.0
  0
SOLID
  5
EBC
330
3AD
100
AcDbEntity
  8
SUNPOU
100
AcDbTrace
 10
2008.825763317041
 20
-94.78385227978602
 30
0.0
 11
2008.825763317041
 21
-103.1171856131193
 31
0.0
 12
2033.825763317041
 22
-98.9505189464527
 32
0.0
 13
2033.825763317041
 23
-98.9505189464527
 33
0.0
  0
MTEXT
  5
EBD
330
3AD
100
AcDbEntity
  8
SUNPOU
100
AcDbMText
 10
1523.82576331704
 20
-73.95051894645269
 30
0.0
 40
30.0
 41
0.0
 71
     5
 72
     1
  1
\A1;1020
 73
     1
 44
1.0
  0
POINT
  5
EBE
330
3AD
100
AcDbEntity
  8
DEFPOINTS
 62
     0
100
AcDbPoint
 10
1013.825763317041
 20
84.39673474006207
 30
0.0
  0
POINT
  5
EBF
330
3AD
100
AcDbEntity
  8
DEFPOINTS
 62
     0
100
AcDbPoint
 10
2033.825763317041
 20
84.39673474006202
 30
0.0
  0
POINT
  5
EC0
330
3AD
100
AcDbEntity
  8
DEFPOINTS
 62
     0
100
AcDbPoint
 10
2033.825763317041
 20
-98.9505189464527
 30
0.0
  0
ENDBLK
  5
3B8
330
3AD
100
AcDbEntity
  8
0
100
AcDbBlockEnd
  0
BLOCK
  5
3C2
330
3B9
100
AcDbEntity
  8
0
100
AcDbBlockBegin
  2
*D9
 70
     1
 10
0.0
 20
0.0
 30
0.0
  3
*D9
  1

  0
LINE
  5
EC1
330
3B9
100
AcDbEntity
  8
SUNPOU
370
    -2
100
AcDbLine
 10
983.8257633170407
 20
684.4384957996061
 30
0.0
 11
935.088515227709
 21
684.4384957996061
 31
0.0
  0
LINE
  5
EC2
330
3B9
100
AcDbEntity
  8
SUNPOU
370
    -2
100
AcDbLine
 10
935.088515227709
 20
759.4384957996063
 30
0.0
 11
935.088515227709
 21
709.4384957996061
 31
0.0
  0
SOLID
  5
EC3
330
3B9
100
AcDbEntity
  8
SUNPOU
100
AcDbTrace
 10
930.9218485610424
 20
759.4384957996063
 30
0.0
 11
939.2551818943756
 21
759.4384957996063
 31
0.0
 12
935.088515227709
 22
784.4384957996063
 32
0.0
 13
935.088515227709
 23
784.4384957996063
 33
0.0
  0
SOLID
  5
EC4
330
3B9
100
AcDbEntity
  8
SUNPOU
100
AcDbTrace
 10
930.9218485610424
 20
709.4384957996061
 30
0.0
 11
939.2551818943756
 21
709.4384957996061
 31
0.0
 12
935.088515227709
 22
684.4384957996061
 32
0.0
 13
935.088515227709
 23
684.4384957996061
 33
0.0
  0
MTEXT
  5
EC5
330
3B9
100
AcDbEntity
  8
SUNPOU
100
AcDbMText
 10
910.0885152277088
 20
734.4384957996064
 30
0.0
 40
30.0
 41
0.0
 71
     5
 72
     1
  1
\A1;100
 11
0.0000000000000001
 21
1.0
 31
0.0
 73
     1
 44
1.0
  0
POINT
  5
EC6
330
3B9
100
AcDbEntity
  8
DEFPOINTS
 62
     0
100
AcDbPoint
 10
1033.802037710845
 20
784.4384957996063
 30
0.0
  0
POINT
  5
EC7
330
3B9
100
AcDbEntity
  8
DEFPOINTS
 62
     0
100
AcDbPoint
 10
1033.825763317041
 20
684.4384957996061
 30
0.0
  0
POINT
  5
EC8
330
3B9
100
AcDbEntity
  8
DEFPOINTS
 62
     0
100
AcDbPoint
 10
935.088515227709
 20
684.4384957996061
 30
0.0
  0
ENDBLK
  5
3C3
330
3B9
100
AcDbEntity
  8
0
100
AcDbBlockEnd
  0
BLOCK
  5
3CD
330
3C4
100
AcDbEntity
  8
0
100
AcDbBlockBegin
  2
*D10
 70
     1
 10
0.0
 20
0.0
 30
0.0
  3
*D10
  1

  0
LINE
  5
EC9
330
3C4
100
AcDbEntity
  8
SUNPOU
370
    -2
100
AcDbLine
 10
983.8257633170409
 20
284.4384957996061
 30
0.0
 11
935.088515227709
 21
284.4384957996061
 31
0.0
  0
LINE
  5
ECA
330
3C4
100
AcDbEntity
  8
SUNPOU
370
    -2
100
AcDbLine
 10
935.088515227709
 20
659.4384957996061
 30
0.0
 11
935.088515227709
 21
309.4384957996061
 31
0.0
  0
SOLID
  5
ECB
330
3C4
100
AcDbEntity
  8
SUNPOU
100
AcDbTrace
 10
930.9218485610424
 20
659.4384957996061
 30
0.0
 11
939.2551818943756
 21
659.4384957996061
 31
0.0
 12
935.088515227709
 22
684.4384957996061
 32
0.0
 13
935.088515227709
 23
684.4384957996061
 33
0.0
  0
SOLID
  5
ECC
330
3C4
100
AcDbEntity
  8
SUNPOU
100
AcDbTrace
 10
930.9218485610424
 20
309.4384957996061
 30
0.0
 11
939.2551818943756
 21
309.4384957996061
 31
0.0
 12
935.088515227709
 22
284.4384957996061
 32
0.0
 13
935.088515227709
 23
284.4384957996061
 33
0.0
  0
MTEXT
  5
ECD
330
3C4
100
AcDbEntity
  8
SUNPOU
100
AcDbMText
 10
910.0885152277088
 20
484.4384957996062
 30
0.0
 40
30.0
 41
0.0
 71
     5
 72
     1
  1
\A1;400
 11
0.0000000000000001
 21
1.0
 31
0.0
 73
     1
 44
1.0
  0
POINT
  5
ECE
330
3C4
100
AcDbEntity
  8
DEFPOINTS
 62
     0
100
AcDbPoint
 10
1033.825763317041
 20
684.4384957996061
 30
0.0
  0
POINT
  5
ECF
330
3C4
100
AcDbEntity
  8
DEFPOINTS
 62
     0
100
AcDbPoint
 10
1033.825763317041
 20
284.4384957996061
 30
0.0
  0
POINT
  5
ED0
330
3C4
100
AcDbEntity
  8
DEFPOINTS
 62
     0
100
AcDbPoint
 10
935.088515227709
 20
284.4384957996061
 30
0.0
  0
ENDBLK
  5
3CE
330
3C4
100
AcDbEntity
  8
0
100
AcDbBlockEnd
  0
BLOCK
  5
3D9
330
3CF
100
AcDbEntity
  8
0
100
AcDbBlockBegin
  2
*D11
 70
     1
 10
0.0
 20
0.0
 30
0.0
  3
*D11
  1

  0
LINE
  5
ED1
330
3CF
100
AcDbEntity
  8
SUNPOU
370
    -2
100
AcDbLine
 10
983.8257633170409
 20
784.4384957996061
 30
0.0
 11
871.5912156433164
 21
784.4384957996061
 31
0.0
  0
LINE
  5
ED2
330
3CF
100
AcDbEntity
  8
SUNPOU
370
    -2
100
AcDbLine
 10
1223.825763317041
 20
134.4384957996061
 30
0.0
 11
871.5912156433162
 21
134.4384957996062
 31
0.0
  0
LINE
  5
ED3
330
3CF
100
AcDbEntity
  8
SUNPOU
370
    -2
100
AcDbLine
 10
871.5912156433162
 20
759.4384957996061
 30
0.0
 11
871.5912156433162
 21
159.4384957996062
 31
0.0
  0
SOLID
  5
ED4
330
3CF
100
AcDbEntity
  8
SUNPOU
100
AcDbTrace
 10
867.4245489766496
 20
759.4384957996061
 30
0.0
 11
875.757882309983
 21
759.4384957996061
 31
0.0
 12
871.5912156433164
 22
784.4384957996061
 32
0.0
 13
871.5912156433164
 23
784.4384957996061
 33
0.0
  0
SOLID
  5
ED5
330
3CF
100
AcDbEntity
  8
SUNPOU
100
AcDbTrace
 10
867.4245489766496
 20
159.4384957996062
 30
0.0
 11
875.7578823099828
 21
159.4384957996062
 31
0.0
 12
871.5912156433162
 22
134.4384957996062
 32
0.0
 13
871.5912156433162
 23
134.4384957996062
 33
0.0
  0
MTEXT
  5
ED6
330
3CF
100
AcDbEntity
  8
SUNPOU
100
AcDbMText
 10
846.5912156433162
 20
459.4384957996063
 30
0.0
 40
30.0
 41
0.0
 71
     5
 72
     1
  1
\A1;650
 11
0.0000000000000001
 21
1.0
 31
0.0
 73
     1
 44
1.0
  0
POINT
  5
ED7
330
3CF
100
AcDbEntity
  8
DEFPOINTS
 62
     0
100
AcDbPoint
 10
1033.825763317041
 20
784.4384957996061
 30
0.0
  0
POINT
  5
ED8
330
3CF
100
AcDbEntity
  8
DEFPOINTS
 62
     0
100
AcDbPoint
 10
1273.825763317041
 20
134.4384957996061
 30
0.0
  0
POINT
  5
ED9
330
3CF
100
AcDbEntity
  8
DEFPOINTS
 62
     0
100
AcDbPoint
 10
871.5912156433162
 20
134.4384957996062
 30
0.0
  0
ENDBLK
  5
3DA
330
3CF
100
AcDbEntity
  8
0
100
AcDbBlockEnd
  0
BLOCK
  5
3E4
330
3DB
100
AcDbEntity
  8
0
100
AcDbBlockBegin
  2
*D12
 70
     1
 10
0.0
 20
0.0
 30
0.0
  3
*D12
  1

  0
LINE
  5
EDA
330
3DB
100
AcDbEntity
  8
SUNPOU
370
    -2
100
AcDbLine
 10
1223.825763317041
 20
134.4384957996061
 30
0.0
 11
935.088515227709
 21
134.4384957996062
 31
0.0
  0
LINE
  5
EDB
330
3DB
100
AcDbEntity
  8
SUNPOU
370
    -2
100
AcDbLine
 10
935.088515227709
 20
259.4384957996061
 30
0.0
 11
935.088515227709
 21
159.4384957996062
 31
0.0
  0
SOLID
  5
EDC
330
3DB
100
AcDbEntity
  8
SUNPOU
100
AcDbTrace
 10
930.9218485610424
 20
259.4384957996061
 30
0.0
 11
939.2551818943756
 21
259.4384957996061
 31
0.0
 12
935.088515227709
 22
284.4384957996061
 32
0.0
 13
935.088515227709
 23
284.4384957996061
 33
0.0
  0
SOLID
  5
EDD
330
3DB
100
AcDbEntity
  8
SUNPOU
100
AcDbTrace
 10
930.9218485610424
 20
159.4384957996062
 30
0.0
 11
939.2551818943756
 21
159.4384957996062
 31
0.0
 12
935.088515227709
 22
134.4384957996062
 32
0.0
 13
935.088515227709
 23
134.4384957996062
 33
0.0
  0
MTEXT
  5
EDE
330
3DB
100
AcDbEntity
  8
SUNPOU
100
AcDbMText
 10
910.088515227709
 20
209.4384957996064
 30
0.0
 40
30.0
 41
0.0
 71
     5
 72
     1
  1
\A1;150
 11
0.0000000000000001
 21
1.0
 31
0.0
 73
     1
 44
1.0
  0
POINT
  5
EDF
330
3DB
100
AcDbEntity
  8
DEFPOINTS
 62
     0
100
AcDbPoint
 10
1033.825763317041
 20
284.4384957996061
 30
0.0
  0
POINT
  5
EE0
330
3DB
100
AcDbEntity
  8
DEFPOINTS
 62
     0
100
AcDbPoint
 10
1273.825763317041
 20
134.4384957996061
 30
0.0
  0
POINT
  5
EE1
330
3DB
100
AcDbEntity
  8
DEFPOINTS
 62
     0
100
AcDbPoint
 10
935.088515227709
 20
134.4384957996062
 30
0.0
  0
ENDBLK
  5
3E5
330
3DB
100
AcDbEntity
  8
0
100
AcDbBlockEnd
  0
BLOCK
  5
3F0
330
3E6
100
AcDbEntity
  8
0
100
AcDbBlockBegin
  2
*D13
 70
     1
 10
0.0
 20
0.0
 30
0.0
  3
*D13
  1

  0
LINE
  5
EE2
330
3E6
100
AcDbEntity
  8
SUNPOU
370
    -2
100
AcDbLine
 10
1273.825763317041
 20
84.43849579960613
 30
0.0
 11
1273.825763317041
 21
-15.26639919134152
 31
0.0
  0
LINE
  5
EE3
330
3E6
100
AcDbEntity
  8
SUNPOU
370
    -2
100
AcDbLine
 10
1773.710374244359
 20
84.54051798501621
 30
0.0
 11
1773.710374244359
 21
-15.26639919134152
 31
0.0
  0
LINE
  5
EE4
330
3E6
100
AcDbEntity
  8
SUNPOU
370
    -2
100
AcDbLine
 10
1298.825763317041
 20
-15.26639919134152
 30
0.0
 11
1748.710374244359
 21
-15.26639919134152
 31
0.0
  0
SOLID
  5
EE5
330
3E6
100
AcDbEntity
  8
SUNPOU
100
AcDbTrace
 10
1298.825763317041
 20
-11.09973252467485
 30
0.0
 11
1298.825763317041
 21
-19.43306585800819
 31
0.0
 12
1273.825763317041
 22
-15.26639919134152
 32
0.0
 13
1273.825763317041
 23
-15.26639919134152
 33
0.0
  0
SOLID
  5
EE6
330
3E6
100
AcDbEntity
  8
SUNPOU
100
AcDbTrace
 10
1748.710374244359
 20
-11.09973252467485
 30
0.0
 11
1748.710374244359
 21
-19.43306585800819
 31
0.0
 12
1773.710374244359
 22
-15.26639919134152
 32
0.0
 13
1773.710374244359
 23
-15.26639919134152
 33
0.0
  0
MTEXT
  5
EE7
330
3E6
100
AcDbEntity
  8
SUNPOU
100
AcDbMText
 10
1523.7680687807
 20
9.733600808658479
 30
0.0
 40
30.0
 41
0.0
 71
     5
 72
     1
  1
\A1;500
 73
     1
 44
1.0
  0
POINT
  5
EE8
330
3E6
100
AcDbEntity
  8
DEFPOINTS
 62
     0
100
AcDbPoint
 10
1273.825763317041
 20
134.4384957996061
 30
0.0
  0
POINT
  5
EE9
330
3E6
100
AcDbEntity
  8
DEFPOINTS
 62
     0
100
AcDbPoint
 10
1773.710374244359
 20
134.5405179850162
 30
0.0
  0
POINT
  5
EEA
330
3E6
100
AcDbEntity
  8
DEFPOINTS
 62
     0
100
AcDbPoint
 10
1773.710374244359
 20
-15.26639919134152
 30
0.0
  0
ENDBLK
  5
3F1
330
3E6
100
AcDbEntity
  8
0
100
AcDbBlockEnd
  0
BLOCK
  5
A48
330
A42
100
AcDbEntity
  8
0
100
AcDbBlockBegin
  2
*D14
 70
     1
 10
0.0
 20
0.0
 30
0.0
  3
*D14
  1

  0
LINE
  5
EEB
330
A42
100
AcDbEntity
  8
SUNPOU
 62
     0
370
    -2
100
AcDbLine
 10
1487.443200958954
 20
473.1659406577652
 30
0.0
 11
1648.002043852233
 21
522.9125305821074
 31
0.0
  0
MTEXT
  5
EEC
102
{ACAD_XDICTIONARY
360
F25
102
}
330
A42
100
AcDbEntity
  8
SUNPOU
 62
     0
100
AcDbMText
 10
1539.40333936101
 20
515.4374288160587
 30
0.0
 40
30.0
 41
0.0
 71
     5
 72
     1
  1
\A1;\U+2205300
  7
BIGFONT
 11
0.9552021579630192
 21
0.2959541137115534
 31
0.0
 73
     1
 44
1.0
  0
INSERT
  5
EED
330
A42
100
AcDbEntity
  8
SUNPOU
 62
     0
370
    -2
100
AcDbBlockReference
  2
ARROW
 10
1667.106087011494
 20
528.8316128563385
 30
0.0
 41
20.0
 42
20.0
 43
20.0
 50
17.21475901943356
  0
POINT
  5
EEE
330
A42
100
AcDbEntity
  8
DEFPOINTS
 62
     0
100
AcDbPoint
 10
1667.106087011494
 20
528.8316128563385
 30
0.0
  0
POINT
  5
EEF
330
A42
100
AcDbEntity
  8
DEFPOINTS
 62
     0
100
AcDbPoint
 10
1380.545439622588
 20
440.0453787428724
 30
0.0
  0
ENDBLK
  5
A49
330
A42
100
AcDbEntity
  8
0
100
AcDbBlockEnd
  0
BLOCK
  5
B93
330
B8A
100
AcDbEntity
  8
0
100
AcDbBlockBegin
  2
*D15
 70
     1
 10
0.0
 20
0.0
 30
0.0
  3
*D15
  1

  0
LINE
  5
F12
330
B8A
100
AcDbEntity
  8
SUNPOU
370
    -2
100
AcDbLine
 10
3729.792784167017
 20
684.4384957996061
 30
0.0
 11
3681.055536077685
 21
684.4384957996061
 31
0.0
  0
LINE
  5
F13
330
B8A
100
AcDbEntity
  8
SUNPOU
370
    -2
100
AcDbLine
 10
3681.055536077685
 20
759.4384957996063
 30
0.0
 11
3681.055536077685
 21
709.4384957996061
 31
0.0
  0
SOLID
  5
F14
330
B8A
100
AcDbEntity
  8
SUNPOU
100
AcDbTrace
 10
3676.888869411018
 20
759.4384957996063
 30
0.0
 11
3685.222202744351
 21
759.4384957996063
 31
0.0
 12
3681.055536077685
 22
784.4384957996063
 32
0.0
 13
3681.055536077685
 23
784.4384957996063
 33
0.0
  0
SOLID
  5
F15
330
B8A
100
AcDbEntity
  8
SUNPOU
100
AcDbTrace
 10
3676.888869411018
 20
709.4384957996061
 30
0.0
 11
3685.222202744351
 21
709.4384957996061
 31
0.0
 12
3681.055536077685
 22
684.4384957996061
 32
0.0
 13
3681.055536077685
 23
684.4384957996061
 33
0.0
  0
MTEXT
  5
F16
330
B8A
100
AcDbEntity
  8
SUNPOU
100
AcDbMText
 10
3656.055536077685
 20
734.4384957996068
 30
0.0
 40
30.0
 41
0.0
 71
     5
 72
     1
  1
\A1;100
 11
0.0000000000000001
 21
1.0
 31
0.0
 73
     1
 44
1.0
  0
POINT
  5
F17
330
B8A
100
AcDbEntity
  8
DEFPOINTS
 62
     0
100
AcDbPoint
 10
3779.769058560821
 20
784.4384957996063
 30
0.0
  0
POINT
  5
F18
330
B8A
100
AcDbEntity
  8
DEFPOINTS
 62
     0
100
AcDbPoint
 10
3779.792784167017
 20
684.4384957996061
 30
0.0
  0
POINT
  5
F19
330
B8A
100
AcDbEntity
  8
DEFPOINTS
 62
     0
100
AcDbPoint
 10
3681.055536077685
 20
684.4384957996061
 30
0.0
  0
ENDBLK
  5
B94
330
B8A
100
AcDbEntity
  8
0
100
AcDbBlockEnd
  0
BLOCK
  5
B9E
330
B95
100
AcDbEntity
  8
0
100
AcDbBlockBegin
  2
*D16
 70
     1
 10
0.0
 20
0.0
 30
0.0
  3
*D16
  1

  0
LINE
  5
F0A
330
B95
100
AcDbEntity
  8
SUNPOU
370
    -2
100
AcDbLine
 10
3729.792784167017
 20
284.4384957996061
 30
0.0
 11
3681.055536077685
 21
284.4384957996062
 31
0.0
  0
LINE
  5
F0B
330
B95
100
AcDbEntity
  8
SUNPOU
370
    -2
100
AcDbLine
 10
3681.055536077685
 20
659.4384957996061
 30
0.0
 11
3681.055536077685
 21
309.4384957996062
 31
0.0
  0
SOLID
  5
F0C
330
B95
100
AcDbEntity
  8
SUNPOU
100
AcDbTrace
 10
3676.888869411018
 20
659.4384957996061
 30
0.0
 11
3685.222202744351
 21
659.4384957996061
 31
0.0
 12
3681.055536077685
 22
684.4384957996061
 32
0.0
 13
3681.055536077685
 23
684.4384957996061
 33
0.0
  0
SOLID
  5
F0D
330
B95
100
AcDbEntity
  8
SUNPOU
100
AcDbTrace
 10
3676.888869411018
 20
309.4384957996062
 30
0.0
 11
3685.222202744351
 21
309.4384957996062
 31
0.0
 12
3681.055536077685
 22
284.4384957996062
 32
0.0
 13
3681.055536077685
 23
284.4384957996062
 33
0.0
  0
MTEXT
  5
F0E
330
B95
100
AcDbEntity
  8
SUNPOU
100
AcDbMText
 10
3656.055536077685
 20
484.4384957996067
 30
0.0
 40
30.0
 41
0.0
 71
     5
 72
     1
  1
\A1;400
 11
0.0000000000000001
 21
1.0
 31
0.0
 73
     1
 44
1.0
  0
POINT
  5
F0F
330
B95
100
AcDbEntity
  8
DEFPOINTS
 62
     0
100
AcDbPoint
 10
3779.792784167017
 20
684.4384957996061
 30
0.0
  0
POINT
  5
F10
330
B95
100
AcDbEntity
  8
DEFPOINTS
 62
     0
100
AcDbPoint
 10
3779.792784167017
 20
284.4384957996061
 30
0.0
  0
POINT
  5
F11
330
B95
100
AcDbEntity
  8
DEFPOINTS
 62
     0
100
AcDbPoint
 10
3681.055536077685
 20
284.4384957996062
 30
0.0
  0
ENDBLK
  5
B9F
330
B95
100
AcDbEntity
  8
0
100
AcDbBlockEnd
  0
BLOCK
  5
BAA
330
BA0
100
AcDbEntity
  8
0
100
AcDbBlockBegin
  2
*D17
 70
     1
 10
0.0
 20
0.0
 30
0.0
  3
*D17
  1

  0
LINE
  5
F01
330
BA0
100
AcDbEntity
  8
SUNPOU
370
    -2
100
AcDbLine
 10
3729.792784167017
 20
784.4384957996061
 30
0.0
 11
3617.558236493291
 21
784.4384957996061
 31
0.0
  0
LINE
  5
F02
330
BA0
100
AcDbEntity
  8
SUNPOU
370
    -2
100
AcDbLine
 10
3743.883457853382
 20
134.4384957996062
 30
0.0
 11
3617.558236493291
 21
134.4384957996063
 31
0.0
  0
LINE
  5
F03
330
BA0
100
AcDbEntity
  8
SUNPOU
370
    -2
100
AcDbLine
 10
3617.558236493291
 20
759.4384957996061
 30
0.0
 11
3617.558236493291
 21
159.4384957996063
 31
0.0
  0
SOLID
  5
F04
330
BA0
100
AcDbEntity
  8
SUNPOU
100
AcDbTrace
 10
3613.391569826625
 20
759.4384957996061
 30
0.0
 11
3621.724903159958
 21
759.4384957996061
 31
0.0
 12
3617.558236493291
 22
784.4384957996061
 32
0.0
 13
3617.558236493291
 23
784.4384957996061
 33
0.0
  0
SOLID
  5
F05
330
BA0
100
AcDbEntity
  8
SUNPOU
100
AcDbTrace
 10
3613.391569826625
 20
159.4384957996063
 30
0.0
 11
3621.724903159958
 21
159.4384957996063
 31
0.0
 12
3617.558236493291
 22
134.4384957996063
 32
0.0
 13
3617.558236493291
 23
134.4384957996063
 33
0.0
  0
MTEXT
  5
F06
330
BA0
100
AcDbEntity
  8
SUNPOU
100
AcDbMText
 10
3592.558236493291
 20
459.4384957996068
 30
0.0
 40
30.0
 41
0.0
 71
     5
 72
     1
  1
\A1;650
 11
0.0000000000000001
 21
1.0
 31
0.0
 73
     1
 44
1.0
  0
POINT
  5
F07
330
BA0
100
AcDbEntity
  8
DEFPOINTS
 62
     0
100
AcDbPoint
 10
3779.792784167017
 20
784.4384957996061
 30
0.0
  0
POINT
  5
F08
330
BA0
100
AcDbEntity
  8
DEFPOINTS
 62
     0
100
AcDbPoint
 10
3793.883457853382
 20
134.4384957996062
 30
0.0
  0
POINT
  5
F09
330
BA0
100
AcDbEntity
  8
DEFPOINTS
 62
     0
100
AcDbPoint
 10
3617.558236493291
 20
134.4384957996063
 30
0.0
  0
ENDBLK
  5
BAB
330
BA0
100
AcDbEntity
  8
0
100
AcDbBlockEnd
  0
BLOCK
  5
BB5
330
BAC
100
AcDbEntity
  8
0
100
AcDbBlockBegin
  2
*D18
 70
     1
 10
0.0
 20
0.0
 30
0.0
  3
*D18
  1

  0
LINE
  5
EF9
330
BAC
100
AcDbEntity
  8
SUNPOU
370
    -2
100
AcDbLine
 10
3743.883457853382
 20
134.4384957996062
 30
0.0
 11
3681.055536077685
 21
134.4384957996062
 31
0.0
  0
LINE
  5
EFA
330
BAC
100
AcDbEntity
  8
SUNPOU
370
    -2
100
AcDbLine
 10
3681.055536077685
 20
259.4384957996062
 30
0.0
 11
3681.055536077685
 21
159.4384957996062
 31
0.0
  0
SOLID
  5
EFB
330
BAC
100
AcDbEntity
  8
SUNPOU
100
AcDbTrace
 10
3676.888869411018
 20
259.4384957996062
 30
0.0
 11
3685.222202744351
 21
259.4384957996062
 31
0.0
 12
3681.055536077685
 22
284.4384957996062
 32
0.0
 13
3681.055536077685
 23
284.4384957996062
 33
0.0
  0
SOLID
  5
EFC
330
BAC
100
AcDbEntity
  8
SUNPOU
100
AcDbTrace
 10
3676.888869411018
 20
159.4384957996062
 30
0.0
 11
3685.222202744351
 21
159.4384957996062
 31
0.0
 12
3681.055536077685
 22
134.4384957996062
 32
0.0
 13
3681.055536077685
 23
134.4384957996062
 33
0.0
  0
MTEXT
  5
EFD
330
BAC
100
AcDbEntity
  8
SUNPOU
100
AcDbMText
 10
3656.055536077685
 20
209.4384957996068
 30
0.0
 40
30.0
 41
0.0
 71
     5
 72
     1
  1
\A1;150
 11
0.0000000000000001
 21
1.0
 31
0.0
 73
     1
 44
1.0
  0
POINT
  5
EFE
330
BAC
100
AcDbEntity
  8
DEFPOINTS
 62
     0
100
AcDbPoint
 10
3779.792784167017
 20
284.4384957996061
 30
0.0
  0
POINT
  5
EFF
330
BAC
100
AcDbEntity
  8
DEFPOINTS
 62
     0
100
AcDbPoint
 10
3793.883457853382
 20
134.4384957996062
 30
0.0
  0
POINT
  5
F00
330
BAC
100
AcDbEntity
  8
DEFPOINTS
 62
     0
100
AcDbPoint
 10
3681.055536077685
 20
134.4384957996062
 30
0.0
  0
ENDBLK
  5
BB6
330
BAC
100
AcDbEntity
  8
0
100
AcDbBlockEnd
  0
BLOCK
  5
BC1
330
BB7
100
AcDbEntity
  8
0
100
AcDbBlockBegin
  2
*D19
 70
     1
 10
0.0
 20
0.0
 30
0.0
  3
*D19
  1

  0
LINE
  5
EF0
330
BB7
100
AcDbEntity
  8
SUNPOU
370
    -2
100
AcDbLine
 10
3793.883457853381
 20
84.43849579960613
 30
0.0
 11
3793.883457853381
 21
-15.26639919134152
 31
0.0
  0
LINE
  5
EF1
330
BB7
100
AcDbEntity
  8
SUNPOU
370
    -2
100
AcDbLine
 10
4293.768068780699
 20
84.54051798501621
 30
0.0
 11
4293.768068780699
 21
-15.26639919134152
 31
0.0
  0
LINE
  5
EF2
330
BB7
100
AcDbEntity
  8
SUNPOU
370
    -2
100
AcDbLine
 10
3818.883457853381
 20
-15.26639919134152
 30
0.0
 11
4268.768068780699
 21
-15.26639919134152
 31
0.0
  0
SOLID
  5
EF3
330
BB7
100
AcDbEntity
  8
SUNPOU
100
AcDbTrace
 10
3818.883457853381
 20
-11.09973252467485
 30
0.0
 11
3818.883457853381
 21
-19.43306585800819
 31
0.0
 12
3793.883457853381
 22
-15.26639919134152
 32
0.0
 13
3793.883457853381
 23
-15.26639919134152
 33
0.0
  0
SOLID
  5
EF4
330
BB7
100
AcDbEntity
  8
SUNPOU
100
AcDbTrace
 10
4268.768068780699
 20
-11.09973252467485
 30
0.0
 11
4268.768068780699
 21
-19.43306585800819
 31
0.0
 12
4293.768068780699
 22
-15.26639919134152
 32
0.0
 13
4293.768068780699
 23
-15.26639919134152
 33
0.0
  0
MTEXT
  5
EF5
330
BB7
100
AcDbEntity
  8
SUNPOU
100
AcDbMText
 10
4043.82576331704
 20
9.733600808658479
 30
0.0
 40
30.0
 41
0.0
 71
     5
 72
     1
  1
\A1;500
 73
     1
 44
1.0
  0
POINT
  5
EF6
330
BB7
100
AcDbEntity
  8
DEFPOINTS
 62
     0
100
AcDbPoint
 10
3793.883457853381
 20
134.4384957996061
 30
0.0
  0
POINT
  5
EF7
330
BB7
100
AcDbEntity
  8
DEFPOINTS
 62
     0
100
AcDbPoint
 10
4293.768068780699
 20
134.5405179850162
 30
0.0
  0
POINT
  5
EF8
330
BB7
100
AcDbEntity
  8
DEFPOINTS
 62
     0
100
AcDbPoint
 10
4293.768068780699
 20
-15.26639919134152
 30
0.0
  0
ENDBLK
  5
BC2
330
BB7
100
AcDbEntity
  8
0
100
AcDbBlockEnd
  0
BLOCK
  5
BC9
330
BC3
100
AcDbEntity
  8
0
100
AcDbBlockBegin
  2
*D20
 70
     1
 10
0.0
 20
0.0
 30
0.0
  3
*D20
  1

  0
LINE
  5
F1A
330
BC3
100
AcDbEntity
  8
SUNPOU
 62
     0
370
    -2
100
AcDbLine
 10
4007.500895495295
 20
473.1659406577649
 30
0.0
 11
4168.059738388575
 21
522.9125305821074
 31
0.0
  0
MTEXT
  5
F1B
102
{ACAD_XDICTIONARY
360
F27
102
}
330
BC3
100
AcDbEntity
  8
SUNPOU
 62
     0
100
AcDbMText
 10
4059.461033897351
 20
515.4374288160586
 30
0.0
 40
30.0
 41
0.0
 71
     5
 72
     1
  1
\A1;\U+2205300
  7
BIGFONT
 11
0.955202157963019
 21
0.2959541137115542
 31
0.0
 73
     1
 44
1.0
  0
INSERT
  5
F1C
330
BC3
100
AcDbEntity
  8
SUNPOU
 62
     0
370
    -2
100
AcDbBlockReference
  2
ARROW
 10
4187.163781547835
 20
528.8316128563386
 30
0.0
 41
20.0
 42
20.0
 43
20.0
 50
17.2147590194336
  0
POINT
  5
F1D
330
BC3
100
AcDbEntity
  8
DEFPOINTS
 62
     0
100
AcDbPoint
 10
4187.163781547835
 20
528.8316128563386
 30
0.0
  0
POINT
  5
F1E
330
BC3
100
AcDbEntity
  8
DEFPOINTS
 62
     0
100
AcDbPoint
 10
3900.60313415893
 20
440.0453787428724
 30
0.0
  0
ENDBLK
  5
BCA
330
BC3
100
AcDbEntity
  8
0
100
AcDbBlockEnd
  0
ENDSEC
  0
SECTION
  2
ENTITIES
  0
INSERT
  5
281
330
18
100
AcDbEntity
  8
0
100
AcDbBlockReference
  2
YA_N
 10
6.0
 20
5.0
 30
0.0
  0
TEXT
  5
2B1
330
18
100
AcDbEntity
  8
0
100
AcDbText
 10
1978.417913029726
 20
1340.473653870665
 30
0.0
 40
50.0
  1
S=1/10
  7
BIGFONT
 11
1978.417913029726
 21
1365.473653870665
 31
0.0
100
AcDbText
 73
     2
  0
DIMENSION
  5
37F
330
18
100
AcDbEntity
  8
SUNPOU
100
AcDbDimension
  2
*D8
 10
2033.825763317041
 20
-98.9505189464527
 30
0.0
 11
1523.82576331704
 21
-73.95051894645269
 31
0.0
 70
    32
 71
     5
 42
1020.0
  3
STYLE10
100
AcDbAlignedDimension
 13
1013.825763317041
 23
84.39673474006207
 33
0.0
 14
2033.825763317041
 24
84.39673474006202
 34
0.0
100
AcDbRotatedDimension
1001
ACAD
1000
DSTYLE
1002
{
1070
    41
1040
2.5
1070
    78
1070
     0
1070
   140
1040
3.0
1070
   141
1040
1.0
1070
   176
1070
   256
1070
   177
1070
   256
1070
   178
1070
   256
1070
   271
1070
     0
1070
   272
1070
     0
1070
   279
1070
     1
1070
   284
1070
     1
1070
   288
1070
     1
1002
}
  0
LINE
  5
380
330
18
100
AcDbEntity
  8
0
100
AcDbLine
 10
2053.825763317041
 20
984.4384957996062
 30
0.0
 11
1012.226417996964
 21
984.4384957996062
 31
0.0
  0
LEADER
  5
383
330
18
100
AcDbEntity
  8
SUNPOU
  6
ByBlock
100
AcDbLeader
  3
STANDARD
 73
     0
 74
     0
 75
     1
 40
35.0
 41
130.6666666666666
 76
     3
 10
1737.935629320693
 20
585.1698041985749
 30
0.0
 10
1907.214888003336
 20
279.2428788541396
 30
0.0
 10
1932.214888003336
 20
279.2428788541396
 30
0.0
340
384
1001
ACAD
1000
DSTYLE
1002
{
1070
   341
1005
2FA
1070
    40
1040
10.0
1070
    41
1040
2.5
1070
    42
1040
0.625
1070
    43
1040
3.75
1070
    44
1040
1.25
1070
    73
1070
     0
1070
    74
1070
     0
1070
    77
1070
     1
1070
    78
1070
     8
1070
   140
1040
2.5
1070
   141
1040
2.5
1070
   143
1040
0.0394
1070
   145
1040
1.0
1070
   147
1040
0.625
1070
   171
1070
     4
1070
   172
1070
     1
1070
   173
1070
     1
1070
   176
1070
   256
1070
   177
1070
   256
1070
   178
1070
   256
1070
   271
1070
     0
1070
   272
1070
     0
1070
   273
1070
     8
1070
   274
1070
     4
1070
   343
1005
2FA
1070
   344
1005
2FA
1002
}
  0
MTEXT
  5
384
102
{ACAD_REACTORS
330
383
102
}
330
18
100
AcDbEntity
  8
SUNPOU
  6
ByBlock
100
AcDbMText
 10
1938.464888003336
 20
302.9928788541396
 30
0.0
 40
35.0
 41
0.0
 71
     4
 72
     1
  1
{\Ftxt.shx,bigfont.shx;ﾌｨﾙﾀｰ砂}
 73
     1
 44
1.0
  0
LINE
  5
385
330
18
100
AcDbEntity
  8
0
  6
ByBlock
100
AcDbLine
 10
1166.780426473858
 20
964.4384957996072
 30
0.0
 11
1206.780426473858
 21
924.4384957996063
 31
0.0
  0
LINE
  5
386
330
18
100
AcDbEntity
  8
0
  6
ByBlock
100
AcDbLine
 10
1186.780426473858
 20
984.4384957996062
 30
0.0
 11
1106.780426473859
 21
904.438495799607
 31
0.0
  0
LINE
  5
387
330
18
100
AcDbEntity
  8
0
  6
ByBlock
100
AcDbLine
 10
1146.780426473857
 20
944.4384957996053
 30
0.0
 11
1186.780426473856
 21
904.438495799607
 31
0.0
  0
DIMENSION
  5
388
330
18
100
AcDbEntity
  8
SUNPOU
100
AcDbDimension
  2
*D9
 10
935.088515227709
 20
684.4384957996061
 30
0.0
 11
910.0885152277088
 21
734.4384957996064
 31
0.0
 70
    32
 71
     5
 42
100.0000000000002
  3
STYLE10
100
AcDbAlignedDimension
 13
1033.802037710845
 23
784.4384957996063
 33
0.0
 14
1033.825763317041
 24
684.4384957996061
 34
0.0
 50
90.0
100
AcDbRotatedDimension
1001
ACAD
1000
DSTYLE
1002
{
1070
    41
1040
2.5
1070
    75
1070
     1
1070
    78
1070
     0
1070
   140
1040
3.0
1070
   141
1040
1.0
1070
   176
1070
   256
1070
   177
1070
   256
1070
   178
1070
   256
1070
   271
1070
     0
1070
   272
1070
     0
1070
   279
1070
     1
1070
   284
1070
     1
1070
   288
1070
     1
1002
}
  0
DIMENSION
  5
389
330
18
100
AcDbEntity
  8
SUNPOU
100
AcDbDimension
  2
*D10
 10
935.088515227709
 20
284.4384957996061
 30
0.0
 11
910.0885152277088
 21
484.4384957996062
 31
0.0
 70
    32
 71
     5
 42
400.0
  3
STYLE10
100
AcDbAlignedDimension
 13
1033.825763317041
 23
684.4384957996061
 33
0.0
 14
1033.825763317041
 24
284.4384957996061
 34
0.0
 50
90.0
100
AcDbRotatedDimension
1001
ACAD
1000
DSTYLE
1002
{
1070
    41
1040
2.5
1070
    75
1070
     1
1070
    78
1070
     0
1070
   140
1040
3.0
1070
   141
1040
1.0
1070
   176
1070
   256
1070
   177
1070
   256
1070
   178
1070
   256
1070
   271
1070
     0
1070
   272
1070
     0
1070
   279
1070
     1
1070
   284
1070
     1
1070
   288
1070
     1
1002
}
  0
MTEXT
  5
38A
102
{ACAD_REACTORS
330
38D
102
}
330
18
100
AcDbEntity
  8
SUNPOU
  6
ByBlock
100
AcDbMText
 10
1007.725309174671
 20
99.60940779039436
 30
0.0
 40
35.0
 41
0.0
 71
     6
 72
     1
  1
{\Ftxt.shx,bigfont.shx;透水ｺﾝｸﾘｰﾄ管}
 73
     1
 44
1.0
  0
DIMENSION
  5
38B
330
18
100
AcDbEntity
  8
SUNPOU
100
AcDbDimension
  2
*D11
 10
871.5912156433162
 20
134.4384957996062
 30
0.0
 11
846.5912156433162
 21
459.4384957996063
 31
0.0
 70
    32
 71
     5
 42
650.0
  3
STYLE10
100
AcDbAlignedDimension
 13
1033.825763317041
 23
784.4384957996061
 33
0.0
 14
1273.825763317041
 24
134.4384957996061
 34
0.0
 50
90.0
100
AcDbRotatedDimension
1001
ACAD
1000
DSTYLE
1002
{
1070
    41
1040
2.5
1070
    78
1070
     0
1070
   140
1040
3.0
1070
   141
1040
1.0
1070
   176
1070
   256
1070
   177
1070
   256
1070
   178
1070
   256
1070
   271
1070
     0
1070
   272
1070
     0
1070
   279
1070
     1
1070
   284
1070
     1
1070
   288
1070
     1
1002
}
  0
DIMENSION
  5
38C
330
18
100
AcDbEntity
  8
SUNPOU
100
AcDbDimension
  2
*D12
 10
935.088515227709
 20
134.4384957996062
 30
0.0
 11
910.088515227709
 21
209.4384957996064
 31
0.0
 70
    32
 71
     5
 42
149.9999999999999
  3
STYLE10
100
AcDbAlignedDimension
 13
1033.825763317041
 23
284.4384957996061
 33
0.0
 14
1273.825763317041
 24
134.4384957996061
 34
0.0
 50
90.0
100
AcDbRotatedDimension
1001
ACAD
1000
DSTYLE
1002
{
1070
    41
1040
2.5
1070
    75
1070
     1
1070
    78
1070
     0
1070
   140
1040
3.0
1070
   141
1040
1.0
1070
   176
1070
   256
1070
   177
1070
   256
1070
   178
1070
   256
1070
   271
1070
     0
1070
   272
1070
     0
1070
   279
1070
     1
1070
   284
1070
     1
1070
   288
1070
     1
1002
}
  0
LEADER
  5
38D
330
18
100
AcDbEntity
  8
SUNPOU
  6
ByBlock
100
AcDbLeader
  3
STANDARD
 73
     0
 75
     1
 40
35.00000000000001
 41
242.6666666666667
 76
     3
 10
1364.603815194702
 20
399.0619671930102
 30
0.0
 10
1038.975309174671
 20
75.85940779039436
 30
0.0
 10
1013.975309174671
 20
75.85940779039436
 30
0.0
340
38A
1001
ACAD
1000
DSTYLE
1002
{
1070
   341
1005
2FA
1070
    40
1040
10.0
1070
    41
1040
2.5
1070
    42
1040
0.625
1070
    43
1040
3.75
1070
    44
1040
1.25
1070
    73
1070
     0
1070
    74
1070
     0
1070
    77
1070
     1
1070
    78
1070
     8
1070
   140
1040
2.5
1070
   141
1040
2.5
1070
   143
1040
0.0394
1070
   145
1040
1.0
1070
   147
1040
0.625
1070
   171
1070
     4
1070
   172
1070
     1
1070
   173
1070
     1
1070
   176
1070
   256
1070
   177
1070
   256
1070
   178
1070
   256
1070
   271
1070
     0
1070
   272
1070
     0
1070
   273
1070
     8
1070
   274
1070
     4
1070
   343
1005
2FA
1070
   344
1005
2FA
1002
}
  0
LINE
  5
38E
330
18
100
AcDbEntity
  8
0
  6
ByBlock
100
AcDbLine
 10
1106.780426473858
 20
984.4384957996062
 30
0.0
 11
1026.780426473859
 21
904.438495799607
 31
0.0
  0
LINE
  5
38F
330
18
100
AcDbEntity
  8
0
  6
ByBlock
100
AcDbLine
 10
1146.780426473858
 20
984.4384957996062
 30
0.0
 11
1066.780426473859
 21
904.438495799607
 31
0.0
  0
DIMENSION
  5
393
330
18
100
AcDbEntity
  8
SUNPOU
100
AcDbDimension
  2
*D13
 10
1773.710374244359
 20
-15.26639919134152
 30
0.0
 11
1523.7680687807
 21
9.733600808658479
 31
0.0
 70
    32
 71
     5
 42
499.8846109273181
  3
STYLE10
100
AcDbAlignedDimension
 13
1273.825763317041
 23
134.4384957996061
 33
0.0
 14
1773.710374244359
 24
134.5405179850162
 34
0.0
100
AcDbRotatedDimension
1001
ACAD
1000
DSTYLE
1002
{
1070
    41
1040
2.5
1070
    78
1070
     0
1070
   140
1040
3.0
1070
   141
1040
1.0
1070
   176
1070
   256
1070
   177
1070
   256
1070
   178
1070
   256
1070
   271
1070
     0
1070
   272
1070
     0
1070
   279
1070
     1
1070
   284
1070
     1
1070
   288
1070
     1
1002
}
  0
LINE
  5
395
330
18
100
AcDbEntity
  8
0
  6
ByBlock
100
AcDbLine
 10
1326.780426473858
 20
964.4384957996052
 30
0.0
 11
1386.780426473859
 21
904.4384957996081
 31
0.0
  0
LINE
  5
396
330
18
100
AcDbEntity
  8
0
  6
ByBlock
100
AcDbLine
 10
1306.780426473857
 20
944.4384957996062
 30
0.0
 11
1346.780426473858
 21
904.438495799607
 31
0.0
  0
LINE
  5
397
330
18
100
AcDbEntity
  8
0
  6
ByBlock
100
AcDbLine
 10
1346.780426473858
 20
984.4384957996062
 30
0.0
 11
1266.780426473858
 21
904.438495799607
 31
0.0
  0
LINE
  5
398
330
18
100
AcDbEntity
  8
0
  6
ByBlock
100
AcDbLine
 10
1266.780426473858
 20
984.4384957996062
 30
0.0
 11
1186.780426473858
 21
904.438495799607
 31
0.0
  0
LINE
  5
399
330
18
100
AcDbEntity
  8
0
  6
ByBlock
100
AcDbLine
 10
1306.780426473858
 20
984.4384957996062
 30
0.0
 11
1226.780426473859
 21
904.438495799607
 31
0.0
  0
LINE
  5
39A
330
18
100
AcDbEntity
  8
0
  6
ByBlock
100
AcDbLine
 10
1186.780426473858
 20
984.4384957996062
 30
0.0
 11
1226.780426473858
 21
944.4384957996062
 31
0.0
  0
LINE
  5
39B
330
18
100
AcDbEntity
  8
0
  6
ByBlock
100
AcDbLine
 10
1346.780426473858
 20
984.4384957996062
 30
0.0
 11
1426.780426473857
 21
904.438495799607
 31
0.0
  0
TEXT
  5
3AB
330
18
100
AcDbEntity
  8
0
 62
     7
100
AcDbText
 10
1168.820423756639
 20
1333.832741239651
 30
0.0
 40
55.0
  1
透水管 K-300 構造図
  7
STYLE1
 72
     4
 11
1518.987090423306
 21
1361.332741239651
 31
0.0
100
AcDbText
  0
CIRCLE
  5
A3C
330
18
100
AcDbEntity
  8
0
100
AcDbCircle
 10
1523.825763317041
 20
484.4384957996061
 30
0.0
 40
150.0
  0
CIRCLE
  5
A3E
330
18
100
AcDbEntity
  8
0
100
AcDbCircle
 10
1523.825763317041
 20
484.4384957996061
 30
0.0
 40
200.0
  0
DIMENSION
  5
A3F
330
18
100
AcDbEntity
  8
SUNPOU
100
AcDbDimension
  2
*D14
 10
1380.545439622588
 20
440.0453787428724
 30
0.0
 11
1546.802192203799
 21
491.5573748669832
 31
0.0
 70
   163
 71
     5
 42
299.9999999999998
  3
DIA1
100
AcDbDiametricDimension
 15
1667.106087011494
 25
528.8316128563385
 35
0.0
 40
0.0
  0
HATCH
  5
A74
330
18
100
AcDbEntity
  8
SAISEKI
100
AcDbHatch
 10
0.0
 20
0.0
 30
0.0
210
0.0
220
0.0
230
1.0
  2
HONEY
 70
     0
 71
     0
 91
        4
 92
        7
 72
     1
 73
     1
 93
        4
 10
1502.959648949745
 20
632.9800902141368
 42
0.0
 10
1494.634869106215
 20
682.2967574294211
 42
0.3420104843211705
 10
1324.951708197045
 20
505.6307160733039
 42
0.0
 10
1374.713803470981
 20
500.7364536737331
 42
-0.3431865475818422
 97
        0
 92
        7
 72
     1
 73
     1
 93
        4
 10
1723.825763317041
 20
484.4384957996061
 42
0.0
 10
1673.825763317041
 20
484.4384957996061
 42
-0.4142135623730959
 10
1523.825763317041
 20
334.4384957996061
 42
0.0
 10
1523.825763317041
 20
284.4384957996061
 42
0.4142135623730958
 97
        0
 92
        7
 72
     1
 73
     1
 93
        4
 10
1523.825763317041
 20
334.4384957996061
 42
-0.0335977317970586
 10
1503.735261684022
 20
335.7900119723781
 42
0.0
 10
1495.79937291787
 20
286.4119282860696
 42
0.035163151822763
 10
1523.825763317041
 20
284.4384957996061
 42
0.0
 97
        0
 92
        7
 72
     1
 73
     1
 93
        4
 10
1722.326876923611
 20
508.8783791248489
 42
0.0
 10
1672.678364783643
 20
502.956137026958
 42
-0.0309515481330251
 10
1673.825763317041
 20
484.4384957996061
 42
0.0
 10
1723.825763317041
 20
484.4384957996061
 42
0.0306359808209893
 97
        0
 75
     0
 76
     1
 52
20.0
 41
100.0
 77
     0
 78
     3
 53
20.0
 43
-1178.276656488
 44
-279.5463128612615
 45
13.91675999683991
 46
16.58534865977084
 79
     2
 49
12.5
 49
-25.0
 53
140.0
 43
-1178.276656488
 44
-279.5463128612615
 45
-21.3217132684037
 46
3.75959336574899
 79
     2
 49
12.5
 49
-25.0
 53
80.0
 43
-1178.276656488
 44
-279.5463128612615
 45
-7.404953271563786
 46
20.34494202551984
 79
     2
 49
-25.0
 49
12.5
 47
4.096394196754917
 98
        4
 10
1467.928885425691
 20
631.0322389577489
 10
1586.883838490343
 20
331.995461485897
 10
1513.049727869158
 20
303.3207031034439
 10
1705.838797427289
 20
495.8512307989784
  0
LINE
  5
A77
330
18
100
AcDbEntity
  8
0
100
AcDbLine
 10
1013.825763317041
 20
784.4384957996062
 30
0.0
 11
2033.825763317041
 21
784.4384957996061
 31
0.0
  0
LINE
  5
A7D
330
18
100
AcDbEntity
  8
0
100
AcDbLine
 10
1013.825763317041
 20
784.4384957996062
 30
0.0
 11
1273.825763317041
 21
134.4384957996061
 31
0.0
  0
LINE
  5
A7E
330
18
100
AcDbEntity
  8
0
100
AcDbLine
 10
1273.825763317041
 20
134.4384957996061
 30
0.0
 11
1773.825763317041
 21
134.4384957996061
 31
0.0
  0
LINE
  5
A7F
330
18
100
AcDbEntity
  8
0
100
AcDbLine
 10
1773.825763317041
 20
134.4384957996061
 30
0.0
 11
2033.825763317041
 21
784.4384957996061
 31
0.0
  0
LINE
  5
B5C
330
18
100
AcDbEntity
  8
0
100
AcDbLine
 10
3793.883457853382
 20
134.4384957996062
 30
0.0
 11
4293.883457853381
 21
134.4384957996062
 31
0.0
  0
LINE
  5
B5D
330
18
100
AcDbEntity
  8
0
100
AcDbLine
 10
3793.883457853381
 20
784.4384957996061
 30
0.0
 11
4293.883457853381
 21
784.4384957996061
 31
0.0
  0
HATCH
  5
B5E
330
18
100
AcDbEntity
  8
SAISEKI
100
AcDbHatch
 10
0.0
 20
0.0
 30
0.0
210
0.0
220
0.0
230
1.0
  2
HONEY
 70
     0
 71
     0
 91
        4
 92
        7
 72
     1
 73
     1
 93
        4
 10
4023.017343486086
 20
632.9800902141368
 42
0.0
 10
4014.692563642555
 20
682.2967574294211
 42
0.3420104843211705
 10
3845.009402733386
 20
505.6307160733039
 42
0.0
 10
3894.771498007322
 20
500.7364536737331
 42
-0.3431865475818422
 97
        0
 92
        7
 72
     1
 73
     1
 93
        4
 10
4243.883457853382
 20
484.4384957996061
 42
0.0
 10
4193.883457853382
 20
484.4384957996061
 42
-0.4142135623730959
 10
4043.883457853381
 20
334.4384957996061
 42
0.0
 10
4043.883457853381
 20
284.4384957996061
 42
0.4142135623730958
 97
        0
 92
        7
 72
     1
 73
     1
 93
        4
 10
4043.883457853381
 20
334.4384957996061
 42
-0.0335977317970586
 10
4023.792956220364
 20
335.7900119723781
 42
0.0
 10
4015.85706745421
 20
286.4119282860696
 42
0.035163151822763
 10
4043.883457853381
 20
284.4384957996061
 42
0.0
 97
        0
 92
        7
 72
     1
 73
     1
 93
        4
 10
4242.384571459953
 20
508.8783791248489
 42
0.0
 10
4192.736059319985
 20
502.956137026958
 42
-0.0309515481330251
 10
4193.883457853382
 20
484.4384957996061
 42
0.0
 10
4243.883457853382
 20
484.4384957996061
 42
0.0306359808209893
 97
        0
 75
     0
 76
     1
 52
20.0
 41
100.0
 77
     0
 78
     3
 53
20.0
 43
1341.78103804834
 44
-279.5463128612615
 45
13.91675999683991
 46
16.58534865977084
 79
     2
 49
12.5
 49
-25.0
 53
140.0
 43
1341.78103804834
 44
-279.5463128612615
 45
-21.3217132684037
 46
3.75959336574899
 79
     2
 49
12.5
 49
-25.0
 53
80.0
 43
1341.78103804834
 44
-279.5463128612615
 45
-7.404953271563786
 46
20.34494202551984
 79
     2
 49
-24.99999999999998
 49
12.49999999999999
 47
4.096394196754917
 98
        4
 10
3987.986579962033
 20
631.0322389577489
 10
4106.941533026684
 20
331.995461485897
 10
4033.107422405499
 20
303.3207031034439
 10
4225.89649196363
 20
495.8512307989784
  0
CIRCLE
  5
B5F
330
18
100
AcDbEntity
  8
0
100
AcDbCircle
 10
4043.883457853381
 20
484.4384957996061
 30
0.0
 40
200.0
  0
TEXT
  5
B60
330
18
100
AcDbEntity
  8
0
 62
     7
100
AcDbText
 10
3688.878118292981
 20
1329.303183341072
 30
0.0
 40
55.0
  1
透水管 K-300 構造図
  7
STYLE1
 72
     4
 11
4039.044784959647
 21
1356.803183341072
 31
0.0
100
AcDbText
  0
DIMENSION
  5
B61
330
18
100
AcDbEntity
  8
SUNPOU
100
AcDbDimension
  2
*D19
 10
4293.768068780699
 20
-15.26639919134152
 30
0.0
 11
4043.82576331704
 21
9.733600808658479
 31
0.0
 70
    32
 71
     5
 42
499.8846109273181
  3
STYLE10
100
AcDbAlignedDimension
 13
3793.883457853381
 23
134.4384957996061
 33
0.0
 14
4293.768068780699
 24
134.5405179850162
 34
0.0
100
AcDbRotatedDimension
1001
ACAD
1000
DSTYLE
1002
{
1070
    41
1040
2.5
1070
    78
1070
     0
1070
   140
1040
3.0
1070
   141
1040
1.0
1070
   176
1070
   256
1070
   177
1070
   256
1070
   178
1070
   256
1070
   271
1070
     0
1070
   272
1070
     0
1070
   279
1070
     1
1070
   284
1070
     1
1070
   288
1070
     1
1002
}
  0
LINE
  5
B62
330
18
100
AcDbEntity
  8
0
100
AcDbLine
 10
4573.883457853382
 20
984.4384957996062
 30
0.0
 11
3436.544611706383
 21
984.4384957996062
 31
0.0
  0
LEADER
  5
B65
330
18
100
AcDbEntity
  8
SUNPOU
  6
ByBlock
100
AcDbLeader
  3
STANDARD
 73
     0
 75
     1
 40
35.00000000000001
 41
242.6666666666667
 76
     3
 10
3884.661509731044
 20
399.0619671930102
 30
0.0
 10
3718.600357835875
 20
52.10940779039435
 30
0.0
 10
3693.600357835875
 20
52.10940779039435
 30
0.0
340
B69
1001
ACAD
1000
DSTYLE
1002
{
1070
   341
1005
2FA
1070
    40
1040
10.0
1070
    41
1040
2.5
1070
    42
1040
0.625
1070
    43
1040
3.75
1070
    44
1040
1.25
1070
    73
1070
     0
1070
    74
1070
     0
1070
    77
1070
     1
1070
    78
1070
     8
1070
   140
1040
2.5
1070
   141
1040
2.5
1070
   143
1040
0.0394
1070
   145
1040
1.0
1070
   147
1040
0.625
1070
   171
1070
     4
1070
   172
1070
     1
1070
   173
1070
     1
1070
   176
1070
   256
1070
   177
1070
   256
1070
   178
1070
   256
1070
   271
1070
     0
1070
   272
1070
     0
1070
   273
1070
     8
1070
   274
1070
     4
1070
   343
1005
2FA
1070
   344
1005
2FA
1002
}
  0
DIMENSION
  5
B67
330
18
100
AcDbEntity
  8
SUNPOU
100
AcDbDimension
  2
*D18
 10
3681.055536077685
 20
134.4384957996062
 30
0.0
 11
3656.055536077685
 21
209.4384957996068
 31
0.0
 70
    32
 71
     5
 42
149.9999999999999
  3
STYLE10
100
AcDbAlignedDimension
 13
3779.792784167017
 23
284.4384957996061
 33
0.0
 14
3793.883457853382
 24
134.4384957996062
 34
0.0
 50
90.0
100
AcDbRotatedDimension
1001
ACAD
1000
DSTYLE
1002
{
1070
    41
1040
2.5
1070
    75
1070
     1
1070
    78
1070
     0
1070
   140
1040
3.0
1070
   141
1040
1.0
1070
   176
1070
   256
1070
   177
1070
   256
1070
   178
1070
   256
1070
   271
1070
     0
1070
   272
1070
     0
1070
   279
1070
     1
1070
   284
1070
     1
1070
   288
1070
     1
1002
}
  0
DIMENSION
  5
B68
330
18
100
AcDbEntity
  8
SUNPOU
100
AcDbDimension
  2
*D17
 10
3617.558236493291
 20
134.4384957996063
 30
0.0
 11
3592.558236493291
 21
459.4384957996068
 31
0.0
 70
    32
 71
     5
 42
649.9999999999998
  3
STYLE10
100
AcDbAlignedDimension
 13
3779.792784167017
 23
784.4384957996061
 33
0.0
 14
3793.883457853382
 24
134.4384957996062
 34
0.0
 50
90.0
100
AcDbRotatedDimension
1001
ACAD
1000
DSTYLE
1002
{
1070
    41
1040
2.5
1070
    78
1070
     0
1070
   140
1040
3.0
1070
   141
1040
1.0
1070
   176
1070
   256
1070
   177
1070
   256
1070
   178
1070
   256
1070
   271
1070
     0
1070
   272
1070
     0
1070
   279
1070
     1
1070
   284
1070
     1
1070
   288
1070
     1
1002
}
  0
MTEXT
  5
B69
102
{ACAD_REACTORS
330
B65
102
}
330
18
100
AcDbEntity
  8
SUNPOU
  6
ByBlock
100
AcDbMText
 10
3687.350357835875
 20
75.85940779039436
 30
0.0
 40
35.0
 41
0.0
 71
     6
 72
     1
  1
{\Ftxt.shx,bigfont.shx;透水ｺﾝｸﾘｰﾄ管}
 73
     1
 44
1.0
  0
DIMENSION
  5
B6A
330
18
100
AcDbEntity
  8
SUNPOU
100
AcDbDimension
  2
*D16
 10
3681.055536077685
 20
284.4384957996062
 30
0.0
 11
3656.055536077685
 21
484.4384957996067
 31
0.0
 70
    32
 71
     5
 42
400.0
  3
STYLE10
100
AcDbAlignedDimension
 13
3779.792784167017
 23
684.4384957996061
 33
0.0
 14
3779.792784167017
 24
284.4384957996061
 34
0.0
 50
90.0
100
AcDbRotatedDimension
1001
ACAD
1000
DSTYLE
1002
{
1070
    41
1040
2.5
1070
    75
1070
     1
1070
    78
1070
     0
1070
   140
1040
3.0
1070
   141
1040
1.0
1070
   176
1070
   256
1070
   177
1070
   256
1070
   178
1070
   256
1070
   271
1070
     0
1070
   272
1070
     0
1070
   279
1070
     1
1070
   284
1070
     1
1070
   288
1070
     1
1002
}
  0
DIMENSION
  5
B6B
330
18
100
AcDbEntity
  8
SUNPOU
100
AcDbDimension
  2
*D15
 10
3681.055536077685
 20
684.4384957996061
 30
0.0
 11
3656.055536077685
 21
734.4384957996068
 31
0.0
 70
    32
 71
     5
 42
100.0000000000002
  3
STYLE10
100
AcDbAlignedDimension
 13
3779.769058560821
 23
784.4384957996063
 33
0.0
 14
3779.792784167017
 24
684.4384957996061
 34
0.0
 50
90.0
100
AcDbRotatedDimension
1001
ACAD
1000
DSTYLE
1002
{
1070
    41
1040
2.5
1070
    75
1070
     1
1070
    78
1070
     0
1070
   140
1040
3.0
1070
   141
1040
1.0
1070
   176
1070
   256
1070
   177
1070
   256
1070
   178
1070
   256
1070
   271
1070
     0
1070
   272
1070
     0
1070
   279
1070
     1
1070
   284
1070
     1
1070
   288
1070
     1
1002
}
  0
DIMENSION
  5
B6C
330
18
100
AcDbEntity
  8
SUNPOU
100
AcDbDimension
  2
*D20
 10
3900.60313415893
 20
440.0453787428724
 30
0.0
 11
4066.859886740139
 21
491.5573748669832
 31
0.0
 70
   163
 71
     5
 42
300.0000000000004
  3
DIA1
100
AcDbDiametricDimension
 15
4187.163781547835
 25
528.8316128563386
 35
0.0
 40
0.0
  0
CIRCLE
  5
B6D
330
18
100
AcDbEntity
  8
0
100
AcDbCircle
 10
4043.883457853381
 20
484.4384957996061
 30
0.0
 40
150.0
  0
LINE
  5
B6E
330
18
100
AcDbEntity
  8
0
  6
ByBlock
100
AcDbLine
 10
3713.883457853382
 20
984.4384957996062
 30
0.0
 11
3633.883457853383
 21
904.438495799607
 31
0.0
  0
LINE
  5
B6F
330
18
100
AcDbEntity
  8
0
  6
ByBlock
100
AcDbLine
 10
3753.883457853382
 20
984.4384957996062
 30
0.0
 11
3673.883457853382
 21
904.438495799607
 31
0.0
  0
LINE
  5
B70
330
18
100
AcDbEntity
  8
0
  6
ByBlock
100
AcDbLine
 10
3553.883457853381
 20
944.4384957996053
 30
0.0
 11
3593.88345785338
 21
904.438495799607
 31
0.0
  0
LINE
  5
B71
330
18
100
AcDbEntity
  8
0
  6
ByBlock
100
AcDbLine
 10
3593.883457853382
 20
984.4384957996062
 30
0.0
 11
3513.883457853383
 21
904.438495799607
 31
0.0
  0
LINE
  5
B72
330
18
100
AcDbEntity
  8
0
  6
ByBlock
100
AcDbLine
 10
3553.883457853382
 20
984.4384957996062
 30
0.0
 11
3473.883457853383
 21
904.438495799607
 31
0.0
  0
LINE
  5
B73
330
18
100
AcDbEntity
  8
0
  6
ByBlock
100
AcDbLine
 10
3513.883457853382
 20
984.4384957996062
 30
0.0
 11
3433.883457853383
 21
904.438495799607
 31
0.0
  0
LINE
  5
B74
330
18
100
AcDbEntity
  8
0
  6
ByBlock
100
AcDbLine
 10
3673.883457853382
 20
984.4384957996062
 30
0.0
 11
3593.883457853382
 21
904.438495799607
 31
0.0
  0
LINE
  5
B75
330
18
100
AcDbEntity
  8
0
  6
ByBlock
100
AcDbLine
 10
3573.883457853382
 20
964.4384957996072
 30
0.0
 11
3613.883457853382
 21
924.4384957996063
 31
0.0
  0
LINE
  5
B76
330
18
100
AcDbEntity
  8
0
  6
ByBlock
100
AcDbLine
 10
3593.883457853382
 20
984.4384957996062
 30
0.0
 11
3633.883457853382
 21
944.4384957996062
 31
0.0
  0
LINE
  5
B77
330
18
100
AcDbEntity
  8
0
  6
ByBlock
100
AcDbLine
 10
3753.883457853382
 20
984.4384957996062
 30
0.0
 11
3793.883457853381
 21
944.4384957996062
 31
0.0
  0
LINE
  5
B78
330
18
100
AcDbEntity
  8
0
  6
ByBlock
100
AcDbLine
 10
3713.883457853381
 20
944.4384957996062
 30
0.0
 11
3753.883457853382
 21
904.438495799607
 31
0.0
  0
LINE
  5
B79
330
18
100
AcDbEntity
  8
0
  6
ByBlock
100
AcDbLine
 10
3733.883457853381
 20
964.4384957996052
 30
0.0
 11
3793.883457853382
 21
904.4384957996081
 31
0.0
  0
LEADER
  5
B7B
330
18
100
AcDbEntity
  8
SUNPOU
  6
ByBlock
100
AcDbLeader
  3
STANDARD
 73
     0
 74
     0
 75
     1
 40
35.0
 41
130.6666666666666
 76
     3
 10
4257.993323857034
 20
585.1698041985749
 30
0.0
 10
4348.19409024384
 20
405.9681694965174
 30
0.0
 10
4373.19409024384
 20
405.9681694965174
 30
0.0
340
B7C
1001
ACAD
1000
DSTYLE
1002
{
1070
   341
1005
2FA
1070
    40
1040
10.0
1070
    41
1040
2.5
1070
    42
1040
0.625
1070
    43
1040
3.75
1070
    44
1040
1.25
1070
    73
1070
     0
1070
    74
1070
     0
1070
    77
1070
     1
1070
    78
1070
     8
1070
   140
1040
2.5
1070
   141
1040
2.5
1070
   143
1040
0.0394
1070
   145
1040
1.0
1070
   147
1040
0.625
1070
   171
1070
     4
1070
   172
1070
     1
1070
   173
1070
     1
1070
   176
1070
   256
1070
   177
1070
   256
1070
   178
1070
   256
1070
   271
1070
     0
1070
   272
1070
     0
1070
   273
1070
     8
1070
   274
1070
     4
1070
   343
1005
2FA
1070
   344
1005
2FA
1002
}
  0
MTEXT
  5
B7C
102
{ACAD_REACTORS
330
B7B
102
}
330
18
100
AcDbEntity
  8
SUNPOU
  6
ByBlock
100
AcDbMText
 10
4379.44409024384
 20
429.7181694965174
 30
0.0
 40
35.0
 41
0.0
 71
     4
 72
     1
  1
{\Ftxt.shx,bigfont.shx;ﾌｨﾙﾀｰ砂}
 73
     1
 44
1.0
  0
TEXT
  5
B7D
330
18
100
AcDbEntity
  8
0
100
AcDbText
 10
4480.347741507759
 20
1326.884976060049
 30
0.0
 40
50.0
  1
S=1/10
  7
BIGFONT
 11
4480.347741507759
 21
1351.884976060049
 31
0.0
100
AcDbText
 73
     2
  0
LINE
  5
C04
330
18
100
AcDbEntity
  8
0
100
AcDbLine
 10
3793.883457853382
 20
134.4384957996062
 30
0.0
 11
3793.883457853381
 21
984.4384957996062
 31
0.0
  0
LINE
  5
C05
330
18
100
AcDbEntity
  8
0
100
AcDbLine
 10
4293.883457853381
 20
134.4384957996062
 30
0.0
 11
4293.883457853381
 21
984.4384957996062
 31
0.0
  0
LEADER
  5
C06
330
18
100
AcDbEntity
  8
SUNPOU
  6
ByBlock
100
AcDbLeader
  3
STANDARD
 73
     0
 74
     0
 75
     1
 40
35.0
 41
179.6666666666667
 76
     3
 10
4257.993323857034
 20
907.5562465473216
 30
0.0
 10
4348.19409024384
 20
728.354611845264
 30
0.0
 10
4373.19409024384
 20
728.354611845264
 30
0.0
340
C07
1001
ACAD
1000
DSTYLE
1002
{
1070
   341
1005
2FA
1070
    40
1040
10.0
1070
    41
1040
2.5
1070
    42
1040
0.625
1070
    43
1040
3.75
1070
    44
1040
1.25
1070
    73
1070
     0
1070
    74
1070
     0
1070
    77
1070
     1
1070
    78
1070
     8
1070
   140
1040
2.5
1070
   141
1040
2.5
1070
   143
1040
0.0394
1070
   145
1040
1.0
1070
   147
1040
0.625
1070
   171
1070
     4
1070
   172
1070
     1
1070
   173
1070
     1
1070
   176
1070
   256
1070
   177
1070
   256
1070
   178
1070
   256
1070
   271
1070
     0
1070
   272
1070
     0
1070
   273
1070
     8
1070
   274
1070
     4
1070
   343
1005
2FA
1070
   344
1005
2FA
1002
}
  0
MTEXT
  5
C07
102
{ACAD_REACTORS
330
C06
102
}
330
18
100
AcDbEntity
  8
SUNPOU
  6
ByBlock
100
AcDbMText
 10
4379.44409024384
 20
752.1046118452641
 30
0.0
 40
35.0
 41
0.0
 71
     4
 72
     1
  1
{\Ftxt.shx,bigfont.shx;埋戻しｰ砂}
 73
     1
 44
1.0
  0
HATCH
  5
C7F
330
18
100
AcDbEntity
  8
SAISEKI
100
AcDbHatch
 10
0.0
 20
0.0
 30
0.0
210
0.0
220
0.0
230
1.0
  2
ANSI31
 70
     0
 71
     0
 91
        2
 92
        7
 72
     0
 73
     1
 93
        7
 10
4157.568861636494
 20
901.2083435419709
 10
4247.187150530245
 20
784.4384957996061
 10
4293.883457853381
 20
784.4384957996061
 10
4293.883457853381
 20
984.4384957996064
 10
3793.883457853381
 20
984.4384957996062
 10
3793.883457853381
 20
784.4384957996061
 10
4132.69792022402
 20
784.438495799606
 97
        0
 92
       22
 72
     0
 73
     1
 93
        3
 10
4157.568861636494
 20
901.2083435419706
 10
4132.69792022402
 20
784.438495799606
 10
4247.187150530245
 20
784.4384957996062
 97
        0
 75
     0
 76
     1
 52
0.0
 41
200.0
 77
     0
 78
     1
 53
45.0
 43
1309.829157255239
 44
-195.7184985484555
 45
-17.67766952966368
 46
17.67766952966369
 79
     0
 47
4.029830530885906
 98
        2
 10
3943.76182037292
 20
897.1785129555728
 10
4169.671146686554
 20
836.7310541596108
1001
ACAD
1010
0.0
1020
0.0
1030
0.0
  0
MTEXT
  5
CEC
330
18
100
AcDbEntity
  8
0
100
AcDbMText
 10
1684.820103040345
 20
-161.5382084253613
 30
0.0
 40
30.0
 41
372.3
 71
     1
 72
     5
  1
{\C1;製品長 Ｌ＝1.000ｍ}
  7
BIGFONT
 73
     1
 44
1.0
  0
MTEXT
  5
CED
330
18
100
AcDbEntity
  8
0
100
AcDbMText
 10
4204.877797576685
 20
-161.5382084253611
 30
0.0
 40
30.0
 41
372.3
 71
     1
 72
     5
  1
{\C1;製品長 Ｌ＝1.000ｍ}
  7
BIGFONT
 73
     1
 44
1.0
  0
HATCH
  5
E23
330
18
100
AcDbEntity
  8
0
100
AcDbHatch
 10
0.0
 20
0.0
 30
0.0
210
0.0
220
0.0
230
1.0
  2
AR-SAND
 70
     0
 71
     0
 91
        2
 92
        7
 72
     1
 73
     1
 93
        5
 10
1147.841944440905
 20
449.3980429899449
 42
0.0
 10
1324.665850152367
 20
502.7504860857419
 42
-0.3815534180741722
 10
1519.607457747137
 20
684.394005596458
 42
0.0
 10
1552.566447823386
 20
784.4384957996061
 42
0.0
 10
1013.825763317041
 20
784.4384957996062
 42
0.0
 97
        0
 92
        7
 72
     1
 73
     1
 93
        5
 10
1516.202364957458
 20
284.5838391176786
 42
0.0
 10
1462.437573552106
 20
134.4384957996061
 42
0.0
 10
1773.825763317042
 20
134.4384957996061
 42
0.0
 10
1904.080219907139
 20
460.0746372748502
 42
0.0
 10
1720.281476843517
 20
446.9531303511668
 42
-0.3708133789769729
 97
        0
 75
     0
 76
     1
 52
0.0
 41
20.0
 77
     0
 78
     4
 53
37.5
 43
0.0
 44
-195.7184985484555
 45
-1.259867162192163
 46
38.53647538026317
 79
     6
 49
0.0
 49
-30.4
 49
0.0
 49
-34.0
 49
0.0
 49
-32.5
 53
7.499999999999999
 43
0.0
 44
-195.7184985484555
 45
35.39553410535454
 46
56.4429213045948
 79
     6
 49
0.0
 49
-16.4
 49
0.0
 49
-27.4
 49
0.0
 49
-10.5
 53
327.5
 43
-24.6
 44
-195.7184985484555
 45
62.2828372350299
 46
0.11318107073929
 79
     6
 49
0.0
 49
-10.0
 49
0.0
 49
-36.0
 49
0.0
 49
-47.0
 53
317.5
 43
-24.6
 44
-195.7184985484555
 45
60.12253209144586
 46
17.55351129868498
 79
     6
 49
0.0
 49
-5.0
 49
0.0
 49
-23.6
 49
0.0
 49
-27.0
 47
3.991133665673028
 98
        2
 10
1175.183514359536
 20
659.7647479943784
 10
1662.360643980849
 20
236.7045808720554
1001
ACAD
1010
0.0
1020
0.0
1030
0.0
  0
HATCH
  5
E3C
330
18
100
AcDbEntity
  8
0
100
AcDbHatch
 10
0.0
 20
0.0
 30
0.0
210
0.0
220
0.0
230
1.0
  2
AR-SAND
 70
     0
 71
     0
 91
        2
 92
        7
 72
     1
 73
     1
 93
        5
 10
4150.533632223365
 20
784.4384957996062
 42
0.0
 10
3793.883457853382
 20
784.4384957996062
 42
0.0
 10
3793.883457853382
 20
528.7115559844899
 42
0.0
 10
3851.105506899214
 20
537.6988152307923
 42
-0.400022669214018
 10
4087.697490088038
 20
679.5803175071545
 42
0.0
 97
        0
 92
        7
 72
     1
 73
     1
 93
        5
 10
4293.883457853381
 20
427.7898900160039
 42
0.0
 10
4230.451570920396
 20
412.3806080522296
 42
-0.3006202251117295
 10
4050.7052005273
 20
284.5548700898175
 42
0.0
 10
3999.037717254756
 20
134.4384957996062
 42
0.0
 10
4293.883457853381
 20
134.4384957996062
 42
0.0
 97
        0
 75
     0
 76
     1
 52
0.0
 41
20.0
 77
     0
 78
     4
 53
37.5
 43
1309.829157255239
 44
-195.7184985484555
 45
-1.259867162192163
 46
38.53647538026317
 79
     6
 49
0.0
 49
-30.4
 49
0.0
 49
-34.0
 49
0.0
 49
-32.5
 53
7.499999999999999
 43
1309.829157255239
 44
-195.7184985484555
 45
35.39553410535454
 46
56.4429213045948
 79
     6
 49
0.0
 49
-16.4
 49
0.0
 49
-27.4
 49
0.0
 49
-10.5
 53
327.5
 43
1285.229157255239
 44
-195.7184985484555
 45
62.2828372350299
 46
0.11318107073929
 79
     6
 49
0.0
 49
-10.0
 49
0.0
 49
-36.0
 49
0.0
 49
-47.0
 53
317.5
 43
1285.229157255239
 44
-195.7184985484555
 45
60.12253209144586
 46
17.55351129868498
 79
     6
 49
0.0
 49
-5.0
 49
0.0
 49
-23.6
 49
0.0
 49
-27.0
 47
3.991133665673028
 98
        2
 10
3902.61825752077
 20
715.6406203295787
 10
4106.274274534311
 20
220.7400459191408
1001
ACAD
1010
0.0
1020
0.0
1030
0.0
  0
LWPOLYLINE
  5
E4D
330
18
100
AcDbEntity
  8
KL
  6
ByBlock
 62
     0
 48
2.0
100
AcDbPolyline
 90
        4
 70
     1
 43
0.0
 10
2783.825763317041
 20
2241.493410638314
 10
2783.825763317037
 20
-1322.506589361685
 10
263.8257633170365
 20
-1322.506589361682
 10
263.8257633170403
 20
2241.493410638317
  0
LWPOLYLINE
  5
E86
330
18
100
AcDbEntity
  8
KL
  6
ByBlock
 62
     0
 48
2.0
100
AcDbPolyline
 90
        4
 70
     1
 43
0.0
 10
5303.825763317041
 20
2241.493410638311
 10
5303.825763317036
 20
-1322.506589361688
 10
2783.825763317036
 20
-1322.506589361685
 10
2783.825763317041
 20
2241.493410638314
  0
ENDSEC
  0
SECTION
  2
OBJECTS
  0
DICTIONARY
  5
C
330
0
100
AcDbDictionary
281
     1
  3
ACAD_COLOR
350
D1A
  3
ACAD_GROUP
350
D
  3
ACAD_LAYOUT
350
2D0
  3
ACAD_MATERIAL
350
CF0
  3
ACAD_MLEADERSTYLE
350
D3F
  3
ACAD_MLINESTYLE
350
E
  3
ACAD_PLOTSETTINGS
350
2D1
  3
ACAD_PLOTSTYLENAME
350
2CE
  3
ACAD_SCALELIST
350
D1D
  3
ACAD_TABLESTYLE
350
D1B
  3
ACAD_VISUALSTYLE
350
D09
  3
ACDB_RECOMPOSE_DATA
350
D5E
  3
AcDbVariableDictionary
350
2D8
  0
DICTIONARY
  5
D46
330
F
100
AcDbDictionary
280
     1
281
     1
  3
ADSK_XREC_LAYER_RECONCILED
360
D47
  0
DICTIONARY
  5
D48
330
49
100
AcDbDictionary
280
     1
281
     1
  3
ADSK_XREC_LAYER_RECONCILED
360
D49
  0
DICTIONARY
  5
D4A
330
4D
100
AcDbDictionary
280
     1
281
     1
  3
ADSK_XREC_LAYER_RECONCILED
360
D4B
  0
DICTIONARY
  5
D4C
330
4F
100
AcDbDictionary
280
     1
281
     1
  3
ADSK_XREC_LAYER_RECONCILED
360
D4D
  0
DICTIONARY
  5
E45
330
E44
100
AcDbDictionary
280
     1
281
     1
  0
DICTIONARY
  5
D70
330
18
100
AcDbDictionary
280
     1
281
     1
  3
ACAD_SORTENTS
360
D71
  0
DICTIONARY
  5
F25
330
EEC
100
AcDbDictionary
280
     1
281
     1
  3
ACAD_MTEXT_2008_RT
360
F26
  0
DICTIONARY
  5
F27
330
F1B
100
AcDbDictionary
280
     1
281
     1
  3
ACAD_MTEXT_2008_RT
360
F28
  0
DICTIONARY
  5
D1A
102
{ACAD_REACTORS
330
C
102
}
330
C
100
AcDbDictionary
281
     1
  0
DICTIONARY
  5
D
102
{ACAD_REACTORS
330
C
102
}
330
C
100
AcDbDictionary
281
     1
  0
DICTIONARY
  5
2D0
102
{ACAD_REACTORS
330
C
102
}
330
C
100
AcDbDictionary
281
     1
  3
Model
350
2D2
  3
ﾚｲｱｳﾄ1
350
2D3
  0
DICTIONARY
  5
CF0
102
{ACAD_REACTORS
330
C
102
}
330
C
100
AcDbDictionary
281
     1
  3
ByBlock
350
CF9
  3
ByLayer
350
CF1
  3
Global
350
D01
  0
DICTIONARY
  5
D3F
102
{ACAD_REACTORS
330
C
102
}
330
C
100
AcDbDictionary
281
     1
  3
Standard
350
D40
  0
DICTIONARY
  5
E
102
{ACAD_REACTORS
330
C
102
}
330
C
100
AcDbDictionary
281
     1
  3
STANDARD
350
1B
  0
DICTIONARY
  5
2D1
102
{ACAD_REACTORS
330
C
102
}
330
C
100
AcDbDictionary
281
     1
  0
ACDBDICTIONARYWDFLT
  5
2CE
102
{ACAD_REACTORS
330
C
102
}
330
C
100
AcDbDictionary
281
     1
  3
Normal
350
2CF
100
AcDbDictionaryWithDefault
340
2CF
  0
DICTIONARY
  5
D1D
102
{ACAD_REACTORS
330
C
102
}
330
C
100
AcDbDictionary
281
     1
  3
A0
350
D1E
  3
A1
350
D1F
  3
A2
350
D20
  3
A3
350
D21
  3
A4
350
D22
  3
A5
350
D23
  3
A6
350
D24
  3
A7
350
D25
  3
A8
350
D26
  3
A9
350
D27
  3
B0
350
D28
  3
B1
350
D29
  3
B2
350
D2A
  3
B3
350
D2B
  3
B4
350
D2C
  3
B5
350
D2D
  3
B6
350
D2E
  3
B7
350
D2F
  3
B8
350
D30
  3
B9
350
D31
  3
C0
350
D32
  3
C1
350
D33
  3
C2
350
D34
  3
C3
350
D35
  3
C4
350
D36
  3
C5
350
D37
  3
C6
350
D38
  3
C7
350
D39
  3
C8
350
D3A
  3
C9
350
D3B
  3
D0
350
D3C
  3
D1
350
D3D
  3
D2
350
D3E
  0
DICTIONARY
  5
D1B
102
{ACAD_REACTORS
330
C
102
}
330
C
100
AcDbDictionary
281
     1
  3
Standard
350
D1C
  0
DICTIONARY
  5
D09
102
{ACAD_REACTORS
330
C
102
}
330
C
100
AcDbDictionary
281
     1
  3
2dWireframe
350
D0F
  3
3D Hidden
350
D11
  3
3dWireframe
350
D10
  3
Basic
350
D0E
  3
Brighten
350
D15
  3
ColorChange
350
D19
  3
Conceptual
350
D12
  3
Dim
350
D14
  3
Facepattern
350
D18
  3
Flat
350
D0A
  3
FlatWithEdges
350
D0B
  3
Gouraud
350
D0C
  3
GouraudWithEdges
350
D0D
  3
Linepattern
350
D17
  3
Realistic
350
D13
  3
Thicken
350
D16
  0
XRECORD
  5
D5E
102
{ACAD_REACTORS
330
C
102
}
330
C
100
AcDbXrecord
280
     1
 90
        1
330
D1C
  0
DICTIONARY
  5
2D8
102
{ACAD_REACTORS
330
C
102
}
330
C
100
AcDbDictionary
281
     1
  3
CANNOSCALE
350
D50
  3
CMLEADERSTYLE
350
D4F
  3
CTABLESTYLE
350
D4E
  3
LIGHTINGUNITS
350
D60
  3
MSLTSCALE
350
D5F
  3
SORTENTS
350
2D9
  0
XRECORD
  5
D47
102
{ACAD_REACTORS
330
D46
102
}
330
D46
100
AcDbXrecord
280
     1
290
     1
  0
XRECORD
  5
D49
102
{ACAD_REACTORS
330
D48
102
}
330
D48
100
AcDbXrecord
280
     1
290
     1
  0
XRECORD
  5
D4B
102
{ACAD_REACTORS
330
D4A
102
}
330
D4A
100
AcDbXrecord
280
     1
290
     1
  0
XRECORD
  5
D4D
102
{ACAD_REACTORS
330
D4C
102
}
330
D4C
100
AcDbXrecord
280
     1
290
     1
  0
SORTENTSTABLE
  5
D71
102
{ACAD_REACTORS
330
D70
102
}
330
D70
100
AcDbSortentsTable
330
18
331
383
  5
383
331
CED
  5
E09
331
B6A
  5
B6F
331
B7C
  5
C07
331
395
  5
395
331
B61
  5
B69
331
38E
  5
38E
331
B75
  5
B7B
331
39B
  5
39B
331
387
  5
387
331
B6E
  5
B73
331
380
  5
380
331
A3E
  5
A77
331
C06
  5
E01
331
B65
  5
B6B
331
B79
  5
C05
331
B72
  5
B77
331
A7D
  5
B5C
331
E23
  5
A74
331
B5E
  5
B65
331
38B
  5
38B
331
B6B
  5
B70
331
398
  5
398
331
384
  5
384
331
396
  5
396
331
B7D
  5
C7F
331
B76
  5
B7C
331
3AB
  5
3AB
331
B62
  5
B6A
331
38F
  5
38F
331
B6F
  5
B74
331
388
  5
388
331
A3F
  5
A7D
331
B68
  5
B6D
331
281
  5
281
331
C07
  5
E02
331
393
  5
393
331
38C
  5
38C
331
B73
  5
B78
331
B5F
  5
B67
331
A7E
  5
B5D
331
A77
  5
A7F
331
385
  5
385
331
B6C
  5
B71
331
399
  5
399
331
397
  5
397
331
A3C
  5
A3C
331
C04
  5
CEC
331
B77
  5
B7D
331
B70
  5
B75
331
B5C
  5
B61
331
389
  5
389
331
B69
  5
B6E
331
2B1
  5
2B1
331
A74
  5
A7E
331
CEC
  5
E08
331
C7F
  5
E03
331
B67
  5
B6C
331
E3C
  5
B60
331
B7B
  5
C06
331
B74
  5
B79
331
A7F
  5
B5E
331
B60
  5
B68
331
38D
  5
38D
331
B6D
  5
B72
331
39A
  5
39A
331
386
  5
386
331
37F
  5
37F
331
C05
  5
CED
331
B78
  5
C04
331
38A
  5
38A
331
B71
  5
B76
331
B5D
  5
B62
  0
XRECORD
  5
F26
102
{ACAD_REACTORS
330
F25
102
}
330
F25
100
AcDbXrecord
280
     1
 40
5697.0
  1
\A1;\U+2205300
  0
XRECORD
  5
F28
102
{ACAD_REACTORS
330
F27
102
}
330
F27
100
AcDbXrecord
280
     1
 40
5697.0
  1
\A1;\U+2205300
  0
LAYOUT
  5
2D2
102
{ACAD_REACTORS
330
2D0
102
}
330
2D0
100
AcDbPlotSettings
  1

  2
EPSON LP-8000SX
  4

  6

 40
0.0
 41
0.0
 42
0.0
 43
0.0
 44
0.0
 45
0.0
 46
0.0
 47
0.0
 48
0.0
 49
0.0
140
0.0
141
0.0
142
1.0
143
1.0
 70
  1712
 72
     0
 73
     0
 74
     0
  7

 75
     0
147
1.0
 76
     0
 77
     2
 78
   300
148
0.0
149
0.0
100
AcDbLayout
  1
Model
 70
     1
 71
     0
 10
0.0
 20
0.0
 11
12.0
 21
9.0
 12
0.0
 22
0.0
 32
0.0
 14
0.0
 24
0.0
 34
0.0
 15
0.0
 25
0.0
 35
0.0
146
0.0
 13
0.0
 23
0.0
 33
0.0
 16
1.0
 26
0.0
 36
0.0
 17
0.0
 27
1.0
 37
0.0
 76
     0
330
18
331
CEE
  0
LAYOUT
  5
2D3
102
{ACAD_REACTORS
330
2D0
102
}
330
2D0
100
AcDbPlotSettings
  1

  2
EPSON LP-8000SX
  4

  6

 40
0.0
 41
0.0
 42
0.0
 43
0.0
 44
0.0
 45
0.0
 46
0.0
 47
0.0
 48
0.0
 49
0.0
140
0.0
141
0.0
142
1.0
143
1.0
 70
   688
 72
     0
 73
     0
 74
     5
  7

 75
    16
147
1.0
 76
     0
 77
     2
 78
   300
148
0.0
149
0.0
100
AcDbLayout
  1
ﾚｲｱｳﾄ1
 70
     1
 71
     1
 10
0.0
 20
0.0
 11
12.0
 21
9.0
 12
0.0
 22
0.0
 32
0.0
 14
1.000000000000000E+20
 24
1.000000000000000E+20
 34
1.000000000000000E+20
 15
-1.000000000000000E+20
 25
-1.000000000000000E+20
 35
-1.000000000000000E+20
146
0.0
 13
0.0
 23
0.0
 33
0.0
 16
1.0
 26
0.0
 36
0.0
 17
0.0
 27
1.0
 37
0.0
 76
     0
330
15
  0
MATERIAL
  5
CF9
102
{ACAD_XDICTIONARY
360
CFA
102
}
102
{ACAD_REACTORS
330
CF0
102
}
330
CF0
100
AcDbMaterial
  1
ByBlock
 72
     0
 43
0.0208333333333333
 43
0.0
 43
0.0
 43
0.0
 43
0.0
 43
0.0208333333333333
 43
0.0
 43
0.0
 43
0.0
 43
0.0
 43
1.0
 43
0.0
 43
0.0
 43
0.0
 43
0.0
 43
1.0
 77
     0
 47
0.0208333333333333
 47
0.0
 47
0.0
 47
0.0
 47
0.0
 47
0.0208333333333333
 47
0.0
 47
0.0
 47
0.0
 47
0.0
 47
1.0
 47
0.0
 47
0.0
 47
0.0
 47
0.0
 47
1.0
171
     0
 49
0.0208333333333333
 49
0.0
 49
0.0
 49
0.0
 49
0.0
 49
0.0208333333333333
 49
0.0
 49
0.0
 49
0.0
 49
0.0
 49
1.0
 49
0.0
 49
0.0
 49
0.0
 49
0.0
 49
1.0
175
     0
142
0.0208333333333333
142
0.0
142
0.0
142
0.0
142
0.0
142
0.0208333333333333
142
0.0
142
0.0
142
0.0
142
0.0
142
1.0
142
0.0
142
0.0
142
0.0
142
0.0
142
1.0
179
     0
144
0.0208333333333333
144
0.0
144
0.0
144
0.0
144
0.0
144
0.0208333333333333
144
0.0
144
0.0
144
0.0
144
0.0
144
1.0
144
0.0
144
0.0
144
0.0
144
0.0
144
1.0
147
0.0208333333333333
147
0.0
147
0.0
147
0.0
147
0.0
147
0.0208333333333333
147
0.0
147
0.0
147
0.0
147
0.0
147
1.0
147
0.0
147
0.0
147
0.0
147
0.0
147
1.0
  0
MATERIAL
  5
CF1
102
{ACAD_XDICTIONARY
360
CF2
102
}
102
{ACAD_REACTORS
330
CF0
102
}
330
CF0
100
AcDbMaterial
  1
ByLayer
 72
     0
 43
0.0208333333333333
 43
0.0
 43
0.0
 43
0.0
 43
0.0
 43
0.0208333333333333
 43
0.0
 43
0.0
 43
0.0
 43
0.0
 43
1.0
 43
0.0
 43
0.0
 43
0.0
 43
0.0
 43
1.0
 77
     0
 47
0.0208333333333333
 47
0.0
 47
0.0
 47
0.0
 47
0.0
 47
0.0208333333333333
 47
0.0
 47
0.0
 47
0.0
 47
0.0
 47
1.0
 47
0.0
 47
0.0
 47
0.0
 47
0.0
 47
1.0
171
     0
 49
0.0208333333333333
 49
0.0
 49
0.0
 49
0.0
 49
0.0
 49
0.0208333333333333
 49
0.0
 49
0.0
 49
0.0
 49
0.0
 49
1.0
 49
0.0
 49
0.0
 49
0.0
 49
0.0
 49
1.0
175
     0
142
0.0208333333333333
142
0.0
142
0.0
142
0.0
142
0.0
142
0.0208333333333333
142
0.0
142
0.0
142
0.0
142
0.0
142
1.0
142
0.0
142
0.0
142
0.0
142
0.0
142
1.0
179
     0
144
0.0208333333333333
144
0.0
144
0.0
144
0.0
144
0.0
144
0.0208333333333333
144
0.0
144
0.0
144
0.0
144
0.0
144
1.0
144
0.0
144
0.0
144
0.0
144
0.0
144
1.0
147
0.0208333333333333
147
0.0
147
0.0
147
0.0
147
0.0
147
0.0208333333333333
147
0.0
147
0.0
147
0.0
147
0.0
147
1.0
147
0.0
147
0.0
147
0.0
147
0.0
147
1.0
  0
MATERIAL
  5
D01
102
{ACAD_XDICTIONARY
360
D02
102
}
102
{ACAD_REACTORS
330
CF0
102
}
330
CF0
100
AcDbMaterial
  1
Global
 72
     0
 43
0.0208333333333333
 43
0.0
 43
0.0
 43
0.0
 43
0.0
 43
0.0208333333333333
 43
0.0
 43
0.0
 43
0.0
 43
0.0
 43
1.0
 43
0.0
 43
0.0
 43
0.0
 43
0.0
 43
1.0
 77
     0
 47
0.0208333333333333
 47
0.0
 47
0.0
 47
0.0
 47
0.0
 47
0.0208333333333333
 47
0.0
 47
0.0
 47
0.0
 47
0.0
 47
1.0
 47
0.0
 47
0.0
 47
0.0
 47
0.0
 47
1.0
171
     0
 49
0.0208333333333333
 49
0.0
 49
0.0
 49
0.0
 49
0.0
 49
0.0208333333333333
 49
0.0
 49
0.0
 49
0.0
 49
0.0
 49
1.0
 49
0.0
 49
0.0
 49
0.0
 49
0.0
 49
1.0
175
     0
142
0.0208333333333333
142
0.0
142
0.0
142
0.0
142
0.0
142
0.0208333333333333
142
0.0
142
0.0
142
0.0
142
0.0
142
1.0
142
0.0
142
0.0
142
0.0
142
0.0
142
1.0
179
     0
144
0.0208333333333333
144
0.0
144
0.0
144
0.0
144
0.0
144
0.0208333333333333
144
0.0
144
0.0
144
0.0
144
0.0
144
1.0
144
0.0
144
0.0
144
0.0
144
0.0
144
1.0
147
0.0208333333333333
147
0.0
147
0.0
147
0.0
147
0.0
147
0.0208333333333333
147
0.0
147
0.0
147
0.0
147
0.0
147
1.0
147
0.0
147
0.0
147
0.0
147
0.0
147
1.0
  0
MLEADERSTYLE
  5
D40
102
{ACAD_REACTORS
330
D3F
102
}
330
D3F
100
AcDbMLeaderStyle
170
     2
171
     1
172
     0
 90
        2
 40
0.0
 41
0.0
173
     1
 91
-1056964608
340
12
 92
       -2
290
     1
 42
0.09
291
     1
 43
0.36
  3
Standard
 44
0.18
300

342
10
174
     1
178
     6
175
     1
176
     0
 93
-1056964608
 45
0.18
292
     0
297
     0
 46
0.18
 94
-1056964608
 47
1.0
 49
1.0
140
1.0
293
     1
141
0.0
294
     1
177
     0
142
1.0
295
     0
296
     0
143
0.125
1001
ACAD_MLEADERVER
1070
     2
  0
MLINESTYLE
  5
1B
102
{ACAD_REACTORS
330
E
102
}
330
E
100
AcDbMlineStyle
  2
STANDARD
 70
     0
  3

 62
     0
 51
90.0
 52
90.0
 71
     2
 49
0.5
 62
   256
  6
BYLAYER
 49
-0.5
 62
   256
  6
BYLAYER
  0
ACDBPLACEHOLDER
  5
2CF
102
{ACAD_REACTORS
330
2CE
102
}
330
2CE
  0
SCALE
  5
D1E
102
{ACAD_REACTORS
330
D1D
102
}
330
D1D
100
AcDbScale
 70
     0
300
1:1
140
1.0
141
1.0
290
     1
  0
SCALE
  5
D1F
102
{ACAD_REACTORS
330
D1D
102
}
330
D1D
100
AcDbScale
 70
     0
300
1:2
140
1.0
141
2.0
290
     0
  0
SCALE
  5
D20
102
{ACAD_REACTORS
330
D1D
102
}
330
D1D
100
AcDbScale
 70
     0
300
1:4
140
1.0
141
4.0
290
     0
  0
SCALE
  5
D21
102
{ACAD_REACTORS
330
D1D
102
}
330
D1D
100
AcDbScale
 70
     0
300
1:5
140
1.0
141
5.0
290
     0
  0
SCALE
  5
D22
102
{ACAD_REACTORS
330
D1D
102
}
330
D1D
100
AcDbScale
 70
     0
300
1:8
140
1.0
141
8.0
290
     0
  0
SCALE
  5
D23
102
{ACAD_REACTORS
330
D1D
102
}
330
D1D
100
AcDbScale
 70
     0
300
1:10
140
1.0
141
10.0
290
     0
  0
SCALE
  5
D24
102
{ACAD_REACTORS
330
D1D
102
}
330
D1D
100
AcDbScale
 70
     0
300
1:16
140
1.0
141
16.0
290
     0
  0
SCALE
  5
D25
102
{ACAD_REACTORS
330
D1D
102
}
330
D1D
100
AcDbScale
 70
     0
300
1:20
140
1.0
141
20.0
290
     0
  0
SCALE
  5
D26
102
{ACAD_REACTORS
330
D1D
102
}
330
D1D
100
AcDbScale
 70
     0
300
1:30
140
1.0
141
30.0
290
     0
  0
SCALE
  5
D27
102
{ACAD_REACTORS
330
D1D
102
}
330
D1D
100
AcDbScale
 70
     0
300
1:40
140
1.0
141
40.0
290
     0
  0
SCALE
  5
D28
102
{ACAD_REACTORS
330
D1D
102
}
330
D1D
100
AcDbScale
 70
     0
300
1:50
140
1.0
141
50.0
290
     0
  0
SCALE
  5
D29
102
{ACAD_REACTORS
330
D1D
102
}
330
D1D
100
AcDbScale
 70
     0
300
1:100
140
1.0
141
100.0
290
     0
  0
SCALE
  5
D2A
102
{ACAD_REACTORS
330
D1D
102
}
330
D1D
100
AcDbScale
 70
     0
300
2:1
140
2.0
141
1.0
290
     0
  0
SCALE
  5
D2B
102
{ACAD_REACTORS
330
D1D
102
}
330
D1D
100
AcDbScale
 70
     0
300
4:1
140
4.0
141
1.0
290
     0
  0
SCALE
  5
D2C
102
{ACAD_REACTORS
330
D1D
102
}
330
D1D
100
AcDbScale
 70
     0
300
8:1
140
8.0
141
1.0
290
     0
  0
SCALE
  5
D2D
102
{ACAD_REACTORS
330
D1D
102
}
330
D1D
100
AcDbScale
 70
     0
300
10:1
140
10.0
141
1.0
290
     0
  0
SCALE
  5
D2E
102
{ACAD_REACTORS
330
D1D
102
}
330
D1D
100
AcDbScale
 70
     0
300
100:1
140
100.0
141
1.0
290
     0
  0
SCALE
  5
D2F
102
{ACAD_REACTORS
330
D1D
102
}
330
D1D
100
AcDbScale
 70
     0
300
1/128" = 1'-0"
140
0.0078125
141
12.0
290
     0
  0
SCALE
  5
D30
102
{ACAD_REACTORS
330
D1D
102
}
330
D1D
100
AcDbScale
 70
     0
300
1/64" = 1'-0"
140
0.015625
141
12.0
290
     0
  0
SCALE
  5
D31
102
{ACAD_REACTORS
330
D1D
102
}
330
D1D
100
AcDbScale
 70
     0
300
1/32" = 1'-0"
140
0.03125
141
12.0
290
     0
  0
SCALE
  5
D32
102
{ACAD_REACTORS
330
D1D
102
}
330
D1D
100
AcDbScale
 70
     0
300
1/16" = 1'-0"
140
0.0625
141
12.0
290
     0
  0
SCALE
  5
D33
102
{ACAD_REACTORS
330
D1D
102
}
330
D1D
100
AcDbScale
 70
     0
300
3/32" = 1'-0"
140
0.09375
141
12.0
290
     0
  0
SCALE
  5
D34
102
{ACAD_REACTORS
330
D1D
102
}
330
D1D
100
AcDbScale
 70
     0
300
1/8" = 1'-0"
140
0.125
141
12.0
290
     0
  0
SCALE
  5
D35
102
{ACAD_REACTORS
330
D1D
102
}
330
D1D
100
AcDbScale
 70
     0
300
3/16" = 1'-0"
140
0.1875
141
12.0
290
     0
  0
SCALE
  5
D36
102
{ACAD_REACTORS
330
D1D
102
}
330
D1D
100
AcDbScale
 70
     0
300
1/4" = 1'-0"
140
0.25
141
12.0
290
     0
  0
SCALE
  5
D37
102
{ACAD_REACTORS
330
D1D
102
}
330
D1D
100
AcDbScale
 70
     0
300
3/8" = 1'-0"
140
0.375
141
12.0
290
     0
  0
SCALE
  5
D38
102
{ACAD_REACTORS
330
D1D
102
}
330
D1D
100
AcDbScale
 70
     0
300
1/2" = 1'-0"
140
0.5
141
12.0
290
     0
  0
SCALE
  5
D39
102
{ACAD_REACTORS
330
D1D
102
}
330
D1D
100
AcDbScale
 70
     0
300
3/4" = 1'-0"
140
0.75
141
12.0
290
     0
  0
SCALE
  5
D3A
102
{ACAD_REACTORS
330
D1D
102
}
330
D1D
100
AcDbScale
 70
     0
300
1" = 1'-0"
140
1.0
141
12.0
290
     0
  0
SCALE
  5
D3B
102
{ACAD_REACTORS
330
D1D
102
}
330
D1D
100
AcDbScale
 70
     0
300
1-1/2" = 1'-0"
140
1.5
141
12.0
290
     0
  0
SCALE
  5
D3C
102
{ACAD_REACTORS
330
D1D
102
}
330
D1D
100
AcDbScale
 70
     0
300
3" = 1'-0"
140
3.0
141
12.0
290
     0
  0
SCALE
  5
D3D
102
{ACAD_REACTORS
330
D1D
102
}
330
D1D
100
AcDbScale
 70
     0
300
6" = 1'-0"
140
6.0
141
12.0
290
     0
  0
SCALE
  5
D3E
102
{ACAD_REACTORS
330
D1D
102
}
330
D1D
100
AcDbScale
 70
     0
300
1'-0" = 1'-0"
140
12.0
141
12.0
290
     0
  0
TABLESTYLE
  5
D1C
102
{ACAD_XDICTIONARY
360
D5C
102
}
102
{ACAD_REACTORS
330
D1B
102
}
330
D1B
100
AcDbTableStyle
  3
Standard
 70
     0
 71
     0
 40
0.06
 41
0.06
280
     0
281
     0
  7
STANDARD
140
0.18
170
     2
 62
     0
 63
     7
283
     0
274
    -2
284
     1
 64
     0
275
    -2
285
     1
 65
     0
276
    -2
286
     1
 66
     0
277
    -2
287
     1
 67
     0
278
    -2
288
     1
 68
     0
279
    -2
289
     1
 69
     0
  7
STANDARD
140
0.25
170
     5
 62
     0
 63
     7
283
     0
274
    -2
284
     1
 64
     0
275
    -2
285
     1
 65
     0
276
    -2
286
     1
 66
     0
277
    -2
287
     1
 67
     0
278
    -2
288
     1
 68
     0
279
    -2
289
     1
 69
     0
  7
STANDARD
140
0.18
170
     5
 62
     0
 63
     7
283
     0
274
    -2
284
     1
 64
     0
275
    -2
285
     1
 65
     0
276
    -2
286
     1
 66
     0
277
    -2
287
     1
 67
     0
278
    -2
288
     1
 68
     0
279
    -2
289
     1
 69
     0
  0
VISUALSTYLE
  5
D0F
102
{ACAD_REACTORS
330
D09
102
}
330
D09
100
AcDbVisualStyle
  2
2dWireframe
 70
     4
 71
     0
 72
     2
 73
     0
 90
        0
 40
-0.6
 41
-30.0
 62
     5
 63
     7
421
 16777215
 74
     1
 91
        4
 64
     7
 65
   257
 75
     1
175
     1
 42
1.0
 92
        0
 66
   257
 43
1.0
 76
     1
 77
     6
 78
     2
 67
     7
 79
     5
170
     0
171
     0
290
     0
174
     0
 93
        1
 44
0.0
173
     0
291
     0
 45
0.0
1001
ACAD
1000
AcDbSavedByObjectVersion
1070
     0
  0
VISUALSTYLE
  5
D11
102
{ACAD_REACTORS
330
D09
102
}
330
D09
100
AcDbVisualStyle
  2
3D Hidden
 70
     6
 71
     1
 72
     2
 73
     2
 90
        0
 40
-0.6
 41
-30.0
 62
     5
 63
     7
421
 16777215
 74
     2
 91
        2
 64
     7
 65
   257
 75
     2
175
     1
 42
40.0
 92
        0
 66
   257
 43
1.0
 76
     1
 77
     6
 78
     2
 67
     7
 79
     3
170
     0
171
     0
290
     0
174
     0
 93
        1
 44
0.0
173
     0
291
     0
 45
0.0
1001
ACAD
1000
AcDbSavedByObjectVersion
1070
     0
  0
VISUALSTYLE
  5
D10
102
{ACAD_REACTORS
330
D09
102
}
330
D09
100
AcDbVisualStyle
  2
3dWireframe
 70
     5
 71
     0
 72
     2
 73
     0
 90
        0
 40
-0.6
 41
-30.0
 62
     5
 63
     7
421
 16777215
 74
     1
 91
        4
 64
     7
 65
   257
 75
     1
175
     1
 42
1.0
 92
        0
 66
   257
 43
1.0
 76
     1
 77
     6
 78
     2
 67
     7
 79
     5
170
     0
171
     0
290
     0
174
     0
 93
        1
 44
0.0
173
     0
291
     0
 45
0.0
1001
ACAD
1000
AcDbSavedByObjectVersion
1070
     0
  0
VISUALSTYLE
  5
D0E
102
{ACAD_REACTORS
330
D09
102
}
330
D09
100
AcDbVisualStyle
  2
Basic
 70
     7
 71
     1
 72
     0
 73
     1
 90
        0
 40
-0.6
 41
-30.0
 62
     5
 63
     7
421
 16777215
 74
     0
 91
        4
 64
     7
 65
   257
 75
     1
175
     1
 42
1.0
 92
        8
 66
     7
 43
1.0
 76
     1
 77
     6
 78
     2
 67
     7
 79
     5
170
     0
171
     0
290
     0
174
     0
 93
        1
 44
0.0
173
     0
291
     1
 45
0.0
1001
ACAD
1000
AcDbSavedByObjectVersion
1070
     0
  0
VISUALSTYLE
  5
D15
102
{ACAD_REACTORS
330
D09
102
}
330
D09
100
AcDbVisualStyle
  2
Brighten
 70
    12
 71
     2
 72
     2
 73
     0
 90
        0
 40
-0.6
 41
-30.0
 62
     5
 63
     7
421
 16777215
 74
     1
 91
        4
 64
     7
 65
   257
 75
     1
175
     1
 42
1.0
 92
        8
 66
     7
 43
1.0
 76
     1
 77
     6
 78
     2
 67
     7
 79
     5
170
     0
171
     0
290
     0
174
     0
 93
        1
 44
50.0
173
     0
291
     1
 45
0.0
1001
ACAD
1000
AcDbSavedByObjectVersion
1070
     0
  0
VISUALSTYLE
  5
D19
102
{ACAD_REACTORS
330
D09
102
}
330
D09
100
AcDbVisualStyle
  2
ColorChange
 70
    16
 71
     2
 72
     2
 73
     3
 90
        0
 40
-0.6
 41
-30.0
 62
     5
 63
     8
421
  8421504
 74
     1
 91
        4
 64
     7
 65
   257
 75
     1
175
     1
 42
1.0
 92
        8
 66
     8
424
  8421504
 43
1.0
 76
     1
 77
     6
 78
     2
 67
     7
 79
     5
170
     0
171
     0
290
     0
174
     0
 93
        1
 44
0.0
173
     0
291
     1
 45
0.0
1001
ACAD
1000
AcDbSavedByObjectVersion
1070
     0
  0
VISUALSTYLE
  5
D12
102
{ACAD_REACTORS
330
D09
102
}
330
D09
100
AcDbVisualStyle
  2
Conceptual
 70
     9
 71
     3
 72
     2
 73
     0
 90
        0
 40
-0.6
 41
-30.0
 62
     5
 63
     7
421
 16777215
 74
     2
 91
        2
 64
     7
 65
   257
 75
     1
175
     1
 42
40.0
 92
        8
 66
     7
 43
1.0
 76
     1
 77
     6
 78
     2
 67
     7
 79
     3
170
     0
171
     0
290
     0
174
     0
 93
        1
 44
0.0
173
     0
291
     0
 45
0.0
1001
ACAD
1000
AcDbSavedByObjectVersion
1070
     0
  0
VISUALSTYLE
  5
D14
102
{ACAD_REACTORS
330
D09
102
}
330
D09
100
AcDbVisualStyle
  2
Dim
 70
    11
 71
     2
 72
     2
 73
     0
 90
        0
 40
-0.6
 41
-30.0
 62
     5
 63
     7
421
 16777215
 74
     1
 91
        4
 64
     7
 65
   257
 75
     1
175
     1
 42
1.0
 92
        8
 66
     7
 43
1.0
 76
     1
 77
     6
 78
     2
 67
     7
 79
     5
170
     0
171
     0
290
     0
174
     0
 93
        1
 44
-50.0
173
     0
291
     1
 45
0.0
1001
ACAD
1000
AcDbSavedByObjectVersion
1070
     0
  0
VISUALSTYLE
  5
D18
102
{ACAD_REACTORS
330
D09
102
}
330
D09
100
AcDbVisualStyle
  2
Facepattern
 70
    15
 71
     2
 72
     2
 73
     0
 90
        0
 40
-0.6
 41
-30.0
 62
     5
 63
     7
421
 16777215
 74
     1
 91
        4
 64
     7
 65
   257
 75
     1
175
     1
 42
1.0
 92
        8
 66
     7
 43
1.0
 76
     1
 77
     6
 78
     2
 67
     7
 79
     5
170
     0
171
     0
290
     0
174
     0
 93
        1
 44
0.0
173
     0
291
     1
 45
0.0
1001
ACAD
1000
AcDbSavedByObjectVersion
1070
     0
  0
VISUALSTYLE
  5
D0A
102
{ACAD_REACTORS
330
D09
102
}
330
D09
100
AcDbVisualStyle
  2
Flat
 70
     0
 71
     2
 72
     1
 73
     1
 90
        2
 40
-0.6
 41
30.0
 62
     5
 63
     7
421
 16777215
 74
     0
 91
        4
 64
     7
 65
   257
 75
     1
175
     1
 42
1.0
 92
        8
 66
     7
 43
1.0
 76
     1
 77
     6
 78
     2
 67
     7
 79
     5
170
     0
171
     0
290
     0
174
     0
 93
       13
 44
0.0
173
     0
291
     1
 45
0.0
1001
ACAD
1000
AcDbSavedByObjectVersion
1070
     0
  0
VISUALSTYLE
  5
D0B
102
{ACAD_REACTORS
330
D09
102
}
330
D09
100
AcDbVisualStyle
  2
FlatWithEdges
 70
     1
 71
     2
 72
     1
 73
     1
 90
        2
 40
-0.6
 41
30.0
 62
     5
 63
     7
421
 16777215
 74
     1
 91
        4
 64
     7
 65
   257
 75
     1
175
     1
 42
1.0
 92
        0
 66
   257
 43
1.0
 76
     1
 77
     6
 78
     2
 67
     7
 79
     5
170
     0
171
     0
290
     0
174
     0
 93
       13
 44
0.0
173
     0
291
     1
 45
0.0
1001
ACAD
1000
AcDbSavedByObjectVersion
1070
     0
  0
VISUALSTYLE
  5
D0C
102
{ACAD_REACTORS
330
D09
102
}
330
D09
100
AcDbVisualStyle
  2
Gouraud
 70
     2
 71
     2
 72
     2
 73
     1
 90
        2
 40
-0.6
 41
30.0
 62
     5
 63
     7
421
 16777215
 74
     0
 91
        4
 64
     7
 65
   257
 75
     1
175
     1
 42
1.0
 92
        0
 66
     7
 43
1.0
 76
     1
 77
     6
 78
     2
 67
     7
 79
     5
170
     0
171
     0
290
     0
174
     0
 93
       13
 44
0.0
173
     0
291
     1
 45
0.0
1001
ACAD
1000
AcDbSavedByObjectVersion
1070
     0
  0
VISUALSTYLE
  5
D0D
102
{ACAD_REACTORS
330
D09
102
}
330
D09
100
AcDbVisualStyle
  2
GouraudWithEdges
 70
     3
 71
     2
 72
     2
 73
     1
 90
        2
 40
-0.6
 41
30.0
 62
     5
 63
     7
421
 16777215
 74
     1
 91
        4
 64
     7
 65
   257
 75
     1
175
     1
 42
1.0
 92
        0
 66
   257
 43
1.0
 76
     1
 77
     6
 78
     2
 67
     7
 79
     5
170
     0
171
     0
290
     0
174
     0
 93
       13
 44
0.0
173
     0
291
     1
 45
0.0
1001
ACAD
1000
AcDbSavedByObjectVersion
1070
     0
  0
VISUALSTYLE
  5
D17
102
{ACAD_REACTORS
330
D09
102
}
330
D09
100
AcDbVisualStyle
  2
Linepattern
 70
    14
 71
     2
 72
     2
 73
     0
 90
        0
 40
-0.6
 41
-30.0
 62
     5
 63
     7
421
 16777215
 74
     1
 91
        4
 64
     7
 65
   257
 75
     7
175
     7
 42
1.0
 92
        8
 66
     7
 43
1.0
 76
     1
 77
     6
 78
     2
 67
     7
 79
     5
170
     0
171
     0
290
     0
174
     0
 93
        1
 44
0.0
173
     0
291
     1
 45
0.0
1001
ACAD
1000
AcDbSavedByObjectVersion
1070
     0
  0
VISUALSTYLE
  5
D13
102
{ACAD_REACTORS
330
D09
102
}
330
D09
100
AcDbVisualStyle
  2
Realistic
 70
     8
 71
     2
 72
     2
 73
     0
 90
        0
 40
-0.6
 41
-30.0
 62
     5
 63
     7
421
 16777215
 74
     1
 91
        0
 64
     7
 65
   257
 75
     1
175
     1
 42
1.0
 92
        8
 66
     8
424
  7895160
 43
1.0
 76
     1
 77
     6
 78
     2
 67
     7
 79
     5
170
     0
171
     0
290
     0
174
     0
 93
       13
 44
0.0
173
     0
291
     0
 45
0.0
1001
ACAD
1000
AcDbSavedByObjectVersion
1070
     0
  0
VISUALSTYLE
  5
D16
102
{ACAD_REACTORS
330
D09
102
}
330
D09
100
AcDbVisualStyle
  2
Thicken
 70
    13
 71
     2
 72
     2
 73
     0
 90
        0
 40
-0.6
 41
-30.0
 62
     5
 63
     7
421
 16777215
 74
     1
 91
        4
 64
     7
 65
   257
 75
     1
175
     1
 42
1.0
 92
       12
 66
     7
 43
1.0
 76
     1
 77
     6
 78
     2
 67
     7
 79
     5
170
     0
171
     0
290
     0
174
     0
 93
        1
 44
0.0
173
     0
291
     1
 45
0.0
1001
ACAD
1000
AcDbSavedByObjectVersion
1070
     0
  0
DICTIONARYVAR
  5
D50
102
{ACAD_REACTORS
330
2D8
102
}
330
2D8
100
DictionaryVariables
280
     0
  1
1:1
  0
DICTIONARYVAR
  5
D4F
102
{ACAD_REACTORS
330
2D8
102
}
330
2D8
100
DictionaryVariables
280
     0
  1
STANDARD
  0
DICTIONARYVAR
  5
D4E
102
{ACAD_REACTORS
330
2D8
102
}
330
2D8
100
DictionaryVariables
280
     0
  1
STANDARD
  0
DICTIONARYVAR
  5
D60
102
{ACAD_REACTORS
330
2D8
102
}
330
2D8
100
DictionaryVariables
280
     0
  1
0
  0
DICTIONARYVAR
  5
D5F
102
{ACAD_REACTORS
330
2D8
102
}
330
2D8
100
DictionaryVariables
280
     0
  1
0
  0
DICTIONARYVAR
  5
2D9
102
{ACAD_REACTORS
330
2D8
102
}
330
2D8
100
DictionaryVariables
280
     0
  1
96
  0
DICTIONARY
  5
CFA
330
CF9
100
AcDbDictionary
280
     1
281
     1
  3
ACAD_XREC_ROUNDTRIP
360
F22
  3
BUMPTILE
360
CFC
  3
DIFFUSETILE
360
CFB
  3
OPACITYTILE
360
CFF
  3
REFLECTIONTILE
360
CFE
  3
REFRACTIONTILE
360
D00
  3
SPECULARTILE
360
CFD
  0
DICTIONARY
  5
CF2
330
CF1
100
AcDbDictionary
280
     1
281
     1
  3
ACAD_XREC_ROUNDTRIP
360
F21
  3
BUMPTILE
360
CF4
  3
DIFFUSETILE
360
CF3
  3
OPACITYTILE
360
CF7
  3
REFLECTIONTILE
360
CF6
  3
REFRACTIONTILE
360
CF8
  3
SPECULARTILE
360
CF5
  0
DICTIONARY
  5
D02
330
D01
100
AcDbDictionary
280
     1
281
     1
  3
ACAD_XREC_ROUNDTRIP
360
F23
  3
BUMPTILE
360
D04
  3
DIFFUSETILE
360
D03
  3
OPACITYTILE
360
D07
  3
REFLECTIONTILE
360
D06
  3
REFRACTIONTILE
360
D08
  3
SPECULARTILE
360
D05
  0
DICTIONARY
  5
D5C
330
D1C
100
AcDbDictionary
280
     1
281
     1
  3
ACAD_ROUNDTRIP_2008_TABLESTYLE_CELLSTYLEMAP
360
F20
  3
ACAD_XREC_ROUNDTRIP
360
F24
  0
XRECORD
  5
F22
102
{ACAD_REACTORS
330
CFA
102
}
330
CFA
100
AcDbXrecord
280
     1
102
MATERIAL
148
0.0
149
0.0
149
0.0
 93
        0
 94
      127
282
     0
 72
     0
 77
     0
171
     0
175
     0
179
     0
273
     0
  0
XRECORD
  5
CFC
102
{ACAD_REACTORS
330
CFA
102
}
330
CFA
100
AcDbXrecord
280
     1
270
     1
271
     1
  0
XRECORD
  5
CFB
102
{ACAD_REACTORS
330
CFA
102
}
330
CFA
100
AcDbXrecord
280
     1
270
     1
271
     1
  0
XRECORD
  5
CFF
102
{ACAD_REACTORS
330
CFA
102
}
330
CFA
100
AcDbXrecord
280
     1
270
     1
271
     1
  0
XRECORD
  5
CFE
102
{ACAD_REACTORS
330
CFA
102
}
330
CFA
100
AcDbXrecord
280
     1
270
     1
271
     1
  0
XRECORD
  5
D00
102
{ACAD_REACTORS
330
CFA
102
}
330
CFA
100
AcDbXrecord
280
     1
270
     1
271
     1
  0
XRECORD
  5
CFD
102
{ACAD_REACTORS
330
CFA
102
}
330
CFA
100
AcDbXrecord
280
     1
270
     1
271
     1
  0
XRECORD
  5
F21
102
{ACAD_REACTORS
330
CF2
102
}
330
CF2
100
AcDbXrecord
280
     1
102
MATERIAL
148
0.0
149
0.0
149
0.0
 93
        0
 94
      127
282
     0
 72
     0
 77
     0
171
     0
175
     0
179
     0
273
     0
  0
XRECORD
  5
CF4
102
{ACAD_REACTORS
330
CF2
102
}
330
CF2
100
AcDbXrecord
280
     1
270
     1
271
     1
  0
XRECORD
  5
CF3
102
{ACAD_REACTORS
330
CF2
102
}
330
CF2
100
AcDbXrecord
280
     1
270
     1
271
     1
  0
XRECORD
  5
CF7
102
{ACAD_REACTORS
330
CF2
102
}
330
CF2
100
AcDbXrecord
280
     1
270
     1
271
     1
  0
XRECORD
  5
CF6
102
{ACAD_REACTORS
330
CF2
102
}
330
CF2
100
AcDbXrecord
280
     1
270
     1
271
     1
  0
XRECORD
  5
CF8
102
{ACAD_REACTORS
330
CF2
102
}
330
CF2
100
AcDbXrecord
280
     1
270
     1
271
     1
  0
XRECORD
  5
CF5
102
{ACAD_REACTORS
330
CF2
102
}
330
CF2
100
AcDbXrecord
280
     1
270
     1
271
     1
  0
XRECORD
  5
F23
102
{ACAD_REACTORS
330
D02
102
}
330
D02
100
AcDbXrecord
280
     1
102
MATERIAL
148
0.0
149
0.0
149
0.0
 93
        0
 94
      127
282
     0
 72
     0
 77
     0
171
     0
175
     0
179
     0
273
     0
  0
XRECORD
  5
D04
102
{ACAD_REACTORS
330
D02
102
}
330
D02
100
AcDbXrecord
280
     1
270
     1
271
     1
  0
XRECORD
  5
D03
102
{ACAD_REACTORS
330
D02
102
}
330
D02
100
AcDbXrecord
280
     1
270
     1
271
     1
  0
XRECORD
  5
D07
102
{ACAD_REACTORS
330
D02
102
}
330
D02
100
AcDbXrecord
280
     1
270
     1
271
     1
  0
XRECORD
  5
D06
102
{ACAD_REACTORS
330
D02
102
}
330
D02
100
AcDbXrecord
280
     1
270
     1
271
     1
  0
XRECORD
  5
D08
102
{ACAD_REACTORS
330
D02
102
}
330
D02
100
AcDbXrecord
280
     1
270
     1
271
     1
  0
XRECORD
  5
D05
102
{ACAD_REACTORS
330
D02
102
}
330
D02
100
AcDbXrecord
280
     1
270
     1
271
     1
  0
CELLSTYLEMAP
  5
F20
102
{ACAD_REACTORS
330
D5C
102
}
330
D5C
100
AcDbCellStyleMap
 90
        3
300
CELLSTYLE
  1
TABLEFORMAT_BEGIN
 90
        5
170
     1
 91
        0
 92
    32768
 62
   257
 93
        1
300
CONTENTFORMAT
  1
CONTENTFORMAT_BEGIN
 90
        0
 91
        0
 92
      512
 93
        0
300

 40
0.0
140
1.0
 94
        5
 62
     0
340
10
144
0.25
309
CONTENTFORMAT_END
171
     0
 94
        0
309
TABLEFORMAT_END
  1
CELLSTYLE_BEGIN
 90
        1
 91
        1
300
_TITLE
309
CELLSTYLE_END
300
CELLSTYLE
  1
TABLEFORMAT_BEGIN
 90
        5
170
     1
 91
        0
 92
        0
 62
   257
 93
        1
300
CONTENTFORMAT
  1
CONTENTFORMAT_BEGIN
 90
        0
 91
        0
 92
      512
 93
        0
300

 40
0.0
140
1.0
 94
        5
 62
     0
340
10
144
0.18
309
CONTENTFORMAT_END
171
     0
 94
        0
309
TABLEFORMAT_END
  1
CELLSTYLE_BEGIN
 90
        2
 91
        1
300
_HEADER
309
CELLSTYLE_END
300
CELLSTYLE
  1
TABLEFORMAT_BEGIN
 90
        5
170
     1
 91
        0
 92
        0
 62
   257
 93
        1
300
CONTENTFORMAT
  1
CONTENTFORMAT_BEGIN
 90
        0
 91
        0
 92
      512
 93
        0
300

 40
0.0
140
1.0
 94
        2
 62
     0
340
10
144
0.18
309
CONTENTFORMAT_END
171
     0
 94
        0
309
TABLEFORMAT_END
  1
CELLSTYLE_BEGIN
 90
        3
 91
        2
300
_DATA
309
CELLSTYLE_END
  0
XRECORD
  5
F24
102
{ACAD_REACTORS
330
D5C
102
}
330
D5C
100
AcDbXrecord
280
     1
102
ACAD_ROUNDTRIP_PRE2007_TABLESTYLE
 90
      512
 91
        0
  1

 92
      512
 93
        0
  2

 94
      512
 95
        0
  3

  0
ENDSEC
  0
EOF
