  0
SECTION
  2
HEADER
  9
$ACADVER
  1
AC1018
  9
$ACADMAINTVER
 70
   104
  9
$DWGCODEPAGE
  3
ANSI_932
  9
$LASTSAVEDBY
  1
poracon
  9
$INSBASE
 10
0.0
 20
0.0
 30
0.0
  9
$EXTMIN
 10
263.7472009833727
 20
-1177.986769665072
 30
-0.0015258207003583
  9
$EXTMAX
 10
5303.868581893606
 20
2386.063820307966
 30
0.0000000349246037
  9
$LIMMIN
 10
0.0
 20
0.0
  9
$LIMMAX
 10
2970.0
 20
2100.0
  9
$ORTHOMODE
 70
     1
  9
$REGENMODE
 70
     1
  9
$FILLMODE
 70
     1
  9
$QTEXTMODE
 70
     0
  9
$MIRRTEXT
 70
     1
  9
$LTSCALE
 40
60.0
  9
$ATTMODE
 70
     1
  9
$TEXTSIZE
 40
50.0
  9
$TRACEWID
 40
0.05
  9
$TEXTSTYLE
  7
BIGFONT
  9
$CLAYER
  8
0
  9
$CELTYPE
  6
BYLAYER
  9
$CECOLOR
 62
   256
  9
$CELTSCALE
 40
1.0
  9
$DISPSILH
 70
     0
  9
$DIMSCALE
 40
10.0
  9
$DIMASZ
 40
2.0
  9
$DIMEXO
 40
1.0
  9
$DIMDLI
 40
10.0
  9
$DIMRND
 40
0.0
  9
$DIMDLE
 40
0.0
  9
$DIMEXE
 40
1.0
  9
$DIMTP
 40
0.0
  9
$DIMTM
 40
0.0
  9
$DIMTXT
 40
4.0
  9
$DIMCEN
 40
0.0
  9
$DIMTSZ
 40
0.0
  9
$DIMTOL
 70
     0
  9
$DIMLIM
 70
     0
  9
$DIMTIH
 70
     0
  9
$DIMTOH
 70
     0
  9
$DIMSE1
 70
     0
  9
$DIMSE2
 70
     0
  9
$DIMTAD
 70
     1
  9
$DIMZIN
 70
     0
  9
$DIMBLK
  1

  9
$DIMASO
 70
     1
  9
$DIMSHO
 70
     1
  9
$DIMPOST
  1

  9
$DIMAPOST
  1

  9
$DIMALT
 70
     0
  9
$DIMALTD
 70
     2
  9
$DIMALTF
 40
25.4
  9
$DIMLFAC
 40
1.0
  9
$DIMTOFL
 70
     0
  9
$DIMTVP
 40
0.0
  9
$DIMTIX
 70
     0
  9
$DIMSOXD
 70
     0
  9
$DIMSAH
 70
     1
  9
$DIMBLK1
  1
ARROW
  9
$DIMBLK2
  1
ARROW
  9
$DIMSTYLE
  2
DIA1
  9
$DIMCLRD
 70
     0
  9
$DIMCLRE
 70
     0
  9
$DIMCLRT
 70
     0
  9
$DIMTFAC
 40
1.0
  9
$DIMGAP
 40
1.0
  9
$DIMJUST
 70
     0
  9
$DIMSD1
 70
     0
  9
$DIMSD2
 70
     0
  9
$DIMTOLJ
 70
     1
  9
$DIMTZIN
 70
     0
  9
$DIMALTZ
 70
     0
  9
$DIMALTTZ
 70
     0
  9
$DIMUPT
 70
     0
  9
$DIMDEC
 70
     0
  9
$DIMTDEC
 70
     0
  9
$DIMALTU
 70
     2
  9
$DIMALTTD
 70
     2
  9
$DIMTXSTY
  7
BIGFONT
  9
$DIMAUNIT
 70
     0
  9
$DIMADEC
 70
     0
  9
$DIMALTRND
 40
0.0
  9
$DIMAZIN
 70
     0
  9
$DIMDSEP
 70
    46
  9
$DIMATFIT
 70
     3
  9
$DIMFRAC
 70
     0
  9
$DIMLDRBLK
  1
ARROW
  9
$DIMLUNIT
 70
     2
  9
$DIMLWD
 70
    -2
  9
$DIMLWE
 70
    -2
  9
$DIMTMOVE
 70
     0
  9
$LUNITS
 70
     2
  9
$LUPREC
 70
     1
  9
$SKETCHINC
 40
0.1
  9
$FILLETRAD
 40
0.0
  9
$AUNITS
 70
     1
  9
$AUPREC
 70
     2
  9
$MENU
  1
MASTERS
  9
$ELEVATION
 40
0.0
  9
$PELEVATION
 40
0.0
  9
$THICKNESS
 40
0.0
  9
$LIMCHECK
 70
     0
  9
$CHAMFERA
 40
0.0
  9
$CHAMFERB
 40
0.0
  9
$CHAMFERC
 40
0.0
  9
$CHAMFERD
 40
0.0
  9
$SKPOLY
 70
     0
  9
$TDCREATE
 40
2449337.661539352
  9
$TDUCREATE
 40
2449337.286539352
  9
$TDUPDATE
 40
2456937.474127153
  9
$TDUUPDATE
 40
2456937.099127153
  9
$TDINDWG
 40
0.1128573727
  9
$TDUSRTIMER
 40
0.1128573727
  9
$USRTIMER
 70
     1
  9
$ANGBASE
 50
0.0
  9
$ANGDIR
 70
     0
  9
$PDMODE
 70
     0
  9
$PDSIZE
 40
0.0
  9
$PLINEWID
 40
0.0
  9
$SPLFRAME
 70
     0
  9
$SPLINETYPE
 70
     6
  9
$SPLINESEGS
 70
     8
  9
$HANDSEED
  5
123D
  9
$SURFTAB1
 70
     6
  9
$SURFTAB2
 70
     6
  9
$SURFTYPE
 70
     6
  9
$SURFU
 70
     6
  9
$SURFV
 70
     6
  9
$UCSBASE
  2

  9
$UCSNAME
  2

  9
$UCSORG
 10
0.0
 20
0.0
 30
0.0
  9
$UCSXDIR
 10
1.0
 20
0.0
 30
0.0
  9
$UCSYDIR
 10
0.0
 20
1.0
 30
0.0
  9
$UCSORTHOREF
  2

  9
$UCSORTHOVIEW
 70
     0
  9
$UCSORGTOP
 10
0.0
 20
0.0
 30
0.0
  9
$UCSORGBOTTOM
 10
0.0
 20
0.0
 30
0.0
  9
$UCSORGLEFT
 10
0.0
 20
0.0
 30
0.0
  9
$UCSORGRIGHT
 10
0.0
 20
0.0
 30
0.0
  9
$UCSORGFRONT
 10
0.0
 20
0.0
 30
0.0
  9
$UCSORGBACK
 10
0.0
 20
0.0
 30
0.0
  9
$PUCSBASE
  2

  9
$PUCSNAME
  2

  9
$PUCSORG
 10
0.0
 20
0.0
 30
0.0
  9
$PUCSXDIR
 10
1.0
 20
0.0
 30
0.0
  9
$PUCSYDIR
 10
0.0
 20
1.0
 30
0.0
  9
$PUCSORTHOREF
  2

  9
$PUCSORTHOVIEW
 70
     0
  9
$PUCSORGTOP
 10
0.0
 20
0.0
 30
0.0
  9
$PUCSORGBOTTOM
 10
0.0
 20
0.0
 30
0.0
  9
$PUCSORGLEFT
 10
0.0
 20
0.0
 30
0.0
  9
$PUCSORGRIGHT
 10
0.0
 20
0.0
 30
0.0
  9
$PUCSORGFRONT
 10
0.0
 20
0.0
 30
0.0
  9
$PUCSORGBACK
 10
0.0
 20
0.0
 30
0.0
  9
$USERI1
 70
     0
  9
$USERI2
 70
     0
  9
$USERI3
 70
     0
  9
$USERI4
 70
     0
  9
$USERI5
 70
     0
  9
$USERR1
 40
0.0
  9
$USERR2
 40
0.0
  9
$USERR3
 40
0.0
  9
$USERR4
 40
0.0
  9
$USERR5
 40
0.0
  9
$WORLDVIEW
 70
     1
  9
$SHADEDGE
 70
     3
  9
$SHADEDIF
 70
    70
  9
$TILEMODE
 70
     1
  9
$MAXACTVP
 70
    16
  9
$PINSBASE
 10
0.0
 20
0.0
 30
0.0
  9
$PLIMCHECK
 70
     0
  9
$PEXTMIN
 10
1.000000000000000E+20
 20
1.000000000000000E+20
 30
1.000000000000000E+20
  9
$PEXTMAX
 10
-1.000000000000000E+20
 20
-1.000000000000000E+20
 30
-1.000000000000000E+20
  9
$PLIMMIN
 10
0.0
 20
0.0
  9
$PLIMMAX
 10
12.0
 20
9.0
  9
$UNITMODE
 70
     0
  9
$VISRETAIN
 70
     0
  9
$PLINEGEN
 70
     0
  9
$PSLTSCALE
 70
     1
  9
$TREEDEPTH
 70
  3020
  9
$CMLSTYLE
  2
STANDARD
  9
$CMLJUST
 70
     0
  9
$CMLSCALE
 40
1.0
  9
$PROXYGRAPHICS
 70
     1
  9
$MEASUREMENT
 70
     0
  9
$CELWEIGHT
370
    -1
  9
$ENDCAPS
280
     0
  9
$JOINSTYLE
280
     0
  9
$LWDISPLAY
290
     0
  9
$INSUNITS
 70
     0
  9
$HYPERLINKBASE
  1

  9
$STYLESHEET
  1

  9
$XEDIT
290
     1
  9
$CEPSNTYPE
380
     0
  9
$PSTYLEMODE
290
     1
  9
$FINGERPRINTGUID
  2
{241947D8-10E5-11D6-BA8D-8D48D945A249}
  9
$VERSIONGUID
  2
{F2D56376-7E6C-4597-881D-7109B169710D}
  9
$EXTNAMES
290
     1
  9
$PSVPSCALE
 40
0.0
  9
$OLESTARTUP
290
     0
  9
$SORTENTS
280
    96
  9
$INDEXCTL
280
     0
  9
$HIDETEXT
280
     0
  9
$XCLIPFRAME
290
     0
  9
$HALOGAP
280
     0
  9
$OBSCOLOR
 70
   257
  9
$OBSLTYPE
280
     0
  9
$INTERSECTIONDISPLAY
280
     0
  9
$INTERSECTIONCOLOR
 70
   257
  9
$DIMASSOC
280
     1
  9
$PROJECTNAME
  1

  0
ENDSEC
  0
SECTION
  2
CLASSES
  0
CLASS
  1
ACDBDICTIONARYWDFLT
  2
AcDbDictionaryWithDefault
  3
ObjectDBX Classes
 90
        0
 91
        1
280
     0
281
     0
  0
CLASS
  1
DICTIONARYVAR
  2
AcDbDictionaryVar
  3
ObjectDBX Classes
 90
        0
 91
        6
280
     0
281
     0
  0
CLASS
  1
MATERIAL
  2
AcDbMaterial
  3
ObjectDBX Classes
 90
     1153
 91
        3
280
     0
281
     0
  0
CLASS
  1
VISUALSTYLE
  2
AcDbVisualStyle
  3
ObjectDBX Classes
 90
     4095
 91
       16
280
     0
281
     0
  0
CLASS
  1
TABLESTYLE
  2
AcDbTableStyle
  3
ObjectDBX Classes
 90
     4095
 91
        1
280
     0
281
     0
  0
CLASS
  1
SCALE
  2
AcDbScale
  3
ObjectDBX Classes
 90
     1153
 91
       33
280
     0
281
     0
  0
CLASS
  1
MLEADERSTYLE
  2
AcDbMLeaderStyle
  3
ACDB_MLEADERSTYLE_CLASS
 90
     4095
 91
        1
280
     0
281
     0
  0
CLASS
  1
CELLSTYLEMAP
  2
AcDbCellStyleMap
  3
ObjectDBX Classes
 90
     1152
 91
        3
280
     0
281
     0
  0
CLASS
  1
SORTENTSTABLE
  2
AcDbSortentsTable
  3
ObjectDBX Classes
 90
        0
 91
        2
280
     0
281
     0
  0
ENDSEC
  0
SECTION
  2
TABLES
  0
TABLE
  2
VPORT
  5
8
330
0
100
AcDbSymbolTable
 70
     1
  0
VPORT
  5
E18
330
8
100
AcDbSymbolTableRecord
100
AcDbViewportTableRecord
  2
*Active
 70
     0
 10
0.0
 20
0.0
 11
1.0
 21
1.0
 12
2651.934290946803
 22
604.0385253214469
 13
0.0
 23
0.0
 14
1.0
 24
1.0
 15
0.0
 25
0.0
 16
0.0
 26
0.0
 36
1.0
 17
0.0
 27
0.0
 37
0.0
 40
3592.374170820507
 41
1.669761273209549
 42
50.0
 43
0.0
 44
0.0
 50
0.0
 51
0.0
 71
     0
 72
   100
 73
     1
 74
     1
 75
     0
 76
     0
 77
     0
 78
     0
281
     0
 65
     1
110
0.0
120
0.0
130
0.0
111
1.0
121
0.0
131
0.0
112
0.0
122
1.0
132
0.0
 79
     0
146
0.0
  0
ENDTAB
  0
TABLE
  2
LTYPE
  5
5
330
0
100
AcDbSymbolTable
 70
    26
  0
LTYPE
  5
12
330
5
100
AcDbSymbolTableRecord
100
AcDbLinetypeTableRecord
  2
BYBLOCK
 70
     0
  3

 72
    65
 73
     0
 40
0.0
  0
LTYPE
  5
13
330
5
100
AcDbSymbolTableRecord
100
AcDbLinetypeTableRecord
  2
BYLAYER
 70
     0
  3

 72
    65
 73
     0
 40
0.0
  0
LTYPE
  5
14
330
5
100
AcDbSymbolTableRecord
100
AcDbLinetypeTableRecord
  2
CONTINUOUS
 70
     0
  3
Solid line
 72
    65
 73
     0
 40
0.0
  0
LTYPE
  5
2E
330
5
100
AcDbSymbolTableRecord
100
AcDbLinetypeTableRecord
  2
BORDER
 70
     0
  3
__ __ . __ __ . __ __ . __ __ . __ __ . __ __ .
 72
    65
 73
     6
 40
1.75
 49
0.5
 74
     0
 49
-0.25
 74
     0
 49
0.5
 74
     0
 49
-0.25
 74
     0
 49
0.0
 74
     0
 49
-0.25
 74
     0
  0
LTYPE
  5
2F
330
5
100
AcDbSymbolTableRecord
100
AcDbLinetypeTableRecord
  2
BORDER2
 70
     0
  3
__.__.__.__.__.__.__.__.__.__.__.__.__.__.__.__
 72
    65
 73
     6
 40
0.875
 49
0.25
 74
     0
 49
-0.125
 74
     0
 49
0.25
 74
     0
 49
-0.125
 74
     0
 49
0.0
 74
     0
 49
-0.125
 74
     0
  0
LTYPE
  5
30
330
5
100
AcDbSymbolTableRecord
100
AcDbLinetypeTableRecord
  2
BORDERX2
 70
     0
  3
____  ____  .  ____  ____  .  ____  ____  .  __
 72
    65
 73
     6
 40
3.5
 49
1.0
 74
     0
 49
-0.5
 74
     0
 49
1.0
 74
     0
 49
-0.5
 74
     0
 49
0.0
 74
     0
 49
-0.5
 74
     0
  0
LTYPE
  5
31
330
5
100
AcDbSymbolTableRecord
100
AcDbLinetypeTableRecord
  2
CENTER
 70
     0
  3
____ _ ____ _ ____ _ ____ _ ____ _ ____ _ ____ 
 72
    65
 73
     4
 40
2.0
 49
1.25
 74
     0
 49
-0.25
 74
     0
 49
0.25
 74
     0
 49
-0.25
 74
     0
  0
LTYPE
  5
32
330
5
100
AcDbSymbolTableRecord
100
AcDbLinetypeTableRecord
  2
CENTER2
 70
     0
  3
___ _ ___ _ ___ _ ___ _ ___ _ ___ _ ___ _ ___ _
 72
    65
 73
     4
 40
1.125
 49
0.75
 74
     0
 49
-0.125
 74
     0
 49
0.125
 74
     0
 49
-0.125
 74
     0
  0
LTYPE
  5
33
330
5
100
AcDbSymbolTableRecord
100
AcDbLinetypeTableRecord
  2
CENTERX2
 70
     0
  3
________  __  ________  __  ________  __  _____
 72
    65
 73
     4
 40
4.0
 49
2.5
 74
     0
 49
-0.5
 74
     0
 49
0.5
 74
     0
 49
-0.5
 74
     0
  0
LTYPE
  5
34
330
5
100
AcDbSymbolTableRecord
100
AcDbLinetypeTableRecord
  2
DASHDOT
 70
     0
  3
__ . __ . __ . __ . __ . __ . __ . __ . __ . __
 72
    65
 73
     4
 40
1.0
 49
0.5
 74
     0
 49
-0.25
 74
     0
 49
0.0
 74
     0
 49
-0.25
 74
     0
  0
LTYPE
  5
35
330
5
100
AcDbSymbolTableRecord
100
AcDbLinetypeTableRecord
  2
DASHDOT2
 70
     0
  3
_._._._._._._._._._._._._._._._._._._._._._._._
 72
    65
 73
     4
 40
0.5
 49
0.25
 74
     0
 49
-0.125
 74
     0
 49
0.0
 74
     0
 49
-0.125
 74
     0
  0
LTYPE
  5
36
330
5
100
AcDbSymbolTableRecord
100
AcDbLinetypeTableRecord
  2
DASHDOTX2
 70
     0
  3
____  .  ____  .  ____  .  ____  .  ____  .  __
 72
    65
 73
     4
 40
2.0
 49
1.0
 74
     0
 49
-0.5
 74
     0
 49
0.0
 74
     0
 49
-0.5
 74
     0
  0
LTYPE
  5
37
330
5
100
AcDbSymbolTableRecord
100
AcDbLinetypeTableRecord
  2
DASHED
 70
     0
  3
__ __ __ __ __ __ __ __ __ __ __ __ __ __ __ __
 72
    65
 73
     2
 40
0.75
 49
0.5
 74
     0
 49
-0.25
 74
     0
  0
LTYPE
  5
38
330
5
100
AcDbSymbolTableRecord
100
AcDbLinetypeTableRecord
  2
DASHED2
 70
     0
  3
_ _ _ _ _ _ _ _ _ _ _ _ _ _ _ _ _ _ _ _ _ _ _ _
 72
    65
 73
     2
 40
0.375
 49
0.25
 74
     0
 49
-0.125
 74
     0
  0
LTYPE
  5
39
330
5
100
AcDbSymbolTableRecord
100
AcDbLinetypeTableRecord
  2
DASHEDX2
 70
     0
  3
____  ____  ____  ____  ____  ____  ____  ____ 
 72
    65
 73
     2
 40
1.5
 49
1.0
 74
     0
 49
-0.5
 74
     0
  0
LTYPE
  5
3A
330
5
100
AcDbSymbolTableRecord
100
AcDbLinetypeTableRecord
  2
DIVIDE
 70
     0
  3
____ . . ____ . . ____ . . ____ . . ____ . . __
 72
    65
 73
     6
 40
1.25
 49
0.5
 74
     0
 49
-0.25
 74
     0
 49
0.0
 74
     0
 49
-0.25
 74
     0
 49
0.0
 74
     0
 49
-0.25
 74
     0
  0
LTYPE
  5
3B
330
5
100
AcDbSymbolTableRecord
100
AcDbLinetypeTableRecord
  2
DIVIDE2
 70
     0
  3
__..__..__..__..__..__..__..__..__..__..__..__.
 72
    65
 73
     6
 40
0.625
 49
0.25
 74
     0
 49
-0.125
 74
     0
 49
0.0
 74
     0
 49
-0.125
 74
     0
 49
0.0
 74
     0
 49
-0.125
 74
     0
  0
LTYPE
  5
3C
330
5
100
AcDbSymbolTableRecord
100
AcDbLinetypeTableRecord
  2
DIVIDEX2
 70
     0
  3
________  .  .  ________  .  .  ________  .  . 
 72
    65
 73
     6
 40
2.5
 49
1.0
 74
     0
 49
-0.5
 74
     0
 49
0.0
 74
     0
 49
-0.5
 74
     0
 49
0.0
 74
     0
 49
-0.5
 74
     0
  0
LTYPE
  5
3D
330
5
100
AcDbSymbolTableRecord
100
AcDbLinetypeTableRecord
  2
DOT
 70
     0
  3
. . . . . . . . . . . . . . . . . . . . . . . .
 72
    65
 73
     2
 40
0.25
 49
0.0
 74
     0
 49
-0.25
 74
     0
  0
LTYPE
  5
3E
330
5
100
AcDbSymbolTableRecord
100
AcDbLinetypeTableRecord
  2
DOT2
 70
     0
  3
...............................................
 72
    65
 73
     2
 40
0.125
 49
0.0
 74
     0
 49
-0.125
 74
     0
  0
LTYPE
  5
3F
330
5
100
AcDbSymbolTableRecord
100
AcDbLinetypeTableRecord
  2
DOTX2
 70
     0
  3
.  .  .  .  .  .  .  .  .  .  .  .  .  .  .  . 
 72
    65
 73
     2
 40
0.5
 49
0.0
 74
     0
 49
-0.5
 74
     0
  0
LTYPE
  5
40
330
5
100
AcDbSymbolTableRecord
100
AcDbLinetypeTableRecord
  2
HIDDEN
 70
     0
  3
__ __ __ __ __ __ __ __ __ __ __ __ __ __ __ __
 72
    65
 73
     2
 40
0.375
 49
0.25
 74
     0
 49
-0.125
 74
     0
  0
LTYPE
  5
41
330
5
100
AcDbSymbolTableRecord
100
AcDbLinetypeTableRecord
  2
HIDDEN2
 70
     0
  3
_ _ _ _ _ _ _ _ _ _ _ _ _ _ _ _ _ _ _ _ _ _ _ _
 72
    65
 73
     2
 40
0.1875
 49
0.125
 74
     0
 49
-0.0625
 74
     0
  0
LTYPE
  5
42
330
5
100
AcDbSymbolTableRecord
100
AcDbLinetypeTableRecord
  2
HIDDENX2
 70
     0
  3
____ ____ ____ ____ ____ ____ ____ ____ ____ __
 72
    65
 73
     2
 40
0.75
 49
0.5
 74
     0
 49
-0.25
 74
     0
  0
LTYPE
  5
43
330
5
100
AcDbSymbolTableRecord
100
AcDbLinetypeTableRecord
  2
PHANTOM
 70
     0
  3
______  __  __  ______  __  __  ______  __  __ 
 72
    65
 73
     6
 40
2.5
 49
1.25
 74
     0
 49
-0.25
 74
     0
 49
0.25
 74
     0
 49
-0.25
 74
     0
 49
0.25
 74
     0
 49
-0.25
 74
     0
  0
LTYPE
  5
44
330
5
100
AcDbSymbolTableRecord
100
AcDbLinetypeTableRecord
  2
PHANTOM2
 70
     0
  3
___ _ _ ___ _ _ ___ _ _ ___ _ _ ___ _ _ ___ _ _
 72
    65
 73
     6
 40
1.25
 49
0.625
 74
     0
 49
-0.125
 74
     0
 49
0.125
 74
     0
 49
-0.125
 74
     0
 49
0.125
 74
     0
 49
-0.125
 74
     0
  0
LTYPE
  5
45
330
5
100
AcDbSymbolTableRecord
100
AcDbLinetypeTableRecord
  2
PHANTOMX2
 70
     0
  3
____________    ____    ____    ____________   
 72
    65
 73
     6
 40
5.0
 49
2.5
 74
     0
 49
-0.5
 74
     0
 49
0.5
 74
     0
 49
-0.5
 74
     0
 49
0.5
 74
     0
 49
-0.5
 74
     0
  0
ENDTAB
  0
TABLE
  2
LAYER
  5
2
330
0
100
AcDbSymbolTable
 70
     6
  0
LAYER
  5
F
102
{ACAD_XDICTIONARY
360
E70
102
}
330
2
100
AcDbSymbolTableRecord
100
AcDbLayerTableRecord
  2
0
 70
     0
 62
     7
  6
CONTINUOUS
370
    -3
390
2CF
  0
LAYER
  5
49
102
{ACAD_XDICTIONARY
360
E72
102
}
330
2
100
AcDbSymbolTableRecord
100
AcDbLayerTableRecord
  2
SUNPOU
 70
     0
 62
     3
  6
CONTINUOUS
370
    -3
390
2CF
  0
LAYER
  5
4D
102
{ACAD_XDICTIONARY
360
E74
102
}
330
2
100
AcDbSymbolTableRecord
100
AcDbLayerTableRecord
  2
CT2
 70
     0
 62
     1
  6
CENTER2
370
    -3
390
2CF
  0
LAYER
  5
4F
102
{ACAD_XDICTIONARY
360
E76
102
}
330
2
100
AcDbSymbolTableRecord
100
AcDbLayerTableRecord
  2
SAISEKI
 70
     0
 62
     4
  6
CONTINUOUS
370
    -3
390
2CF
  0
LAYER
  5
50
330
2
100
AcDbSymbolTableRecord
100
AcDbLayerTableRecord
  2
DEFPOINTS
 70
     0
 62
     7
  6
CONTINUOUS
290
     0
370
    -3
390
2CF
  0
LAYER
  5
1154
102
{ACAD_XDICTIONARY
360
1155
102
}
330
2
100
AcDbSymbolTableRecord
100
AcDbLayerTableRecord
  2
KL
 70
     0
 62
     5
  6
HIDDEN
370
    -3
390
2CF
  0
ENDTAB
  0
TABLE
  2
STYLE
  5
3
330
0
100
AcDbSymbolTable
 70
     3
  0
STYLE
  5
10
330
3
100
AcDbSymbolTableRecord
100
AcDbTextStyleTableRecord
  2
STANDARD
 70
     0
 40
0.0
 41
1.0
 50
0.0
 71
     0
 42
0.2
  3
txt
  4

  0
STYLE
  5
2D
330
3
100
AcDbSymbolTableRecord
100
AcDbTextStyleTableRecord
  2
BIGFONT
 70
     0
 40
0.0
 41
1.0
 50
0.0
 71
     0
 42
50.0
  3
simplex
  4
extfont
  0
STYLE
  5
348
330
3
100
AcDbSymbolTableRecord
100
AcDbTextStyleTableRecord
  2
STYLE1
 70
     0
 40
0.0
 41
1.0
 50
0.0
 71
     0
 42
2.5
  3
txt.shx
  4
bigfont.shx
  0
ENDTAB
  0
TABLE
  2
VIEW
  5
6
330
0
100
AcDbSymbolTable
 70
     0
  0
ENDTAB
  0
TABLE
  2
UCS
  5
7
330
0
100
AcDbSymbolTable
 70
     0
  0
ENDTAB
  0
TABLE
  2
APPID
  5
9
330
0
100
AcDbSymbolTable
 70
     3
  0
APPID
  5
11
330
9
100
AcDbSymbolTableRecord
100
AcDbRegAppTableRecord
  2
ACAD
 70
     0
  0
APPID
  5
E6B
330
9
100
AcDbSymbolTableRecord
100
AcDbRegAppTableRecord
  2
ACAD_MLEADERVER
 70
     0
  0
APPID
  5
E92
330
9
100
AcDbSymbolTableRecord
100
AcDbRegAppTableRecord
  2
ACAD_EXEMPT_FROM_CAD_STANDARDS
 70
     0
  0
ENDTAB
  0
TABLE
  2
DIMSTYLE
  5
A
330
0
100
AcDbSymbolTable
 70
     5
100
AcDbDimStyleTable
 71
     1
340
2CA
  0
DIMSTYLE
105
2C5
330
A
100
AcDbSymbolTableRecord
100
AcDbDimStyleTableRecord
  2
STANDARD
 70
     0
340
10
  0
DIMSTYLE
105
2CA
102
{ACAD_REACTORS
330
383
330
37F
330
38D
330
38B
330
389
330
393
330
38C
330
388
330
B6B
330
CB5
330
CAE
330
CAD
330
CB3
330
CB1
330
CB7
102
}
330
A
100
AcDbSymbolTableRecord
100
AcDbDimStyleTableRecord
  2
DIA1
 70
     0
 40
10.0
 41
2.0
 42
1.0
 43
10.0
 44
1.0
 73
     0
 74
     0
 77
     1
140
3.0
141
0.0
147
1.0
271
     0
340
2D
341
20
342
20
  0
DIMSTYLE
105
349
330
A
100
AcDbSymbolTableRecord
100
AcDbDimStyleTableRecord
  2
STYLE10
 70
     0
 40
10.0
 41
1.5
 42
5.0
 43
0.0
 44
0.0
 73
     0
 74
     0
 77
     1
 78
    12
140
2.0
141
2.0
147
1.0
172
     1
176
     3
177
     3
178
     3
340
10
  0
DIMSTYLE
105
E10
330
A
100
AcDbSymbolTableRecord
100
AcDbDimStyleTableRecord
  2
P1
 70
     0
 40
10.0
 41
2.0
 42
1.0
 43
10.0
 44
1.0
 73
     0
 74
     0
 77
     2
140
3.0
141
0.0
147
1.0
172
     1
173
     1
176
   256
177
   256
178
   256
271
     0
272
     0
279
     2
288
     1
340
2D
341
20
343
20
344
20
371
    -1
372
    -1
  0
ENDTAB
  0
TABLE
  2
BLOCK_RECORD
  5
1
330
0
100
AcDbSymbolTable
 70
    23
  0
BLOCK_RECORD
  5
18
102
{ACAD_XDICTIONARY
360
ECE
102
}
330
1
100
AcDbSymbolTableRecord
100
AcDbBlockTableRecord
  2
*MODEL_SPACE
340
2D2
  0
BLOCK_RECORD
  5
15
330
1
100
AcDbSymbolTableRecord
100
AcDbBlockTableRecord
  2
*PAPER_SPACE
340
2D3
  0
BLOCK_RECORD
  5
1C
330
1
100
AcDbSymbolTableRecord
100
AcDbBlockTableRecord
  2
SYASEN
340
0
  0
BLOCK_RECORD
  5
1D
330
1
100
AcDbSymbolTableRecord
100
AcDbBlockTableRecord
  2
YA2
340
0
  0
BLOCK_RECORD
  5
1E
330
1
100
AcDbSymbolTableRecord
100
AcDbBlockTableRecord
  2
YA_N
340
0
102
{BLKREFS
331
281
102
}
  0
BLOCK_RECORD
  5
1F
330
1
100
AcDbSymbolTableRecord
100
AcDbBlockTableRecord
  2
DOT
340
0
  0
BLOCK_RECORD
  5
20
330
1
100
AcDbSymbolTableRecord
100
AcDbBlockTableRecord
  2
ARROW
340
0
102
{BLKREFS
331
C8E
331
EDC
331
EDD
331
EEE
331
EEF
331
EF7
331
EF8
331
10C5
331
10C6
331
10E0
331
10E1
331
1108
331
1109
331
1204
331
1205
331
120D
331
120E
331
1216
331
1217
331
121F
331
1220
331
1228
331
1229
331
1230
102
}
  0
BLOCK_RECORD
  5
21
330
1
100
AcDbSymbolTableRecord
100
AcDbBlockTableRecord
  2
YA3
340
0
  0
BLOCK_RECORD
  5
22
330
1
100
AcDbSymbolTableRecord
100
AcDbBlockTableRecord
  2
BORDER
340
0
  0
BLOCK_RECORD
  5
2FA
330
1
100
AcDbSymbolTableRecord
100
AcDbBlockTableRecord
  2
_CLOSEDBLANK
340
0
  0
BLOCK_RECORD
  5
3AD
330
1
100
AcDbSymbolTableRecord
100
AcDbBlockTableRecord
  2
*D8
340
0
  0
BLOCK_RECORD
  5
3B9
330
1
100
AcDbSymbolTableRecord
100
AcDbBlockTableRecord
  2
*D9
340
0
  0
BLOCK_RECORD
  5
3C4
330
1
100
AcDbSymbolTableRecord
100
AcDbBlockTableRecord
  2
*D10
340
0
  0
BLOCK_RECORD
  5
3CF
330
1
100
AcDbSymbolTableRecord
100
AcDbBlockTableRecord
  2
*D11
340
0
  0
BLOCK_RECORD
  5
3DB
330
1
100
AcDbSymbolTableRecord
100
AcDbBlockTableRecord
  2
*D12
340
0
  0
BLOCK_RECORD
  5
3E6
330
1
100
AcDbSymbolTableRecord
100
AcDbBlockTableRecord
  2
*D13
340
0
  0
BLOCK_RECORD
  5
B6C
330
1
100
AcDbSymbolTableRecord
100
AcDbBlockTableRecord
  2
*D14
340
0
  0
BLOCK_RECORD
  5
CD2
330
1
100
AcDbSymbolTableRecord
100
AcDbBlockTableRecord
  2
*D15
340
0
  0
BLOCK_RECORD
  5
CDE
330
1
100
AcDbSymbolTableRecord
100
AcDbBlockTableRecord
  2
*D16
340
0
  0
BLOCK_RECORD
  5
CEA
330
1
100
AcDbSymbolTableRecord
100
AcDbBlockTableRecord
  2
*D17
340
0
  0
BLOCK_RECORD
  5
CF6
330
1
100
AcDbSymbolTableRecord
100
AcDbBlockTableRecord
  2
*D18
340
0
  0
BLOCK_RECORD
  5
D02
330
1
100
AcDbSymbolTableRecord
100
AcDbBlockTableRecord
  2
*D19
340
0
  0
BLOCK_RECORD
  5
D0E
330
1
100
AcDbSymbolTableRecord
100
AcDbBlockTableRecord
  2
*D20
340
0
  0
ENDTAB
  0
ENDSEC
  0
SECTION
  2
BLOCKS
  0
BLOCK
  5
53
330
18
100
AcDbEntity
  8
0
100
AcDbBlockBegin
  2
*MODEL_SPACE
 70
     0
 10
0.0
 20
0.0
 30
0.0
  3
*MODEL_SPACE
  1

  0
ENDBLK
  5
54
330
18
100
AcDbEntity
  8
0
100
AcDbBlockEnd
  0
BLOCK
  5
51
330
15
100
AcDbEntity
 67
     1
  8
0
100
AcDbBlockBegin
  2
*PAPER_SPACE
 70
     0
 10
0.0
 20
0.0
 30
0.0
  3
*PAPER_SPACE
  1

  0
ENDBLK
  5
52
330
15
100
AcDbEntity
 67
     1
  8
0
100
AcDbBlockEnd
  0
BLOCK
  5
55
330
1C
100
AcDbEntity
  8
0
100
AcDbBlockBegin
  2
SYASEN
 70
     0
 10
0.0
 20
0.0
 30
0.0
  3
SYASEN
  1

  0
LINE
  5
56
330
1C
100
AcDbEntity
  8
0
100
AcDbLine
 10
0.0
 20
0.0
 30
0.0
 11
-1.0
 21
0.0
 31
0.0
  0
LINE
  5
57
330
1C
100
AcDbEntity
  8
0
100
AcDbLine
 10
0.5
 20
0.5
 30
0.0
 11
-0.5
 21
-0.5
 31
0.0
  0
ENDBLK
  5
58
330
1C
100
AcDbEntity
  8
0
100
AcDbBlockEnd
  0
BLOCK
  5
59
330
1D
100
AcDbEntity
  8
0
100
AcDbBlockBegin
  2
YA2
 70
     0
 10
0.0
 20
0.0
 30
0.0
  3
YA2
  1

  0
LINE
  5
5A
330
1D
100
AcDbEntity
  8
0
100
AcDbLine
 10
-1.0
 20
0.0
 30
0.0
 11
0.0
 21
0.0
 31
0.0
  0
ENDBLK
  5
5B
330
1D
100
AcDbEntity
  8
0
100
AcDbBlockEnd
  0
BLOCK
  5
5C
330
1E
100
AcDbEntity
  8
0
100
AcDbBlockBegin
  2
YA_N
 70
     0
 10
0.0
 20
0.0
 30
0.0
  3
YA_N
  1

  0
ENDBLK
  5
5D
330
1E
100
AcDbEntity
  8
0
100
AcDbBlockEnd
  0
BLOCK
  5
5E
330
1F
100
AcDbEntity
  8
0
100
AcDbBlockBegin
  2
DOT
 70
     0
 10
0.0
 20
0.0
 30
0.0
  3
DOT
  1

  0
LWPOLYLINE
  5
5F
330
1F
100
AcDbEntity
  8
0
100
AcDbPolyline
 90
        2
 70
     1
 43
0.25
 10
-0.125
 20
0.0
 42
1.0
 10
0.125
 20
0.0
 42
1.0
  0
LINE
  5
63
330
1F
100
AcDbEntity
  8
0
100
AcDbLine
 10
-1.0
 20
0.0
 30
0.0
 11
-0.25
 21
0.0
 31
0.0
  0
ENDBLK
  5
64
330
1F
100
AcDbEntity
  8
0
100
AcDbBlockEnd
  0
BLOCK
  5
65
330
20
100
AcDbEntity
  8
0
100
AcDbBlockBegin
  2
ARROW
 70
     0
 10
0.0
 20
0.0
 30
0.0
  3
ARROW
  1

  0
LINE
  5
66
330
20
100
AcDbEntity
  8
0
100
AcDbLine
 10
-0.9999999999999991
 20
0.1666666667000003
 30
0.0
 11
0.0
 21
0.0
 31
0.0
  0
LINE
  5
67
330
20
100
AcDbEntity
  8
0
100
AcDbLine
 10
-0.9999999999999991
 20
0.0
 30
0.0
 11
0.0
 21
0.0
 31
0.0
  0
LINE
  5
68
330
20
100
AcDbEntity
  8
0
100
AcDbLine
 10
-0.9999999999999991
 20
-0.1666666667000003
 30
0.0
 11
0.0
 21
0.0
 31
0.0
  0
ENDBLK
  5
69
330
20
100
AcDbEntity
  8
0
100
AcDbBlockEnd
  0
BLOCK
  5
6A
330
21
100
AcDbEntity
  8
0
100
AcDbBlockBegin
  2
YA3
 70
     0
 10
0.0
 20
0.0
 30
0.0
  3
YA3
  1

  0
SOLID
  5
6B
330
21
100
AcDbEntity
  8
0
100
AcDbTrace
 10
1.0
 20
-0.1666666666666665
 30
0.0
 11
1.0
 21
0.166666666666667
 31
0.0
 12
0.0
 22
0.0
 32
0.0
 13
0.0
 23
0.0
 33
0.0
  0
ENDBLK
  5
6C
330
21
100
AcDbEntity
  8
0
100
AcDbBlockEnd
  0
BLOCK
  5
6D
330
22
100
AcDbEntity
  8
0
100
AcDbBlockBegin
  2
BORDER
 70
     0
 10
0.0
 20
0.0
 30
0.0
  3
BORDER
  1

  0
LINE
  5
6E
330
22
100
AcDbEntity
  8
0
100
AcDbLine
 10
0.0
 20
0.0
 30
0.0
 11
1.00000000000004
 21
0.0
 31
0.0
  0
LINE
  5
6F
330
22
100
AcDbEntity
  8
0
100
AcDbLine
 10
1.00000000000004
 20
0.0
 30
0.0
 11
1.00000000000004
 21
1.00000000000004
 31
0.0
  0
LINE
  5
70
330
22
100
AcDbEntity
  8
0
100
AcDbLine
 10
1.00000000000004
 20
1.00000000000004
 30
0.0
 11
0.0
 21
1.00000000000004
 31
0.0
  0
LINE
  5
71
330
22
100
AcDbEntity
  8
0
100
AcDbLine
 10
0.0
 20
1.00000000000004
 30
0.0
 11
0.0
 21
0.0
 31
0.0
  0
ENDBLK
  5
72
330
22
100
AcDbEntity
  8
0
100
AcDbBlockEnd
  0
BLOCK
  5
2FE
330
2FA
100
AcDbEntity
  8
0
100
AcDbBlockBegin
  2
_CLOSEDBLANK
 70
     0
 10
0.0
 20
0.0
 30
0.0
  3
_CLOSEDBLANK
  1

  0
LINE
  5
2FB
330
2FA
100
AcDbEntity
  8
0
  6
ByBlock
 62
     0
100
AcDbLine
 10
-1.0
 20
0.1666666666666666
 30
0.0
 11
0.0
 21
0.0
 31
0.0
  0
LINE
  5
2FC
330
2FA
100
AcDbEntity
  8
0
  6
ByBlock
 62
     0
100
AcDbLine
 10
0.0
 20
0.0
 30
0.0
 11
-1.0
 21
-0.1666666666666666
 31
0.0
  0
LINE
  5
2FD
330
2FA
100
AcDbEntity
  8
0
  6
ByBlock
 62
     0
100
AcDbLine
 10
-1.0
 20
0.1666666666666666
 30
0.0
 11
-1.0
 21
-0.1666666666666666
 31
0.0
  0
ENDBLK
  5
2FF
330
2FA
100
AcDbEntity
  8
0
100
AcDbBlockEnd
  0
BLOCK
  5
3B7
330
3AD
100
AcDbEntity
  8
0
100
AcDbBlockBegin
  2
*D8
 70
     1
 10
0.0
 20
0.0
 30
0.0
  3
*D8
  1

  0
LINE
  5
1105
330
3AD
100
AcDbEntity
  8
SUNPOU
 62
     0
370
    -2
100
AcDbLine
 10
918.8257633170408
 20
213.1152332885176
 30
0.0
 11
918.8257633170408
 21
-90.67646346810212
 31
0.0
  0
LINE
  5
1106
330
3AD
100
AcDbEntity
  8
SUNPOU
 62
     0
370
    -2
100
AcDbLine
 10
2128.825763317041
 20
213.1152332885176
 30
0.0
 11
2128.825763317041
 21
-90.67646346810212
 31
0.0
  0
LINE
  5
1107
330
3AD
100
AcDbEntity
  8
SUNPOU
 62
     0
370
    -2
100
AcDbLine
 10
938.8257633170407
 20
-80.67646346810215
 30
0.0
 11
2108.825763317041
 21
-80.67646346810215
 31
0.0
  0
INSERT
  5
1108
330
3AD
100
AcDbEntity
  8
SUNPOU
 62
     0
370
    -2
100
AcDbBlockReference
  2
ARROW
 10
918.8257633170408
 20
-80.67646346810215
 30
0.0
 41
20.0
 42
20.0
 43
20.0
 50
180.0
  0
INSERT
  5
1109
330
3AD
100
AcDbEntity
  8
SUNPOU
 62
     0
370
    -2
100
AcDbBlockReference
  2
ARROW
 10
2128.825763317041
 20
-80.67646346810215
 30
0.0
 41
20.0
 42
20.0
 43
20.0
  0
MTEXT
  5
110A
330
3AD
100
AcDbEntity
  8
SUNPOU
 62
     0
100
AcDbMText
 10
1523.825763317041
 20
-50.67646346810215
 30
0.0
 40
40.0
 41
0.0
 71
     5
 72
     1
  1
\A1;1210
  7
BIGFONT
 73
     1
 44
1.0
  0
POINT
  5
110B
330
3AD
100
AcDbEntity
  8
DEFPOINTS
 62
     0
100
AcDbPoint
 10
918.8257633170408
 20
223.1152332885176
 30
0.0
  0
POINT
  5
110C
330
3AD
100
AcDbEntity
  8
DEFPOINTS
 62
     0
100
AcDbPoint
 10
2128.825763317041
 20
223.1152332885176
 30
0.0
  0
POINT
  5
110D
330
3AD
100
AcDbEntity
  8
DEFPOINTS
 62
     0
100
AcDbPoint
 10
2128.825763317041
 20
-80.67646346810215
 30
0.0
  0
ENDBLK
  5
3B8
330
3AD
100
AcDbEntity
  8
0
100
AcDbBlockEnd
  0
BLOCK
  5
3C2
330
3B9
100
AcDbEntity
  8
0
100
AcDbBlockBegin
  2
*D9
 70
     1
 10
0.0
 20
0.0
 30
0.0
  3
*D9
  1

  0
LINE
  5
EEB
330
3B9
100
AcDbEntity
  8
SUNPOU
 62
     0
370
    -2
100
AcDbLine
 10
847.9079827674434
 20
980.1569943480618
 30
0.0
 11
749.1944602843071
 21
980.156994348062
 31
0.0
  0
LINE
  5
EEC
330
3B9
100
AcDbEntity
  8
SUNPOU
 62
     0
370
    -2
100
AcDbLine
 10
847.9317083736388
 20
880.1569943480616
 30
0.0
 11
749.1944602843071
 21
880.1569943480616
 31
0.0
  0
LINE
  5
EED
330
3B9
100
AcDbEntity
  8
SUNPOU
 62
     0
370
    -2
100
AcDbLine
 10
759.1944602843072
 20
960.1569943480619
 30
0.0
 11
759.1944602843072
 21
900.1569943480618
 31
0.0
  0
INSERT
  5
EEE
330
3B9
100
AcDbEntity
  8
SUNPOU
 62
     0
370
    -2
100
AcDbBlockReference
  2
ARROW
 10
759.1944602843072
 20
980.156994348062
 30
0.0
 41
20.0
 42
20.0
 43
20.0
 50
90.0
  0
INSERT
  5
EEF
330
3B9
100
AcDbEntity
  8
SUNPOU
 62
     0
370
    -2
100
AcDbBlockReference
  2
ARROW
 10
759.1944602843072
 20
880.1569943480616
 30
0.0
 41
20.0
 42
20.0
 43
20.0
 50
270.0
  0
MTEXT
  5
EF0
330
3B9
100
AcDbEntity
  8
SUNPOU
 62
     0
100
AcDbMText
 10
729.194460284307
 20
930.156994348062
 30
0.0
 40
40.0
 41
0.0
 71
     5
 72
     1
  1
\A1;100
  7
BIGFONT
 11
0.0000000000000001
 21
1.0
 31
0.0
 73
     1
 44
1.0
  0
POINT
  5
EF1
330
3B9
100
AcDbEntity
  8
DEFPOINTS
 62
     0
100
AcDbPoint
 10
857.9079827674434
 20
980.1569943480618
 30
0.0
  0
POINT
  5
EF2
330
3B9
100
AcDbEntity
  8
DEFPOINTS
 62
     0
100
AcDbPoint
 10
857.9317083736389
 20
880.1569943480616
 30
0.0
  0
POINT
  5
EF3
330
3B9
100
AcDbEntity
  8
DEFPOINTS
 62
     0
100
AcDbPoint
 10
759.1944602843072
 20
880.1569943480616
 30
0.0
  0
ENDBLK
  5
3C3
330
3B9
100
AcDbEntity
  8
0
100
AcDbBlockEnd
  0
BLOCK
  5
3CD
330
3C4
100
AcDbEntity
  8
0
100
AcDbBlockBegin
  2
*D10
 70
     1
 10
0.0
 20
0.0
 30
0.0
  3
*D10
  1

  0
LINE
  5
EF4
330
3C4
100
AcDbEntity
  8
SUNPOU
 62
     0
370
    -2
100
AcDbLine
 10
847.9317083736388
 20
880.1569943480616
 30
0.0
 11
749.1944602843071
 21
880.1569943480616
 31
0.0
  0
LINE
  5
EF5
330
3C4
100
AcDbEntity
  8
SUNPOU
 62
     0
370
    -2
100
AcDbLine
 10
847.9317083736388
 20
374.1569943480616
 30
0.0
 11
749.194460284307
 21
374.1569943480616
 31
0.0
  0
LINE
  5
EF6
330
3C4
100
AcDbEntity
  8
SUNPOU
 62
     0
370
    -2
100
AcDbLine
 10
759.1944602843072
 20
860.1569943480617
 30
0.0
 11
759.1944602843071
 21
394.1569943480616
 31
0.0
  0
INSERT
  5
EF7
330
3C4
100
AcDbEntity
  8
SUNPOU
 62
     0
370
    -2
100
AcDbBlockReference
  2
ARROW
 10
759.1944602843072
 20
880.1569943480616
 30
0.0
 41
20.0
 42
20.0
 43
20.0
 50
90.0
  0
INSERT
  5
EF8
330
3C4
100
AcDbEntity
  8
SUNPOU
 62
     0
370
    -2
100
AcDbBlockReference
  2
ARROW
 10
759.1944602843071
 20
374.1569943480616
 30
0.0
 41
20.0
 42
20.0
 43
20.0
 50
270.0
  0
MTEXT
  5
EF9
330
3C4
100
AcDbEntity
  8
SUNPOU
 62
     0
100
AcDbMText
 10
729.1944602843069
 20
627.1569943480618
 30
0.0
 40
40.0
 41
0.0
 71
     5
 72
     1
  1
\A1;506
  7
BIGFONT
 11
0.0000000000000001
 21
1.0
 31
0.0
 73
     1
 44
1.0
  0
POINT
  5
EFA
330
3C4
100
AcDbEntity
  8
DEFPOINTS
 62
     0
100
AcDbPoint
 10
857.9317083736389
 20
880.1569943480616
 30
0.0
  0
POINT
  5
EFB
330
3C4
100
AcDbEntity
  8
DEFPOINTS
 62
     0
100
AcDbPoint
 10
857.9317083736389
 20
374.1569943480616
 30
0.0
  0
POINT
  5
EFC
330
3C4
100
AcDbEntity
  8
DEFPOINTS
 62
     0
100
AcDbPoint
 10
759.1944602843071
 20
374.1569943480616
 30
0.0
  0
ENDBLK
  5
3CE
330
3C4
100
AcDbEntity
  8
0
100
AcDbBlockEnd
  0
BLOCK
  5
3D9
330
3CF
100
AcDbEntity
  8
0
100
AcDbBlockBegin
  2
*D11
 70
     1
 10
0.0
 20
0.0
 30
0.0
  3
*D11
  1

  0
LINE
  5
10DD
330
3CF
100
AcDbEntity
  8
SUNPOU
 62
     0
370
    -2
100
AcDbLine
 10
847.9317083736388
 20
980.1569943480616
 30
0.0
 11
619.6030066280656
 21
980.1569943480616
 31
0.0
  0
LINE
  5
10DE
330
3CF
100
AcDbEntity
  8
SUNPOU
 62
     0
370
    -2
100
AcDbLine
 10
937.2614620084773
 20
224.1569943480617
 30
0.0
 11
619.6030066280655
 21
224.1569943480618
 31
0.0
  0
LINE
  5
10DF
330
3CF
100
AcDbEntity
  8
SUNPOU
 62
     0
370
    -2
100
AcDbLine
 10
629.6030066280657
 20
960.1569943480617
 30
0.0
 11
629.6030066280654
 21
244.1569943480618
 31
0.0
  0
INSERT
  5
10E0
330
3CF
100
AcDbEntity
  8
SUNPOU
 62
     0
370
    -2
100
AcDbBlockReference
  2
ARROW
 10
629.6030066280657
 20
980.1569943480616
 30
0.0
 41
20.0
 42
20.0
 43
20.0
 50
90.0
  0
INSERT
  5
10E1
330
3CF
100
AcDbEntity
  8
SUNPOU
 62
     0
370
    -2
100
AcDbBlockReference
  2
ARROW
 10
629.6030066280654
 20
224.1569943480618
 30
0.0
 41
20.0
 42
20.0
 43
20.0
 50
270.0
  0
MTEXT
  5
10E2
330
3CF
100
AcDbEntity
  8
SUNPOU
 62
     0
100
AcDbMText
 10
599.6030066280654
 20
602.156994348062
 30
0.0
 40
40.0
 41
0.0
 71
     5
 72
     1
  1
\A1;756
  7
BIGFONT
 11
0.0000000000000001
 21
1.0
 31
0.0
 73
     1
 44
1.0
  0
POINT
  5
10E3
330
3CF
100
AcDbEntity
  8
DEFPOINTS
 62
     0
100
AcDbPoint
 10
857.9317083736389
 20
980.1569943480616
 30
0.0
  0
POINT
  5
10E4
330
3CF
100
AcDbEntity
  8
DEFPOINTS
 62
     0
100
AcDbPoint
 10
947.2614620084772
 20
224.1569943480617
 30
0.0
  0
POINT
  5
10E5
330
3CF
100
AcDbEntity
  8
DEFPOINTS
 62
     0
100
AcDbPoint
 10
629.6030066280654
 20
224.1569943480618
 30
0.0
  0
ENDBLK
  5
3DA
330
3CF
100
AcDbEntity
  8
0
100
AcDbBlockEnd
  0
BLOCK
  5
3E4
330
3DB
100
AcDbEntity
  8
0
100
AcDbBlockBegin
  2
*D12
 70
     1
 10
0.0
 20
0.0
 30
0.0
  3
*D12
  1

  0
LINE
  5
10C2
330
3DB
100
AcDbEntity
  8
SUNPOU
 62
     0
370
    -2
100
AcDbLine
 10
847.9317083736388
 20
374.1569943480616
 30
0.0
 11
749.1944602843071
 21
374.1569943480616
 31
0.0
  0
LINE
  5
10C3
330
3DB
100
AcDbEntity
  8
SUNPOU
 62
     0
370
    -2
100
AcDbLine
 10
937.2614620084773
 20
224.1569943480617
 30
0.0
 11
749.194460284307
 21
224.1569943480618
 31
0.0
  0
LINE
  5
10C4
330
3DB
100
AcDbEntity
  8
SUNPOU
 62
     0
370
    -2
100
AcDbLine
 10
759.1944602843072
 20
354.1569943480616
 30
0.0
 11
759.1944602843071
 21
244.1569943480618
 31
0.0
  0
INSERT
  5
10C5
330
3DB
100
AcDbEntity
  8
SUNPOU
 62
     0
370
    -2
100
AcDbBlockReference
  2
ARROW
 10
759.1944602843072
 20
374.1569943480616
 30
0.0
 41
20.0
 42
20.0
 43
20.0
 50
90.0
  0
INSERT
  5
10C6
330
3DB
100
AcDbEntity
  8
SUNPOU
 62
     0
370
    -2
100
AcDbBlockReference
  2
ARROW
 10
759.1944602843071
 20
224.1569943480618
 30
0.0
 41
20.0
 42
20.0
 43
20.0
 50
270.0
  0
MTEXT
  5
10C7
330
3DB
100
AcDbEntity
  8
SUNPOU
 62
     0
100
AcDbMText
 10
729.194460284307
 20
299.1569943480618
 30
0.0
 40
40.0
 41
0.0
 71
     5
 72
     1
  1
\A1;150
  7
BIGFONT
 11
0.0000000000000001
 21
1.0
 31
0.0
 73
     1
 44
1.0
  0
POINT
  5
10C8
330
3DB
100
AcDbEntity
  8
DEFPOINTS
 62
     0
100
AcDbPoint
 10
857.9317083736389
 20
374.1569943480616
 30
0.0
  0
POINT
  5
10C9
330
3DB
100
AcDbEntity
  8
DEFPOINTS
 62
     0
100
AcDbPoint
 10
947.2614620084772
 20
224.1569943480617
 30
0.0
  0
POINT
  5
10CA
330
3DB
100
AcDbEntity
  8
DEFPOINTS
 62
     0
100
AcDbPoint
 10
759.1944602843071
 20
224.1569943480618
 30
0.0
  0
ENDBLK
  5
3E5
330
3DB
100
AcDbEntity
  8
0
100
AcDbBlockEnd
  0
BLOCK
  5
3F0
330
3E6
100
AcDbEntity
  8
0
100
AcDbBlockBegin
  2
*D13
 70
     1
 10
0.0
 20
0.0
 30
0.0
  3
*D13
  1

  0
LINE
  5
ED9
330
3E6
100
AcDbEntity
  8
SUNPOU
 62
     0
370
    -2
100
AcDbLine
 10
1218.82576331704
 20
214.1569943480616
 30
0.0
 11
1218.82576331704
 21
64.45209935711398
 31
0.0
  0
LINE
  5
EDA
330
3E6
100
AcDbEntity
  8
SUNPOU
 62
     0
370
    -2
100
AcDbLine
 10
1828.710374244358
 20
214.2590165334717
 30
0.0
 11
1828.710374244358
 21
64.45209935711398
 31
0.0
  0
LINE
  5
EDB
330
3E6
100
AcDbEntity
  8
SUNPOU
 62
     0
370
    -2
100
AcDbLine
 10
1238.82576331704
 20
74.45209935711398
 30
0.0
 11
1808.710374244358
 21
74.45209935711398
 31
0.0
  0
INSERT
  5
EDC
330
3E6
100
AcDbEntity
  8
SUNPOU
 62
     0
370
    -2
100
AcDbBlockReference
  2
ARROW
 10
1218.82576331704
 20
74.45209935711398
 30
0.0
 41
20.0
 42
20.0
 43
20.0
 50
180.0
  0
INSERT
  5
EDD
330
3E6
100
AcDbEntity
  8
SUNPOU
 62
     0
370
    -2
100
AcDbBlockReference
  2
ARROW
 10
1828.710374244358
 20
74.45209935711398
 30
0.0
 41
20.0
 42
20.0
 43
20.0
  0
MTEXT
  5
EDE
330
3E6
100
AcDbEntity
  8
SUNPOU
 62
     0
100
AcDbMText
 10
1523.768068780699
 20
104.452099357114
 30
0.0
 40
40.0
 41
0.0
 71
     5
 72
     1
  1
\A1;610
  7
BIGFONT
 73
     1
 44
1.0
  0
POINT
  5
EDF
330
3E6
100
AcDbEntity
  8
DEFPOINTS
 62
     0
100
AcDbPoint
 10
1218.82576331704
 20
224.1569943480616
 30
0.0
  0
POINT
  5
EE0
330
3E6
100
AcDbEntity
  8
DEFPOINTS
 62
     0
100
AcDbPoint
 10
1828.710374244358
 20
224.2590165334717
 30
0.0
  0
POINT
  5
EE1
330
3E6
100
AcDbEntity
  8
DEFPOINTS
 62
     0
100
AcDbPoint
 10
1828.710374244358
 20
74.45209935711398
 30
0.0
  0
ENDBLK
  5
3F1
330
3E6
100
AcDbEntity
  8
0
100
AcDbBlockEnd
  0
BLOCK
  5
B72
330
B6C
100
AcDbEntity
  8
0
100
AcDbBlockBegin
  2
*D14
 70
     1
 10
0.0
 20
0.0
 30
0.0
  3
*D14
  1

  0
LINE
  5
C8C
330
B6C
100
AcDbEntity
  8
SUNPOU
 62
     0
370
    -2
100
AcDbLine
 10
1606.417268439721
 20
637.1320731246282
 30
0.0
 11
1345.124390963174
 21
605.5741419219823
 31
0.0
  0
MTEXT
  5
C8D
102
{ACAD_XDICTIONARY
360
1235
102
}
330
B6C
100
AcDbEntity
  8
SUNPOU
 62
     0
100
AcDbMText
 10
1523.870049164752
 20
657.3803538207614
 30
0.0
 40
40.0
 41
0.0
 71
     5
 72
     1
  1
\A1;\U+2205400
  7
BIGFONT
 11
0.9927854019659079
 21
0.1199047357004343
 31
0.0
 73
     1
 44
1.0
  0
INSERT
  5
C8E
330
B6C
100
AcDbEntity
  8
SUNPOU
 62
     0
370
    -2
100
AcDbBlockReference
  2
ARROW
 10
1325.268682923855
 20
603.1760472079736
 30
0.0
 41
20.0
 42
20.0
 43
20.0
 50
186.8866046399832
  0
POINT
  5
C8F
330
B6C
100
AcDbEntity
  8
DEFPOINTS
 62
     0
100
AcDbPoint
 10
1325.268682923855
 20
603.1760472079736
 30
0.0
  0
POINT
  5
C90
330
B6C
100
AcDbEntity
  8
DEFPOINTS
 62
     0
100
AcDbPoint
 10
1722.382843710221
 20
651.1379414881479
 30
0.0
  0
ENDBLK
  5
B73
330
B6C
100
AcDbEntity
  8
0
100
AcDbBlockEnd
  0
BLOCK
  5
CDC
330
CD2
100
AcDbEntity
  8
0
100
AcDbBlockBegin
  2
*D15
 70
     1
 10
0.0
 20
0.0
 30
0.0
  3
*D15
  1

  0
LINE
  5
1225
330
CD2
100
AcDbEntity
  8
SUNPOU
 62
     0
370
    -2
100
AcDbLine
 10
3646.328006886744
 20
980.1569943480627
 30
0.0
 11
3547.614484403606
 21
980.1569943480627
 31
0.0
  0
LINE
  5
1226
330
CD2
100
AcDbEntity
  8
SUNPOU
 62
     0
370
    -2
100
AcDbLine
 10
3646.351732492938
 20
880.1569943480625
 30
0.0
 11
3547.614484403606
 21
880.1569943480625
 31
0.0
  0
LINE
  5
1227
330
CD2
100
AcDbEntity
  8
SUNPOU
 62
     0
370
    -2
100
AcDbLine
 10
3557.614484403607
 20
960.1569943480628
 30
0.0
 11
3557.614484403607
 21
900.1569943480625
 31
0.0
  0
INSERT
  5
1228
330
CD2
100
AcDbEntity
  8
SUNPOU
 62
     0
370
    -2
100
AcDbBlockReference
  2
ARROW
 10
3557.614484403607
 20
980.1569943480627
 30
0.0
 41
20.0
 42
20.0
 43
20.0
 50
90.0
  0
INSERT
  5
1229
330
CD2
100
AcDbEntity
  8
SUNPOU
 62
     0
370
    -2
100
AcDbBlockReference
  2
ARROW
 10
3557.614484403607
 20
880.1569943480625
 30
0.0
 41
20.0
 42
20.0
 43
20.0
 50
270.0
  0
MTEXT
  5
122A
330
CD2
100
AcDbEntity
  8
SUNPOU
 62
     0
100
AcDbMText
 10
3527.614484403607
 20
930.1569943480632
 30
0.0
 40
40.0
 41
0.0
 71
     5
 72
     1
  1
\A1;100
  7
BIGFONT
 11
0.0000000000000001
 21
1.0
 31
0.0
 73
     1
 44
1.0
  0
POINT
  5
122B
330
CD2
100
AcDbEntity
  8
DEFPOINTS
 62
     0
100
AcDbPoint
 10
3656.328006886743
 20
980.1569943480627
 30
0.0
  0
POINT
  5
122C
330
CD2
100
AcDbEntity
  8
DEFPOINTS
 62
     0
100
AcDbPoint
 10
3656.351732492939
 20
880.1569943480625
 30
0.0
  0
POINT
  5
122D
330
CD2
100
AcDbEntity
  8
DEFPOINTS
 62
     0
100
AcDbPoint
 10
3557.614484403607
 20
880.1569943480625
 30
0.0
  0
ENDBLK
  5
CDD
330
CD2
100
AcDbEntity
  8
0
100
AcDbBlockEnd
  0
BLOCK
  5
CE8
330
CDE
100
AcDbEntity
  8
0
100
AcDbBlockBegin
  2
*D16
 70
     1
 10
0.0
 20
0.0
 30
0.0
  3
*D16
  1

  0
LINE
  5
120A
330
CDE
100
AcDbEntity
  8
SUNPOU
 62
     0
370
    -2
100
AcDbLine
 10
3646.351732492938
 20
880.1569943480625
 30
0.0
 11
3547.614484403606
 21
880.1569943480625
 31
0.0
  0
LINE
  5
120B
330
CDE
100
AcDbEntity
  8
SUNPOU
 62
     0
370
    -2
100
AcDbLine
 10
3646.351732492938
 20
374.1569943480625
 30
0.0
 11
3547.614484403606
 21
374.1569943480625
 31
0.0
  0
LINE
  5
120C
330
CDE
100
AcDbEntity
  8
SUNPOU
 62
     0
370
    -2
100
AcDbLine
 10
3557.614484403607
 20
860.1569943480624
 30
0.0
 11
3557.614484403607
 21
394.1569943480626
 31
0.0
  0
INSERT
  5
120D
330
CDE
100
AcDbEntity
  8
SUNPOU
 62
     0
370
    -2
100
AcDbBlockReference
  2
ARROW
 10
3557.614484403607
 20
880.1569943480625
 30
0.0
 41
20.0
 42
20.0
 43
20.0
 50
90.0
  0
INSERT
  5
120E
330
CDE
100
AcDbEntity
  8
SUNPOU
 62
     0
370
    -2
100
AcDbBlockReference
  2
ARROW
 10
3557.614484403607
 20
374.1569943480625
 30
0.0
 41
20.0
 42
20.0
 43
20.0
 50
270.0
  0
MTEXT
  5
120F
330
CDE
100
AcDbEntity
  8
SUNPOU
 62
     0
100
AcDbMText
 10
3527.614484403607
 20
627.156994348063
 30
0.0
 40
40.0
 41
0.0
 71
     5
 72
     1
  1
\A1;506
  7
BIGFONT
 11
0.0000000000000001
 21
1.0
 31
0.0
 73
     1
 44
1.0
  0
POINT
  5
1210
330
CDE
100
AcDbEntity
  8
DEFPOINTS
 62
     0
100
AcDbPoint
 10
3656.351732492939
 20
880.1569943480625
 30
0.0
  0
POINT
  5
1211
330
CDE
100
AcDbEntity
  8
DEFPOINTS
 62
     0
100
AcDbPoint
 10
3656.351732492939
 20
374.1569943480625
 30
0.0
  0
POINT
  5
1212
330
CDE
100
AcDbEntity
  8
DEFPOINTS
 62
     0
100
AcDbPoint
 10
3557.614484403607
 20
374.1569943480625
 30
0.0
  0
ENDBLK
  5
CE9
330
CDE
100
AcDbEntity
  8
0
100
AcDbBlockEnd
  0
BLOCK
  5
CF4
330
CEA
100
AcDbEntity
  8
0
100
AcDbBlockBegin
  2
*D17
 70
     1
 10
0.0
 20
0.0
 30
0.0
  3
*D17
  1

  0
LINE
  5
1201
330
CEA
100
AcDbEntity
  8
SUNPOU
 62
     0
370
    -2
100
AcDbLine
 10
3646.351732492938
 20
980.1569943480625
 30
0.0
 11
3434.676146474234
 21
980.1569943480625
 31
0.0
  0
LINE
  5
1202
330
CEA
100
AcDbEntity
  8
SUNPOU
 62
     0
370
    -2
100
AcDbLine
 10
3651.067357812457
 20
224.1569943480626
 30
0.0
 11
3434.676146474234
 21
224.1569943480627
 31
0.0
  0
LINE
  5
1203
330
CEA
100
AcDbEntity
  8
SUNPOU
 62
     0
370
    -2
100
AcDbLine
 10
3444.676146474234
 20
960.1569943480624
 30
0.0
 11
3444.676146474234
 21
244.1569943480627
 31
0.0
  0
INSERT
  5
1204
330
CEA
100
AcDbEntity
  8
SUNPOU
 62
     0
370
    -2
100
AcDbBlockReference
  2
ARROW
 10
3444.676146474234
 20
980.1569943480625
 30
0.0
 41
20.0
 42
20.0
 43
20.0
 50
90.0
  0
INSERT
  5
1205
330
CEA
100
AcDbEntity
  8
SUNPOU
 62
     0
370
    -2
100
AcDbBlockReference
  2
ARROW
 10
3444.676146474234
 20
224.1569943480627
 30
0.0
 41
20.0
 42
20.0
 43
20.0
 50
270.0
  0
MTEXT
  5
1206
330
CEA
100
AcDbEntity
  8
SUNPOU
 62
     0
100
AcDbMText
 10
3414.676146474234
 20
602.156994348063
 30
0.0
 40
40.0
 41
0.0
 71
     5
 72
     1
  1
\A1;756
  7
BIGFONT
 11
0.0000000000000001
 21
1.0
 31
0.0
 73
     1
 44
1.0
  0
POINT
  5
1207
330
CEA
100
AcDbEntity
  8
DEFPOINTS
 62
     0
100
AcDbPoint
 10
3656.351732492939
 20
980.1569943480625
 30
0.0
  0
POINT
  5
1208
330
CEA
100
AcDbEntity
  8
DEFPOINTS
 62
     0
100
AcDbPoint
 10
3661.067357812457
 20
224.1569943480626
 30
0.0
  0
POINT
  5
1209
330
CEA
100
AcDbEntity
  8
DEFPOINTS
 62
     0
100
AcDbPoint
 10
3444.676146474234
 20
224.1569943480627
 30
0.0
  0
ENDBLK
  5
CF5
330
CEA
100
AcDbEntity
  8
0
100
AcDbBlockEnd
  0
BLOCK
  5
D00
330
CF6
100
AcDbEntity
  8
0
100
AcDbBlockBegin
  2
*D18
 70
     1
 10
0.0
 20
0.0
 30
0.0
  3
*D18
  1

  0
LINE
  5
121C
330
CF6
100
AcDbEntity
  8
SUNPOU
 62
     0
370
    -2
100
AcDbLine
 10
3646.351732492938
 20
374.1569943480625
 30
0.0
 11
3547.614484403606
 21
374.1569943480625
 31
0.0
  0
LINE
  5
121D
330
CF6
100
AcDbEntity
  8
SUNPOU
 62
     0
370
    -2
100
AcDbLine
 10
3651.067357812457
 20
224.1569943480626
 30
0.0
 11
3547.614484403606
 21
224.1569943480627
 31
0.0
  0
LINE
  5
121E
330
CF6
100
AcDbEntity
  8
SUNPOU
 62
     0
370
    -2
100
AcDbLine
 10
3557.614484403607
 20
354.1569943480626
 30
0.0
 11
3557.614484403607
 21
244.1569943480626
 31
0.0
  0
INSERT
  5
121F
330
CF6
100
AcDbEntity
  8
SUNPOU
 62
     0
370
    -2
100
AcDbBlockReference
  2
ARROW
 10
3557.614484403607
 20
374.1569943480625
 30
0.0
 41
20.0
 42
20.0
 43
20.0
 50
90.0
  0
INSERT
  5
1220
330
CF6
100
AcDbEntity
  8
SUNPOU
 62
     0
370
    -2
100
AcDbBlockReference
  2
ARROW
 10
3557.614484403607
 20
224.1569943480627
 30
0.0
 41
20.0
 42
20.0
 43
20.0
 50
270.0
  0
MTEXT
  5
1221
330
CF6
100
AcDbEntity
  8
SUNPOU
 62
     0
100
AcDbMText
 10
3527.614484403607
 20
299.1569943480632
 30
0.0
 40
40.0
 41
0.0
 71
     5
 72
     1
  1
\A1;150
  7
BIGFONT
 11
0.0000000000000001
 21
1.0
 31
0.0
 73
     1
 44
1.0
  0
POINT
  5
1222
330
CF6
100
AcDbEntity
  8
DEFPOINTS
 62
     0
100
AcDbPoint
 10
3656.351732492939
 20
374.1569943480625
 30
0.0
  0
POINT
  5
1223
330
CF6
100
AcDbEntity
  8
DEFPOINTS
 62
     0
100
AcDbPoint
 10
3661.067357812457
 20
224.1569943480626
 30
0.0
  0
POINT
  5
1224
330
CF6
100
AcDbEntity
  8
DEFPOINTS
 62
     0
100
AcDbPoint
 10
3557.614484403607
 20
224.1569943480627
 30
0.0
  0
ENDBLK
  5
D01
330
CF6
100
AcDbEntity
  8
0
100
AcDbBlockEnd
  0
BLOCK
  5
D0C
330
D02
100
AcDbEntity
  8
0
100
AcDbBlockBegin
  2
*D19
 70
     1
 10
0.0
 20
0.0
 30
0.0
  3
*D19
  1

  0
LINE
  5
1213
330
D02
100
AcDbEntity
  8
SUNPOU
 62
     0
370
    -2
100
AcDbLine
 10
3688.825763317042
 20
214.1569943480626
 30
0.0
 11
3688.825763317042
 21
64.45209935711488
 31
0.0
  0
LINE
  5
1214
330
D02
100
AcDbEntity
  8
SUNPOU
 62
     0
370
    -2
100
AcDbLine
 10
4398.825763317041
 20
214.1569943480626
 30
0.0
 11
4398.825763317041
 21
64.45209935711488
 31
0.0
  0
LINE
  5
1215
330
D02
100
AcDbEntity
  8
SUNPOU
 62
     0
370
    -2
100
AcDbLine
 10
3708.825763317042
 20
74.45209935711488
 30
0.0
 11
4378.825763317041
 21
74.45209935711488
 31
0.0
  0
INSERT
  5
1216
330
D02
100
AcDbEntity
  8
SUNPOU
 62
     0
370
    -2
100
AcDbBlockReference
  2
ARROW
 10
3688.825763317042
 20
74.45209935711488
 30
0.0
 41
20.0
 42
20.0
 43
20.0
 50
180.0
  0
INSERT
  5
1217
330
D02
100
AcDbEntity
  8
SUNPOU
 62
     0
370
    -2
100
AcDbBlockReference
  2
ARROW
 10
4398.825763317041
 20
74.45209935711488
 30
0.0
 41
20.0
 42
20.0
 43
20.0
  0
MTEXT
  5
1218
330
D02
100
AcDbEntity
  8
SUNPOU
 62
     0
100
AcDbMText
 10
4043.825763317041
 20
104.4520993571149
 30
0.0
 40
40.0
 41
0.0
 71
     5
 72
     1
  1
\A1;710
  7
BIGFONT
 73
     1
 44
1.0
  0
POINT
  5
1219
330
D02
100
AcDbEntity
  8
DEFPOINTS
 62
     0
100
AcDbPoint
 10
3688.825763317042
 20
224.1569943480626
 30
0.0
  0
POINT
  5
121A
330
D02
100
AcDbEntity
  8
DEFPOINTS
 62
     0
100
AcDbPoint
 10
4398.825763317041
 20
224.1569943480626
 30
0.0
  0
POINT
  5
121B
330
D02
100
AcDbEntity
  8
DEFPOINTS
 62
     0
100
AcDbPoint
 10
4398.825763317041
 20
74.45209935711488
 30
0.0
  0
ENDBLK
  5
D0D
330
D02
100
AcDbEntity
  8
0
100
AcDbBlockEnd
  0
BLOCK
  5
D14
330
D0E
100
AcDbEntity
  8
0
100
AcDbBlockBegin
  2
*D20
 70
     1
 10
0.0
 20
0.0
 30
0.0
  3
*D20
  1

  0
LINE
  5
122E
330
D0E
100
AcDbEntity
  8
SUNPOU
 62
     0
370
    -2
100
AcDbLine
 10
4126.417268439717
 20
637.1320731246287
 30
0.0
 11
3865.124390963171
 21
605.5741419219828
 31
0.0
  0
MTEXT
  5
122F
102
{ACAD_XDICTIONARY
360
123B
102
}
330
D0E
100
AcDbEntity
  8
SUNPOU
 62
     0
100
AcDbMText
 10
4043.870049164749
 20
657.3803538207621
 30
0.0
 40
40.0
 41
0.0
 71
     5
 72
     1
  1
\A1;\U+2205400
  7
BIGFONT
 11
0.9927854019659076
 21
0.1199047357004343
 31
0.0
 73
     1
 44
1.0
  0
INSERT
  5
1230
330
D0E
100
AcDbEntity
  8
SUNPOU
 62
     0
370
    -2
100
AcDbBlockReference
  2
ARROW
 10
3845.268682923853
 20
603.1760472079743
 30
0.0
 41
20.0
 42
20.0
 43
20.0
 50
186.8866046399832
  0
POINT
  5
1231
330
D0E
100
AcDbEntity
  8
DEFPOINTS
 62
     0
100
AcDbPoint
 10
3845.268682923853
 20
603.1760472079743
 30
0.0
  0
POINT
  5
1232
330
D0E
100
AcDbEntity
  8
DEFPOINTS
 62
     0
100
AcDbPoint
 10
4242.38284371022
 20
651.1379414881482
 30
0.0
  0
ENDBLK
  5
D15
330
D0E
100
AcDbEntity
  8
0
100
AcDbBlockEnd
  0
ENDSEC
  0
SECTION
  2
ENTITIES
  0
INSERT
  5
281
330
18
100
AcDbEntity
  8
0
100
AcDbBlockReference
  2
YA_N
 10
6.0
 20
5.0
 30
0.0
  0
TEXT
  5
2B1
330
18
100
AcDbEntity
  8
0
100
AcDbText
 10
1973.924226926063
 20
1680.348734370223
 30
0.0
 40
50.0
  1
S=1/10
  7
BIGFONT
 11
1973.924226926063
 21
1705.348734370223
 31
0.0
100
AcDbText
 73
     2
  0
DIMENSION
  5
37F
330
18
100
AcDbEntity
  8
SUNPOU
100
AcDbDimension
  2
*D8
 10
2128.825763317041
 20
-80.67646346810215
 30
0.0
 11
1523.825763317041
 21
-50.67646346810215
 31
0.0
 70
    32
 71
     5
 42
1210.0
  3
DIA1
100
AcDbAlignedDimension
 13
918.8257633170408
 23
223.1152332885176
 33
0.0
 14
2128.825763317041
 24
223.1152332885176
 34
0.0
100
AcDbRotatedDimension
1001
ACAD
1000
DSTYLE
1002
{
1070
   140
1040
4.0
1070
   173
1070
     1
1070
   272
1070
     0
1070
   342
1005
0
1070
   343
1005
20
1070
   344
1005
20
1002
}
  0
LINE
  5
380
330
18
100
AcDbEntity
  8
0
100
AcDbLine
 10
2053.825763317041
 20
1180.156994348061
 30
0.0
 11
916.486917170042
 21
1180.156994348061
 31
0.0
  0
LEADER
  5
383
330
18
100
AcDbEntity
  8
SUNPOU
  6
ByBlock
100
AcDbLeader
  3
DIA1
 73
     0
 74
     0
 75
     1
 40
45.0
 41
171.0
 76
     3
 10
1792.935629320692
 20
674.8883027470305
 30
0.0
 10
1963.464888003335
 20
360.2113774025951
 30
0.0
 10
1983.464888003335
 20
360.2113774025951
 30
0.0
340
384
1001
ACAD
1000
DSTYLE
1002
{
1070
   140
1040
4.0
1070
   173
1070
     1
1070
   272
1070
     0
1070
   342
1005
0
1070
   343
1005
20
1070
   344
1005
20
1002
}
  0
MTEXT
  5
384
102
{ACAD_REACTORS
330
383
102
}
330
18
100
AcDbEntity
  8
SUNPOU
  6
ByBlock
100
AcDbMText
 10
1993.464888003335
 20
392.7113774025951
 30
0.0
 40
45.0
 41
0.0
 71
     4
 72
     1
  1
{\Ftxt.shx,bigfont.shx;ﾌｨﾙﾀｰ砂}
 73
     1
 44
1.0
  0
LINE
  5
385
330
18
100
AcDbEntity
  8
0
  6
ByBlock
100
AcDbLine
 10
1053.82576331704
 20
1160.156994348062
 30
0.0
 11
1093.82576331704
 21
1120.156994348062
 31
0.0
  0
LINE
  5
386
330
18
100
AcDbEntity
  8
0
  6
ByBlock
100
AcDbLine
 10
1073.82576331704
 20
1180.156994348061
 30
0.0
 11
993.8257633170415
 21
1100.156994348062
 31
0.0
  0
LINE
  5
387
330
18
100
AcDbEntity
  8
0
  6
ByBlock
100
AcDbLine
 10
1033.82576331704
 20
1140.15699434806
 30
0.0
 11
1073.825763317039
 21
1100.156994348062
 31
0.0
  0
DIMENSION
  5
388
330
18
100
AcDbEntity
  8
SUNPOU
100
AcDbDimension
  2
*D9
 10
759.1944602843072
 20
880.1569943480616
 30
0.0
 11
759.1944602843071
 21
930.156994348062
 31
0.0
 70
   160
 71
     5
 42
100.0000000000002
  3
DIA1
100
AcDbAlignedDimension
 13
857.9079827674434
 23
980.1569943480618
 33
0.0
 14
857.9317083736389
 24
880.1569943480616
 34
0.0
 50
90.0
100
AcDbRotatedDimension
1001
ACAD
1000
DSTYLE
1002
{
1070
   140
1040
4.0
1070
   173
1070
     1
1070
   272
1070
     0
1070
   342
1005
0
1070
   343
1005
20
1070
   344
1005
20
1002
}
  0
DIMENSION
  5
389
330
18
100
AcDbEntity
  8
SUNPOU
100
AcDbDimension
  2
*D10
 10
759.1944602843071
 20
374.1569943480616
 30
0.0
 11
729.1944602843069
 21
627.1569943480618
 31
0.0
 70
    32
 71
     5
 42
506.0
  3
DIA1
100
AcDbAlignedDimension
 13
857.9317083736389
 23
880.1569943480616
 33
0.0
 14
857.9317083736389
 24
374.1569943480616
 34
0.0
 50
90.0
100
AcDbRotatedDimension
1001
ACAD
1000
DSTYLE
1002
{
1070
   140
1040
4.0
1070
   173
1070
     1
1070
   272
1070
     0
1070
   342
1005
0
1070
   343
1005
20
1070
   344
1005
20
1002
}
  0
MTEXT
  5
38A
102
{ACAD_REACTORS
330
38D
102
}
330
18
100
AcDbEntity
  8
SUNPOU
  6
ByBlock
100
AcDbMText
 10
1001.960810086091
 20
148.4374529961578
 30
0.0
 40
45.0
 41
0.0
 71
     6
 72
     1
  1
{\Ftxt.shx,bigfont.shx;透水ｺﾝｸﾘｰﾄ管}
 73
     1
 44
1.0
  0
DIMENSION
  5
38B
330
18
100
AcDbEntity
  8
SUNPOU
100
AcDbDimension
  2
*D11
 10
629.6030066280654
 20
224.1569943480618
 30
0.0
 11
599.6030066280654
 21
602.156994348062
 31
0.0
 70
    32
 71
     5
 42
755.9999999999998
  3
DIA1
100
AcDbAlignedDimension
 13
857.9317083736389
 23
980.1569943480616
 33
0.0
 14
947.2614620084772
 24
224.1569943480617
 34
0.0
 50
90.0
100
AcDbRotatedDimension
1001
ACAD
1000
DSTYLE
1002
{
1070
   140
1040
4.0
1070
   173
1070
     1
1070
   272
1070
     0
1070
   342
1005
0
1070
   343
1005
20
1070
   344
1005
20
1002
}
  0
DIMENSION
  5
38C
330
18
100
AcDbEntity
  8
SUNPOU
100
AcDbDimension
  2
*D12
 10
759.1944602843071
 20
224.1569943480618
 30
0.0
 11
729.194460284307
 21
299.1569943480618
 31
0.0
 70
    32
 71
     5
 42
149.9999999999998
  3
DIA1
100
AcDbAlignedDimension
 13
857.9317083736389
 23
374.1569943480616
 33
0.0
 14
947.2614620084772
 24
224.1569943480617
 34
0.0
 50
90.0
100
AcDbRotatedDimension
1001
ACAD
1000
DSTYLE
1002
{
1070
   140
1040
4.0
1070
   173
1070
     1
1070
   272
1070
     0
1070
   342
1005
0
1070
   343
1005
20
1070
   344
1005
20
1002
}
  0
LEADER
  5
38D
330
18
100
AcDbEntity
  8
SUNPOU
  6
ByBlock
100
AcDbLeader
  3
DIA1
 73
     0
 75
     1
 40
45.0
 41
312.0
 76
     3
 10
1358.839316106123
 20
542.0474014126001
 30
0.0
 10
1031.960810086091
 20
115.9374529961578
 30
0.0
 10
1011.960810086091
 20
115.9374529961578
 30
0.0
340
38A
1001
ACAD
1000
DSTYLE
1002
{
1070
   140
1040
4.0
1070
   173
1070
     1
1070
   272
1070
     0
1070
   342
1005
0
1070
   343
1005
20
1070
   344
1005
20
1002
}
  0
LINE
  5
38E
330
18
100
AcDbEntity
  8
0
  6
ByBlock
100
AcDbLine
 10
993.8257633170406
 20
1180.156994348061
 30
0.0
 11
913.8257633170415
 21
1100.156994348062
 31
0.0
  0
LINE
  5
38F
330
18
100
AcDbEntity
  8
0
  6
ByBlock
100
AcDbLine
 10
1033.82576331704
 20
1180.156994348061
 30
0.0
 11
953.8257633170415
 21
1100.156994348062
 31
0.0
  0
DIMENSION
  5
393
330
18
100
AcDbEntity
  8
SUNPOU
100
AcDbDimension
  2
*D13
 10
1828.710374244358
 20
74.45209935711398
 30
0.0
 11
1523.768068780699
 21
104.452099357114
 31
0.0
 70
    32
 71
     5
 42
609.8846109273181
  3
DIA1
100
AcDbAlignedDimension
 13
1218.82576331704
 23
224.1569943480616
 33
0.0
 14
1828.710374244358
 24
224.2590165334717
 34
0.0
100
AcDbRotatedDimension
1001
ACAD
1000
DSTYLE
1002
{
1070
   140
1040
4.0
1070
   173
1070
     1
1070
   272
1070
     0
1070
   342
1005
0
1070
   343
1005
20
1070
   344
1005
20
1002
}
  0
LINE
  5
395
330
18
100
AcDbEntity
  8
0
  6
ByBlock
100
AcDbLine
 10
1213.82576331704
 20
1160.156994348061
 30
0.0
 11
1273.825763317041
 21
1100.156994348063
 31
0.0
  0
LINE
  5
396
330
18
100
AcDbEntity
  8
0
  6
ByBlock
100
AcDbLine
 10
1193.825763317039
 20
1140.156994348062
 30
0.0
 11
1233.82576331704
 21
1100.156994348062
 31
0.0
  0
LINE
  5
397
330
18
100
AcDbEntity
  8
0
  6
ByBlock
100
AcDbLine
 10
1233.82576331704
 20
1180.156994348061
 30
0.0
 11
1153.825763317041
 21
1100.156994348062
 31
0.0
  0
LINE
  5
398
330
18
100
AcDbEntity
  8
0
  6
ByBlock
100
AcDbLine
 10
1153.825763317041
 20
1180.156994348061
 30
0.0
 11
1073.82576331704
 21
1100.156994348062
 31
0.0
  0
LINE
  5
399
330
18
100
AcDbEntity
  8
0
  6
ByBlock
100
AcDbLine
 10
1193.825763317041
 20
1180.156994348061
 30
0.0
 11
1113.825763317041
 21
1100.156994348062
 31
0.0
  0
LINE
  5
39A
330
18
100
AcDbEntity
  8
0
  6
ByBlock
100
AcDbLine
 10
1073.82576331704
 20
1180.156994348061
 30
0.0
 11
1113.825763317041
 21
1140.156994348062
 31
0.0
  0
LINE
  5
39B
330
18
100
AcDbEntity
  8
0
  6
ByBlock
100
AcDbLine
 10
1233.82576331704
 20
1180.156994348061
 30
0.0
 11
1313.825763317039
 21
1100.156994348062
 31
0.0
  0
TEXT
  5
3AB
330
18
100
AcDbEntity
  8
0
 62
     7
100
AcDbText
 10
1168.820423756639
 20
1680.397797188067
 30
0.0
 40
55.0
  1
透水管 K-400 構造図
  7
STYLE1
 72
     4
 11
1518.987090423306
 21
1707.897797188067
 31
0.0
100
AcDbText
  0
CIRCLE
  5
B67
330
18
100
AcDbEntity
  8
0
100
AcDbCircle
 10
1523.825763317041
 20
627.1569943480616
 30
0.0
 40
200.0
  0
CIRCLE
  5
B68
330
18
100
AcDbEntity
  8
0
100
AcDbCircle
 10
1523.825763317041
 20
627.1569943480616
 30
0.0
 40
253.0
  0
HATCH
  5
B69
330
18
100
AcDbEntity
  8
SAISEKI
100
AcDbHatch
 10
0.0
 20
0.0
 30
0.0
210
0.0
220
0.0
230
1.0
  2
HONEY
 70
     0
 71
     0
 91
        5
 92
        7
 72
     1
 73
     1
 93
        4
 10
1430.117888925634
 20
803.8455176795004
 42
0.0
 10
1405.28530221191
 20
850.6679763623314
 42
0.2776087275868664
 10
1270.825763317041
 20
627.1569943480616
 42
0.0
 10
1323.825763317041
 20
627.1569943480616
 42
-0.2776087275868674
 97
        0
 92
        7
 72
     1
 73
     1
 93
        4
 10
1323.825763317041
 20
627.1569943480616
 42
0.0
 10
1270.825763317041
 20
627.1569943480616
 42
0.1472579186353994
 10
1312.872653327991
 20
487.486720538823
 42
0.0
 10
1357.06441154704
 20
516.7457107043945
 42
-0.1472579186353997
 97
        0
 92
        7
 72
     1
 73
     1
 93
        5
 10
1775.898999240743
 20
605.521751549484
 42
0.0
 10
1736.094466561585
 20
627.1569943480621
 42
0.0
 10
1723.825763317041
 20
627.1569943480621
 42
-0.2775470628843288
 10
1617.574099297574
 20
450.4899360126691
 42
0.0
 10
1642.417408332415
 20
403.67316555379
 42
0.2546260261915561
 97
        0
 92
        7
 72
     1
 73
     1
 93
        3
 10
1776.825763317041
 20
627.1569943480616
 42
0.0
 10
1736.094466561586
 20
627.1569943480616
 42
0.0
 10
1775.898999240743
 20
605.521751549484
 42
0.0214081104215082
 97
        0
 92
        7
 72
     1
 73
     1
 93
        5
 10
1708.045938701124
 20
800.5695861096103
 42
0.0
 10
1669.454360458609
 20
764.2420471239891
 42
-0.1823649599878672
 10
1723.712496953218
 20
633.8870549911788
 42
0.0
 10
1736.094466561588
 20
627.1569943480616
 42
0.0
 10
1776.825763317041
 20
627.1569943480616
 42
0.1910725207355453
 97
        0
 75
     0
 76
     1
 52
20.0
 41
120.0
 77
     0
 78
     3
 53
20.0
 43
-2601.23665905114
 44
-2626.080059058134
 45
16.70011199620789
 46
19.90241839172501
 79
     2
 49
15.0
 49
-30.0
 53
140.0
 43
-2601.23665905114
 44
-2626.080059058134
 45
-25.58605592208444
 46
4.511512038898787
 79
     2
 49
15.0
 49
-30.0
 53
80.0
 43
-2601.23665905114
 44
-2626.080059058134
 45
-8.885943925876544
 46
24.4139304306238
 79
     2
 49
-29.99999999999998
 49
14.99999999999999
 47
4.524285756630685
 98
        5
 10
1353.50348614371
 20
763.554373739328
 10
1308.212310154818
 20
569.0100920735848
 10
1675.070845498111
 20
446.8543687512563
 10
1761.1240946269
 20
623.3015108311473
 10
1747.536736913601
 20
659.4958038329941
  0
DIMENSION
  5
B6B
330
18
100
AcDbEntity
  8
SUNPOU
100
AcDbDimension
  2
*D14
 10
1722.382843710221
 20
651.1379414881479
 30
0.0
 11
1527.467191235765
 21
627.5967917617842
 31
0.0
 70
   163
 71
     5
 42
400.0000000000023
  3
DIA1
100
AcDbDiametricDimension
 15
1325.268682923855
 25
603.1760472079736
 35
0.0
 40
0.0
1001
ACAD
1000
DSTYLE
1002
{
1070
   140
1040
4.0
1070
   173
1070
     1
1070
   272
1070
     0
1070
   342
1005
0
1070
   343
1005
20
1070
   344
1005
20
1002
}
  0
LINE
  5
B7F
330
18
100
AcDbEntity
  8
0
100
AcDbLine
 10
918.8257633170408
 20
980.1569943480616
 30
0.0
 11
2128.825763317041
 21
980.1569943480616
 31
0.0
  0
LINE
  5
B81
330
18
100
AcDbEntity
  8
0
100
AcDbLine
 10
918.8257633170408
 20
980.1569943480616
 30
0.0
 11
1218.82576331704
 21
224.1569943480616
 31
0.0
  0
LINE
  5
B82
330
18
100
AcDbEntity
  8
0
100
AcDbLine
 10
1218.82576331704
 20
224.1569943480616
 30
0.0
 11
1828.825763317041
 21
224.1569943480616
 31
0.0
  0
LINE
  5
B83
330
18
100
AcDbEntity
  8
0
100
AcDbLine
 10
1828.825763317041
 20
224.1569943480616
 30
0.0
 11
2128.825763317041
 21
980.1569943480616
 31
0.0
  0
LEADER
  5
CA3
330
18
100
AcDbEntity
  8
SUNPOU
  6
ByBlock
100
AcDbLeader
  3
DIA1
 73
     0
 74
     0
 75
     1
 40
45.0
 41
204.0
 76
     3
 10
4264.687920555616
 20
1118.297850424717
 30
0.0
 10
4471.360561069928
 20
916.6675178287803
 30
0.0
 10
4491.360561069928
 20
916.6675178287803
 30
0.0
340
CC5
1001
ACAD
1000
DSTYLE
1002
{
1070
   140
1040
4.0
1070
   173
1070
     1
1070
   272
1070
     0
1070
   342
1005
0
1070
   343
1005
20
1070
   344
1005
20
1002
}
  0
LINE
  5
CA7
330
18
100
AcDbEntity
  8
0
100
AcDbLine
 10
3688.825763317042
 20
980.1569943480627
 30
0.0
 11
4398.825763317041
 21
980.1569943480625
 31
0.0
  0
LINE
  5
CA8
330
18
100
AcDbEntity
  8
0
100
AcDbLine
 10
4687.766899416389
 20
1180.156994348062
 30
0.0
 11
3342.119196682151
 21
1180.156994348062
 31
0.0
  0
TEXT
  5
CA9
330
18
100
AcDbEntity
  8
0
100
AcDbText
 10
4493.924226926065
 20
1704.309410531654
 30
0.0
 40
50.0
  1
S=1/10
  7
BIGFONT
 11
4493.924226926065
 21
1729.309410531654
 31
0.0
100
AcDbText
 73
     2
  0
LEADER
  5
CAB
330
18
100
AcDbEntity
  8
SUNPOU
  6
ByBlock
100
AcDbLeader
  3
DIA1
 73
     0
 74
     0
 75
     1
 40
45.0
 41
312.0
 76
     3
 10
4264.390554584061
 20
503.2208299192064
 30
0.0
 10
4541.908373131644
 20
283.0999385319164
 30
0.0
 10
4561.908373131644
 20
283.0999385319164
 30
0.0
340
CAC
1001
ACAD
1000
DSTYLE
1002
{
1070
   140
1040
4.0
1070
   173
1070
     1
1070
   272
1070
     0
1070
   342
1005
0
1070
   343
1005
20
1070
   344
1005
20
1002
}
  0
MTEXT
  5
CAC
102
{ACAD_REACTORS
330
CAB
102
}
330
18
100
AcDbEntity
  8
SUNPOU
  6
ByBlock
100
AcDbMText
 10
4571.908373131644
 20
315.5999385319165
 30
0.0
 40
45.0
 41
0.0
 71
     4
 72
     1
  1
{\Ftxt.shx,bigfont.shx;透水ｺﾝｸﾘｰﾄ管}
 73
     1
 44
1.0
  0
DIMENSION
  5
CAD
330
18
100
AcDbEntity
  8
SUNPOU
100
AcDbDimension
  2
*D17
 10
3444.676146474234
 20
224.1569943480627
 30
0.0
 11
3414.676146474234
 21
602.156994348063
 31
0.0
 70
    32
 71
     5
 42
755.9999999999998
  3
DIA1
100
AcDbAlignedDimension
 13
3656.351732492939
 23
980.1569943480625
 33
0.0
 14
3661.067357812457
 24
224.1569943480626
 34
0.0
 50
90.0
100
AcDbRotatedDimension
1001
ACAD
1000
DSTYLE
1002
{
1070
   140
1040
4.0
1070
   173
1070
     1
1070
   272
1070
     0
1070
   342
1005
0
1070
   343
1005
20
1070
   344
1005
20
1002
}
  0
DIMENSION
  5
CAE
330
18
100
AcDbEntity
  8
SUNPOU
100
AcDbDimension
  2
*D16
 10
3557.614484403607
 20
374.1569943480625
 30
0.0
 11
3527.614484403607
 21
627.156994348063
 31
0.0
 70
    32
 71
     5
 42
506.0
  3
DIA1
100
AcDbAlignedDimension
 13
3656.351732492939
 23
880.1569943480625
 33
0.0
 14
3656.351732492939
 24
374.1569943480625
 34
0.0
 50
90.0
100
AcDbRotatedDimension
1001
ACAD
1000
DSTYLE
1002
{
1070
   140
1040
4.0
1070
   173
1070
     1
1070
   272
1070
     0
1070
   342
1005
0
1070
   343
1005
20
1070
   344
1005
20
1002
}
  0
CIRCLE
  5
CB0
330
18
100
AcDbEntity
  8
0
100
AcDbCircle
 10
4043.825763317042
 20
627.1569943480625
 30
0.0
 40
253.0
  0
DIMENSION
  5
CB1
330
18
100
AcDbEntity
  8
SUNPOU
100
AcDbDimension
  2
*D19
 10
4398.825763317041
 20
74.45209935711488
 30
0.0
 11
4043.825763317041
 21
104.4520993571149
 31
0.0
 70
    32
 71
     5
 42
709.9999999999995
  3
DIA1
100
AcDbAlignedDimension
 13
3688.825763317042
 23
224.1569943480626
 33
0.0
 14
4398.825763317041
 24
224.1569943480626
 34
0.0
100
AcDbRotatedDimension
1001
ACAD
1000
DSTYLE
1002
{
1070
   140
1040
4.0
1070
   173
1070
     1
1070
   272
1070
     0
1070
   342
1005
0
1070
   343
1005
20
1070
   344
1005
20
1002
}
  0
LINE
  5
CB2
330
18
100
AcDbEntity
  8
0
100
AcDbLine
 10
3688.825763317041
 20
224.1569943480626
 30
0.0
 11
4398.825763317041
 21
224.1569943480626
 31
0.0
  0
DIMENSION
  5
CB3
330
18
100
AcDbEntity
  8
SUNPOU
100
AcDbDimension
  2
*D18
 10
3557.614484403607
 20
224.1569943480627
 30
0.0
 11
3527.614484403607
 21
299.1569943480632
 31
0.0
 70
    32
 71
     5
 42
149.9999999999999
  3
DIA1
100
AcDbAlignedDimension
 13
3656.351732492939
 23
374.1569943480625
 33
0.0
 14
3661.067357812457
 24
224.1569943480626
 34
0.0
 50
90.0
100
AcDbRotatedDimension
1001
ACAD
1000
DSTYLE
1002
{
1070
   140
1040
4.0
1070
   173
1070
     1
1070
   272
1070
     0
1070
   342
1005
0
1070
   343
1005
20
1070
   344
1005
20
1002
}
  0
HATCH
  5
CB4
330
18
100
AcDbEntity
  8
SAISEKI
100
AcDbHatch
 10
0.0
 20
0.0
 30
0.0
210
0.0
220
0.0
230
1.0
  2
HONEY
 70
     0
 71
     0
 91
        5
 92
        7
 72
     1
 73
     1
 93
        4
 10
3950.117888925636
 20
803.8455176795013
 42
0.0
 10
3925.285302211912
 20
850.6679763623322
 42
0.2776087275868664
 10
3790.825763317042
 20
627.1569943480625
 42
0.0
 10
3843.825763317042
 20
627.1569943480625
 42
-0.2776087275868674
 97
        0
 92
        7
 72
     1
 73
     1
 93
        4
 10
3843.825763317042
 20
627.1569943480625
 42
0.0
 10
3790.825763317042
 20
627.1569943480625
 42
0.1472579186353994
 10
3832.872653327992
 20
487.4867205388239
 42
0.0
 10
3877.064411547042
 20
516.7457107043954
 42
-0.1472579186353997
 97
        0
 92
        7
 72
     1
 73
     1
 93
        5
 10
4295.898999240744
 20
605.521751549485
 42
0.0
 10
4256.094466561586
 20
627.156994348063
 42
0.0
 10
4243.825763317041
 20
627.156994348063
 42
-0.2775470628843288
 10
4137.574099297575
 20
450.48993601267
 42
0.0
 10
4162.417408332416
 20
403.6731655537908
 42
0.2546260261915561
 97
        0
 92
        7
 72
     1
 73
     1
 93
        3
 10
4296.825763317041
 20
627.1569943480625
 42
0.0
 10
4256.094466561587
 20
627.1569943480625
 42
0.0
 10
4295.898999240744
 20
605.521751549485
 42
0.0214081104215082
 97
        0
 92
        7
 72
     1
 73
     1
 93
        5
 10
4228.045938701125
 20
800.5695861096112
 42
0.0
 10
4189.45436045861
 20
764.2420471239901
 42
-0.1823649599878672
 10
4243.71249695322
 20
633.8870549911797
 42
0.0
 10
4256.09446656159
 20
627.1569943480625
 42
0.0
 10
4296.825763317041
 20
627.1569943480625
 42
0.1910725207355453
 97
        0
 75
     0
 76
     1
 52
20.0
 41
120.0
 77
     0
 78
     3
 53
20.0
 43
-81.23665905113876
 44
-2626.080059058133
 45
16.70011199620789
 46
19.90241839172501
 79
     2
 49
15.0
 49
-30.0
 53
140.0
 43
-81.23665905113876
 44
-2626.080059058133
 45
-25.58605592208444
 46
4.511512038898787
 79
     2
 49
15.0
 49
-30.0
 53
80.0
 43
-81.23665905113876
 44
-2626.080059058133
 45
-8.885943925876544
 46
24.4139304306238
 79
     2
 49
-29.99999999999995
 49
14.99999999999997
 47
4.524285756630685
 98
        5
 10
3873.503486143711
 20
763.5543737393289
 10
3828.21231015482
 20
569.0100920735857
 10
4195.070845498112
 20
446.8543687512573
 10
4281.124094626901
 20
623.3015108311482
 10
4267.536736913601
 20
659.4958038329949
  0
DIMENSION
  5
CB5
330
18
100
AcDbEntity
  8
SUNPOU
100
AcDbDimension
  2
*D15
 10
3557.614484403607
 20
880.1569943480625
 30
0.0
 11
3557.614484403607
 21
930.1569943480632
 31
0.0
 70
   160
 71
     5
 42
100.0000000000002
  3
DIA1
100
AcDbAlignedDimension
 13
3656.328006886743
 23
980.1569943480627
 33
0.0
 14
3656.351732492939
 24
880.1569943480625
 34
0.0
 50
90.0
100
AcDbRotatedDimension
1001
ACAD
1000
DSTYLE
1002
{
1070
   140
1040
4.0
1070
   173
1070
     1
1070
   272
1070
     0
1070
   342
1005
0
1070
   343
1005
20
1070
   344
1005
20
1002
}
  0
CIRCLE
  5
CB6
330
18
100
AcDbEntity
  8
0
100
AcDbCircle
 10
4043.825763317042
 20
627.1569943480625
 30
0.0
 40
200.0
  0
DIMENSION
  5
CB7
330
18
100
AcDbEntity
  8
SUNPOU
100
AcDbDimension
  2
*D20
 10
4242.38284371022
 20
651.1379414881482
 30
0.0
 11
4047.467191235763
 21
627.5967917617848
 31
0.0
 70
   163
 71
     5
 42
400.000000000004
  3
DIA1
100
AcDbDiametricDimension
 15
3845.268682923853
 25
603.1760472079743
 35
0.0
 40
0.0
1001
ACAD
1000
DSTYLE
1002
{
1070
   140
1040
4.0
1070
   173
1070
     1
1070
   272
1070
     0
1070
   342
1005
0
1070
   343
1005
20
1070
   344
1005
20
1002
}
  0
TEXT
  5
CB8
330
18
100
AcDbEntity
  8
0
 62
     7
100
AcDbText
 10
3688.820423756641
 20
1704.358473349499
 30
0.0
 40
55.0
  1
透水管 K-400 構造図
  7
STYLE1
 72
     4
 11
4038.987090423307
 21
1731.858473349499
 31
0.0
100
AcDbText
  0
LINE
  5
CB9
330
18
100
AcDbEntity
  8
0
  6
ByBlock
100
AcDbLine
 10
3454.672764798309
 20
1180.156994348062
 30
0.0
 11
3374.672764798309
 21
1100.156994348063
 31
0.0
  0
LINE
  5
CBA
330
18
100
AcDbEntity
  8
0
  6
ByBlock
100
AcDbLine
 10
3494.672764798309
 20
1180.156994348062
 30
0.0
 11
3414.672764798309
 21
1100.156994348063
 31
0.0
  0
LINE
  5
CBB
330
18
100
AcDbEntity
  8
0
  6
ByBlock
100
AcDbLine
 10
3414.672764798309
 20
1180.156994348062
 30
0.0
 11
3334.672764798309
 21
1100.156994348063
 31
0.0
  0
LINE
  5
CBC
330
18
100
AcDbEntity
  8
0
  6
ByBlock
100
AcDbLine
 10
3614.672764798309
 20
1180.156994348062
 30
0.0
 11
3534.67276479831
 21
1100.156994348063
 31
0.0
  0
LINE
  5
CBD
330
18
100
AcDbEntity
  8
0
  6
ByBlock
100
AcDbLine
 10
3639.672764798309
 20
1155.156994348062
 30
0.0
 11
3574.67276479831
 21
1100.156994348063
 31
0.0
  0
LINE
  5
CBE
330
18
100
AcDbEntity
  8
0
  6
ByBlock
100
AcDbLine
 10
3574.672764798309
 20
1180.156994348062
 30
0.0
 11
3494.672764798309
 21
1100.156994348063
 31
0.0
  0
LINE
  5
CBF
330
18
100
AcDbEntity
  8
0
  6
ByBlock
100
AcDbLine
 10
3454.672764798308
 20
1140.156994348062
 30
0.0
 11
3494.672764798307
 21
1100.156994348063
 31
0.0
  0
LINE
  5
CC0
330
18
100
AcDbEntity
  8
0
  6
ByBlock
100
AcDbLine
 10
3474.672764798309
 20
1160.156994348063
 30
0.0
 11
3514.672764798309
 21
1120.156994348062
 31
0.0
  0
LINE
  5
CC1
330
18
100
AcDbEntity
  8
0
  6
ByBlock
100
AcDbLine
 10
3494.672764798309
 20
1180.156994348062
 30
0.0
 11
3534.67276479831
 21
1140.156994348062
 31
0.0
  0
LINE
  5
CC3
330
18
100
AcDbEntity
  8
0
  6
ByBlock
100
AcDbLine
 10
3614.672764798308
 20
1140.156994348062
 30
0.0
 11
3639.672764798309
 21
1115.156994348062
 31
0.0
  0
LINE
  5
CC4
330
18
100
AcDbEntity
  8
0
  6
ByBlock
100
AcDbLine
 10
3634.672764798309
 20
1160.156994348062
 30
0.0
 11
3639.672764798308
 21
1155.156994348063
 31
0.0
  0
MTEXT
  5
CC5
102
{ACAD_REACTORS
330
CA3
102
}
330
18
100
AcDbEntity
  8
SUNPOU
  6
ByBlock
100
AcDbMText
 10
4501.360561069929
 20
949.1675178287804
 30
0.0
 40
45.0
 41
0.0
 71
     4
 72
     1
  1
{\Ftxt.shx,bigfont.shx;埋戻し砂}
 73
     1
 44
1.0
  0
LEADER
  5
E07
330
18
100
AcDbEntity
  8
SUNPOU
  6
ByBlock
100
AcDbLeader
  3
DIA1
 73
     0
 74
     0
 75
     1
 40
45.0
 41
168.0
 76
     3
 10
4281.06222982476
 20
399.1835264531428
 30
0.0
 10
4524.40616647907
 20
163.1486098249152
 30
0.0
 10
4544.40616647907
 20
163.1486098249152
 30
0.0
340
E08
1001
ACAD
1000
DSTYLE
1002
{
1070
   140
1040
4.0
1070
   173
1070
     1
1070
   272
1070
     0
1070
   342
1005
0
1070
   343
1005
20
1070
   344
1005
20
1002
}
  0
MTEXT
  5
E08
102
{ACAD_REACTORS
330
E07
102
}
330
18
100
AcDbEntity
  8
SUNPOU
  6
ByBlock
100
AcDbMText
 10
4554.406166479069
 20
195.6486098249152
 30
0.0
 40
45.0
 41
0.0
 71
     4
 72
     1
  1
{\Ftxt.shx,bigfont.shx;ﾌｨﾙﾀｰ砂}
 73
     1
 44
1.0
  0
MTEXT
  5
E16
330
18
100
AcDbEntity
  8
0
100
AcDbMText
 10
1769.324796014233
 20
-185.3610167447025
 30
0.0
 40
30.0
 41
372.3
 71
     1
 72
     5
  1
{\C1;製品長 Ｌ＝1.000ｍ}
  7
BIGFONT
 73
     1
 44
1.0
  0
MTEXT
  5
E17
330
18
100
AcDbEntity
  8
0
100
AcDbMText
 10
4289.324796014234
 20
-185.3610167447015
 30
0.0
 40
30.0
 41
372.3
 71
     1
 72
     5
  1
{\C1;製品長 Ｌ＝1.000ｍ}
  7
BIGFONT
 73
     1
 44
1.0
  0
HATCH
  5
1013
330
18
100
AcDbEntity
  8
0
100
AcDbHatch
 10
0.0
 20
0.0
 30
0.0
210
0.0
220
0.0
230
1.0
  2
AR-SAND
 70
     0
 71
     0
 91
        1
 92
        7
 72
     1
 73
     1
 93
        5
 10
1469.107098515844
 20
874.1688720429902
 42
0.0
 10
1514.274184666911
 20
980.1569943480616
 42
0.0
 10
918.825763317041
 20
980.1569943480616
 42
0.0
 10
1066.884411907515
 20
607.0491999000651
 42
0.0
 10
1274.03178687329
 20
667.3063322307574
 42
-0.307536834353215
 97
        0
 75
     0
 76
     1
 52
0.0
 41
20.0
 77
     0
 78
     4
 53
37.5
 43
0.0
 44
0.0
 45
-1.259867162192163
 46
38.53647538026317
 79
     6
 49
0.0
 49
-30.4
 49
0.0
 49
-34.0
 49
0.0
 49
-32.5
 53
7.499999999999999
 43
0.0
 44
0.0
 45
35.39553410535454
 46
56.4429213045948
 79
     6
 49
0.0
 49
-16.4
 49
0.0
 49
-27.4
 49
0.0
 49
-10.5
 53
327.5
 43
-24.6
 44
0.0
 45
62.2828372350299
 46
0.11318107073929
 79
     6
 49
0.0
 49
-10.0
 49
0.0
 49
-36.0
 49
0.0
 49
-47.0
 53
317.5
 43
-24.6
 44
0.0
 45
60.12253209144586
 46
17.55351129868498
 79
     6
 49
0.0
 49
-5.0
 49
0.0
 49
-23.6
 49
0.0
 49
-27.0
 47
3.598827770043117
 98
        1
 10
1147.630792499273
 20
835.9661362044789
1001
ACAD
1010
0.0
1020
0.0
1030
0.0
  0
HATCH
  5
1027
330
18
100
AcDbEntity
  8
0
100
AcDbHatch
 10
0.0
 20
0.0
 30
0.0
210
0.0
220
0.0
230
1.0
  2
AR-SAND
 70
     0
 71
     0
 91
        1
 92
        7
 72
     1
 73
     1
 93
        5
 10
1940.208114064914
 20
504.8405182327027
 42
0.0
 10
1731.004713462846
 20
481.9472060537389
 42
-0.1541075538209387
 10
1610.068727475397
 20
389.310087424342
 42
0.0
 10
1541.635636184907
 20
224.1569943480616
 42
0.0
 10
1828.825763317041
 20
224.1569943480616
 42
0.0
 97
        0
 75
     0
 76
     1
 52
0.0
 41
20.0
 77
     0
 78
     4
 53
37.5
 43
0.0
 44
0.0
 45
-1.259867162192163
 46
38.53647538026317
 79
     6
 49
0.0
 49
-30.4
 49
0.0
 49
-34.0
 49
0.0
 49
-32.5
 53
7.499999999999999
 43
0.0
 44
0.0
 45
35.39553410535454
 46
56.4429213045948
 79
     6
 49
0.0
 49
-16.4
 49
0.0
 49
-27.4
 49
0.0
 49
-10.5
 53
327.5
 43
-24.6
 44
0.0
 45
62.2828372350299
 46
0.11318107073929
 79
     6
 49
0.0
 49
-10.0
 49
0.0
 49
-36.0
 49
0.0
 49
-47.0
 53
317.5
 43
-24.6
 44
0.0
 45
60.12253209144586
 46
17.55351129868498
 79
     6
 49
0.0
 49
-5.0
 49
0.0
 49
-23.6
 49
0.0
 49
-27.0
 47
3.598827770043117
 98
        1
 10
1687.741906902967
 20
321.3337654031875
1001
ACAD
1010
0.0
1020
0.0
1030
0.0
  0
LINE
  5
1049
330
18
100
AcDbEntity
  8
0
100
AcDbLine
 10
4398.825763317041
 20
224.1569943480626
 30
0.0
 11
4398.825763317041
 21
1180.156994348062
 31
0.0
  0
LINE
  5
104A
330
18
100
AcDbEntity
  8
0
100
AcDbLine
 10
3688.825763317041
 20
224.1569943480626
 30
0.0
 11
3688.825763317042
 21
1180.156994348062
 31
0.0
  0
HATCH
  5
1104
330
18
100
AcDbEntity
  8
0
100
AcDbHatch
 10
0.0
 20
0.0
 30
0.0
210
0.0
220
0.0
230
1.0
  2
AR-SAND
 70
     0
 71
     0
 91
        2
 92
        7
 72
     1
 73
     1
 93
        6
 10
4088.086567450258
 20
876.255330788676
 42
0.0
 10
4106.548237028746
 20
980.1569943480627
 42
0.0
 10
3688.825763317043
 20
980.1569943480627
 42
0.0
 10
3688.825763317041
 20
526.7472793563721
 42
0.0
 10
3800.376498958416
 20
558.2987654771151
 42
-0.0690203474797213
 10
3790.825763317042
 20
627.1569943480625
 42
-0.4667082137682616
 97
        0
 92
        7
 72
     1
 73
     1
 93
        5
 10
4398.825763317041
 20
579.4011926392173
 42
0.0
 10
4294.567159732627
 20
593.4264129187059
 42
-0.4277867242096064
 10
3998.571376676809
 20
378.2372472611423
 42
0.0
 10
3970.559105972874
 20
224.1569943480626
 42
0.0
 10
4398.825763317041
 20
224.1569943480627
 42
0.0
 97
        0
 75
     0
 76
     1
 52
0.0
 41
20.0
 77
     0
 78
     4
 53
37.5
 43
876.2719409481846
 44
0.0000000000009095
 45
-1.259867162192163
 46
38.53647538026317
 79
     6
 49
0.0
 49
-30.4
 49
0.0
 49
-34.0
 49
0.0
 49
-32.5
 53
7.499999999999999
 43
876.2719409481846
 44
0.0000000000009095
 45
35.39553410535454
 46
56.4429213045948
 79
     6
 49
0.0
 49
-16.4
 49
0.0
 49
-27.4
 49
0.0
 49
-10.5
 53
327.5
 43
851.6719409481847
 44
0.0000000000009095
 45
62.2828372350299
 46
0.11318107073929
 79
     6
 49
0.0
 49
-10.0
 49
0.0
 49
-36.0
 49
0.0
 49
-47.0
 53
317.5
 43
851.6719409481847
 44
0.0000000000009095
 45
60.12253209144586
 46
17.55351129868498
 79
     6
 49
0.0
 49
-5.0
 49
0.0
 49
-23.6
 49
0.0
 49
-27.0
 47
4.98000097470988
 98
        2
 10
3775.643644661046
 20
850.5837182328622
 10
4214.116683418803
 20
322.7036129361295
1001
ACAD
1010
0.0
1020
0.0
1030
0.0
  0
LWPOLYLINE
  5
115D
330
18
100
AcDbEntity
  8
KL
  6
ByBlock
 62
     0
 48
2.0
100
AcDbPolyline
 90
        4
 70
     1
 43
0.0
 10
2783.825763317042
 20
2386.042500524569
 10
2783.825763317038
 20
-1177.95749947543
 10
263.8257633170369
 20
-1177.957499475427
 10
263.8257633170408
 20
2386.042500524572
  0
LWPOLYLINE
  5
11CB
330
18
100
AcDbEntity
  8
KL
  6
ByBlock
 62
     0
 48
2.0
100
AcDbPolyline
 90
        4
 70
     1
 43
0.0
 10
5303.825763317043
 20
2386.042500524566
 10
5303.825763317039
 20
-1177.957499475433
 10
2783.825763317038
 20
-1177.95749947543
 10
2783.825763317042
 20
2386.042500524569
  0
ENDSEC
  0
SECTION
  2
OBJECTS
  0
DICTIONARY
  5
C
330
0
100
AcDbDictionary
281
     1
  3
ACAD_COLOR
350
E44
  3
ACAD_GROUP
350
D
  3
ACAD_LAYOUT
350
2D0
  3
ACAD_MATERIAL
350
E1A
  3
ACAD_MLEADERSTYLE
350
E69
  3
ACAD_MLINESTYLE
350
E
  3
ACAD_PLOTSETTINGS
350
2D1
  3
ACAD_PLOTSTYLENAME
350
2CE
  3
ACAD_SCALELIST
350
E47
  3
ACAD_TABLESTYLE
350
E45
  3
ACAD_VISUALSTYLE
350
E33
  3
ACDB_RECOMPOSE_DATA
350
E88
  3
AcDbVariableDictionary
350
2D8
  0
DICTIONARY
  5
E70
330
F
100
AcDbDictionary
280
     1
281
     1
  3
ADSK_XREC_LAYER_RECONCILED
360
E71
  0
DICTIONARY
  5
E72
330
49
100
AcDbDictionary
280
     1
281
     1
  3
ADSK_XREC_LAYER_RECONCILED
360
E73
  0
DICTIONARY
  5
E74
330
4D
100
AcDbDictionary
280
     1
281
     1
  3
ADSK_XREC_LAYER_RECONCILED
360
E75
  0
DICTIONARY
  5
E76
330
4F
100
AcDbDictionary
280
     1
281
     1
  3
ADSK_XREC_LAYER_RECONCILED
360
E77
  0
DICTIONARY
  5
1155
330
1154
100
AcDbDictionary
280
     1
281
     1
  0
DICTIONARY
  5
ECE
330
18
100
AcDbDictionary
280
     1
281
     1
  3
ACAD_SORTENTS
360
ECF
  0
DICTIONARY
  5
1235
330
C8D
100
AcDbDictionary
280
     1
281
     1
  3
ACAD_MTEXT_2008_RT
360
1236
  0
DICTIONARY
  5
123B
330
122F
100
AcDbDictionary
280
     1
281
     1
  3
ACAD_MTEXT_2008_RT
360
123C
  0
DICTIONARY
  5
E44
102
{ACAD_REACTORS
330
C
102
}
330
C
100
AcDbDictionary
281
     1
  0
DICTIONARY
  5
D
102
{ACAD_REACTORS
330
C
102
}
330
C
100
AcDbDictionary
281
     1
  0
DICTIONARY
  5
2D0
102
{ACAD_REACTORS
330
C
102
}
330
C
100
AcDbDictionary
281
     1
  3
Model
350
2D2
  3
ﾚｲｱｳﾄ1
350
2D3
  0
DICTIONARY
  5
E1A
102
{ACAD_REACTORS
330
C
102
}
330
C
100
AcDbDictionary
281
     1
  3
ByBlock
350
E23
  3
ByLayer
350
E1B
  3
Global
350
E2B
  0
DICTIONARY
  5
E69
102
{ACAD_REACTORS
330
C
102
}
330
C
100
AcDbDictionary
281
     1
  3
Standard
350
E6A
  0
DICTIONARY
  5
E
102
{ACAD_REACTORS
330
C
102
}
330
C
100
AcDbDictionary
281
     1
  3
STANDARD
350
1B
  0
DICTIONARY
  5
2D1
102
{ACAD_REACTORS
330
C
102
}
330
C
100
AcDbDictionary
281
     1
  0
ACDBDICTIONARYWDFLT
  5
2CE
102
{ACAD_REACTORS
330
C
102
}
330
C
100
AcDbDictionary
281
     1
  3
Normal
350
2CF
100
AcDbDictionaryWithDefault
340
2CF
  0
DICTIONARY
  5
E47
102
{ACAD_REACTORS
330
C
102
}
330
C
100
AcDbDictionary
281
     1
  3
A0
350
E48
  3
A1
350
E49
  3
A2
350
E4A
  3
A3
350
E4B
  3
A4
350
E4C
  3
A5
350
E4D
  3
A6
350
E4E
  3
A7
350
E4F
  3
A8
350
E50
  3
A9
350
E51
  3
B0
350
E52
  3
B1
350
E53
  3
B2
350
E54
  3
B3
350
E55
  3
B4
350
E56
  3
B5
350
E57
  3
B6
350
E58
  3
B7
350
E59
  3
B8
350
E5A
  3
B9
350
E5B
  3
C0
350
E5C
  3
C1
350
E5D
  3
C2
350
E5E
  3
C3
350
E5F
  3
C4
350
E60
  3
C5
350
E61
  3
C6
350
E62
  3
C7
350
E63
  3
C8
350
E64
  3
C9
350
E65
  3
D0
350
E66
  3
D1
350
E67
  3
D2
350
E68
  0
DICTIONARY
  5
E45
102
{ACAD_REACTORS
330
C
102
}
330
C
100
AcDbDictionary
281
     1
  3
Standard
350
E46
  0
DICTIONARY
  5
E33
102
{ACAD_REACTORS
330
C
102
}
330
C
100
AcDbDictionary
281
     1
  3
2dWireframe
350
E39
  3
3D Hidden
350
E3B
  3
3dWireframe
350
E3A
  3
Basic
350
E38
  3
Brighten
350
E3F
  3
ColorChange
350
E43
  3
Conceptual
350
E3C
  3
Dim
350
E3E
  3
Facepattern
350
E42
  3
Flat
350
E34
  3
FlatWithEdges
350
E35
  3
Gouraud
350
E36
  3
GouraudWithEdges
350
E37
  3
Linepattern
350
E41
  3
Realistic
350
E3D
  3
Thicken
350
E40
  0
XRECORD
  5
E88
102
{ACAD_REACTORS
330
C
102
}
330
C
100
AcDbXrecord
280
     1
 90
        1
330
E46
  0
DICTIONARY
  5
2D8
102
{ACAD_REACTORS
330
C
102
}
330
C
100
AcDbDictionary
281
     1
  3
CANNOSCALE
350
E7A
  3
CMLEADERSTYLE
350
E79
  3
CTABLESTYLE
350
E78
  3
LIGHTINGUNITS
350
E8A
  3
MSLTSCALE
350
E89
  3
SORTENTS
350
2D9
  0
XRECORD
  5
E71
102
{ACAD_REACTORS
330
E70
102
}
330
E70
100
AcDbXrecord
280
     1
290
     1
  0
XRECORD
  5
E73
102
{ACAD_REACTORS
330
E72
102
}
330
E72
100
AcDbXrecord
280
     1
290
     1
  0
XRECORD
  5
E75
102
{ACAD_REACTORS
330
E74
102
}
330
E74
100
AcDbXrecord
280
     1
290
     1
  0
XRECORD
  5
E77
102
{ACAD_REACTORS
330
E76
102
}
330
E76
100
AcDbXrecord
280
     1
290
     1
  0
SORTENTSTABLE
  5
ECF
102
{ACAD_REACTORS
330
ECE
102
}
330
ECE
100
AcDbSortentsTable
330
18
331
CBF
  5
E07
331
380
  5
380
331
CA9
  5
CB2
331
38F
  5
38F
331
CB2
  5
CBB
331
B83
  5
CA9
331
CC1
  5
E16
331
CAB
  5
CB3
331
CB4
  5
CBD
331
CC3
  5
FF8
331
384
  5
384
331
B67
  5
B67
331
CAD
  5
CB6
331
393
  5
393
331
281
  5
281
331
CB6
  5
CBF
331
CC5
  5
FFC
331
386
  5
386
331
B69
  5
B82
331
395
  5
395
331
CB8
  5
CC1
331
388
  5
388
331
B6B
  5
B83
331
399
  5
399
331
E16
  5
10E7
331
397
  5
397
331
CBA
  5
CC4
331
1104
  5
CAE
331
38A
  5
38A
331
E07
  5
104A
331
39B
  5
39B
331
1027
  5
B7F
331
CBC
  5
D52
331
38C
  5
38C
331
2B1
  5
2B1
331
CBE
  5
DD3
331
37F
  5
37F
331
CA8
  5
CB1
331
38E
  5
38E
331
CB1
  5
CBA
331
B82
  5
CA8
331
CC0
  5
E08
331
CB3
  5
CBC
331
383
  5
383
331
CAC
  5
CB5
331
CB5
  5
CBE
331
3AB
  5
3AB
331
385
  5
385
331
CC4
  5
FFA
331
B68
  5
B81
331
CAE
  5
CB8
331
CB7
  5
CC0
331
387
  5
387
331
398
  5
398
331
396
  5
396
331
CB9
  5
CC3
331
CA3
  5
CAB
331
389
  5
389
331
39A
  5
39A
331
E17
  5
10E8
331
CBB
  5
CC5
331
38B
  5
38B
331
E08
  5
10E6
331
B7F
  5
CA3
331
CBD
  5
D53
331
1013
  5
B69
331
38D
  5
38D
331
CA7
  5
CB0
331
CB0
  5
CB9
331
104A
  5
FFD
331
B81
  5
CA7
  0
XRECORD
  5
1236
102
{ACAD_REACTORS
330
1235
102
}
330
1235
100
AcDbXrecord
280
     1
 40
5709.0
  1
\A1;\U+2205400
  0
XRECORD
  5
123C
102
{ACAD_REACTORS
330
123B
102
}
330
123B
100
AcDbXrecord
280
     1
 40
5709.0
  1
\A1;\U+2205400
  0
LAYOUT
  5
2D2
102
{ACAD_REACTORS
330
2D0
102
}
330
2D0
100
AcDbPlotSettings
  1

  2
EPSON LP-8000SX
  4

  6

 40
0.0
 41
0.0
 42
0.0
 43
0.0
 44
0.0
 45
0.0
 46
0.0
 47
0.0
 48
0.0
 49
0.0
140
0.0
141
0.0
142
1.0
143
1.0
 70
  1712
 72
     0
 73
     0
 74
     0
  7

 75
     0
147
1.0
 76
     0
 77
     2
 78
   300
148
0.0
149
0.0
100
AcDbLayout
  1
Model
 70
     1
 71
     0
 10
0.0
 20
0.0
 11
12.0
 21
9.0
 12
0.0
 22
0.0
 32
0.0
 14
0.0
 24
0.0
 34
0.0
 15
0.0
 25
0.0
 35
0.0
146
0.0
 13
0.0
 23
0.0
 33
0.0
 16
1.0
 26
0.0
 36
0.0
 17
0.0
 27
1.0
 37
0.0
 76
     0
330
18
331
E18
  0
LAYOUT
  5
2D3
102
{ACAD_REACTORS
330
2D0
102
}
330
2D0
100
AcDbPlotSettings
  1

  2
EPSON LP-8000SX
  4

  6

 40
0.0
 41
0.0
 42
0.0
 43
0.0
 44
0.0
 45
0.0
 46
0.0
 47
0.0
 48
0.0
 49
0.0
140
0.0
141
0.0
142
1.0
143
1.0
 70
   688
 72
     0
 73
     0
 74
     5
  7

 75
    16
147
1.0
 76
     0
 77
     2
 78
   300
148
0.0
149
0.0
100
AcDbLayout
  1
ﾚｲｱｳﾄ1
 70
     1
 71
     1
 10
0.0
 20
0.0
 11
12.0
 21
9.0
 12
0.0
 22
0.0
 32
0.0
 14
1.000000000000000E+20
 24
1.000000000000000E+20
 34
1.000000000000000E+20
 15
-1.000000000000000E+20
 25
-1.000000000000000E+20
 35
-1.000000000000000E+20
146
0.0
 13
0.0
 23
0.0
 33
0.0
 16
1.0
 26
0.0
 36
0.0
 17
0.0
 27
1.0
 37
0.0
 76
     0
330
15
  0
MATERIAL
  5
E23
102
{ACAD_XDICTIONARY
360
E24
102
}
102
{ACAD_REACTORS
330
E1A
102
}
330
E1A
100
AcDbMaterial
  1
ByBlock
 72
     0
 43
0.0208333333333333
 43
0.0
 43
0.0
 43
0.0
 43
0.0
 43
0.0208333333333333
 43
0.0
 43
0.0
 43
0.0
 43
0.0
 43
1.0
 43
0.0
 43
0.0
 43
0.0
 43
0.0
 43
1.0
 77
     0
 47
0.0208333333333333
 47
0.0
 47
0.0
 47
0.0
 47
0.0
 47
0.0208333333333333
 47
0.0
 47
0.0
 47
0.0
 47
0.0
 47
1.0
 47
0.0
 47
0.0
 47
0.0
 47
0.0
 47
1.0
171
     0
 49
0.0208333333333333
 49
0.0
 49
0.0
 49
0.0
 49
0.0
 49
0.0208333333333333
 49
0.0
 49
0.0
 49
0.0
 49
0.0
 49
1.0
 49
0.0
 49
0.0
 49
0.0
 49
0.0
 49
1.0
175
     0
142
0.0208333333333333
142
0.0
142
0.0
142
0.0
142
0.0
142
0.0208333333333333
142
0.0
142
0.0
142
0.0
142
0.0
142
1.0
142
0.0
142
0.0
142
0.0
142
0.0
142
1.0
179
     0
144
0.0208333333333333
144
0.0
144
0.0
144
0.0
144
0.0
144
0.0208333333333333
144
0.0
144
0.0
144
0.0
144
0.0
144
1.0
144
0.0
144
0.0
144
0.0
144
0.0
144
1.0
147
0.0208333333333333
147
0.0
147
0.0
147
0.0
147
0.0
147
0.0208333333333333
147
0.0
147
0.0
147
0.0
147
0.0
147
1.0
147
0.0
147
0.0
147
0.0
147
0.0
147
1.0
  0
MATERIAL
  5
E1B
102
{ACAD_XDICTIONARY
360
E1C
102
}
102
{ACAD_REACTORS
330
E1A
102
}
330
E1A
100
AcDbMaterial
  1
ByLayer
 72
     0
 43
0.0208333333333333
 43
0.0
 43
0.0
 43
0.0
 43
0.0
 43
0.0208333333333333
 43
0.0
 43
0.0
 43
0.0
 43
0.0
 43
1.0
 43
0.0
 43
0.0
 43
0.0
 43
0.0
 43
1.0
 77
     0
 47
0.0208333333333333
 47
0.0
 47
0.0
 47
0.0
 47
0.0
 47
0.0208333333333333
 47
0.0
 47
0.0
 47
0.0
 47
0.0
 47
1.0
 47
0.0
 47
0.0
 47
0.0
 47
0.0
 47
1.0
171
     0
 49
0.0208333333333333
 49
0.0
 49
0.0
 49
0.0
 49
0.0
 49
0.0208333333333333
 49
0.0
 49
0.0
 49
0.0
 49
0.0
 49
1.0
 49
0.0
 49
0.0
 49
0.0
 49
0.0
 49
1.0
175
     0
142
0.0208333333333333
142
0.0
142
0.0
142
0.0
142
0.0
142
0.0208333333333333
142
0.0
142
0.0
142
0.0
142
0.0
142
1.0
142
0.0
142
0.0
142
0.0
142
0.0
142
1.0
179
     0
144
0.0208333333333333
144
0.0
144
0.0
144
0.0
144
0.0
144
0.0208333333333333
144
0.0
144
0.0
144
0.0
144
0.0
144
1.0
144
0.0
144
0.0
144
0.0
144
0.0
144
1.0
147
0.0208333333333333
147
0.0
147
0.0
147
0.0
147
0.0
147
0.0208333333333333
147
0.0
147
0.0
147
0.0
147
0.0
147
1.0
147
0.0
147
0.0
147
0.0
147
0.0
147
1.0
  0
MATERIAL
  5
E2B
102
{ACAD_XDICTIONARY
360
E2C
102
}
102
{ACAD_REACTORS
330
E1A
102
}
330
E1A
100
AcDbMaterial
  1
Global
 72
     0
 43
0.0208333333333333
 43
0.0
 43
0.0
 43
0.0
 43
0.0
 43
0.0208333333333333
 43
0.0
 43
0.0
 43
0.0
 43
0.0
 43
1.0
 43
0.0
 43
0.0
 43
0.0
 43
0.0
 43
1.0
 77
     0
 47
0.0208333333333333
 47
0.0
 47
0.0
 47
0.0
 47
0.0
 47
0.0208333333333333
 47
0.0
 47
0.0
 47
0.0
 47
0.0
 47
1.0
 47
0.0
 47
0.0
 47
0.0
 47
0.0
 47
1.0
171
     0
 49
0.0208333333333333
 49
0.0
 49
0.0
 49
0.0
 49
0.0
 49
0.0208333333333333
 49
0.0
 49
0.0
 49
0.0
 49
0.0
 49
1.0
 49
0.0
 49
0.0
 49
0.0
 49
0.0
 49
1.0
175
     0
142
0.0208333333333333
142
0.0
142
0.0
142
0.0
142
0.0
142
0.0208333333333333
142
0.0
142
0.0
142
0.0
142
0.0
142
1.0
142
0.0
142
0.0
142
0.0
142
0.0
142
1.0
179
     0
144
0.0208333333333333
144
0.0
144
0.0
144
0.0
144
0.0
144
0.0208333333333333
144
0.0
144
0.0
144
0.0
144
0.0
144
1.0
144
0.0
144
0.0
144
0.0
144
0.0
144
1.0
147
0.0208333333333333
147
0.0
147
0.0
147
0.0
147
0.0
147
0.0208333333333333
147
0.0
147
0.0
147
0.0
147
0.0
147
1.0
147
0.0
147
0.0
147
0.0
147
0.0
147
1.0
  0
MLEADERSTYLE
  5
E6A
102
{ACAD_REACTORS
330
E69
102
}
330
E69
100
AcDbMLeaderStyle
170
     2
171
     1
172
     0
 90
        2
 40
0.0
 41
0.0
173
     1
 91
-1056964608
340
12
 92
       -2
290
     1
 42
0.09
291
     1
 43
0.36
  3
Standard
 44
0.18
300

342
10
174
     1
178
     6
175
     1
176
     0
 93
-1056964608
 45
0.18
292
     0
297
     0
 46
0.18
 94
-1056964608
 47
1.0
 49
1.0
140
1.0
293
     1
141
0.0
294
     1
177
     0
142
1.0
295
     0
296
     0
143
0.125
1001
ACAD_MLEADERVER
1070
     2
  0
MLINESTYLE
  5
1B
102
{ACAD_REACTORS
330
E
102
}
330
E
100
AcDbMlineStyle
  2
STANDARD
 70
     0
  3

 62
     0
 51
90.0
 52
90.0
 71
     2
 49
0.5
 62
   256
  6
BYLAYER
 49
-0.5
 62
   256
  6
BYLAYER
  0
ACDBPLACEHOLDER
  5
2CF
102
{ACAD_REACTORS
330
2CE
102
}
330
2CE
  0
SCALE
  5
E48
102
{ACAD_REACTORS
330
E47
102
}
330
E47
100
AcDbScale
 70
     0
300
1:1
140
1.0
141
1.0
290
     1
  0
SCALE
  5
E49
102
{ACAD_REACTORS
330
E47
102
}
330
E47
100
AcDbScale
 70
     0
300
1:2
140
1.0
141
2.0
290
     0
  0
SCALE
  5
E4A
102
{ACAD_REACTORS
330
E47
102
}
330
E47
100
AcDbScale
 70
     0
300
1:4
140
1.0
141
4.0
290
     0
  0
SCALE
  5
E4B
102
{ACAD_REACTORS
330
E47
102
}
330
E47
100
AcDbScale
 70
     0
300
1:5
140
1.0
141
5.0
290
     0
  0
SCALE
  5
E4C
102
{ACAD_REACTORS
330
E47
102
}
330
E47
100
AcDbScale
 70
     0
300
1:8
140
1.0
141
8.0
290
     0
  0
SCALE
  5
E4D
102
{ACAD_REACTORS
330
E47
102
}
330
E47
100
AcDbScale
 70
     0
300
1:10
140
1.0
141
10.0
290
     0
  0
SCALE
  5
E4E
102
{ACAD_REACTORS
330
E47
102
}
330
E47
100
AcDbScale
 70
     0
300
1:16
140
1.0
141
16.0
290
     0
  0
SCALE
  5
E4F
102
{ACAD_REACTORS
330
E47
102
}
330
E47
100
AcDbScale
 70
     0
300
1:20
140
1.0
141
20.0
290
     0
  0
SCALE
  5
E50
102
{ACAD_REACTORS
330
E47
102
}
330
E47
100
AcDbScale
 70
     0
300
1:30
140
1.0
141
30.0
290
     0
  0
SCALE
  5
E51
102
{ACAD_REACTORS
330
E47
102
}
330
E47
100
AcDbScale
 70
     0
300
1:40
140
1.0
141
40.0
290
     0
  0
SCALE
  5
E52
102
{ACAD_REACTORS
330
E47
102
}
330
E47
100
AcDbScale
 70
     0
300
1:50
140
1.0
141
50.0
290
     0
  0
SCALE
  5
E53
102
{ACAD_REACTORS
330
E47
102
}
330
E47
100
AcDbScale
 70
     0
300
1:100
140
1.0
141
100.0
290
     0
  0
SCALE
  5
E54
102
{ACAD_REACTORS
330
E47
102
}
330
E47
100
AcDbScale
 70
     0
300
2:1
140
2.0
141
1.0
290
     0
  0
SCALE
  5
E55
102
{ACAD_REACTORS
330
E47
102
}
330
E47
100
AcDbScale
 70
     0
300
4:1
140
4.0
141
1.0
290
     0
  0
SCALE
  5
E56
102
{ACAD_REACTORS
330
E47
102
}
330
E47
100
AcDbScale
 70
     0
300
8:1
140
8.0
141
1.0
290
     0
  0
SCALE
  5
E57
102
{ACAD_REACTORS
330
E47
102
}
330
E47
100
AcDbScale
 70
     0
300
10:1
140
10.0
141
1.0
290
     0
  0
SCALE
  5
E58
102
{ACAD_REACTORS
330
E47
102
}
330
E47
100
AcDbScale
 70
     0
300
100:1
140
100.0
141
1.0
290
     0
  0
SCALE
  5
E59
102
{ACAD_REACTORS
330
E47
102
}
330
E47
100
AcDbScale
 70
     0
300
1/128" = 1'-0"
140
0.0078125
141
12.0
290
     0
  0
SCALE
  5
E5A
102
{ACAD_REACTORS
330
E47
102
}
330
E47
100
AcDbScale
 70
     0
300
1/64" = 1'-0"
140
0.015625
141
12.0
290
     0
  0
SCALE
  5
E5B
102
{ACAD_REACTORS
330
E47
102
}
330
E47
100
AcDbScale
 70
     0
300
1/32" = 1'-0"
140
0.03125
141
12.0
290
     0
  0
SCALE
  5
E5C
102
{ACAD_REACTORS
330
E47
102
}
330
E47
100
AcDbScale
 70
     0
300
1/16" = 1'-0"
140
0.0625
141
12.0
290
     0
  0
SCALE
  5
E5D
102
{ACAD_REACTORS
330
E47
102
}
330
E47
100
AcDbScale
 70
     0
300
3/32" = 1'-0"
140
0.09375
141
12.0
290
     0
  0
SCALE
  5
E5E
102
{ACAD_REACTORS
330
E47
102
}
330
E47
100
AcDbScale
 70
     0
300
1/8" = 1'-0"
140
0.125
141
12.0
290
     0
  0
SCALE
  5
E5F
102
{ACAD_REACTORS
330
E47
102
}
330
E47
100
AcDbScale
 70
     0
300
3/16" = 1'-0"
140
0.1875
141
12.0
290
     0
  0
SCALE
  5
E60
102
{ACAD_REACTORS
330
E47
102
}
330
E47
100
AcDbScale
 70
     0
300
1/4" = 1'-0"
140
0.25
141
12.0
290
     0
  0
SCALE
  5
E61
102
{ACAD_REACTORS
330
E47
102
}
330
E47
100
AcDbScale
 70
     0
300
3/8" = 1'-0"
140
0.375
141
12.0
290
     0
  0
SCALE
  5
E62
102
{ACAD_REACTORS
330
E47
102
}
330
E47
100
AcDbScale
 70
     0
300
1/2" = 1'-0"
140
0.5
141
12.0
290
     0
  0
SCALE
  5
E63
102
{ACAD_REACTORS
330
E47
102
}
330
E47
100
AcDbScale
 70
     0
300
3/4" = 1'-0"
140
0.75
141
12.0
290
     0
  0
SCALE
  5
E64
102
{ACAD_REACTORS
330
E47
102
}
330
E47
100
AcDbScale
 70
     0
300
1" = 1'-0"
140
1.0
141
12.0
290
     0
  0
SCALE
  5
E65
102
{ACAD_REACTORS
330
E47
102
}
330
E47
100
AcDbScale
 70
     0
300
1-1/2" = 1'-0"
140
1.5
141
12.0
290
     0
  0
SCALE
  5
E66
102
{ACAD_REACTORS
330
E47
102
}
330
E47
100
AcDbScale
 70
     0
300
3" = 1'-0"
140
3.0
141
12.0
290
     0
  0
SCALE
  5
E67
102
{ACAD_REACTORS
330
E47
102
}
330
E47
100
AcDbScale
 70
     0
300
6" = 1'-0"
140
6.0
141
12.0
290
     0
  0
SCALE
  5
E68
102
{ACAD_REACTORS
330
E47
102
}
330
E47
100
AcDbScale
 70
     0
300
1'-0" = 1'-0"
140
12.0
141
12.0
290
     0
  0
TABLESTYLE
  5
E46
102
{ACAD_XDICTIONARY
360
E86
102
}
102
{ACAD_REACTORS
330
E45
102
}
330
E45
100
AcDbTableStyle
  3
Standard
 70
     0
 71
     0
 40
0.06
 41
0.06
280
     0
281
     0
  7
STANDARD
140
0.18
170
     2
 62
     0
 63
     7
283
     0
274
    -2
284
     1
 64
     0
275
    -2
285
     1
 65
     0
276
    -2
286
     1
 66
     0
277
    -2
287
     1
 67
     0
278
    -2
288
     1
 68
     0
279
    -2
289
     1
 69
     0
  7
STANDARD
140
0.25
170
     5
 62
     0
 63
     7
283
     0
274
    -2
284
     1
 64
     0
275
    -2
285
     1
 65
     0
276
    -2
286
     1
 66
     0
277
    -2
287
     1
 67
     0
278
    -2
288
     1
 68
     0
279
    -2
289
     1
 69
     0
  7
STANDARD
140
0.18
170
     5
 62
     0
 63
     7
283
     0
274
    -2
284
     1
 64
     0
275
    -2
285
     1
 65
     0
276
    -2
286
     1
 66
     0
277
    -2
287
     1
 67
     0
278
    -2
288
     1
 68
     0
279
    -2
289
     1
 69
     0
  0
VISUALSTYLE
  5
E39
102
{ACAD_REACTORS
330
E33
102
}
330
E33
100
AcDbVisualStyle
  2
2dWireframe
 70
     4
 71
     0
 72
     2
 73
     0
 90
        0
 40
-0.6
 41
-30.0
 62
     5
 63
     7
421
 16777215
 74
     1
 91
        4
 64
     7
 65
   257
 75
     1
175
     1
 42
1.0
 92
        0
 66
   257
 43
1.0
 76
     1
 77
     6
 78
     2
 67
     7
 79
     5
170
     0
171
     0
290
     0
174
     0
 93
        1
 44
0.0
173
     0
291
     0
 45
0.0
1001
ACAD
1000
AcDbSavedByObjectVersion
1070
     0
  0
VISUALSTYLE
  5
E3B
102
{ACAD_REACTORS
330
E33
102
}
330
E33
100
AcDbVisualStyle
  2
3D Hidden
 70
     6
 71
     1
 72
     2
 73
     2
 90
        0
 40
-0.6
 41
-30.0
 62
     5
 63
     7
421
 16777215
 74
     2
 91
        2
 64
     7
 65
   257
 75
     2
175
     1
 42
40.0
 92
        0
 66
   257
 43
1.0
 76
     1
 77
     6
 78
     2
 67
     7
 79
     3
170
     0
171
     0
290
     0
174
     0
 93
        1
 44
0.0
173
     0
291
     0
 45
0.0
1001
ACAD
1000
AcDbSavedByObjectVersion
1070
     0
  0
VISUALSTYLE
  5
E3A
102
{ACAD_REACTORS
330
E33
102
}
330
E33
100
AcDbVisualStyle
  2
3dWireframe
 70
     5
 71
     0
 72
     2
 73
     0
 90
        0
 40
-0.6
 41
-30.0
 62
     5
 63
     7
421
 16777215
 74
     1
 91
        4
 64
     7
 65
   257
 75
     1
175
     1
 42
1.0
 92
        0
 66
   257
 43
1.0
 76
     1
 77
     6
 78
     2
 67
     7
 79
     5
170
     0
171
     0
290
     0
174
     0
 93
        1
 44
0.0
173
     0
291
     0
 45
0.0
1001
ACAD
1000
AcDbSavedByObjectVersion
1070
     0
  0
VISUALSTYLE
  5
E38
102
{ACAD_REACTORS
330
E33
102
}
330
E33
100
AcDbVisualStyle
  2
Basic
 70
     7
 71
     1
 72
     0
 73
     1
 90
        0
 40
-0.6
 41
-30.0
 62
     5
 63
     7
421
 16777215
 74
     0
 91
        4
 64
     7
 65
   257
 75
     1
175
     1
 42
1.0
 92
        8
 66
     7
 43
1.0
 76
     1
 77
     6
 78
     2
 67
     7
 79
     5
170
     0
171
     0
290
     0
174
     0
 93
        1
 44
0.0
173
     0
291
     1
 45
0.0
1001
ACAD
1000
AcDbSavedByObjectVersion
1070
     0
  0
VISUALSTYLE
  5
E3F
102
{ACAD_REACTORS
330
E33
102
}
330
E33
100
AcDbVisualStyle
  2
Brighten
 70
    12
 71
     2
 72
     2
 73
     0
 90
        0
 40
-0.6
 41
-30.0
 62
     5
 63
     7
421
 16777215
 74
     1
 91
        4
 64
     7
 65
   257
 75
     1
175
     1
 42
1.0
 92
        8
 66
     7
 43
1.0
 76
     1
 77
     6
 78
     2
 67
     7
 79
     5
170
     0
171
     0
290
     0
174
     0
 93
        1
 44
50.0
173
     0
291
     1
 45
0.0
1001
ACAD
1000
AcDbSavedByObjectVersion
1070
     0
  0
VISUALSTYLE
  5
E43
102
{ACAD_REACTORS
330
E33
102
}
330
E33
100
AcDbVisualStyle
  2
ColorChange
 70
    16
 71
     2
 72
     2
 73
     3
 90
        0
 40
-0.6
 41
-30.0
 62
     5
 63
     8
421
  8421504
 74
     1
 91
        4
 64
     7
 65
   257
 75
     1
175
     1
 42
1.0
 92
        8
 66
     8
424
  8421504
 43
1.0
 76
     1
 77
     6
 78
     2
 67
     7
 79
     5
170
     0
171
     0
290
     0
174
     0
 93
        1
 44
0.0
173
     0
291
     1
 45
0.0
1001
ACAD
1000
AcDbSavedByObjectVersion
1070
     0
  0
VISUALSTYLE
  5
E3C
102
{ACAD_REACTORS
330
E33
102
}
330
E33
100
AcDbVisualStyle
  2
Conceptual
 70
     9
 71
     3
 72
     2
 73
     0
 90
        0
 40
-0.6
 41
-30.0
 62
     5
 63
     7
421
 16777215
 74
     2
 91
        2
 64
     7
 65
   257
 75
     1
175
     1
 42
40.0
 92
        8
 66
     7
 43
1.0
 76
     1
 77
     6
 78
     2
 67
     7
 79
     3
170
     0
171
     0
290
     0
174
     0
 93
        1
 44
0.0
173
     0
291
     0
 45
0.0
1001
ACAD
1000
AcDbSavedByObjectVersion
1070
     0
  0
VISUALSTYLE
  5
E3E
102
{ACAD_REACTORS
330
E33
102
}
330
E33
100
AcDbVisualStyle
  2
Dim
 70
    11
 71
     2
 72
     2
 73
     0
 90
        0
 40
-0.6
 41
-30.0
 62
     5
 63
     7
421
 16777215
 74
     1
 91
        4
 64
     7
 65
   257
 75
     1
175
     1
 42
1.0
 92
        8
 66
     7
 43
1.0
 76
     1
 77
     6
 78
     2
 67
     7
 79
     5
170
     0
171
     0
290
     0
174
     0
 93
        1
 44
-50.0
173
     0
291
     1
 45
0.0
1001
ACAD
1000
AcDbSavedByObjectVersion
1070
     0
  0
VISUALSTYLE
  5
E42
102
{ACAD_REACTORS
330
E33
102
}
330
E33
100
AcDbVisualStyle
  2
Facepattern
 70
    15
 71
     2
 72
     2
 73
     0
 90
        0
 40
-0.6
 41
-30.0
 62
     5
 63
     7
421
 16777215
 74
     1
 91
        4
 64
     7
 65
   257
 75
     1
175
     1
 42
1.0
 92
        8
 66
     7
 43
1.0
 76
     1
 77
     6
 78
     2
 67
     7
 79
     5
170
     0
171
     0
290
     0
174
     0
 93
        1
 44
0.0
173
     0
291
     1
 45
0.0
1001
ACAD
1000
AcDbSavedByObjectVersion
1070
     0
  0
VISUALSTYLE
  5
E34
102
{ACAD_REACTORS
330
E33
102
}
330
E33
100
AcDbVisualStyle
  2
Flat
 70
     0
 71
     2
 72
     1
 73
     1
 90
        2
 40
-0.6
 41
30.0
 62
     5
 63
     7
421
 16777215
 74
     0
 91
        4
 64
     7
 65
   257
 75
     1
175
     1
 42
1.0
 92
        8
 66
     7
 43
1.0
 76
     1
 77
     6
 78
     2
 67
     7
 79
     5
170
     0
171
     0
290
     0
174
     0
 93
       13
 44
0.0
173
     0
291
     1
 45
0.0
1001
ACAD
1000
AcDbSavedByObjectVersion
1070
     0
  0
VISUALSTYLE
  5
E35
102
{ACAD_REACTORS
330
E33
102
}
330
E33
100
AcDbVisualStyle
  2
FlatWithEdges
 70
     1
 71
     2
 72
     1
 73
     1
 90
        2
 40
-0.6
 41
30.0
 62
     5
 63
     7
421
 16777215
 74
     1
 91
        4
 64
     7
 65
   257
 75
     1
175
     1
 42
1.0
 92
        0
 66
   257
 43
1.0
 76
     1
 77
     6
 78
     2
 67
     7
 79
     5
170
     0
171
     0
290
     0
174
     0
 93
       13
 44
0.0
173
     0
291
     1
 45
0.0
1001
ACAD
1000
AcDbSavedByObjectVersion
1070
     0
  0
VISUALSTYLE
  5
E36
102
{ACAD_REACTORS
330
E33
102
}
330
E33
100
AcDbVisualStyle
  2
Gouraud
 70
     2
 71
     2
 72
     2
 73
     1
 90
        2
 40
-0.6
 41
30.0
 62
     5
 63
     7
421
 16777215
 74
     0
 91
        4
 64
     7
 65
   257
 75
     1
175
     1
 42
1.0
 92
        0
 66
     7
 43
1.0
 76
     1
 77
     6
 78
     2
 67
     7
 79
     5
170
     0
171
     0
290
     0
174
     0
 93
       13
 44
0.0
173
     0
291
     1
 45
0.0
1001
ACAD
1000
AcDbSavedByObjectVersion
1070
     0
  0
VISUALSTYLE
  5
E37
102
{ACAD_REACTORS
330
E33
102
}
330
E33
100
AcDbVisualStyle
  2
GouraudWithEdges
 70
     3
 71
     2
 72
     2
 73
     1
 90
        2
 40
-0.6
 41
30.0
 62
     5
 63
     7
421
 16777215
 74
     1
 91
        4
 64
     7
 65
   257
 75
     1
175
     1
 42
1.0
 92
        0
 66
   257
 43
1.0
 76
     1
 77
     6
 78
     2
 67
     7
 79
     5
170
     0
171
     0
290
     0
174
     0
 93
       13
 44
0.0
173
     0
291
     1
 45
0.0
1001
ACAD
1000
AcDbSavedByObjectVersion
1070
     0
  0
VISUALSTYLE
  5
E41
102
{ACAD_REACTORS
330
E33
102
}
330
E33
100
AcDbVisualStyle
  2
Linepattern
 70
    14
 71
     2
 72
     2
 73
     0
 90
        0
 40
-0.6
 41
-30.0
 62
     5
 63
     7
421
 16777215
 74
     1
 91
        4
 64
     7
 65
   257
 75
     7
175
     7
 42
1.0
 92
        8
 66
     7
 43
1.0
 76
     1
 77
     6
 78
     2
 67
     7
 79
     5
170
     0
171
     0
290
     0
174
     0
 93
        1
 44
0.0
173
     0
291
     1
 45
0.0
1001
ACAD
1000
AcDbSavedByObjectVersion
1070
     0
  0
VISUALSTYLE
  5
E3D
102
{ACAD_REACTORS
330
E33
102
}
330
E33
100
AcDbVisualStyle
  2
Realistic
 70
     8
 71
     2
 72
     2
 73
     0
 90
        0
 40
-0.6
 41
-30.0
 62
     5
 63
     7
421
 16777215
 74
     1
 91
        0
 64
     7
 65
   257
 75
     1
175
     1
 42
1.0
 92
        8
 66
     8
424
  7895160
 43
1.0
 76
     1
 77
     6
 78
     2
 67
     7
 79
     5
170
     0
171
     0
290
     0
174
     0
 93
       13
 44
0.0
173
     0
291
     0
 45
0.0
1001
ACAD
1000
AcDbSavedByObjectVersion
1070
     0
  0
VISUALSTYLE
  5
E40
102
{ACAD_REACTORS
330
E33
102
}
330
E33
100
AcDbVisualStyle
  2
Thicken
 70
    13
 71
     2
 72
     2
 73
     0
 90
        0
 40
-0.6
 41
-30.0
 62
     5
 63
     7
421
 16777215
 74
     1
 91
        4
 64
     7
 65
   257
 75
     1
175
     1
 42
1.0
 92
       12
 66
     7
 43
1.0
 76
     1
 77
     6
 78
     2
 67
     7
 79
     5
170
     0
171
     0
290
     0
174
     0
 93
        1
 44
0.0
173
     0
291
     1
 45
0.0
1001
ACAD
1000
AcDbSavedByObjectVersion
1070
     0
  0
DICTIONARYVAR
  5
E7A
102
{ACAD_REACTORS
330
2D8
102
}
330
2D8
100
DictionaryVariables
280
     0
  1
1:1
  0
DICTIONARYVAR
  5
E79
102
{ACAD_REACTORS
330
2D8
102
}
330
2D8
100
DictionaryVariables
280
     0
  1
STANDARD
  0
DICTIONARYVAR
  5
E78
102
{ACAD_REACTORS
330
2D8
102
}
330
2D8
100
DictionaryVariables
280
     0
  1
STANDARD
  0
DICTIONARYVAR
  5
E8A
102
{ACAD_REACTORS
330
2D8
102
}
330
2D8
100
DictionaryVariables
280
     0
  1
0
  0
DICTIONARYVAR
  5
E89
102
{ACAD_REACTORS
330
2D8
102
}
330
2D8
100
DictionaryVariables
280
     0
  1
0
  0
DICTIONARYVAR
  5
2D9
102
{ACAD_REACTORS
330
2D8
102
}
330
2D8
100
DictionaryVariables
280
     0
  1
96
  0
DICTIONARY
  5
E24
330
E23
100
AcDbDictionary
280
     1
281
     1
  3
ACAD_XREC_ROUNDTRIP
360
1238
  3
BUMPTILE
360
E26
  3
DIFFUSETILE
360
E25
  3
OPACITYTILE
360
E29
  3
REFLECTIONTILE
360
E28
  3
REFRACTIONTILE
360
E2A
  3
SPECULARTILE
360
E27
  0
DICTIONARY
  5
E1C
330
E1B
100
AcDbDictionary
280
     1
281
     1
  3
ACAD_XREC_ROUNDTRIP
360
1237
  3
BUMPTILE
360
E1E
  3
DIFFUSETILE
360
E1D
  3
OPACITYTILE
360
E21
  3
REFLECTIONTILE
360
E20
  3
REFRACTIONTILE
360
E22
  3
SPECULARTILE
360
E1F
  0
DICTIONARY
  5
E2C
330
E2B
100
AcDbDictionary
280
     1
281
     1
  3
ACAD_XREC_ROUNDTRIP
360
1239
  3
BUMPTILE
360
E2E
  3
DIFFUSETILE
360
E2D
  3
OPACITYTILE
360
E31
  3
REFLECTIONTILE
360
E30
  3
REFRACTIONTILE
360
E32
  3
SPECULARTILE
360
E2F
  0
DICTIONARY
  5
E86
330
E46
100
AcDbDictionary
280
     1
281
     1
  3
ACAD_ROUNDTRIP_2008_TABLESTYLE_CELLSTYLEMAP
360
1234
  3
ACAD_XREC_ROUNDTRIP
360
123A
  0
XRECORD
  5
1238
102
{ACAD_REACTORS
330
E24
102
}
330
E24
100
AcDbXrecord
280
     1
102
MATERIAL
148
0.0
149
0.0
149
0.0
 93
        0
 94
      127
282
     0
 72
     0
 77
     0
171
     0
175
     0
179
     0
273
     0
  0
XRECORD
  5
E26
102
{ACAD_REACTORS
330
E24
102
}
330
E24
100
AcDbXrecord
280
     1
270
     1
271
     1
  0
XRECORD
  5
E25
102
{ACAD_REACTORS
330
E24
102
}
330
E24
100
AcDbXrecord
280
     1
270
     1
271
     1
  0
XRECORD
  5
E29
102
{ACAD_REACTORS
330
E24
102
}
330
E24
100
AcDbXrecord
280
     1
270
     1
271
     1
  0
XRECORD
  5
E28
102
{ACAD_REACTORS
330
E24
102
}
330
E24
100
AcDbXrecord
280
     1
270
     1
271
     1
  0
XRECORD
  5
E2A
102
{ACAD_REACTORS
330
E24
102
}
330
E24
100
AcDbXrecord
280
     1
270
     1
271
     1
  0
XRECORD
  5
E27
102
{ACAD_REACTORS
330
E24
102
}
330
E24
100
AcDbXrecord
280
     1
270
     1
271
     1
  0
XRECORD
  5
1237
102
{ACAD_REACTORS
330
E1C
102
}
330
E1C
100
AcDbXrecord
280
     1
102
MATERIAL
148
0.0
149
0.0
149
0.0
 93
        0
 94
      127
282
     0
 72
     0
 77
     0
171
     0
175
     0
179
     0
273
     0
  0
XRECORD
  5
E1E
102
{ACAD_REACTORS
330
E1C
102
}
330
E1C
100
AcDbXrecord
280
     1
270
     1
271
     1
  0
XRECORD
  5
E1D
102
{ACAD_REACTORS
330
E1C
102
}
330
E1C
100
AcDbXrecord
280
     1
270
     1
271
     1
  0
XRECORD
  5
E21
102
{ACAD_REACTORS
330
E1C
102
}
330
E1C
100
AcDbXrecord
280
     1
270
     1
271
     1
  0
XRECORD
  5
E20
102
{ACAD_REACTORS
330
E1C
102
}
330
E1C
100
AcDbXrecord
280
     1
270
     1
271
     1
  0
XRECORD
  5
E22
102
{ACAD_REACTORS
330
E1C
102
}
330
E1C
100
AcDbXrecord
280
     1
270
     1
271
     1
  0
XRECORD
  5
E1F
102
{ACAD_REACTORS
330
E1C
102
}
330
E1C
100
AcDbXrecord
280
     1
270
     1
271
     1
  0
XRECORD
  5
1239
102
{ACAD_REACTORS
330
E2C
102
}
330
E2C
100
AcDbXrecord
280
     1
102
MATERIAL
148
0.0
149
0.0
149
0.0
 93
        0
 94
      127
282
     0
 72
     0
 77
     0
171
     0
175
     0
179
     0
273
     0
  0
XRECORD
  5
E2E
102
{ACAD_REACTORS
330
E2C
102
}
330
E2C
100
AcDbXrecord
280
     1
270
     1
271
     1
  0
XRECORD
  5
E2D
102
{ACAD_REACTORS
330
E2C
102
}
330
E2C
100
AcDbXrecord
280
     1
270
     1
271
     1
  0
XRECORD
  5
E31
102
{ACAD_REACTORS
330
E2C
102
}
330
E2C
100
AcDbXrecord
280
     1
270
     1
271
     1
  0
XRECORD
  5
E30
102
{ACAD_REACTORS
330
E2C
102
}
330
E2C
100
AcDbXrecord
280
     1
270
     1
271
     1
  0
XRECORD
  5
E32
102
{ACAD_REACTORS
330
E2C
102
}
330
E2C
100
AcDbXrecord
280
     1
270
     1
271
     1
  0
XRECORD
  5
E2F
102
{ACAD_REACTORS
330
E2C
102
}
330
E2C
100
AcDbXrecord
280
     1
270
     1
271
     1
  0
CELLSTYLEMAP
  5
1234
102
{ACAD_REACTORS
330
E86
102
}
330
E86
100
AcDbCellStyleMap
 90
        3
300
CELLSTYLE
  1
TABLEFORMAT_BEGIN
 90
        5
170
     1
 91
        0
 92
    32768
 62
   257
 93
        1
300
CONTENTFORMAT
  1
CONTENTFORMAT_BEGIN
 90
        0
 91
        0
 92
      512
 93
        0
300

 40
0.0
140
1.0
 94
        5
 62
     0
340
10
144
0.25
309
CONTENTFORMAT_END
171
     0
 94
        0
309
TABLEFORMAT_END
  1
CELLSTYLE_BEGIN
 90
        1
 91
        1
300
_TITLE
309
CELLSTYLE_END
300
CELLSTYLE
  1
TABLEFORMAT_BEGIN
 90
        5
170
     1
 91
        0
 92
        0
 62
   257
 93
        1
300
CONTENTFORMAT
  1
CONTENTFORMAT_BEGIN
 90
        0
 91
        0
 92
      512
 93
        0
300

 40
0.0
140
1.0
 94
        5
 62
     0
340
10
144
0.18
309
CONTENTFORMAT_END
171
     0
 94
        0
309
TABLEFORMAT_END
  1
CELLSTYLE_BEGIN
 90
        2
 91
        1
300
_HEADER
309
CELLSTYLE_END
300
CELLSTYLE
  1
TABLEFORMAT_BEGIN
 90
        5
170
     1
 91
        0
 92
        0
 62
   257
 93
        1
300
CONTENTFORMAT
  1
CONTENTFORMAT_BEGIN
 90
        0
 91
        0
 92
      512
 93
        0
300

 40
0.0
140
1.0
 94
        2
 62
     0
340
10
144
0.18
309
CONTENTFORMAT_END
171
     0
 94
        0
309
TABLEFORMAT_END
  1
CELLSTYLE_BEGIN
 90
        3
 91
        2
300
_DATA
309
CELLSTYLE_END
  0
XRECORD
  5
123A
102
{ACAD_REACTORS
330
E86
102
}
330
E86
100
AcDbXrecord
280
     1
102
ACAD_ROUNDTRIP_PRE2007_TABLESTYLE
 90
      512
 91
        0
  1

 92
      512
 93
        0
  2

 94
      512
 95
        0
  3

  0
ENDSEC
  0
EOF
