  0
SECTION
  2
HEADER
  9
$ACADVER
  1
AC1018
  9
$ACADMAINTVER
 70
   104
  9
$DWGCODEPAGE
  3
ANSI_932
  9
$LASTSAVEDBY
  1
poracon
  9
$INSBASE
 10
0.0
 20
0.0
 30
0.0
  9
$EXTMIN
 10
263.80961751426
 20
-1311.077024556631
 30
-0.0015258207003583
  9
$EXTMAX
 10
5304.231869403562
 20
2253.191579766199
 30
0.0000000349246037
  9
$LIMMIN
 10
0.0
 20
0.0
  9
$LIMMAX
 10
2970.0
 20
2100.0
  9
$ORTHOMODE
 70
     1
  9
$REGENMODE
 70
     1
  9
$FILLMODE
 70
     1
  9
$QTEXTMODE
 70
     0
  9
$MIRRTEXT
 70
     1
  9
$LTSCALE
 40
60.0
  9
$ATTMODE
 70
     1
  9
$TEXTSIZE
 40
50.0
  9
$TRACEWID
 40
0.05
  9
$TEXTSTYLE
  7
BIGFONT
  9
$CLAYER
  8
0
  9
$CELTYPE
  6
BYLAYER
  9
$CECOLOR
 62
   256
  9
$CELTSCALE
 40
1.0
  9
$DISPSILH
 70
     0
  9
$DIMSCALE
 40
10.0
  9
$DIMASZ
 40
2.5
  9
$DIMEXO
 40
1.0
  9
$DIMDLI
 40
10.0
  9
$DIMRND
 40
0.0
  9
$DIMDLE
 40
0.0
  9
$DIMEXE
 40
1.0
  9
$DIMTP
 40
0.0
  9
$DIMTM
 40
0.0
  9
$DIMTXT
 40
4.0
  9
$DIMCEN
 40
0.0
  9
$DIMTSZ
 40
0.0
  9
$DIMTOL
 70
     0
  9
$DIMLIM
 70
     0
  9
$DIMTIH
 70
     0
  9
$DIMTOH
 70
     0
  9
$DIMSE1
 70
     0
  9
$DIMSE2
 70
     0
  9
$DIMTAD
 70
     1
  9
$DIMZIN
 70
     0
  9
$DIMBLK
  1

  9
$DIMASO
 70
     1
  9
$DIMSHO
 70
     1
  9
$DIMPOST
  1

  9
$DIMAPOST
  1

  9
$DIMALT
 70
     0
  9
$DIMALTD
 70
     2
  9
$DIMALTF
 40
25.4
  9
$DIMLFAC
 40
1.0
  9
$DIMTOFL
 70
     0
  9
$DIMTVP
 40
0.0
  9
$DIMTIX
 70
     0
  9
$DIMSOXD
 70
     0
  9
$DIMSAH
 70
     1
  9
$DIMBLK1
  1
ARROW
  9
$DIMBLK2
  1
ARROW
  9
$DIMSTYLE
  2
DIA1
  9
$DIMCLRD
 70
     0
  9
$DIMCLRE
 70
     0
  9
$DIMCLRT
 70
     0
  9
$DIMTFAC
 40
1.0
  9
$DIMGAP
 40
1.0
  9
$DIMJUST
 70
     0
  9
$DIMSD1
 70
     0
  9
$DIMSD2
 70
     0
  9
$DIMTOLJ
 70
     1
  9
$DIMTZIN
 70
     0
  9
$DIMALTZ
 70
     0
  9
$DIMALTTZ
 70
     0
  9
$DIMUPT
 70
     0
  9
$DIMDEC
 70
     0
  9
$DIMTDEC
 70
     0
  9
$DIMALTU
 70
     2
  9
$DIMALTTD
 70
     2
  9
$DIMTXSTY
  7
BIGFONT
  9
$DIMAUNIT
 70
     0
  9
$DIMADEC
 70
     0
  9
$DIMALTRND
 40
0.0
  9
$DIMAZIN
 70
     0
  9
$DIMDSEP
 70
    46
  9
$DIMATFIT
 70
     3
  9
$DIMFRAC
 70
     0
  9
$DIMLDRBLK
  1
ARROW
  9
$DIMLUNIT
 70
     2
  9
$DIMLWD
 70
    -2
  9
$DIMLWE
 70
    -2
  9
$DIMTMOVE
 70
     0
  9
$LUNITS
 70
     2
  9
$LUPREC
 70
     1
  9
$SKETCHINC
 40
0.1
  9
$FILLETRAD
 40
0.0
  9
$AUNITS
 70
     1
  9
$AUPREC
 70
     2
  9
$MENU
  1
MASTERS
  9
$ELEVATION
 40
0.0
  9
$PELEVATION
 40
0.0
  9
$THICKNESS
 40
0.0
  9
$LIMCHECK
 70
     0
  9
$CHAMFERA
 40
0.0
  9
$CHAMFERB
 40
0.0
  9
$CHAMFERC
 40
0.0
  9
$CHAMFERD
 40
0.0
  9
$SKPOLY
 70
     0
  9
$TDCREATE
 40
2449337.661539352
  9
$TDUCREATE
 40
2449337.286539352
  9
$TDUPDATE
 40
2456937.477043646
  9
$TDUUPDATE
 40
2456937.102043646
  9
$TDINDWG
 40
0.1267474074
  9
$TDUSRTIMER
 40
0.1267474074
  9
$USRTIMER
 70
     1
  9
$ANGBASE
 50
0.0
  9
$ANGDIR
 70
     0
  9
$PDMODE
 70
     0
  9
$PDSIZE
 40
0.0
  9
$PLINEWID
 40
0.0
  9
$SPLFRAME
 70
     0
  9
$SPLINETYPE
 70
     6
  9
$SPLINESEGS
 70
     8
  9
$HANDSEED
  5
11CA
  9
$SURFTAB1
 70
     6
  9
$SURFTAB2
 70
     6
  9
$SURFTYPE
 70
     6
  9
$SURFU
 70
     6
  9
$SURFV
 70
     6
  9
$UCSBASE
  2

  9
$UCSNAME
  2

  9
$UCSORG
 10
0.0
 20
0.0
 30
0.0
  9
$UCSXDIR
 10
1.0
 20
0.0
 30
0.0
  9
$UCSYDIR
 10
0.0
 20
1.0
 30
0.0
  9
$UCSORTHOREF
  2

  9
$UCSORTHOVIEW
 70
     0
  9
$UCSORGTOP
 10
0.0
 20
0.0
 30
0.0
  9
$UCSORGBOTTOM
 10
0.0
 20
0.0
 30
0.0
  9
$UCSORGLEFT
 10
0.0
 20
0.0
 30
0.0
  9
$UCSORGRIGHT
 10
0.0
 20
0.0
 30
0.0
  9
$UCSORGFRONT
 10
0.0
 20
0.0
 30
0.0
  9
$UCSORGBACK
 10
0.0
 20
0.0
 30
0.0
  9
$PUCSBASE
  2

  9
$PUCSNAME
  2

  9
$PUCSORG
 10
0.0
 20
0.0
 30
0.0
  9
$PUCSXDIR
 10
1.0
 20
0.0
 30
0.0
  9
$PUCSYDIR
 10
0.0
 20
1.0
 30
0.0
  9
$PUCSORTHOREF
  2

  9
$PUCSORTHOVIEW
 70
     0
  9
$PUCSORGTOP
 10
0.0
 20
0.0
 30
0.0
  9
$PUCSORGBOTTOM
 10
0.0
 20
0.0
 30
0.0
  9
$PUCSORGLEFT
 10
0.0
 20
0.0
 30
0.0
  9
$PUCSORGRIGHT
 10
0.0
 20
0.0
 30
0.0
  9
$PUCSORGFRONT
 10
0.0
 20
0.0
 30
0.0
  9
$PUCSORGBACK
 10
0.0
 20
0.0
 30
0.0
  9
$USERI1
 70
     0
  9
$USERI2
 70
     0
  9
$USERI3
 70
     0
  9
$USERI4
 70
     0
  9
$USERI5
 70
     0
  9
$USERR1
 40
0.0
  9
$USERR2
 40
0.0
  9
$USERR3
 40
0.0
  9
$USERR4
 40
0.0
  9
$USERR5
 40
0.0
  9
$WORLDVIEW
 70
     1
  9
$SHADEDGE
 70
     3
  9
$SHADEDIF
 70
    70
  9
$TILEMODE
 70
     1
  9
$MAXACTVP
 70
    16
  9
$PINSBASE
 10
0.0
 20
0.0
 30
0.0
  9
$PLIMCHECK
 70
     0
  9
$PEXTMIN
 10
1.000000000000000E+20
 20
1.000000000000000E+20
 30
1.000000000000000E+20
  9
$PEXTMAX
 10
-1.000000000000000E+20
 20
-1.000000000000000E+20
 30
-1.000000000000000E+20
  9
$PLIMMIN
 10
0.0
 20
0.0
  9
$PLIMMAX
 10
12.0
 20
9.0
  9
$UNITMODE
 70
     0
  9
$VISRETAIN
 70
     0
  9
$PLINEGEN
 70
     0
  9
$PSLTSCALE
 70
     1
  9
$TREEDEPTH
 70
  3020
  9
$CMLSTYLE
  2
STANDARD
  9
$CMLJUST
 70
     0
  9
$CMLSCALE
 40
1.0
  9
$PROXYGRAPHICS
 70
     1
  9
$MEASUREMENT
 70
     0
  9
$CELWEIGHT
370
    -1
  9
$ENDCAPS
280
     0
  9
$JOINSTYLE
280
     0
  9
$LWDISPLAY
290
     0
  9
$INSUNITS
 70
     0
  9
$HYPERLINKBASE
  1

  9
$STYLESHEET
  1

  9
$XEDIT
290
     1
  9
$CEPSNTYPE
380
     0
  9
$PSTYLEMODE
290
     1
  9
$FINGERPRINTGUID
  2
{241947D8-10E5-11D6-BA8D-8D48D945A249}
  9
$VERSIONGUID
  2
{1FE79C69-2F91-4C86-B945-330E57C110FF}
  9
$EXTNAMES
290
     1
  9
$PSVPSCALE
 40
0.0
  9
$OLESTARTUP
290
     0
  9
$SORTENTS
280
    96
  9
$INDEXCTL
280
     0
  9
$HIDETEXT
280
     0
  9
$XCLIPFRAME
290
     0
  9
$HALOGAP
280
     0
  9
$OBSCOLOR
 70
   257
  9
$OBSLTYPE
280
     0
  9
$INTERSECTIONDISPLAY
280
     0
  9
$INTERSECTIONCOLOR
 70
   257
  9
$DIMASSOC
280
     1
  9
$PROJECTNAME
  1

  0
ENDSEC
  0
SECTION
  2
CLASSES
  0
CLASS
  1
ACDBDICTIONARYWDFLT
  2
AcDbDictionaryWithDefault
  3
ObjectDBX Classes
 90
        0
 91
        1
280
     0
281
     0
  0
CLASS
  1
DICTIONARYVAR
  2
AcDbDictionaryVar
  3
ObjectDBX Classes
 90
        0
 91
        6
280
     0
281
     0
  0
CLASS
  1
MATERIAL
  2
AcDbMaterial
  3
ObjectDBX Classes
 90
     1153
 91
        3
280
     0
281
     0
  0
CLASS
  1
VISUALSTYLE
  2
AcDbVisualStyle
  3
ObjectDBX Classes
 90
     4095
 91
       16
280
     0
281
     0
  0
CLASS
  1
TABLESTYLE
  2
AcDbTableStyle
  3
ObjectDBX Classes
 90
     4095
 91
        1
280
     0
281
     0
  0
CLASS
  1
SCALE
  2
AcDbScale
  3
ObjectDBX Classes
 90
     1153
 91
       33
280
     0
281
     0
  0
CLASS
  1
MLEADERSTYLE
  2
AcDbMLeaderStyle
  3
ACDB_MLEADERSTYLE_CLASS
 90
     4095
 91
        1
280
     0
281
     0
  0
CLASS
  1
CELLSTYLEMAP
  2
AcDbCellStyleMap
  3
ObjectDBX Classes
 90
     1152
 91
        3
280
     0
281
     0
  0
CLASS
  1
SORTENTSTABLE
  2
AcDbSortentsTable
  3
ObjectDBX Classes
 90
        0
 91
        2
280
     0
281
     0
  0
ENDSEC
  0
SECTION
  2
TABLES
  0
TABLE
  2
VPORT
  5
8
330
0
100
AcDbSymbolTable
 70
     1
  0
VPORT
  5
EDE
330
8
100
AcDbSymbolTableRecord
100
AcDbViewportTableRecord
  2
*Active
 70
     0
 10
0.0
 20
0.0
 11
1.0
 21
1.0
 12
2652.115934701781
 22
471.0572776047836
 13
0.0
 23
0.0
 14
1.0
 24
1.0
 15
0.0
 25
0.0
 16
0.0
 26
0.0
 36
1.0
 17
0.0
 27
0.0
 37
0.0
 40
3592.593917734666
 41
1.669761273209549
 42
50.0
 43
0.0
 44
0.0
 50
0.0
 51
0.0
 71
     0
 72
   100
 73
     1
 74
     1
 75
     0
 76
     0
 77
     0
 78
     0
281
     0
 65
     1
110
0.0
120
0.0
130
0.0
111
1.0
121
0.0
131
0.0
112
0.0
122
1.0
132
0.0
 79
     0
146
0.0
  0
ENDTAB
  0
TABLE
  2
LTYPE
  5
5
330
0
100
AcDbSymbolTable
 70
    26
  0
LTYPE
  5
12
330
5
100
AcDbSymbolTableRecord
100
AcDbLinetypeTableRecord
  2
BYBLOCK
 70
     0
  3

 72
    65
 73
     0
 40
0.0
  0
LTYPE
  5
13
330
5
100
AcDbSymbolTableRecord
100
AcDbLinetypeTableRecord
  2
BYLAYER
 70
     0
  3

 72
    65
 73
     0
 40
0.0
  0
LTYPE
  5
14
330
5
100
AcDbSymbolTableRecord
100
AcDbLinetypeTableRecord
  2
CONTINUOUS
 70
     0
  3
Solid line
 72
    65
 73
     0
 40
0.0
  0
LTYPE
  5
2E
330
5
100
AcDbSymbolTableRecord
100
AcDbLinetypeTableRecord
  2
BORDER
 70
     0
  3
__ __ . __ __ . __ __ . __ __ . __ __ . __ __ .
 72
    65
 73
     6
 40
1.75
 49
0.5
 74
     0
 49
-0.25
 74
     0
 49
0.5
 74
     0
 49
-0.25
 74
     0
 49
0.0
 74
     0
 49
-0.25
 74
     0
  0
LTYPE
  5
2F
330
5
100
AcDbSymbolTableRecord
100
AcDbLinetypeTableRecord
  2
BORDER2
 70
     0
  3
__.__.__.__.__.__.__.__.__.__.__.__.__.__.__.__
 72
    65
 73
     6
 40
0.875
 49
0.25
 74
     0
 49
-0.125
 74
     0
 49
0.25
 74
     0
 49
-0.125
 74
     0
 49
0.0
 74
     0
 49
-0.125
 74
     0
  0
LTYPE
  5
30
330
5
100
AcDbSymbolTableRecord
100
AcDbLinetypeTableRecord
  2
BORDERX2
 70
     0
  3
____  ____  .  ____  ____  .  ____  ____  .  __
 72
    65
 73
     6
 40
3.5
 49
1.0
 74
     0
 49
-0.5
 74
     0
 49
1.0
 74
     0
 49
-0.5
 74
     0
 49
0.0
 74
     0
 49
-0.5
 74
     0
  0
LTYPE
  5
31
330
5
100
AcDbSymbolTableRecord
100
AcDbLinetypeTableRecord
  2
CENTER
 70
     0
  3
____ _ ____ _ ____ _ ____ _ ____ _ ____ _ ____ 
 72
    65
 73
     4
 40
2.0
 49
1.25
 74
     0
 49
-0.25
 74
     0
 49
0.25
 74
     0
 49
-0.25
 74
     0
  0
LTYPE
  5
32
330
5
100
AcDbSymbolTableRecord
100
AcDbLinetypeTableRecord
  2
CENTER2
 70
     0
  3
___ _ ___ _ ___ _ ___ _ ___ _ ___ _ ___ _ ___ _
 72
    65
 73
     4
 40
1.125
 49
0.75
 74
     0
 49
-0.125
 74
     0
 49
0.125
 74
     0
 49
-0.125
 74
     0
  0
LTYPE
  5
33
330
5
100
AcDbSymbolTableRecord
100
AcDbLinetypeTableRecord
  2
CENTERX2
 70
     0
  3
________  __  ________  __  ________  __  _____
 72
    65
 73
     4
 40
4.0
 49
2.5
 74
     0
 49
-0.5
 74
     0
 49
0.5
 74
     0
 49
-0.5
 74
     0
  0
LTYPE
  5
34
330
5
100
AcDbSymbolTableRecord
100
AcDbLinetypeTableRecord
  2
DASHDOT
 70
     0
  3
__ . __ . __ . __ . __ . __ . __ . __ . __ . __
 72
    65
 73
     4
 40
1.0
 49
0.5
 74
     0
 49
-0.25
 74
     0
 49
0.0
 74
     0
 49
-0.25
 74
     0
  0
LTYPE
  5
35
330
5
100
AcDbSymbolTableRecord
100
AcDbLinetypeTableRecord
  2
DASHDOT2
 70
     0
  3
_._._._._._._._._._._._._._._._._._._._._._._._
 72
    65
 73
     4
 40
0.5
 49
0.25
 74
     0
 49
-0.125
 74
     0
 49
0.0
 74
     0
 49
-0.125
 74
     0
  0
LTYPE
  5
36
330
5
100
AcDbSymbolTableRecord
100
AcDbLinetypeTableRecord
  2
DASHDOTX2
 70
     0
  3
____  .  ____  .  ____  .  ____  .  ____  .  __
 72
    65
 73
     4
 40
2.0
 49
1.0
 74
     0
 49
-0.5
 74
     0
 49
0.0
 74
     0
 49
-0.5
 74
     0
  0
LTYPE
  5
37
330
5
100
AcDbSymbolTableRecord
100
AcDbLinetypeTableRecord
  2
DASHED
 70
     0
  3
__ __ __ __ __ __ __ __ __ __ __ __ __ __ __ __
 72
    65
 73
     2
 40
0.75
 49
0.5
 74
     0
 49
-0.25
 74
     0
  0
LTYPE
  5
38
330
5
100
AcDbSymbolTableRecord
100
AcDbLinetypeTableRecord
  2
DASHED2
 70
     0
  3
_ _ _ _ _ _ _ _ _ _ _ _ _ _ _ _ _ _ _ _ _ _ _ _
 72
    65
 73
     2
 40
0.375
 49
0.25
 74
     0
 49
-0.125
 74
     0
  0
LTYPE
  5
39
330
5
100
AcDbSymbolTableRecord
100
AcDbLinetypeTableRecord
  2
DASHEDX2
 70
     0
  3
____  ____  ____  ____  ____  ____  ____  ____ 
 72
    65
 73
     2
 40
1.5
 49
1.0
 74
     0
 49
-0.5
 74
     0
  0
LTYPE
  5
3A
330
5
100
AcDbSymbolTableRecord
100
AcDbLinetypeTableRecord
  2
DIVIDE
 70
     0
  3
____ . . ____ . . ____ . . ____ . . ____ . . __
 72
    65
 73
     6
 40
1.25
 49
0.5
 74
     0
 49
-0.25
 74
     0
 49
0.0
 74
     0
 49
-0.25
 74
     0
 49
0.0
 74
     0
 49
-0.25
 74
     0
  0
LTYPE
  5
3B
330
5
100
AcDbSymbolTableRecord
100
AcDbLinetypeTableRecord
  2
DIVIDE2
 70
     0
  3
__..__..__..__..__..__..__..__..__..__..__..__.
 72
    65
 73
     6
 40
0.625
 49
0.25
 74
     0
 49
-0.125
 74
     0
 49
0.0
 74
     0
 49
-0.125
 74
     0
 49
0.0
 74
     0
 49
-0.125
 74
     0
  0
LTYPE
  5
3C
330
5
100
AcDbSymbolTableRecord
100
AcDbLinetypeTableRecord
  2
DIVIDEX2
 70
     0
  3
________  .  .  ________  .  .  ________  .  . 
 72
    65
 73
     6
 40
2.5
 49
1.0
 74
     0
 49
-0.5
 74
     0
 49
0.0
 74
     0
 49
-0.5
 74
     0
 49
0.0
 74
     0
 49
-0.5
 74
     0
  0
LTYPE
  5
3D
330
5
100
AcDbSymbolTableRecord
100
AcDbLinetypeTableRecord
  2
DOT
 70
     0
  3
. . . . . . . . . . . . . . . . . . . . . . . .
 72
    65
 73
     2
 40
0.25
 49
0.0
 74
     0
 49
-0.25
 74
     0
  0
LTYPE
  5
3E
330
5
100
AcDbSymbolTableRecord
100
AcDbLinetypeTableRecord
  2
DOT2
 70
     0
  3
...............................................
 72
    65
 73
     2
 40
0.125
 49
0.0
 74
     0
 49
-0.125
 74
     0
  0
LTYPE
  5
3F
330
5
100
AcDbSymbolTableRecord
100
AcDbLinetypeTableRecord
  2
DOTX2
 70
     0
  3
.  .  .  .  .  .  .  .  .  .  .  .  .  .  .  . 
 72
    65
 73
     2
 40
0.5
 49
0.0
 74
     0
 49
-0.5
 74
     0
  0
LTYPE
  5
40
330
5
100
AcDbSymbolTableRecord
100
AcDbLinetypeTableRecord
  2
HIDDEN
 70
     0
  3
__ __ __ __ __ __ __ __ __ __ __ __ __ __ __ __
 72
    65
 73
     2
 40
0.375
 49
0.25
 74
     0
 49
-0.125
 74
     0
  0
LTYPE
  5
41
330
5
100
AcDbSymbolTableRecord
100
AcDbLinetypeTableRecord
  2
HIDDEN2
 70
     0
  3
_ _ _ _ _ _ _ _ _ _ _ _ _ _ _ _ _ _ _ _ _ _ _ _
 72
    65
 73
     2
 40
0.1875
 49
0.125
 74
     0
 49
-0.0625
 74
     0
  0
LTYPE
  5
42
330
5
100
AcDbSymbolTableRecord
100
AcDbLinetypeTableRecord
  2
HIDDENX2
 70
     0
  3
____ ____ ____ ____ ____ ____ ____ ____ ____ __
 72
    65
 73
     2
 40
0.75
 49
0.5
 74
     0
 49
-0.25
 74
     0
  0
LTYPE
  5
43
330
5
100
AcDbSymbolTableRecord
100
AcDbLinetypeTableRecord
  2
PHANTOM
 70
     0
  3
______  __  __  ______  __  __  ______  __  __ 
 72
    65
 73
     6
 40
2.5
 49
1.25
 74
     0
 49
-0.25
 74
     0
 49
0.25
 74
     0
 49
-0.25
 74
     0
 49
0.25
 74
     0
 49
-0.25
 74
     0
  0
LTYPE
  5
44
330
5
100
AcDbSymbolTableRecord
100
AcDbLinetypeTableRecord
  2
PHANTOM2
 70
     0
  3
___ _ _ ___ _ _ ___ _ _ ___ _ _ ___ _ _ ___ _ _
 72
    65
 73
     6
 40
1.25
 49
0.625
 74
     0
 49
-0.125
 74
     0
 49
0.125
 74
     0
 49
-0.125
 74
     0
 49
0.125
 74
     0
 49
-0.125
 74
     0
  0
LTYPE
  5
45
330
5
100
AcDbSymbolTableRecord
100
AcDbLinetypeTableRecord
  2
PHANTOMX2
 70
     0
  3
____________    ____    ____    ____________   
 72
    65
 73
     6
 40
5.0
 49
2.5
 74
     0
 49
-0.5
 74
     0
 49
0.5
 74
     0
 49
-0.5
 74
     0
 49
0.5
 74
     0
 49
-0.5
 74
     0
  0
ENDTAB
  0
TABLE
  2
LAYER
  5
2
330
0
100
AcDbSymbolTable
 70
     6
  0
LAYER
  5
F
102
{ACAD_XDICTIONARY
360
F36
102
}
330
2
100
AcDbSymbolTableRecord
100
AcDbLayerTableRecord
  2
0
 70
     0
 62
     7
  6
CONTINUOUS
370
    -3
390
2CF
  0
LAYER
  5
49
102
{ACAD_XDICTIONARY
360
F38
102
}
330
2
100
AcDbSymbolTableRecord
100
AcDbLayerTableRecord
  2
SUNPOU
 70
     0
 62
     3
  6
CONTINUOUS
370
    -3
390
2CF
  0
LAYER
  5
4D
102
{ACAD_XDICTIONARY
360
F3A
102
}
330
2
100
AcDbSymbolTableRecord
100
AcDbLayerTableRecord
  2
CT2
 70
     0
 62
     1
  6
CENTER2
370
    -3
390
2CF
  0
LAYER
  5
4F
102
{ACAD_XDICTIONARY
360
F3C
102
}
330
2
100
AcDbSymbolTableRecord
100
AcDbLayerTableRecord
  2
SAISEKI
 70
     0
 62
     4
  6
CONTINUOUS
370
    -3
390
2CF
  0
LAYER
  5
50
330
2
100
AcDbSymbolTableRecord
100
AcDbLayerTableRecord
  2
DEFPOINTS
 70
     0
 62
     7
  6
CONTINUOUS
290
     0
370
    -3
390
2CF
  0
LAYER
  5
1146
102
{ACAD_XDICTIONARY
360
1147
102
}
330
2
100
AcDbSymbolTableRecord
100
AcDbLayerTableRecord
  2
KL
 70
     0
 62
     5
  6
HIDDEN
370
    -3
390
2CF
  0
ENDTAB
  0
TABLE
  2
STYLE
  5
3
330
0
100
AcDbSymbolTable
 70
     3
  0
STYLE
  5
10
330
3
100
AcDbSymbolTableRecord
100
AcDbTextStyleTableRecord
  2
STANDARD
 70
     0
 40
0.0
 41
1.0
 50
0.0
 71
     0
 42
0.2
  3
txt
  4

  0
STYLE
  5
2D
330
3
100
AcDbSymbolTableRecord
100
AcDbTextStyleTableRecord
  2
BIGFONT
 70
     0
 40
0.0
 41
1.0
 50
0.0
 71
     0
 42
50.0
  3
simplex
  4
extfont
  0
STYLE
  5
348
330
3
100
AcDbSymbolTableRecord
100
AcDbTextStyleTableRecord
  2
STYLE1
 70
     0
 40
0.0
 41
1.0
 50
0.0
 71
     0
 42
2.5
  3
txt.shx
  4
bigfont.shx
  0
ENDTAB
  0
TABLE
  2
VIEW
  5
6
330
0
100
AcDbSymbolTable
 70
     0
  0
ENDTAB
  0
TABLE
  2
UCS
  5
7
330
0
100
AcDbSymbolTable
 70
     0
  0
ENDTAB
  0
TABLE
  2
APPID
  5
9
330
0
100
AcDbSymbolTable
 70
     3
  0
APPID
  5
11
330
9
100
AcDbSymbolTableRecord
100
AcDbRegAppTableRecord
  2
ACAD
 70
     0
  0
APPID
  5
F31
330
9
100
AcDbSymbolTableRecord
100
AcDbRegAppTableRecord
  2
ACAD_MLEADERVER
 70
     0
  0
APPID
  5
F8A
330
9
100
AcDbSymbolTableRecord
100
AcDbRegAppTableRecord
  2
ACAD_EXEMPT_FROM_CAD_STANDARDS
 70
     0
  0
ENDTAB
  0
TABLE
  2
DIMSTYLE
  5
A
330
0
100
AcDbSymbolTable
 70
     5
100
AcDbDimStyleTable
 71
     1
340
2CA
  0
DIMSTYLE
105
2C5
330
A
100
AcDbSymbolTableRecord
100
AcDbDimStyleTableRecord
  2
STANDARD
 70
     0
340
10
  0
DIMSTYLE
105
2CA
102
{ACAD_REACTORS
330
C66
330
37F
330
393
330
38D
330
389
330
38B
330
38C
330
388
330
383
330
DC2
330
DB9
330
DB8
330
DBC
330
DBF
330
DBE
102
}
330
A
100
AcDbSymbolTableRecord
100
AcDbDimStyleTableRecord
  2
DIA1
 70
     0
 40
10.0
 41
2.0
 42
1.0
 43
10.0
 44
1.0
 73
     0
 74
     0
 77
     1
140
3.0
141
0.0
147
1.0
271
     0
340
2D
341
20
342
20
  0
DIMSTYLE
105
349
330
A
100
AcDbSymbolTableRecord
100
AcDbDimStyleTableRecord
  2
STYLE10
 70
     0
 40
10.0
 41
1.5
 42
5.0
 43
0.0
 44
0.0
 73
     0
 74
     0
 77
     1
 78
    12
140
2.0
141
2.0
147
1.0
172
     1
176
     3
177
     3
178
     3
340
10
  0
DIMSTYLE
105
ECB
330
A
100
AcDbSymbolTableRecord
100
AcDbDimStyleTableRecord
  2
P1
 70
     0
 40
10.0
 41
2.0
 42
1.0
 43
10.0
 44
1.0
 73
     0
 74
     0
 77
     2
140
3.0
141
0.0
147
1.0
172
     1
173
     1
176
   256
177
   256
178
   256
271
     0
272
     0
279
     2
288
     1
340
2D
341
20
343
20
344
20
371
    -1
372
    -1
  0
ENDTAB
  0
TABLE
  2
BLOCK_RECORD
  5
1
330
0
100
AcDbSymbolTable
 70
    23
  0
BLOCK_RECORD
  5
18
102
{ACAD_XDICTIONARY
360
FC6
102
}
330
1
100
AcDbSymbolTableRecord
100
AcDbBlockTableRecord
  2
*MODEL_SPACE
340
2D2
  0
BLOCK_RECORD
  5
15
330
1
100
AcDbSymbolTableRecord
100
AcDbBlockTableRecord
  2
*PAPER_SPACE
340
2D3
  0
BLOCK_RECORD
  5
1C
330
1
100
AcDbSymbolTableRecord
100
AcDbBlockTableRecord
  2
SYASEN
340
0
  0
BLOCK_RECORD
  5
1D
330
1
100
AcDbSymbolTableRecord
100
AcDbBlockTableRecord
  2
YA2
340
0
  0
BLOCK_RECORD
  5
1E
330
1
100
AcDbSymbolTableRecord
100
AcDbBlockTableRecord
  2
YA_N
340
0
102
{BLKREFS
331
281
102
}
  0
BLOCK_RECORD
  5
1F
330
1
100
AcDbSymbolTableRecord
100
AcDbBlockTableRecord
  2
DOT
340
0
  0
BLOCK_RECORD
  5
20
330
1
100
AcDbSymbolTableRecord
100
AcDbBlockTableRecord
  2
ARROW
340
0
102
{BLKREFS
331
D56
331
FD4
331
FD5
331
FE6
331
FE7
331
FEF
331
FF0
331
1049
331
104A
331
1094
331
1095
331
1106
331
1107
331
1191
331
1192
331
119A
331
119B
331
11A3
331
11A4
331
11AB
331
11B1
331
11B2
331
11BA
331
11BB
102
}
  0
BLOCK_RECORD
  5
21
330
1
100
AcDbSymbolTableRecord
100
AcDbBlockTableRecord
  2
YA3
340
0
  0
BLOCK_RECORD
  5
22
330
1
100
AcDbSymbolTableRecord
100
AcDbBlockTableRecord
  2
BORDER
340
0
  0
BLOCK_RECORD
  5
2FA
330
1
100
AcDbSymbolTableRecord
100
AcDbBlockTableRecord
  2
_CLOSEDBLANK
340
0
  0
BLOCK_RECORD
  5
3AD
330
1
100
AcDbSymbolTableRecord
100
AcDbBlockTableRecord
  2
*D8
340
0
  0
BLOCK_RECORD
  5
3B9
330
1
100
AcDbSymbolTableRecord
100
AcDbBlockTableRecord
  2
*D9
340
0
  0
BLOCK_RECORD
  5
3C4
330
1
100
AcDbSymbolTableRecord
100
AcDbBlockTableRecord
  2
*D10
340
0
  0
BLOCK_RECORD
  5
3CF
330
1
100
AcDbSymbolTableRecord
100
AcDbBlockTableRecord
  2
*D11
340
0
  0
BLOCK_RECORD
  5
3DB
330
1
100
AcDbSymbolTableRecord
100
AcDbBlockTableRecord
  2
*D12
340
0
  0
BLOCK_RECORD
  5
3E6
330
1
100
AcDbSymbolTableRecord
100
AcDbBlockTableRecord
  2
*D13
340
0
  0
BLOCK_RECORD
  5
C67
330
1
100
AcDbSymbolTableRecord
100
AcDbBlockTableRecord
  2
*D14
340
0
  0
BLOCK_RECORD
  5
DDB
330
1
100
AcDbSymbolTableRecord
100
AcDbBlockTableRecord
  2
*D15
340
0
  0
BLOCK_RECORD
  5
DE7
330
1
100
AcDbSymbolTableRecord
100
AcDbBlockTableRecord
  2
*D16
340
0
  0
BLOCK_RECORD
  5
DF3
330
1
100
AcDbSymbolTableRecord
100
AcDbBlockTableRecord
  2
*D17
340
0
  0
BLOCK_RECORD
  5
DFF
330
1
100
AcDbSymbolTableRecord
100
AcDbBlockTableRecord
  2
*D18
340
0
  0
BLOCK_RECORD
  5
E0B
330
1
100
AcDbSymbolTableRecord
100
AcDbBlockTableRecord
  2
*D19
340
0
  0
BLOCK_RECORD
  5
E17
330
1
100
AcDbSymbolTableRecord
100
AcDbBlockTableRecord
  2
*D20
340
0
  0
ENDTAB
  0
ENDSEC
  0
SECTION
  2
BLOCKS
  0
BLOCK
  5
53
330
18
100
AcDbEntity
  8
0
100
AcDbBlockBegin
  2
*MODEL_SPACE
 70
     0
 10
0.0
 20
0.0
 30
0.0
  3
*MODEL_SPACE
  1

  0
ENDBLK
  5
54
330
18
100
AcDbEntity
  8
0
100
AcDbBlockEnd
  0
BLOCK
  5
51
330
15
100
AcDbEntity
 67
     1
  8
0
100
AcDbBlockBegin
  2
*PAPER_SPACE
 70
     0
 10
0.0
 20
0.0
 30
0.0
  3
*PAPER_SPACE
  1

  0
ENDBLK
  5
52
330
15
100
AcDbEntity
 67
     1
  8
0
100
AcDbBlockEnd
  0
BLOCK
  5
55
330
1C
100
AcDbEntity
  8
0
100
AcDbBlockBegin
  2
SYASEN
 70
     0
 10
0.0
 20
0.0
 30
0.0
  3
SYASEN
  1

  0
LINE
  5
56
330
1C
100
AcDbEntity
  8
0
100
AcDbLine
 10
0.0
 20
0.0
 30
0.0
 11
-1.0
 21
0.0
 31
0.0
  0
LINE
  5
57
330
1C
100
AcDbEntity
  8
0
100
AcDbLine
 10
0.5
 20
0.5
 30
0.0
 11
-0.5
 21
-0.5
 31
0.0
  0
ENDBLK
  5
58
330
1C
100
AcDbEntity
  8
0
100
AcDbBlockEnd
  0
BLOCK
  5
59
330
1D
100
AcDbEntity
  8
0
100
AcDbBlockBegin
  2
YA2
 70
     0
 10
0.0
 20
0.0
 30
0.0
  3
YA2
  1

  0
LINE
  5
5A
330
1D
100
AcDbEntity
  8
0
100
AcDbLine
 10
-1.0
 20
0.0
 30
0.0
 11
0.0
 21
0.0
 31
0.0
  0
ENDBLK
  5
5B
330
1D
100
AcDbEntity
  8
0
100
AcDbBlockEnd
  0
BLOCK
  5
5C
330
1E
100
AcDbEntity
  8
0
100
AcDbBlockBegin
  2
YA_N
 70
     0
 10
0.0
 20
0.0
 30
0.0
  3
YA_N
  1

  0
ENDBLK
  5
5D
330
1E
100
AcDbEntity
  8
0
100
AcDbBlockEnd
  0
BLOCK
  5
5E
330
1F
100
AcDbEntity
  8
0
100
AcDbBlockBegin
  2
DOT
 70
     0
 10
0.0
 20
0.0
 30
0.0
  3
DOT
  1

  0
LWPOLYLINE
  5
5F
330
1F
100
AcDbEntity
  8
0
100
AcDbPolyline
 90
        2
 70
     1
 43
0.25
 10
-0.125
 20
0.0
 42
1.0
 10
0.125
 20
0.0
 42
1.0
  0
LINE
  5
63
330
1F
100
AcDbEntity
  8
0
100
AcDbLine
 10
-1.0
 20
0.0
 30
0.0
 11
-0.25
 21
0.0
 31
0.0
  0
ENDBLK
  5
64
330
1F
100
AcDbEntity
  8
0
100
AcDbBlockEnd
  0
BLOCK
  5
65
330
20
100
AcDbEntity
  8
0
100
AcDbBlockBegin
  2
ARROW
 70
     0
 10
0.0
 20
0.0
 30
0.0
  3
ARROW
  1

  0
LINE
  5
66
330
20
100
AcDbEntity
  8
0
100
AcDbLine
 10
-0.9999999999999991
 20
0.1666666667000003
 30
0.0
 11
0.0
 21
0.0
 31
0.0
  0
LINE
  5
67
330
20
100
AcDbEntity
  8
0
100
AcDbLine
 10
-0.9999999999999991
 20
0.0
 30
0.0
 11
0.0
 21
0.0
 31
0.0
  0
LINE
  5
68
330
20
100
AcDbEntity
  8
0
100
AcDbLine
 10
-0.9999999999999991
 20
-0.1666666667000003
 30
0.0
 11
0.0
 21
0.0
 31
0.0
  0
ENDBLK
  5
69
330
20
100
AcDbEntity
  8
0
100
AcDbBlockEnd
  0
BLOCK
  5
6A
330
21
100
AcDbEntity
  8
0
100
AcDbBlockBegin
  2
YA3
 70
     0
 10
0.0
 20
0.0
 30
0.0
  3
YA3
  1

  0
SOLID
  5
6B
330
21
100
AcDbEntity
  8
0
100
AcDbTrace
 10
1.0
 20
-0.1666666666666665
 30
0.0
 11
1.0
 21
0.166666666666667
 31
0.0
 12
0.0
 22
0.0
 32
0.0
 13
0.0
 23
0.0
 33
0.0
  0
ENDBLK
  5
6C
330
21
100
AcDbEntity
  8
0
100
AcDbBlockEnd
  0
BLOCK
  5
6D
330
22
100
AcDbEntity
  8
0
100
AcDbBlockBegin
  2
BORDER
 70
     0
 10
0.0
 20
0.0
 30
0.0
  3
BORDER
  1

  0
LINE
  5
6E
330
22
100
AcDbEntity
  8
0
100
AcDbLine
 10
0.0
 20
0.0
 30
0.0
 11
1.00000000000004
 21
0.0
 31
0.0
  0
LINE
  5
6F
330
22
100
AcDbEntity
  8
0
100
AcDbLine
 10
1.00000000000004
 20
0.0
 30
0.0
 11
1.00000000000004
 21
1.00000000000004
 31
0.0
  0
LINE
  5
70
330
22
100
AcDbEntity
  8
0
100
AcDbLine
 10
1.00000000000004
 20
1.00000000000004
 30
0.0
 11
0.0
 21
1.00000000000004
 31
0.0
  0
LINE
  5
71
330
22
100
AcDbEntity
  8
0
100
AcDbLine
 10
0.0
 20
1.00000000000004
 30
0.0
 11
0.0
 21
0.0
 31
0.0
  0
ENDBLK
  5
72
330
22
100
AcDbEntity
  8
0
100
AcDbBlockEnd
  0
BLOCK
  5
2FE
330
2FA
100
AcDbEntity
  8
0
100
AcDbBlockBegin
  2
_CLOSEDBLANK
 70
     0
 10
0.0
 20
0.0
 30
0.0
  3
_CLOSEDBLANK
  1

  0
LINE
  5
2FB
330
2FA
100
AcDbEntity
  8
0
  6
ByBlock
 62
     0
100
AcDbLine
 10
-1.0
 20
0.1666666666666666
 30
0.0
 11
0.0
 21
0.0
 31
0.0
  0
LINE
  5
2FC
330
2FA
100
AcDbEntity
  8
0
  6
ByBlock
 62
     0
100
AcDbLine
 10
0.0
 20
0.0
 30
0.0
 11
-1.0
 21
-0.1666666666666666
 31
0.0
  0
LINE
  5
2FD
330
2FA
100
AcDbEntity
  8
0
  6
ByBlock
 62
     0
100
AcDbLine
 10
-1.0
 20
0.1666666666666666
 30
0.0
 11
-1.0
 21
-0.1666666666666666
 31
0.0
  0
ENDBLK
  5
2FF
330
2FA
100
AcDbEntity
  8
0
100
AcDbBlockEnd
  0
BLOCK
  5
3B7
330
3AD
100
AcDbEntity
  8
0
100
AcDbBlockBegin
  2
*D8
 70
     1
 10
0.0
 20
0.0
 30
0.0
  3
*D8
  1

  0
LINE
  5
1091
330
3AD
100
AcDbEntity
  8
SUNPOU
 62
     0
370
    -2
100
AcDbLine
 10
808.8257633170412
 20
85.61523328851746
 30
0.0
 11
808.8257633170412
 21
-189.2320203979972
 31
0.0
  0
LINE
  5
1092
330
3AD
100
AcDbEntity
  8
SUNPOU
 62
     0
370
    -2
100
AcDbLine
 10
2238.825763317041
 20
85.61523328851746
 30
0.0
 11
2238.825763317041
 21
-189.2320203979972
 31
0.0
  0
LINE
  5
1093
330
3AD
100
AcDbEntity
  8
SUNPOU
 62
     0
370
    -2
100
AcDbLine
 10
833.8257633170412
 20
-179.2320203979972
 30
0.0
 11
2213.825763317041
 21
-179.2320203979972
 31
0.0
  0
INSERT
  5
1094
330
3AD
100
AcDbEntity
  8
SUNPOU
 62
     0
370
    -2
100
AcDbBlockReference
  2
ARROW
 10
808.8257633170412
 20
-179.2320203979972
 30
0.0
 41
25.0
 42
25.0
 43
25.0
 50
180.0
  0
INSERT
  5
1095
330
3AD
100
AcDbEntity
  8
SUNPOU
 62
     0
370
    -2
100
AcDbBlockReference
  2
ARROW
 10
2238.825763317041
 20
-179.2320203979972
 30
0.0
 41
25.0
 42
25.0
 43
25.0
  0
MTEXT
  5
1096
330
3AD
100
AcDbEntity
  8
SUNPOU
 62
     0
100
AcDbMText
 10
1523.825763317041
 20
-149.2320203979972
 30
0.0
 40
40.0
 41
0.0
 71
     5
 72
     1
  1
\A1;1430
  7
BIGFONT
 73
     1
 44
1.0
  0
POINT
  5
1097
330
3AD
100
AcDbEntity
  8
DEFPOINTS
 62
     0
100
AcDbPoint
 10
808.8257633170412
 20
95.61523328851746
 30
0.0
  0
POINT
  5
1098
330
3AD
100
AcDbEntity
  8
DEFPOINTS
 62
     0
100
AcDbPoint
 10
2238.825763317041
 20
95.61523328851746
 30
0.0
  0
POINT
  5
1099
330
3AD
100
AcDbEntity
  8
DEFPOINTS
 62
     0
100
AcDbPoint
 10
2238.825763317041
 20
-179.2320203979972
 30
0.0
  0
ENDBLK
  5
3B8
330
3AD
100
AcDbEntity
  8
0
100
AcDbBlockEnd
  0
BLOCK
  5
3C2
330
3B9
100
AcDbEntity
  8
0
100
AcDbBlockBegin
  2
*D9
 70
     1
 10
0.0
 20
0.0
 30
0.0
  3
*D9
  1

  0
LINE
  5
FE3
330
3B9
100
AcDbEntity
  8
SUNPOU
 62
     0
370
    -2
100
AcDbLine
 10
625.1753529238476
 20
980.1569943480618
 30
0.0
 11
526.4618304407114
 21
980.1569943480618
 31
0.0
  0
LINE
  5
FE4
330
3B9
100
AcDbEntity
  8
SUNPOU
 62
     0
370
    -2
100
AcDbLine
 10
625.1990785300431
 20
880.1569943480616
 30
0.0
 11
526.4618304407114
 21
880.1569943480616
 31
0.0
  0
LINE
  5
FE5
330
3B9
100
AcDbEntity
  8
SUNPOU
 62
     0
370
    -2
100
AcDbLine
 10
536.4618304407114
 20
955.1569943480618
 30
0.0
 11
536.4618304407114
 21
905.1569943480616
 31
0.0
  0
INSERT
  5
FE6
330
3B9
100
AcDbEntity
  8
SUNPOU
 62
     0
370
    -2
100
AcDbBlockReference
  2
ARROW
 10
536.4618304407114
 20
980.1569943480618
 30
0.0
 41
25.0
 42
25.0
 43
25.0
 50
90.0
  0
INSERT
  5
FE7
330
3B9
100
AcDbEntity
  8
SUNPOU
 62
     0
370
    -2
100
AcDbBlockReference
  2
ARROW
 10
536.4618304407114
 20
880.1569943480616
 30
0.0
 41
25.0
 42
25.0
 43
25.0
 50
270.0
  0
MTEXT
  5
FE8
330
3B9
100
AcDbEntity
  8
SUNPOU
 62
     0
100
AcDbMText
 10
506.4618304407112
 20
930.1569943480618
 30
0.0
 40
40.0
 41
0.0
 71
     5
 72
     1
  1
\A1;100
  7
BIGFONT
 11
0.0000000000000001
 21
1.0
 31
0.0
 73
     1
 44
1.0
  0
POINT
  5
FE9
330
3B9
100
AcDbEntity
  8
DEFPOINTS
 62
     0
100
AcDbPoint
 10
635.1753529238476
 20
980.1569943480618
 30
0.0
  0
POINT
  5
FEA
330
3B9
100
AcDbEntity
  8
DEFPOINTS
 62
     0
100
AcDbPoint
 10
635.1990785300431
 20
880.1569943480616
 30
0.0
  0
POINT
  5
FEB
330
3B9
100
AcDbEntity
  8
DEFPOINTS
 62
     0
100
AcDbPoint
 10
536.4618304407114
 20
880.1569943480616
 30
0.0
  0
ENDBLK
  5
3C3
330
3B9
100
AcDbEntity
  8
0
100
AcDbBlockEnd
  0
BLOCK
  5
3CD
330
3C4
100
AcDbEntity
  8
0
100
AcDbBlockBegin
  2
*D10
 70
     1
 10
0.0
 20
0.0
 30
0.0
  3
*D10
  1

  0
LINE
  5
FEC
330
3C4
100
AcDbEntity
  8
SUNPOU
 62
     0
370
    -2
100
AcDbLine
 10
625.1990785300431
 20
880.1569943480616
 30
0.0
 11
526.4618304407115
 21
880.1569943480616
 31
0.0
  0
LINE
  5
FED
330
3C4
100
AcDbEntity
  8
SUNPOU
 62
     0
370
    -2
100
AcDbLine
 10
625.1990785300431
 20
254.1569943480616
 30
0.0
 11
526.4618304407113
 21
254.1569943480617
 31
0.0
  0
LINE
  5
FEE
330
3C4
100
AcDbEntity
  8
SUNPOU
 62
     0
370
    -2
100
AcDbLine
 10
536.4618304407115
 20
855.1569943480616
 30
0.0
 11
536.4618304407114
 21
279.1569943480616
 31
0.0
  0
INSERT
  5
FEF
330
3C4
100
AcDbEntity
  8
SUNPOU
 62
     0
370
    -2
100
AcDbBlockReference
  2
ARROW
 10
536.4618304407115
 20
880.1569943480616
 30
0.0
 41
25.0
 42
25.0
 43
25.0
 50
90.0
  0
INSERT
  5
FF0
330
3C4
100
AcDbEntity
  8
SUNPOU
 62
     0
370
    -2
100
AcDbBlockReference
  2
ARROW
 10
536.4618304407112
 20
254.1569943480617
 30
0.0
 41
25.0
 42
25.0
 43
25.0
 50
270.0
  0
MTEXT
  5
FF1
330
3C4
100
AcDbEntity
  8
SUNPOU
 62
     0
100
AcDbMText
 10
506.4618304407114
 20
567.1569943480617
 30
0.0
 40
40.0
 41
0.0
 71
     5
 72
     1
  1
\A1;626
  7
BIGFONT
 11
0.0000000000000001
 21
1.0
 31
0.0
 73
     1
 44
1.0
  0
POINT
  5
FF2
330
3C4
100
AcDbEntity
  8
DEFPOINTS
 62
     0
100
AcDbPoint
 10
635.1990785300431
 20
880.1569943480616
 30
0.0
  0
POINT
  5
FF3
330
3C4
100
AcDbEntity
  8
DEFPOINTS
 62
     0
100
AcDbPoint
 10
635.1990785300431
 20
254.1569943480616
 30
0.0
  0
POINT
  5
FF4
330
3C4
100
AcDbEntity
  8
DEFPOINTS
 62
     0
100
AcDbPoint
 10
536.4618304407112
 20
254.1569943480617
 30
0.0
  0
ENDBLK
  5
3CE
330
3C4
100
AcDbEntity
  8
0
100
AcDbBlockEnd
  0
BLOCK
  5
3D9
330
3CF
100
AcDbEntity
  8
0
100
AcDbBlockBegin
  2
*D11
 70
     1
 10
0.0
 20
0.0
 30
0.0
  3
*D11
  1

  0
LINE
  5
1103
330
3CF
100
AcDbEntity
  8
SUNPOU
 62
     0
370
    -2
100
AcDbLine
 10
625.1990785300431
 20
980.1569943480616
 30
0.0
 11
412.8979773711746
 21
980.1569943480616
 31
0.0
  0
LINE
  5
1104
330
3CF
100
AcDbEntity
  8
SUNPOU
 62
     0
370
    -2
100
AcDbLine
 10
1148.825763317041
 20
54.15699434806164
 30
0.0
 11
412.8979773711744
 21
54.15699434806185
 31
0.0
  0
LINE
  5
1105
330
3CF
100
AcDbEntity
  8
SUNPOU
 62
     0
370
    -2
100
AcDbLine
 10
422.8979773711746
 20
955.1569943480616
 30
0.0
 11
422.8979773711743
 21
79.15699434806184
 31
0.0
  0
INSERT
  5
1106
330
3CF
100
AcDbEntity
  8
SUNPOU
 62
     0
370
    -2
100
AcDbBlockReference
  2
ARROW
 10
422.8979773711746
 20
980.1569943480616
 30
0.0
 41
25.0
 42
25.0
 43
25.0
 50
90.0
  0
INSERT
  5
1107
330
3CF
100
AcDbEntity
  8
SUNPOU
 62
     0
370
    -2
100
AcDbBlockReference
  2
ARROW
 10
422.8979773711743
 20
54.15699434806185
 30
0.0
 41
25.0
 42
25.0
 43
25.0
 50
270.0
  0
MTEXT
  5
1108
330
3CF
100
AcDbEntity
  8
SUNPOU
 62
     0
100
AcDbMText
 10
392.8979773711744
 20
517.1569943480618
 30
0.0
 40
40.0
 41
0.0
 71
     5
 72
     1
  1
\A1;926
  7
BIGFONT
 11
0.0000000000000001
 21
1.0
 31
0.0
 73
     1
 44
1.0
  0
POINT
  5
1109
330
3CF
100
AcDbEntity
  8
DEFPOINTS
 62
     0
100
AcDbPoint
 10
635.1990785300431
 20
980.1569943480616
 30
0.0
  0
POINT
  5
110A
330
3CF
100
AcDbEntity
  8
DEFPOINTS
 62
     0
100
AcDbPoint
 10
1158.825763317041
 20
54.15699434806164
 30
0.0
  0
POINT
  5
110B
330
3CF
100
AcDbEntity
  8
DEFPOINTS
 62
     0
100
AcDbPoint
 10
422.8979773711743
 20
54.15699434806185
 30
0.0
  0
ENDBLK
  5
3DA
330
3CF
100
AcDbEntity
  8
0
100
AcDbBlockEnd
  0
BLOCK
  5
3E4
330
3DB
100
AcDbEntity
  8
0
100
AcDbBlockBegin
  2
*D12
 70
     1
 10
0.0
 20
0.0
 30
0.0
  3
*D12
  1

  0
LINE
  5
1046
330
3DB
100
AcDbEntity
  8
SUNPOU
 62
     0
370
    -2
100
AcDbLine
 10
625.1990785300431
 20
254.1569943480616
 30
0.0
 11
526.4618304407113
 21
254.1569943480617
 31
0.0
  0
LINE
  5
1047
330
3DB
100
AcDbEntity
  8
SUNPOU
 62
     0
370
    -2
100
AcDbLine
 10
1148.825763317041
 20
54.15699434806164
 30
0.0
 11
526.4618304407113
 21
54.15699434806182
 31
0.0
  0
LINE
  5
1048
330
3DB
100
AcDbEntity
  8
SUNPOU
 62
     0
370
    -2
100
AcDbLine
 10
536.4618304407112
 20
229.1569943480617
 30
0.0
 11
536.4618304407112
 21
79.15699434806183
 31
0.0
  0
INSERT
  5
1049
330
3DB
100
AcDbEntity
  8
SUNPOU
 62
     0
370
    -2
100
AcDbBlockReference
  2
ARROW
 10
536.4618304407112
 20
254.1569943480617
 30
0.0
 41
25.0
 42
25.0
 43
25.0
 50
90.0
  0
INSERT
  5
104A
330
3DB
100
AcDbEntity
  8
SUNPOU
 62
     0
370
    -2
100
AcDbBlockReference
  2
ARROW
 10
536.4618304407112
 20
54.15699434806182
 30
0.0
 41
25.0
 42
25.0
 43
25.0
 50
270.0
  0
MTEXT
  5
104B
330
3DB
100
AcDbEntity
  8
SUNPOU
 62
     0
100
AcDbMText
 10
506.4618304407113
 20
154.1569943480618
 30
0.0
 40
40.0
 41
0.0
 71
     5
 72
     1
  1
\A1;200
  7
BIGFONT
 11
0.0000000000000001
 21
1.0
 31
0.0
 73
     1
 44
1.0
  0
POINT
  5
104C
330
3DB
100
AcDbEntity
  8
DEFPOINTS
 62
     0
100
AcDbPoint
 10
635.1990785300431
 20
254.1569943480616
 30
0.0
  0
POINT
  5
104D
330
3DB
100
AcDbEntity
  8
DEFPOINTS
 62
     0
100
AcDbPoint
 10
1158.825763317041
 20
54.15699434806164
 30
0.0
  0
POINT
  5
104E
330
3DB
100
AcDbEntity
  8
DEFPOINTS
 62
     0
100
AcDbPoint
 10
536.4618304407112
 20
54.15699434806182
 30
0.0
  0
ENDBLK
  5
3E5
330
3DB
100
AcDbEntity
  8
0
100
AcDbBlockEnd
  0
BLOCK
  5
3F0
330
3E6
100
AcDbEntity
  8
0
100
AcDbBlockBegin
  2
*D13
 70
     1
 10
0.0
 20
0.0
 30
0.0
  3
*D13
  1

  0
LINE
  5
FD1
330
3E6
100
AcDbEntity
  8
SUNPOU
 62
     0
370
    -2
100
AcDbLine
 10
1158.825763317041
 20
44.15699434806167
 30
0.0
 11
1158.825763317041
 21
-105.547900642886
 31
0.0
  0
LINE
  5
FD2
330
3E6
100
AcDbEntity
  8
SUNPOU
 62
     0
370
    -2
100
AcDbLine
 10
1888.710374244359
 20
44.25901653347172
 30
0.0
 11
1888.710374244359
 21
-105.547900642886
 31
0.0
  0
LINE
  5
FD3
330
3E6
100
AcDbEntity
  8
SUNPOU
 62
     0
370
    -2
100
AcDbLine
 10
1183.825763317041
 20
-95.54790064288601
 30
0.0
 11
1863.710374244359
 21
-95.54790064288601
 31
0.0
  0
INSERT
  5
FD4
330
3E6
100
AcDbEntity
  8
SUNPOU
 62
     0
370
    -2
100
AcDbBlockReference
  2
ARROW
 10
1158.825763317041
 20
-95.54790064288601
 30
0.0
 41
25.0
 42
25.0
 43
25.0
 50
180.0
  0
INSERT
  5
FD5
330
3E6
100
AcDbEntity
  8
SUNPOU
 62
     0
370
    -2
100
AcDbBlockReference
  2
ARROW
 10
1888.710374244359
 20
-95.54790064288601
 30
0.0
 41
25.0
 42
25.0
 43
25.0
  0
MTEXT
  5
FD6
330
3E6
100
AcDbEntity
  8
SUNPOU
 62
     0
100
AcDbMText
 10
1523.7680687807
 20
-65.547900642886
 30
0.0
 40
40.0
 41
0.0
 71
     5
 72
     1
  1
\A1;730
  7
BIGFONT
 73
     1
 44
1.0
  0
POINT
  5
FD7
330
3E6
100
AcDbEntity
  8
DEFPOINTS
 62
     0
100
AcDbPoint
 10
1158.825763317041
 20
54.15699434806168
 30
0.0
  0
POINT
  5
FD8
330
3E6
100
AcDbEntity
  8
DEFPOINTS
 62
     0
100
AcDbPoint
 10
1888.710374244359
 20
54.25901653347172
 30
0.0
  0
POINT
  5
FD9
330
3E6
100
AcDbEntity
  8
DEFPOINTS
 62
     0
100
AcDbPoint
 10
1888.710374244359
 20
-95.54790064288601
 30
0.0
  0
ENDBLK
  5
3F1
330
3E6
100
AcDbEntity
  8
0
100
AcDbBlockEnd
  0
BLOCK
  5
C6D
330
C67
100
AcDbEntity
  8
0
100
AcDbBlockBegin
  2
*D14
 70
     1
 10
0.0
 20
0.0
 30
0.0
  3
*D14
  1

  0
LINE
  5
D54
330
C67
100
AcDbEntity
  8
SUNPOU
 62
     0
370
    -2
100
AcDbLine
 10
1604.642707052433
 20
578.1027046880613
 30
0.0
 11
1298.927403091275
 21
560.1179431333434
 31
0.0
  0
MTEXT
  5
D55
102
{ACAD_XDICTIONARY
360
11C2
102
}
330
C67
100
AcDbEntity
  8
SUNPOU
 62
     0
100
AcDbMText
 10
1523.494340997882
 20
603.380737994781
 30
0.0
 40
40.0
 41
0.0
 71
     5
 72
     1
  1
\A1;\U+2205500
  7
BIGFONT
 11
0.9982740844312345
 21
0.0587269303895601
 31
0.0
 73
     1
 44
1.0
  0
INSERT
  5
D56
330
C67
100
AcDbEntity
  8
SUNPOU
 62
     0
370
    -2
100
AcDbBlockReference
  2
ARROW
 10
1273.970550980494
 20
558.6497698736044
 30
0.0
 41
25.0
 42
25.0
 43
25.0
 50
183.3667423823988
  0
POINT
  5
D57
330
C67
100
AcDbEntity
  8
DEFPOINTS
 62
     0
100
AcDbPoint
 10
1273.970550980494
 20
558.6497698736044
 30
0.0
  0
POINT
  5
D58
330
C67
100
AcDbEntity
  8
DEFPOINTS
 62
     0
100
AcDbPoint
 10
1772.955029992876
 20
588.004260009574
 30
0.0
  0
ENDBLK
  5
C6E
330
C67
100
AcDbEntity
  8
0
100
AcDbBlockEnd
  0
BLOCK
  5
DE5
330
DDB
100
AcDbEntity
  8
0
100
AcDbBlockBegin
  2
*D15
 70
     1
 10
0.0
 20
0.0
 30
0.0
  3
*D15
  1

  0
LINE
  5
11B7
330
DDB
100
AcDbEntity
  8
SUNPOU
 62
     0
370
    -2
100
AcDbLine
 10
3617.464845108273
 20
1002.64540228347
 30
0.0
 11
3518.751322625136
 21
1002.64540228347
 31
0.0
  0
LINE
  5
11B8
330
DDB
100
AcDbEntity
  8
SUNPOU
 62
     0
370
    -2
100
AcDbLine
 10
3617.488570714467
 20
902.6454022834698
 30
0.0
 11
3518.751322625136
 21
902.6454022834698
 31
0.0
  0
LINE
  5
11B9
330
DDB
100
AcDbEntity
  8
SUNPOU
 62
     0
370
    -2
100
AcDbLine
 10
3528.751322625136
 20
977.6454022834702
 30
0.0
 11
3528.751322625136
 21
927.6454022834698
 31
0.0
  0
INSERT
  5
11BA
330
DDB
100
AcDbEntity
  8
SUNPOU
 62
     0
370
    -2
100
AcDbBlockReference
  2
ARROW
 10
3528.751322625136
 20
1002.64540228347
 30
0.0
 41
25.0
 42
25.0
 43
25.0
 50
90.0
  0
INSERT
  5
11BB
330
DDB
100
AcDbEntity
  8
SUNPOU
 62
     0
370
    -2
100
AcDbBlockReference
  2
ARROW
 10
3528.751322625136
 20
902.6454022834698
 30
0.0
 41
25.0
 42
25.0
 43
25.0
 50
270.0
  0
MTEXT
  5
11BC
330
DDB
100
AcDbEntity
  8
SUNPOU
 62
     0
100
AcDbMText
 10
3498.751322625136
 20
952.6454022834705
 30
0.0
 40
40.0
 41
0.0
 71
     5
 72
     1
  1
\A1;100
  7
BIGFONT
 11
0.0000000000000001
 21
1.0
 31
0.0
 73
     1
 44
1.0
  0
POINT
  5
11BD
330
DDB
100
AcDbEntity
  8
DEFPOINTS
 62
     0
100
AcDbPoint
 10
3627.464845108272
 20
1002.64540228347
 30
0.0
  0
POINT
  5
11BE
330
DDB
100
AcDbEntity
  8
DEFPOINTS
 62
     0
100
AcDbPoint
 10
3627.488570714468
 20
902.6454022834698
 30
0.0
  0
POINT
  5
11BF
330
DDB
100
AcDbEntity
  8
DEFPOINTS
 62
     0
100
AcDbPoint
 10
3528.751322625136
 20
902.6454022834698
 30
0.0
  0
ENDBLK
  5
DE6
330
DDB
100
AcDbEntity
  8
0
100
AcDbBlockEnd
  0
BLOCK
  5
DF1
330
DE7
100
AcDbEntity
  8
0
100
AcDbBlockBegin
  2
*D16
 70
     1
 10
0.0
 20
0.0
 30
0.0
  3
*D16
  1

  0
LINE
  5
1197
330
DE7
100
AcDbEntity
  8
SUNPOU
 62
     0
370
    -2
100
AcDbLine
 10
3617.488570714467
 20
902.6454022834698
 30
0.0
 11
3518.751322625136
 21
902.6454022834698
 31
0.0
  0
LINE
  5
1198
330
DE7
100
AcDbEntity
  8
SUNPOU
 62
     0
370
    -2
100
AcDbLine
 10
3617.488570714467
 20
276.6454022834699
 30
0.0
 11
3518.751322625136
 21
276.6454022834699
 31
0.0
  0
LINE
  5
1199
330
DE7
100
AcDbEntity
  8
SUNPOU
 62
     0
370
    -2
100
AcDbLine
 10
3528.751322625136
 20
877.6454022834698
 30
0.0
 11
3528.751322625136
 21
301.6454022834699
 31
0.0
  0
INSERT
  5
119A
330
DE7
100
AcDbEntity
  8
SUNPOU
 62
     0
370
    -2
100
AcDbBlockReference
  2
ARROW
 10
3528.751322625136
 20
902.6454022834698
 30
0.0
 41
25.0
 42
25.0
 43
25.0
 50
90.0
  0
INSERT
  5
119B
330
DE7
100
AcDbEntity
  8
SUNPOU
 62
     0
370
    -2
100
AcDbBlockReference
  2
ARROW
 10
3528.751322625136
 20
276.6454022834699
 30
0.0
 41
25.0
 42
25.0
 43
25.0
 50
270.0
  0
MTEXT
  5
119C
330
DE7
100
AcDbEntity
  8
SUNPOU
 62
     0
100
AcDbMText
 10
3498.751322625136
 20
589.6454022834705
 30
0.0
 40
40.0
 41
0.0
 71
     5
 72
     1
  1
\A1;626
  7
BIGFONT
 11
0.0000000000000001
 21
1.0
 31
0.0
 73
     1
 44
1.0
  0
POINT
  5
119D
330
DE7
100
AcDbEntity
  8
DEFPOINTS
 62
     0
100
AcDbPoint
 10
3627.488570714468
 20
902.6454022834698
 30
0.0
  0
POINT
  5
119E
330
DE7
100
AcDbEntity
  8
DEFPOINTS
 62
     0
100
AcDbPoint
 10
3627.488570714468
 20
276.6454022834699
 30
0.0
  0
POINT
  5
119F
330
DE7
100
AcDbEntity
  8
DEFPOINTS
 62
     0
100
AcDbPoint
 10
3528.751322625136
 20
276.6454022834699
 30
0.0
  0
ENDBLK
  5
DF2
330
DE7
100
AcDbEntity
  8
0
100
AcDbBlockEnd
  0
BLOCK
  5
DFD
330
DF3
100
AcDbEntity
  8
0
100
AcDbBlockBegin
  2
*D17
 70
     1
 10
0.0
 20
0.0
 30
0.0
  3
*D17
  1

  0
LINE
  5
118E
330
DF3
100
AcDbEntity
  8
SUNPOU
 62
     0
370
    -2
100
AcDbLine
 10
3617.488570714467
 20
1002.64540228347
 30
0.0
 11
3455.254023040743
 21
1002.64540228347
 31
0.0
  0
LINE
  5
118F
330
DF3
100
AcDbEntity
  8
SUNPOU
 62
     0
370
    -2
100
AcDbLine
 10
3668.825763317042
 20
76.64540228347004
 30
0.0
 11
3455.254023040743
 21
76.64540228347011
 31
0.0
  0
LINE
  5
1190
330
DF3
100
AcDbEntity
  8
SUNPOU
 62
     0
370
    -2
100
AcDbLine
 10
3465.254023040743
 20
977.6454022834698
 30
0.0
 11
3465.254023040743
 21
101.6454022834701
 31
0.0
  0
INSERT
  5
1191
330
DF3
100
AcDbEntity
  8
SUNPOU
 62
     0
370
    -2
100
AcDbBlockReference
  2
ARROW
 10
3465.254023040743
 20
1002.64540228347
 30
0.0
 41
25.0
 42
25.0
 43
25.0
 50
90.0
  0
INSERT
  5
1192
330
DF3
100
AcDbEntity
  8
SUNPOU
 62
     0
370
    -2
100
AcDbBlockReference
  2
ARROW
 10
3465.254023040743
 20
76.64540228347011
 30
0.0
 41
25.0
 42
25.0
 43
25.0
 50
270.0
  0
MTEXT
  5
1193
330
DF3
100
AcDbEntity
  8
SUNPOU
 62
     0
100
AcDbMText
 10
3435.254023040744
 20
539.6454022834705
 30
0.0
 40
40.0
 41
0.0
 71
     5
 72
     1
  1
\A1;926
  7
BIGFONT
 11
0.0000000000000001
 21
1.0
 31
0.0
 73
     1
 44
1.0
  0
POINT
  5
1194
330
DF3
100
AcDbEntity
  8
DEFPOINTS
 62
     0
100
AcDbPoint
 10
3627.488570714468
 20
1002.64540228347
 30
0.0
  0
POINT
  5
1195
330
DF3
100
AcDbEntity
  8
DEFPOINTS
 62
     0
100
AcDbPoint
 10
3678.825763317043
 20
76.64540228347004
 30
0.0
  0
POINT
  5
1196
330
DF3
100
AcDbEntity
  8
DEFPOINTS
 62
     0
100
AcDbPoint
 10
3465.254023040743
 20
76.64540228347011
 30
0.0
  0
ENDBLK
  5
DFE
330
DF3
100
AcDbEntity
  8
0
100
AcDbBlockEnd
  0
BLOCK
  5
E09
330
DFF
100
AcDbEntity
  8
0
100
AcDbBlockBegin
  2
*D18
 70
     1
 10
0.0
 20
0.0
 30
0.0
  3
*D18
  1

  0
LINE
  5
11A0
330
DFF
100
AcDbEntity
  8
SUNPOU
 62
     0
370
    -2
100
AcDbLine
 10
3617.488570714467
 20
276.6454022834699
 30
0.0
 11
3518.751322625136
 21
276.6454022834699
 31
0.0
  0
LINE
  5
11A1
330
DFF
100
AcDbEntity
  8
SUNPOU
 62
     0
370
    -2
100
AcDbLine
 10
3668.825763317042
 20
76.64540228347004
 30
0.0
 11
3518.751322625136
 21
76.64540228347009
 31
0.0
  0
LINE
  5
11A2
330
DFF
100
AcDbEntity
  8
SUNPOU
 62
     0
370
    -2
100
AcDbLine
 10
3528.751322625136
 20
251.6454022834699
 30
0.0
 11
3528.751322625136
 21
101.6454022834701
 31
0.0
  0
INSERT
  5
11A3
330
DFF
100
AcDbEntity
  8
SUNPOU
 62
     0
370
    -2
100
AcDbBlockReference
  2
ARROW
 10
3528.751322625136
 20
276.6454022834699
 30
0.0
 41
25.0
 42
25.0
 43
25.0
 50
90.0
  0
INSERT
  5
11A4
330
DFF
100
AcDbEntity
  8
SUNPOU
 62
     0
370
    -2
100
AcDbBlockReference
  2
ARROW
 10
3528.751322625136
 20
76.64540228347009
 30
0.0
 41
25.0
 42
25.0
 43
25.0
 50
270.0
  0
MTEXT
  5
11A5
330
DFF
100
AcDbEntity
  8
SUNPOU
 62
     0
100
AcDbMText
 10
3498.751322625136
 20
176.6454022834705
 30
0.0
 40
40.0
 41
0.0
 71
     5
 72
     1
  1
\A1;200
  7
BIGFONT
 11
0.0000000000000001
 21
1.0
 31
0.0
 73
     1
 44
1.0
  0
POINT
  5
11A6
330
DFF
100
AcDbEntity
  8
DEFPOINTS
 62
     0
100
AcDbPoint
 10
3627.488570714468
 20
276.6454022834699
 30
0.0
  0
POINT
  5
11A7
330
DFF
100
AcDbEntity
  8
DEFPOINTS
 62
     0
100
AcDbPoint
 10
3678.825763317043
 20
76.64540228347004
 30
0.0
  0
POINT
  5
11A8
330
DFF
100
AcDbEntity
  8
DEFPOINTS
 62
     0
100
AcDbPoint
 10
3528.751322625136
 20
76.64540228347009
 30
0.0
  0
ENDBLK
  5
E0A
330
DFF
100
AcDbEntity
  8
0
100
AcDbBlockEnd
  0
BLOCK
  5
E15
330
E0B
100
AcDbEntity
  8
0
100
AcDbBlockBegin
  2
*D19
 70
     1
 10
0.0
 20
0.0
 30
0.0
  3
*D19
  1

  0
LINE
  5
11AE
330
E0B
100
AcDbEntity
  8
SUNPOU
 62
     0
370
    -2
100
AcDbLine
 10
3628.825763317042
 20
66.64540228347006
 30
0.0
 11
3628.825763317042
 21
-83.0594927074777
 31
0.0
  0
LINE
  5
11AF
330
E0B
100
AcDbEntity
  8
SUNPOU
 62
     0
370
    -2
100
AcDbLine
 10
4458.825763317042
 20
66.64540228347004
 30
0.0
 11
4458.825763317042
 21
-83.05949270747772
 31
0.0
  0
LINE
  5
11B0
330
E0B
100
AcDbEntity
  8
SUNPOU
 62
     0
370
    -2
100
AcDbLine
 10
3653.825763317042
 20
-73.0594927074777
 30
0.0
 11
4433.825763317042
 21
-73.0594927074777
 31
0.0
  0
INSERT
  5
11B1
330
E0B
100
AcDbEntity
  8
SUNPOU
 62
     0
370
    -2
100
AcDbBlockReference
  2
ARROW
 10
3628.825763317042
 20
-73.0594927074777
 30
0.0
 41
25.0
 42
25.0
 43
25.0
 50
180.0
  0
INSERT
  5
11B2
330
E0B
100
AcDbEntity
  8
SUNPOU
 62
     0
370
    -2
100
AcDbBlockReference
  2
ARROW
 10
4458.825763317042
 20
-73.0594927074777
 30
0.0
 41
25.0
 42
25.0
 43
25.0
  0
MTEXT
  5
11B3
330
E0B
100
AcDbEntity
  8
SUNPOU
 62
     0
100
AcDbMText
 10
4043.825763317042
 20
-43.0594927074777
 30
0.0
 40
40.0
 41
0.0
 71
     5
 72
     1
  1
\A1;830
  7
BIGFONT
 73
     1
 44
1.0
  0
POINT
  5
11B4
330
E0B
100
AcDbEntity
  8
DEFPOINTS
 62
     0
100
AcDbPoint
 10
3628.825763317042
 20
76.64540228347006
 30
0.0
  0
POINT
  5
11B5
330
E0B
100
AcDbEntity
  8
DEFPOINTS
 62
     0
100
AcDbPoint
 10
4458.825763317042
 20
76.64540228347004
 30
0.0
  0
POINT
  5
11B6
330
E0B
100
AcDbEntity
  8
DEFPOINTS
 62
     0
100
AcDbPoint
 10
4458.825763317042
 20
-73.0594927074777
 30
0.0
  0
ENDBLK
  5
E16
330
E0B
100
AcDbEntity
  8
0
100
AcDbBlockEnd
  0
BLOCK
  5
E1D
330
E17
100
AcDbEntity
  8
0
100
AcDbBlockBegin
  2
*D20
 70
     1
 10
0.0
 20
0.0
 30
0.0
  3
*D20
  1

  0
LINE
  5
11A9
330
E17
100
AcDbEntity
  8
SUNPOU
 62
     0
 48
1.5
370
    -2
100
AcDbLine
 10
4124.642707052436
 20
600.5911126234702
 30
0.0
 11
3818.927403091276
 21
582.6063510687521
 31
0.0
  0
MTEXT
  5
11AA
102
{ACAD_XDICTIONARY
360
11C8
102
}
330
E17
100
AcDbEntity
  8
SUNPOU
 62
     0
 48
1.5
100
AcDbMText
 10
4043.494340997884
 20
625.8691459301899
 30
0.0
 40
40.0
 41
0.0
 71
     5
 72
     1
  1
\A1;\U+2205500
  7
BIGFONT
 11
0.9982740844312345
 21
0.0587269303895601
 31
0.0
 73
     1
 44
1.0
  0
INSERT
  5
11AB
330
E17
100
AcDbEntity
  8
SUNPOU
 62
     0
 48
1.5
370
    -2
100
AcDbBlockReference
  2
ARROW
 10
3793.970550980495
 20
581.1381778090131
 30
0.0
 41
25.0
 42
25.0
 43
25.0
 50
183.3667423823988
  0
POINT
  5
11AC
330
E17
100
AcDbEntity
  8
DEFPOINTS
 62
     0
 48
1.5
100
AcDbPoint
 10
3793.970550980495
 20
581.1381778090131
 30
0.0
  0
POINT
  5
11AD
330
E17
100
AcDbEntity
  8
DEFPOINTS
 62
     0
 48
1.5
100
AcDbPoint
 10
4292.955029992878
 20
610.4926679449826
 30
0.0
  0
ENDBLK
  5
E1E
330
E17
100
AcDbEntity
  8
0
100
AcDbBlockEnd
  0
ENDSEC
  0
SECTION
  2
ENTITIES
  0
INSERT
  5
281
330
18
100
AcDbEntity
  8
0
100
AcDbBlockReference
  2
YA_N
 10
6.0
 20
5.0
 30
0.0
  0
TEXT
  5
2B1
330
18
100
AcDbEntity
  8
0
100
AcDbText
 10
1687.326270610832
 20
1518.769474653376
 30
0.0
 40
50.0
  1
S=1/10
  7
BIGFONT
 11
1687.326270610832
 21
1543.769474653376
 31
0.0
100
AcDbText
 73
     2
  0
DIMENSION
  5
37F
330
18
100
AcDbEntity
  8
SUNPOU
100
AcDbDimension
  2
*D8
 10
2238.825763317041
 20
-179.2320203979972
 30
0.0
 11
1523.825763317041
 21
-149.2320203979972
 31
0.0
 70
    32
 71
     5
 42
1430.0
  3
DIA1
100
AcDbAlignedDimension
 13
808.8257633170412
 23
95.61523328851746
 33
0.0
 14
2238.825763317041
 24
95.61523328851746
 34
0.0
100
AcDbRotatedDimension
1001
ACAD
1000
DSTYLE
1002
{
1070
    41
1040
2.5
1070
   140
1040
4.0
1070
   173
1070
     1
1070
   272
1070
     0
1070
   342
1005
0
1070
   343
1005
20
1070
   344
1005
20
1002
}
  0
LINE
  5
380
330
18
100
AcDbEntity
  8
0
100
AcDbLine
 10
2300.040973357912
 20
1180.156994348061
 30
0.0
 11
755.924057793477
 21
1180.156994348061
 31
0.0
  0
LEADER
  5
383
330
18
100
AcDbEntity
  8
SUNPOU
  6
ByBlock
100
AcDbLeader
  3
DIA1
 73
     0
 74
     0
 75
     1
 40
45.0
 41
168.0
 76
     3
 10
1852.935629320693
 20
280.0746071685999
 30
0.0
 10
2018.464888003336
 20
103.3404526280659
 30
0.0
 10
2043.464888003336
 20
103.3404526280659
 30
0.0
340
384
1001
ACAD
1000
DSTYLE
1002
{
1070
    41
1040
2.5
1070
   140
1040
4.0
1070
   173
1070
     1
1070
   272
1070
     0
1070
   342
1005
0
1070
   343
1005
20
1070
   344
1005
20
1002
}
  0
MTEXT
  5
384
102
{ACAD_REACTORS
330
383
102
}
330
18
100
AcDbEntity
  8
SUNPOU
  6
ByBlock
100
AcDbMText
 10
2053.464888003336
 20
135.8404526280659
 30
0.0
 40
45.0
 41
0.0
 71
     4
 72
     1
  1
{\Ftxt.shx,bigfont.shx;ﾌｨﾙﾀｰ砂}
 73
     1
 44
1.0
  0
LINE
  5
385
330
18
100
AcDbEntity
  8
0
  6
ByBlock
100
AcDbLine
 10
893.2629039404755
 20
1160.156994348062
 30
0.0
 11
933.2629039404755
 21
1120.156994348062
 31
0.0
  0
LINE
  5
386
330
18
100
AcDbEntity
  8
0
  6
ByBlock
100
AcDbLine
 10
913.2629039404756
 20
1180.156994348061
 30
0.0
 11
833.2629039404764
 21
1100.156994348062
 31
0.0
  0
LINE
  5
387
330
18
100
AcDbEntity
  8
0
  6
ByBlock
100
AcDbLine
 10
873.262903940475
 20
1140.15699434806
 30
0.0
 11
913.2629039404736
 21
1100.156994348062
 31
0.0
  0
DIMENSION
  5
388
330
18
100
AcDbEntity
  8
SUNPOU
100
AcDbDimension
  2
*D9
 10
536.4618304407114
 20
880.1569943480616
 30
0.0
 11
536.4618304407112
 21
930.1569943480618
 31
0.0
 70
   160
 71
     5
 42
100.0000000000002
  3
DIA1
100
AcDbAlignedDimension
 13
635.1753529238476
 23
980.1569943480618
 33
0.0
 14
635.1990785300431
 24
880.1569943480616
 34
0.0
 50
90.0
100
AcDbRotatedDimension
1001
ACAD
1000
DSTYLE
1002
{
1070
    41
1040
2.5
1070
   140
1040
4.0
1070
   173
1070
     1
1070
   272
1070
     0
1070
   342
1005
0
1070
   343
1005
20
1070
   344
1005
20
1002
}
  0
DIMENSION
  5
389
330
18
100
AcDbEntity
  8
SUNPOU
100
AcDbDimension
  2
*D10
 10
536.4618304407112
 20
254.1569943480617
 30
0.0
 11
506.4618304407114
 21
567.1569943480617
 31
0.0
 70
    32
 71
     5
 42
626.0
  3
DIA1
100
AcDbAlignedDimension
 13
635.1990785300431
 23
880.1569943480616
 33
0.0
 14
635.1990785300431
 24
254.1569943480616
 34
0.0
 50
90.0
100
AcDbRotatedDimension
1001
ACAD
1000
DSTYLE
1002
{
1070
    41
1040
2.5
1070
   140
1040
4.0
1070
   173
1070
     1
1070
   272
1070
     0
1070
   342
1005
0
1070
   343
1005
20
1070
   344
1005
20
1002
}
  0
MTEXT
  5
38A
102
{ACAD_REACTORS
330
38D
102
}
330
18
100
AcDbEntity
  8
SUNPOU
  6
ByBlock
100
AcDbMText
 10
2448.620044011609
 20
288.5754114612382
 30
0.0
 40
45.0
 41
0.0
 71
     6
 72
     1
  1
{\Ftxt.shx,bigfont.shx;透水ｺﾝｸﾘｰﾄ管}
 73
     1
 44
1.0
  0
DIMENSION
  5
38B
330
18
100
AcDbEntity
  8
SUNPOU
100
AcDbDimension
  2
*D11
 10
422.8979773711743
 20
54.15699434806185
 30
0.0
 11
392.8979773711744
 21
517.1569943480618
 31
0.0
 70
    32
 71
     5
 42
925.9999999999999
  3
DIA1
100
AcDbAlignedDimension
 13
635.1990785300431
 23
980.1569943480616
 33
0.0
 14
1158.825763317041
 24
54.15699434806164
 34
0.0
 50
90.0
100
AcDbRotatedDimension
1001
ACAD
1000
DSTYLE
1002
{
1070
    41
1040
2.5
1070
   140
1040
4.0
1070
   173
1070
     1
1070
   272
1070
     0
1070
   342
1005
0
1070
   343
1005
20
1070
   344
1005
20
1002
}
  0
DIMENSION
  5
38C
330
18
100
AcDbEntity
  8
SUNPOU
100
AcDbDimension
  2
*D12
 10
536.4618304407112
 20
54.15699434806182
 30
0.0
 11
506.4618304407113
 21
154.1569943480618
 31
0.0
 70
    32
 71
     5
 42
199.9999999999999
  3
DIA1
100
AcDbAlignedDimension
 13
635.1990785300431
 23
254.1569943480616
 33
0.0
 14
1158.825763317041
 24
54.15699434806164
 34
0.0
 50
90.0
100
AcDbRotatedDimension
1001
ACAD
1000
DSTYLE
1002
{
1070
    41
1040
2.5
1070
   140
1040
4.0
1070
   173
1070
     1
1070
   272
1070
     0
1070
   342
1005
0
1070
   343
1005
20
1070
   344
1005
20
1002
}
  0
LEADER
  5
38D
330
18
100
AcDbEntity
  8
SUNPOU
  6
ByBlock
100
AcDbLeader
  3
DIA1
 73
     0
 74
     0
 75
     1
 40
45.0
 41
312.0
 76
     3
 10
1812.331507095386
 20
445.7756291930106
 30
0.0
 10
2101.620044011608
 20
256.0754114612382
 30
0.0
 10
2126.620044011608
 20
256.0754114612382
 30
0.0
340
38A
1001
ACAD
1000
DSTYLE
1002
{
1070
    41
1040
2.5
1070
   140
1040
4.0
1070
   173
1070
     1
1070
   272
1070
     0
1070
   342
1005
0
1070
   343
1005
20
1070
   344
1005
20
1002
}
  0
LINE
  5
38E
330
18
100
AcDbEntity
  8
0
  6
ByBlock
100
AcDbLine
 10
833.2629039404755
 20
1180.156994348061
 30
0.0
 11
753.2629039404764
 21
1100.156994348062
 31
0.0
  0
LINE
  5
38F
330
18
100
AcDbEntity
  8
0
  6
ByBlock
100
AcDbLine
 10
873.2629039404756
 20
1180.156994348061
 30
0.0
 11
793.2629039404765
 21
1100.156994348062
 31
0.0
  0
DIMENSION
  5
393
330
18
100
AcDbEntity
  8
SUNPOU
100
AcDbDimension
  2
*D13
 10
1888.710374244359
 20
-95.54790064288601
 30
0.0
 11
1523.7680687807
 21
-65.547900642886
 31
0.0
 70
    32
 71
     5
 42
729.8846109273181
  3
DIA1
100
AcDbAlignedDimension
 13
1158.825763317041
 23
54.15699434806168
 33
0.0
 14
1888.710374244359
 24
54.25901653347172
 34
0.0
100
AcDbRotatedDimension
1001
ACAD
1000
DSTYLE
1002
{
1070
    41
1040
2.5
1070
   140
1040
4.0
1070
   173
1070
     1
1070
   272
1070
     0
1070
   342
1005
0
1070
   343
1005
20
1070
   344
1005
20
1002
}
  0
LINE
  5
395
330
18
100
AcDbEntity
  8
0
  6
ByBlock
100
AcDbLine
 10
1053.262903940475
 20
1160.156994348061
 30
0.0
 11
1113.262903940476
 21
1100.156994348063
 31
0.0
  0
LINE
  5
396
330
18
100
AcDbEntity
  8
0
  6
ByBlock
100
AcDbLine
 10
1033.262903940475
 20
1140.156994348062
 30
0.0
 11
1073.262903940475
 21
1100.156994348062
 31
0.0
  0
LINE
  5
397
330
18
100
AcDbEntity
  8
0
  6
ByBlock
100
AcDbLine
 10
1073.262903940475
 20
1180.156994348061
 30
0.0
 11
993.262903940476
 21
1100.156994348062
 31
0.0
  0
LINE
  5
398
330
18
100
AcDbEntity
  8
0
  6
ByBlock
100
AcDbLine
 10
993.2629039404755
 20
1180.156994348061
 30
0.0
 11
913.2629039404756
 21
1100.156994348062
 31
0.0
  0
LINE
  5
399
330
18
100
AcDbEntity
  8
0
  6
ByBlock
100
AcDbLine
 10
1033.262903940475
 20
1180.156994348061
 30
0.0
 11
953.2629039404765
 21
1100.156994348062
 31
0.0
  0
LINE
  5
39A
330
18
100
AcDbEntity
  8
0
  6
ByBlock
100
AcDbLine
 10
913.2629039404756
 20
1180.156994348061
 30
0.0
 11
953.262903940476
 21
1140.156994348062
 31
0.0
  0
LINE
  5
39B
330
18
100
AcDbEntity
  8
0
  6
ByBlock
100
AcDbLine
 10
1073.262903940475
 20
1180.156994348061
 30
0.0
 11
1153.262903940474
 21
1100.156994348062
 31
0.0
  0
TEXT
  5
3AB
330
18
100
AcDbEntity
  8
0
 62
     7
100
AcDbText
 10
1076.916248096099
 20
1606.77888516965
 30
0.0
 40
65.0
  1
透水管 K-500 構造図
  7
STYLE1
 72
     4
 11
1490.749581429433
 21
1639.27888516965
 31
0.0
100
AcDbText
  0
CIRCLE
  5
C61
330
18
100
AcDbEntity
  8
0
100
AcDbCircle
 10
1523.825763317041
 20
567.1569943480616
 30
0.0
 40
250.0
  0
CIRCLE
  5
C62
330
18
100
AcDbEntity
  8
0
100
AcDbCircle
 10
1523.825763317041
 20
567.1569943480616
 30
0.0
 40
313.0
  0
HATCH
  5
C63
330
18
100
AcDbEntity
  8
SAISEKI
100
AcDbHatch
 10
0.0
 20
0.0
 30
0.0
210
0.0
220
0.0
230
1.0
  2
HONEY
 70
     0
 71
     0
 91
        5
 92
        7
 72
     1
 73
     1
 93
        4
 10
1369.995768249052
 20
764.2263542632507
 42
0.0
 10
1330.050809961159
 20
812.9623389846782
 42
0.2297210633030319
 10
1210.825763317041
 20
567.1569943480616
 42
0.0
 10
1273.825763317041
 20
567.1569943480616
 42
-0.2309822901128337
 97
        0
 92
        7
 72
     1
 73
     1
 93
        4
 10
1273.825763317041
 20
567.1569943480616
 42
0.0
 10
1210.825763317041
 20
567.1569943480616
 42
0.1604869190961293
 10
1272.120816892261
 20
381.1096349330486
 42
0.0
 10
1321.899897265846
 20
419.7597602509639
 42
-0.1589563058663686
 97
        0
 92
        7
 72
     1
 73
     1
 93
        5
 10
1836.596664428072
 20
555.1835479689397
 42
0.0
 10
1817.119034297878
 20
567.1569943480607
 42
0.0
 10
1773.825763317041
 20
567.1569943480607
 42
-0.2145822494379018
 10
1689.663695522105
 20
380.0800576563664
 42
0.0
 10
1731.454854437781
 20
332.9366696100591
 42
0.2045961911860598
 97
        0
 92
       22
 72
     1
 73
     1
 93
        3
 10
1772.30316897
 20
594.7065656691328
 42
-0.0276126516500067
 10
1773.825763317041
 20
567.1569943480611
 42
0.0
 10
1817.119034297877
 20
567.1569943480611
 42
0.0
 97
        0
 92
        7
 72
     1
 73
     1
 93
        5
 10
1745.15018582843
 20
788.4814168594506
 42
0.0
 10
1700.602458613678
 20
743.9336896446983
 42
-0.1703639918605319
 10
1772.30316897
 20
594.7065656691332
 42
0.0
 10
1817.119034297877
 20
567.1569943480607
 42
0.0
 10
1836.825763317041
 20
567.1569943480607
 42
0.1989123673796584
 97
        0
 75
     0
 76
     1
 52
20.0
 41
120.0
 77
     0
 78
     3
 53
20.0
 43
-4135.903994402119
 44
-2668.570520640909
 45
16.70011199620789
 46
19.90241839172501
 79
     2
 49
15.0
 49
-30.0
 53
140.0
 43
-4135.903994402119
 44
-2668.570520640909
 45
-25.58605592208444
 46
4.511512038898787
 79
     2
 49
15.0
 49
-30.0
 53
80.0
 43
-4135.903994402119
 44
-2668.570520640909
 45
-8.885943925876544
 46
24.4139304306238
 79
     2
 49
-29.99999999999996
 49
14.99999999999998
 47
4.524285756630684
 98
        5
 10
1302.072912070254
 20
721.0639121565535
 10
1270.369093794664
 20
445.082481609258
 10
1759.513799391332
 20
386.2667675826295
 10
1777.630259953626
 20
576.2867678094433
 10
1795.746745099078
 20
612.481060811292
  0
DIMENSION
  5
C66
330
18
100
AcDbEntity
  8
SUNPOU
 48
1.5
100
AcDbDimension
  2
*D14
 10
1772.955029992876
 20
588.004260009574
 30
0.0
 11
1525.256148909568
 21
573.4325154618439
 31
0.0
 70
   163
 71
     5
 42
499.8471730303183
  3
DIA1
100
AcDbDiametricDimension
 15
1273.970550980494
 25
558.6497698736044
 35
0.0
 40
0.0
1001
ACAD
1000
DSTYLE
1002
{
1070
    41
1040
2.5
1070
   140
1040
4.0
1070
   173
1070
     1
1070
   272
1070
     0
1070
   342
1005
0
1070
   343
1005
20
1070
   344
1005
20
1002
}
  0
LINE
  5
C7B
330
18
100
AcDbEntity
  8
0
100
AcDbLine
 10
808.825763317041
 20
980.1569943480615
 30
0.0
 11
2238.825763317041
 21
980.1569943480615
 31
0.0
  0
LINE
  5
C82
330
18
100
AcDbEntity
  8
0
100
AcDbLine
 10
808.825763317041
 20
980.1569943480615
 30
0.0
 11
1158.825763317041
 21
54.15699434806164
 31
0.0
  0
LINE
  5
C83
330
18
100
AcDbEntity
  8
0
100
AcDbLine
 10
1158.825763317041
 20
54.15699434806164
 30
0.0
 11
1888.825763317041
 21
54.15699434806164
 31
0.0
  0
LINE
  5
C84
330
18
100
AcDbEntity
  8
0
100
AcDbLine
 10
1888.825763317041
 20
54.15699434806164
 30
0.0
 11
2238.825763317041
 21
980.1569943480615
 31
0.0
  0
MTEXT
  5
DAC
102
{ACAD_REACTORS
330
DAD
102
}
330
18
100
AcDbEntity
  8
SUNPOU
  6
ByBlock
100
AcDbMText
 10
4624.871211536402
 20
289.9717561012399
 30
0.0
 40
45.0
 41
0.0
 71
     4
 72
     1
  1
{\Ftxt.shx,bigfont.shx;ﾌｨﾙﾀｰ砂}
 73
     1
 44
1.0
  0
LEADER
  5
DAD
330
18
100
AcDbEntity
  8
SUNPOU
  6
ByBlock
100
AcDbLeader
  3
DIA1
 73
     0
 74
     0
 75
     1
 40
45.0
 41
168.0
 76
     3
 10
4372.935629320694
 20
441.7845233610686
 30
0.0
 10
4589.871211536403
 20
257.4717561012398
 30
0.0
 10
4614.871211536402
 20
257.4717561012398
 30
0.0
340
DAC
1001
ACAD
1000
DSTYLE
1002
{
1070
    41
1040
2.5
1070
   140
1040
4.0
1070
   173
1070
     1
1070
   272
1070
     0
1070
   342
1005
0
1070
   343
1005
20
1070
   344
1005
20
1002
}
  0
LINE
  5
DAF
330
18
100
AcDbEntity
  8
0
100
AcDbLine
 10
3628.825763317042
 20
1002.64540228347
 30
0.0
 11
4458.825763317042
 21
1002.64540228347
 31
0.0
  0
LINE
  5
DB0
330
18
100
AcDbEntity
  8
0
100
AcDbLine
 10
4820.040973357913
 20
1202.64540228347
 30
0.0
 11
3275.924057793478
 21
1202.64540228347
 31
0.0
  0
HATCH
  5
DB5
330
18
100
AcDbEntity
  8
SAISEKI
100
AcDbHatch
 10
0.0
 20
0.0
 30
0.0
210
0.0
220
0.0
230
1.0
  2
HONEY
 70
     0
 71
     0
 91
        5
 92
        7
 72
     1
 73
     1
 93
        4
 10
3889.995768249053
 20
786.714762198659
 42
0.0
 10
3850.050809961161
 20
835.4507469200864
 42
0.2297210633030319
 10
3730.825763317043
 20
589.6454022834699
 42
0.0
 10
3793.825763317042
 20
589.6454022834699
 42
-0.2309822901128337
 97
        0
 92
        7
 72
     1
 73
     1
 93
        4
 10
3793.825763317042
 20
589.6454022834699
 42
0.0
 10
3730.825763317043
 20
589.6454022834699
 42
0.1604869190961293
 10
3792.120816892263
 20
403.5980428684569
 42
0.0
 10
3841.899897265847
 20
442.2481681863722
 42
-0.1589563058663686
 97
        0
 92
        7
 72
     1
 73
     1
 93
        5
 10
4356.596664428074
 20
577.6719559043479
 42
0.0
 10
4337.11903429788
 20
589.645402283469
 42
0.0
 10
4293.825763317042
 20
589.645402283469
 42
-0.2145822494379018
 10
4209.663695522106
 20
402.5684655917747
 42
0.0
 10
4251.454854437782
 20
355.4250775454674
 42
0.2045961911860598
 97
        0
 92
       22
 72
     1
 73
     1
 93
        3
 10
4292.303168970001
 20
617.1949736045411
 42
-0.0276126516500067
 10
4293.825763317042
 20
589.6454022834695
 42
0.0
 10
4337.119034297877
 20
589.6454022834695
 42
0.0
 97
        0
 92
        7
 72
     1
 73
     1
 93
        5
 10
4265.150185828431
 20
810.9698247948589
 42
0.0
 10
4220.602458613678
 20
766.4220975801066
 42
-0.1703639918605319
 10
4292.303168970001
 20
617.1949736045416
 42
0.0
 10
4337.119034297877
 20
589.645402283469
 42
0.0
 10
4356.825763317043
 20
589.645402283469
 42
0.1989123673796584
 97
        0
 75
     0
 76
     1
 52
20.0
 41
120.0
 77
     0
 78
     3
 53
20.0
 43
-1615.903994402118
 44
-2646.0821127055
 45
16.70011199620789
 46
19.90241839172501
 79
     2
 49
15.0
 49
-30.0
 53
140.0
 43
-1615.903994402118
 44
-2646.0821127055
 45
-25.58605592208444
 46
4.511512038898787
 79
     2
 49
15.0
 49
-30.0
 53
80.0
 43
-1615.903994402118
 44
-2646.0821127055
 45
-8.885943925876544
 46
24.4139304306238
 79
     2
 49
-29.99999999999995
 49
14.99999999999997
 47
4.524285756630684
 98
        5
 10
3822.072912070256
 20
743.5523200919618
 10
3790.369093794666
 20
467.5708895446663
 10
4279.513799391333
 20
408.7551755180378
 10
4297.630259953627
 20
598.7751757448517
 10
4315.74674509908
 20
634.9694687467002
  0
CIRCLE
  5
DB6
330
18
100
AcDbEntity
  8
0
100
AcDbCircle
 10
4043.825763317042
 20
589.6454022834699
 30
0.0
 40
313.0
  0
CIRCLE
  5
DB7
330
18
100
AcDbEntity
  8
0
100
AcDbCircle
 10
4043.825763317042
 20
589.6454022834699
 30
0.0
 40
250.0
  0
DIMENSION
  5
DB8
330
18
100
AcDbEntity
  8
SUNPOU
100
AcDbDimension
  2
*D17
 10
3465.254023040743
 20
76.64540228347011
 30
0.0
 11
3435.254023040744
 21
539.6454022834705
 31
0.0
 70
    32
 71
     5
 42
925.9999999999999
  3
DIA1
100
AcDbAlignedDimension
 13
3627.488570714468
 23
1002.64540228347
 33
0.0
 14
3678.825763317043
 24
76.64540228347004
 34
0.0
 50
90.0
100
AcDbRotatedDimension
1001
ACAD
1000
DSTYLE
1002
{
1070
    41
1040
2.5
1070
   140
1040
4.0
1070
   173
1070
     1
1070
   272
1070
     0
1070
   342
1005
0
1070
   343
1005
20
1070
   344
1005
20
1002
}
  0
DIMENSION
  5
DB9
330
18
100
AcDbEntity
  8
SUNPOU
100
AcDbDimension
  2
*D16
 10
3528.751322625136
 20
276.6454022834699
 30
0.0
 11
3498.751322625136
 21
589.6454022834705
 31
0.0
 70
    32
 71
     5
 42
626.0
  3
DIA1
100
AcDbAlignedDimension
 13
3627.488570714468
 23
902.6454022834698
 33
0.0
 14
3627.488570714468
 24
276.6454022834699
 34
0.0
 50
90.0
100
AcDbRotatedDimension
1001
ACAD
1000
DSTYLE
1002
{
1070
    41
1040
2.5
1070
   140
1040
4.0
1070
   173
1070
     1
1070
   272
1070
     0
1070
   342
1005
0
1070
   343
1005
20
1070
   344
1005
20
1002
}
  0
LEADER
  5
DBA
330
18
100
AcDbEntity
  8
SUNPOU
  6
ByBlock
100
AcDbLeader
  3
DIA1
 73
     0
 74
     0
 75
     1
 40
45.0
 41
312.0
 76
     3
 10
4240.956204871056
 20
346.5228220636981
 30
0.0
 10
4548.466506666441
 20
43.66108598413529
 30
0.0
 10
4573.466506666441
 20
43.66108598413529
 30
0.0
340
DBB
1001
ACAD
1000
DSTYLE
1002
{
1070
    41
1040
2.5
1070
   140
1040
4.0
1070
   173
1070
     1
1070
   272
1070
     0
1070
   342
1005
0
1070
   343
1005
20
1070
   344
1005
20
1002
}
  0
MTEXT
  5
DBB
102
{ACAD_REACTORS
330
DBA
102
}
330
18
100
AcDbEntity
  8
SUNPOU
  6
ByBlock
100
AcDbMText
 10
4583.466506666441
 20
76.16108598413529
 30
0.0
 40
45.0
 41
0.0
 71
     4
 72
     1
  1
{\Ftxt.shx,bigfont.shx;透水ｺﾝｸﾘｰﾄ管}
 73
     1
 44
1.0
  0
DIMENSION
  5
DBC
330
18
100
AcDbEntity
  8
SUNPOU
100
AcDbDimension
  2
*D18
 10
3528.751322625136
 20
76.64540228347009
 30
0.0
 11
3498.751322625136
 21
176.6454022834705
 31
0.0
 70
    32
 71
     5
 42
199.9999999999999
  3
DIA1
100
AcDbAlignedDimension
 13
3627.488570714468
 23
276.6454022834699
 33
0.0
 14
3678.825763317043
 24
76.64540228347004
 34
0.0
 50
90.0
100
AcDbRotatedDimension
1001
ACAD
1000
DSTYLE
1002
{
1070
    41
1040
2.5
1070
   140
1040
4.0
1070
   173
1070
     1
1070
   272
1070
     0
1070
   342
1005
0
1070
   343
1005
20
1070
   344
1005
20
1002
}
  0
LINE
  5
DBD
330
18
100
AcDbEntity
  8
0
100
AcDbLine
 10
3628.825763317042
 20
76.64540228347006
 30
0.0
 11
4458.825763317042
 21
76.64540228347004
 31
0.0
  0
DIMENSION
  5
DBE
330
18
100
AcDbEntity
  8
SUNPOU
 48
1.5
100
AcDbDimension
  2
*D20
 10
4292.955029992878
 20
610.4926679449826
 30
0.0
 11
4045.256148909571
 21
595.9209233972528
 31
0.0
 70
   163
 71
     5
 42
499.8471730303195
  3
DIA1
100
AcDbDiametricDimension
 15
3793.970550980495
 25
581.1381778090131
 35
0.0
 40
0.0
1001
ACAD
1000
DSTYLE
1002
{
1070
    41
1040
2.5
1070
   140
1040
4.0
1070
   173
1070
     1
1070
   272
1070
     0
1070
   342
1005
0
1070
   343
1005
20
1070
   344
1005
20
1002
}
  0
DIMENSION
  5
DBF
330
18
100
AcDbEntity
  8
SUNPOU
100
AcDbDimension
  2
*D19
 10
4458.825763317042
 20
-73.0594927074777
 30
0.0
 11
4043.825763317042
 21
-43.0594927074777
 31
0.0
 70
    32
 71
     5
 42
830.0000000000009
  3
DIA1
100
AcDbAlignedDimension
 13
3628.825763317042
 23
76.64540228347006
 33
0.0
 14
4458.825763317042
 24
76.64540228347004
 34
0.0
100
AcDbRotatedDimension
1001
ACAD
1000
DSTYLE
1002
{
1070
    41
1040
2.5
1070
   140
1040
4.0
1070
   173
1070
     1
1070
   272
1070
     0
1070
   342
1005
0
1070
   343
1005
20
1070
   344
1005
20
1002
}
  0
LINE
  5
DC0
330
18
100
AcDbEntity
  8
0
  6
ByBlock
100
AcDbLine
 10
3308.64134513874
 20
1202.64540228347
 30
0.0
 11
3228.641345138741
 21
1122.645402283471
 31
0.0
  0
LINE
  5
DC1
330
18
100
AcDbEntity
  8
0
  6
ByBlock
100
AcDbLine
 10
3268.641345138739
 20
1202.64540228347
 30
0.0
 11
3188.641345138741
 21
1122.645402283471
 31
0.0
  0
DIMENSION
  5
DC2
330
18
100
AcDbEntity
  8
SUNPOU
100
AcDbDimension
  2
*D15
 10
3528.751322625136
 20
902.6454022834698
 30
0.0
 11
3528.751322625136
 21
952.6454022834705
 31
0.0
 70
   160
 71
     5
 42
100.0000000000002
  3
DIA1
100
AcDbAlignedDimension
 13
3627.464845108272
 23
1002.64540228347
 33
0.0
 14
3627.488570714468
 24
902.6454022834698
 34
0.0
 50
90.0
100
AcDbRotatedDimension
1001
ACAD
1000
DSTYLE
1002
{
1070
    41
1040
2.5
1070
   140
1040
4.0
1070
   173
1070
     1
1070
   272
1070
     0
1070
   342
1005
0
1070
   343
1005
20
1070
   344
1005
20
1002
}
  0
TEXT
  5
DC3
330
18
100
AcDbEntity
  8
0
 62
     7
100
AcDbText
 10
3596.9162480961
 20
1629.267293105059
 30
0.0
 40
65.0
  1
透水管 K-500 構造図
  7
STYLE1
 72
     4
 11
4010.749581429433
 21
1661.767293105059
 31
0.0
100
AcDbText
  0
LINE
  5
DC4
330
18
100
AcDbEntity
  8
0
  6
ByBlock
100
AcDbLine
 10
3508.64134513874
 20
1202.64540228347
 30
0.0
 11
3588.641345138739
 21
1122.645402283471
 31
0.0
  0
LINE
  5
DC5
330
18
100
AcDbEntity
  8
0
  6
ByBlock
100
AcDbLine
 10
3348.64134513874
 20
1202.64540228347
 30
0.0
 11
3388.64134513874
 21
1162.64540228347
 31
0.0
  0
LINE
  5
DC6
330
18
100
AcDbEntity
  8
0
  6
ByBlock
100
AcDbLine
 10
3468.641345138741
 20
1202.64540228347
 30
0.0
 11
3388.64134513874
 21
1122.645402283471
 31
0.0
  0
LINE
  5
DC7
330
18
100
AcDbEntity
  8
0
  6
ByBlock
100
AcDbLine
 10
3428.64134513874
 20
1202.64540228347
 30
0.0
 11
3348.64134513874
 21
1122.645402283471
 31
0.0
  0
LINE
  5
DC8
330
18
100
AcDbEntity
  8
0
  6
ByBlock
100
AcDbLine
 10
3508.64134513874
 20
1202.64540228347
 30
0.0
 11
3428.641345138741
 21
1122.645402283471
 31
0.0
  0
LINE
  5
DC9
330
18
100
AcDbEntity
  8
0
  6
ByBlock
100
AcDbLine
 10
3348.64134513874
 20
1202.64540228347
 30
0.0
 11
3268.641345138741
 21
1122.645402283471
 31
0.0
  0
LINE
  5
DCA
330
18
100
AcDbEntity
  8
0
  6
ByBlock
100
AcDbLine
 10
3328.64134513874
 20
1182.645402283471
 30
0.0
 11
3368.64134513874
 21
1142.64540228347
 31
0.0
  0
LINE
  5
DCB
330
18
100
AcDbEntity
  8
0
  6
ByBlock
100
AcDbLine
 10
3308.641345138739
 20
1162.645402283469
 30
0.0
 11
3348.641345138738
 21
1122.645402283471
 31
0.0
  0
LINE
  5
DCC
330
18
100
AcDbEntity
  8
0
  6
ByBlock
100
AcDbLine
 10
3488.64134513874
 20
1182.645402283469
 30
0.0
 11
3548.641345138741
 21
1122.645402283472
 31
0.0
  0
LINE
  5
DCD
330
18
100
AcDbEntity
  8
0
  6
ByBlock
100
AcDbLine
 10
3468.641345138739
 20
1162.64540228347
 30
0.0
 11
3508.64134513874
 21
1122.645402283471
 31
0.0
  0
TEXT
  5
DCE
330
18
100
AcDbEntity
  8
0
100
AcDbText
 10
4207.326270610832
 20
1541.257882588784
 30
0.0
 40
50.0
  1
S=1/10
  7
BIGFONT
 11
4207.326270610832
 21
1566.257882588784
 31
0.0
100
AcDbText
 73
     2
  0
LEADER
  5
E81
330
18
100
AcDbEntity
  8
SUNPOU
  6
ByBlock
100
AcDbLeader
  3
DIA1
 73
     0
 74
     0
 75
     1
 40
45.0
 41
204.0
 76
     3
 10
4372.935629320694
 20
1096.997392611504
 30
0.0
 10
4563.580004590479
 20
874.6589299392866
 30
0.0
 10
4588.580004590478
 20
874.6589299392866
 30
0.0
340
E82
1001
ACAD
1000
DSTYLE
1002
{
1070
    41
1040
2.5
1070
   140
1040
4.0
1070
   173
1070
     1
1070
   272
1070
     0
1070
   342
1005
0
1070
   343
1005
20
1070
   344
1005
20
1002
}
  0
MTEXT
  5
E82
102
{ACAD_REACTORS
330
E81
102
}
330
18
100
AcDbEntity
  8
SUNPOU
  6
ByBlock
100
AcDbMText
 10
4598.580004590479
 20
907.1589299392867
 30
0.0
 40
45.0
 41
0.0
 71
     4
 72
     1
  1
{\Ftxt.shx,bigfont.shx;埋戻し土}
 73
     1
 44
1.0
  0
MTEXT
  5
ED1
330
18
100
AcDbEntity
  8
0
100
AcDbMText
 10
2171.229473072951
 20
-378.0621558143487
 30
0.0
 40
35.0
 41
431.0406971753466
 71
     1
 72
     5
  1
{\C1;製品長 Ｌ＝1.000ｍ}
  7
BIGFONT
 73
     1
 44
1.0
  0
MTEXT
  5
ED4
330
18
100
AcDbEntity
  8
0
100
AcDbMText
 10
4390.45390702776
 20
-351.9518706098203
 30
0.0
 40
35.0
 41
431.0406971753466
 71
     1
 72
     5
  1
{\C1;製品長 Ｌ＝1.000ｍ}
  7
BIGFONT
 73
     1
 44
1.0
  0
LINE
  5
10A1
330
18
100
AcDbEntity
  8
0
100
AcDbLine
 10
4458.825763317042
 20
76.64540228347004
 30
0.0
 11
4458.825763317042
 21
1202.64540228347
 31
0.0
  0
LINE
  5
10A2
330
18
100
AcDbEntity
  8
0
100
AcDbLine
 10
3628.825763317042
 20
76.64540228347006
 30
0.0
 11
3628.825763317042
 21
1202.64540228347
 31
0.0
  0
HATCH
  5
10CB
330
18
100
AcDbEntity
  8
0
100
AcDbHatch
 10
0.0
 20
0.0
 30
0.0
210
0.0
220
0.0
230
1.0
  2
ANSI31
 70
     0
 71
     0
 91
        2
 92
        7
 72
     0
 73
     1
 93
        4
 10
4114.719973501538
 20
1202.64540228347
 10
3628.825763317042
 20
1202.64540228347
 10
3628.825763317042
 20
1002.64540228347
 10
4091.589725480496
 20
1002.64540228347
 97
        0
 92
        7
 72
     0
 73
     1
 93
        4
 10
4458.825763317042
 20
1202.64540228347
 10
4114.719973501541
 20
1202.64540228347
 10
4091.589725480496
 20
1002.64540228347
 10
4458.825763317042
 20
1002.64540228347
 97
        0
 75
     0
 76
     1
 52
0.0
 41
200.0
 77
     0
 78
     1
 53
45.0
 43
579.7582484645472
 44
22.4884079354083
 45
-17.67766952966368
 46
17.67766952966369
 79
     0
 47
3.67724347338688
 98
        2
 10
3734.508199905518
 20
1118.51935287909
 10
4209.124766162543
 20
1125.873840460178
1001
ACAD
1010
0.0
1020
0.0
1030
0.0
  0
HATCH
  5
10E7
330
18
100
AcDbEntity
  8
0
100
AcDbHatch
 10
0.0
 20
0.0
 30
0.0
210
0.0
220
0.0
230
1.0
  2
AR-SAND
 70
     0
 71
     0
 91
        2
 92
        7
 72
     1
 73
     1
 93
        6
 10
1579.452667497647
 20
875.1742788164527
 42
0.0
 10
1598.488535478438
 20
980.1569943480616
 42
0.0
 10
808.825763317041
 20
980.1569943480613
 42
0.0
 10
1012.979510974926
 20
440.0245076874838
 42
0.0
 10
1220.090321145806
 20
491.5674370729717
 42
-0.0610535646220418
 10
1210.825763317041
 20
567.1569943480616
 42
-0.4675676877671435
 97
        0
 92
        7
 72
     1
 73
     1
 93
        6
 10
2089.60602689355
 20
585.3642059819097
 42
0.0
 10
1836.66381796823
 20
577.2243456412113
 42
-0.0080425758960954
 10
1836.825763317041
 20
567.1569943480616
 42
-0.4646416876546967
 10
1471.162997673661
 20
258.6190985965179
 42
0.0
 10
1436.264400038642
 20
54.15699434806164
 42
0.0
 10
1888.825763317041
 20
54.15699434806164
 42
0.0
 97
        0
 75
     0
 76
     1
 52
0.0
 41
20.0
 77
     0
 78
     4
 53
37.5
 43
0.0
 44
0.0
 45
-1.259867162192163
 46
38.53647538026317
 79
     6
 49
0.0
 49
-30.4
 49
0.0
 49
-34.0
 49
0.0
 49
-32.5
 53
7.499999999999999
 43
0.0
 44
0.0
 45
35.39553410535454
 46
56.4429213045948
 79
     6
 49
0.0
 49
-16.4
 49
0.0
 49
-27.4
 49
0.0
 49
-10.5
 53
327.5
 43
-24.6
 44
0.0
 45
62.2828372350299
 46
0.11318107073929
 79
     6
 49
0.0
 49
-10.0
 49
0.0
 49
-36.0
 49
0.0
 49
-47.0
 53
317.5
 43
-24.6
 44
0.0
 45
60.12253209144586
 46
17.55351129868498
 79
     6
 49
0.0
 49
-5.0
 49
0.0
 49
-23.6
 49
0.0
 49
-27.0
 47
3.67724347338688
 98
        2
 10
1017.135828441109
 20
761.4017889491215
 10
1635.241121783689
 20
187.7518049887067
1001
ACAD
1010
0.0
1020
0.0
1030
0.0
  0
HATCH
  5
1102
330
18
100
AcDbEntity
  8
0
100
AcDbHatch
 10
0.0
 20
0.0
 30
0.0
210
0.0
220
0.0
230
1.0
  2
AR-SAND
 70
     0
 71
     0
 91
        2
 92
        7
 72
     1
 73
     1
 93
        6
 10
4079.78491963486
 20
900.5729486297379
 42
0.0
 10
4091.589725480497
 20
1002.64540228347
 42
0.0
 10
3628.825763317042
 20
1002.64540228347
 42
0.0
 10
3628.825763317042
 20
482.907184516006
 42
0.0
 10
3740.691692181827
 20
511.6791601206545
 42
-0.0630192426631079
 10
3730.825763317043
 20
589.6454022834699
 42
-0.4483536914618202
 97
        0
 92
        7
 72
     1
 73
     1
 93
        6
 10
4458.825763317042
 20
612.5431026967735
 42
0.0
 10
4356.350415312749
 20
606.8890067489389
 42
-0.0137806957082906
 10
4356.825763317043
 20
589.6454022834699
 42
-0.5005370372554396
 10
3955.669623209131
 20
289.3164243921011
 42
0.0
 10
3893.243890755559
 20
76.64540228347004
 42
0.0
 10
4458.825763317042
 20
76.64540228347006
 42
0.0
 97
        0
 75
     0
 76
     1
 52
0.0
 41
20.0
 77
     0
 78
     4
 53
37.5
 43
579.7582484645472
 44
22.4884079354083
 45
-1.259867162192163
 46
38.53647538026317
 79
     6
 49
0.0
 49
-30.4
 49
0.0
 49
-34.0
 49
0.0
 49
-32.5
 53
7.499999999999999
 43
579.7582484645472
 44
22.4884079354083
 45
35.39553410535454
 46
56.4429213045948
 79
     6
 49
0.0
 49
-16.4
 49
0.0
 49
-27.4
 49
0.0
 49
-10.5
 53
327.5
 43
555.1582484645473
 44
22.4884079354083
 45
62.2828372350299
 46
0.11318107073929
 79
     6
 49
0.0
 49
-10.0
 49
0.0
 49
-36.0
 49
0.0
 49
-47.0
 53
317.5
 43
555.1582484645473
 44
22.4884079354083
 45
60.12253209144586
 46
17.55351129868498
 79
     6
 49
0.0
 49
-5.0
 49
0.0
 49
-23.6
 49
0.0
 49
-27.0
 47
3.67724347338688
 98
        2
 10
3727.14980387004
 20
901.5619876565029
 10
4198.087167715578
 20
265.3988671509201
1001
ACAD
1010
0.0
1020
0.0
1030
0.0
  0
LWPOLYLINE
  5
114F
330
18
100
AcDbEntity
  8
KL
  6
ByBlock
 62
     0
 48
2.0
100
AcDbPolyline
 90
        4
 70
     1
 43
0.0
 10
2783.825763317042
 20
2253.068661538381
 10
2783.825763317038
 20
-1310.931338461618
 10
263.8257633170374
 20
-1310.931338461615
 10
263.8257633170413
 20
2253.068661538384
  0
LINE
  5
1156
330
18
100
AcDbEntity
  8
0
100
AcDbLine
 10
1439.182155921104
 20
2253.068661538383
 30
0.0
 11
1439.182155921104
 21
2253.068661538383
 31
0.0
  0
LWPOLYLINE
  5
1159
330
18
100
AcDbEntity
  8
KL
  6
ByBlock
 62
     0
 48
2.0
100
AcDbPolyline
 90
        4
 70
     1
 43
0.0
 10
5303.825763317043
 20
2253.068661538378
 10
5303.825763317039
 20
-1310.931338461621
 10
2783.825763317038
 20
-1310.931338461618
 10
2783.825763317043
 20
2253.068661538381
  0
ENDSEC
  0
SECTION
  2
OBJECTS
  0
DICTIONARY
  5
C
330
0
100
AcDbDictionary
281
     1
  3
ACAD_COLOR
350
F0A
  3
ACAD_GROUP
350
D
  3
ACAD_LAYOUT
350
2D0
  3
ACAD_MATERIAL
350
EE0
  3
ACAD_MLEADERSTYLE
350
F2F
  3
ACAD_MLINESTYLE
350
E
  3
ACAD_PLOTSETTINGS
350
2D1
  3
ACAD_PLOTSTYLENAME
350
2CE
  3
ACAD_SCALELIST
350
F0D
  3
ACAD_TABLESTYLE
350
F0B
  3
ACAD_VISUALSTYLE
350
EF9
  3
ACDB_RECOMPOSE_DATA
350
F4E
  3
AcDbVariableDictionary
350
2D8
  0
DICTIONARY
  5
F36
330
F
100
AcDbDictionary
280
     1
281
     1
  3
ADSK_XREC_LAYER_RECONCILED
360
F37
  0
DICTIONARY
  5
F38
330
49
100
AcDbDictionary
280
     1
281
     1
  3
ADSK_XREC_LAYER_RECONCILED
360
F39
  0
DICTIONARY
  5
F3A
330
4D
100
AcDbDictionary
280
     1
281
     1
  3
ADSK_XREC_LAYER_RECONCILED
360
F3B
  0
DICTIONARY
  5
F3C
330
4F
100
AcDbDictionary
280
     1
281
     1
  3
ADSK_XREC_LAYER_RECONCILED
360
F3D
  0
DICTIONARY
  5
1147
330
1146
100
AcDbDictionary
280
     1
281
     1
  0
DICTIONARY
  5
FC6
330
18
100
AcDbDictionary
280
     1
281
     1
  3
ACAD_SORTENTS
360
FC7
  0
DICTIONARY
  5
11C2
330
D55
100
AcDbDictionary
280
     1
281
     1
  3
ACAD_MTEXT_2008_RT
360
11C3
  0
DICTIONARY
  5
11C8
330
11AA
100
AcDbDictionary
280
     1
281
     1
  3
ACAD_MTEXT_2008_RT
360
11C9
  0
DICTIONARY
  5
F0A
102
{ACAD_REACTORS
330
C
102
}
330
C
100
AcDbDictionary
281
     1
  0
DICTIONARY
  5
D
102
{ACAD_REACTORS
330
C
102
}
330
C
100
AcDbDictionary
281
     1
  0
DICTIONARY
  5
2D0
102
{ACAD_REACTORS
330
C
102
}
330
C
100
AcDbDictionary
281
     1
  3
Model
350
2D2
  3
ﾚｲｱｳﾄ1
350
2D3
  0
DICTIONARY
  5
EE0
102
{ACAD_REACTORS
330
C
102
}
330
C
100
AcDbDictionary
281
     1
  3
ByBlock
350
EE9
  3
ByLayer
350
EE1
  3
Global
350
EF1
  0
DICTIONARY
  5
F2F
102
{ACAD_REACTORS
330
C
102
}
330
C
100
AcDbDictionary
281
     1
  3
Standard
350
F30
  0
DICTIONARY
  5
E
102
{ACAD_REACTORS
330
C
102
}
330
C
100
AcDbDictionary
281
     1
  3
STANDARD
350
1B
  0
DICTIONARY
  5
2D1
102
{ACAD_REACTORS
330
C
102
}
330
C
100
AcDbDictionary
281
     1
  0
ACDBDICTIONARYWDFLT
  5
2CE
102
{ACAD_REACTORS
330
C
102
}
330
C
100
AcDbDictionary
281
     1
  3
Normal
350
2CF
100
AcDbDictionaryWithDefault
340
2CF
  0
DICTIONARY
  5
F0D
102
{ACAD_REACTORS
330
C
102
}
330
C
100
AcDbDictionary
281
     1
  3
A0
350
F0E
  3
A1
350
F0F
  3
A2
350
F10
  3
A3
350
F11
  3
A4
350
F12
  3
A5
350
F13
  3
A6
350
F14
  3
A7
350
F15
  3
A8
350
F16
  3
A9
350
F17
  3
B0
350
F18
  3
B1
350
F19
  3
B2
350
F1A
  3
B3
350
F1B
  3
B4
350
F1C
  3
B5
350
F1D
  3
B6
350
F1E
  3
B7
350
F1F
  3
B8
350
F20
  3
B9
350
F21
  3
C0
350
F22
  3
C1
350
F23
  3
C2
350
F24
  3
C3
350
F25
  3
C4
350
F26
  3
C5
350
F27
  3
C6
350
F28
  3
C7
350
F29
  3
C8
350
F2A
  3
C9
350
F2B
  3
D0
350
F2C
  3
D1
350
F2D
  3
D2
350
F2E
  0
DICTIONARY
  5
F0B
102
{ACAD_REACTORS
330
C
102
}
330
C
100
AcDbDictionary
281
     1
  3
Standard
350
F0C
  0
DICTIONARY
  5
EF9
102
{ACAD_REACTORS
330
C
102
}
330
C
100
AcDbDictionary
281
     1
  3
2dWireframe
350
EFF
  3
3D Hidden
350
F01
  3
3dWireframe
350
F00
  3
Basic
350
EFE
  3
Brighten
350
F05
  3
ColorChange
350
F09
  3
Conceptual
350
F02
  3
Dim
350
F04
  3
Facepattern
350
F08
  3
Flat
350
EFA
  3
FlatWithEdges
350
EFB
  3
Gouraud
350
EFC
  3
GouraudWithEdges
350
EFD
  3
Linepattern
350
F07
  3
Realistic
350
F03
  3
Thicken
350
F06
  0
XRECORD
  5
F4E
102
{ACAD_REACTORS
330
C
102
}
330
C
100
AcDbXrecord
280
     1
 90
        1
330
F0C
  0
DICTIONARY
  5
2D8
102
{ACAD_REACTORS
330
C
102
}
330
C
100
AcDbDictionary
281
     1
  3
CANNOSCALE
350
F40
  3
CMLEADERSTYLE
350
F3F
  3
CTABLESTYLE
350
F3E
  3
LIGHTINGUNITS
350
F50
  3
MSLTSCALE
350
F4F
  3
SORTENTS
350
2D9
  0
XRECORD
  5
F37
102
{ACAD_REACTORS
330
F36
102
}
330
F36
100
AcDbXrecord
280
     1
290
     1
  0
XRECORD
  5
F39
102
{ACAD_REACTORS
330
F38
102
}
330
F38
100
AcDbXrecord
280
     1
290
     1
  0
XRECORD
  5
F3B
102
{ACAD_REACTORS
330
F3A
102
}
330
F3A
100
AcDbXrecord
280
     1
290
     1
  0
XRECORD
  5
F3D
102
{ACAD_REACTORS
330
F3C
102
}
330
F3C
100
AcDbXrecord
280
     1
290
     1
  0
SORTENTSTABLE
  5
FC7
102
{ACAD_REACTORS
330
FC6
102
}
330
FC6
100
AcDbSortentsTable
330
18
331
DC1
  5
DC7
331
38A
  5
38A
331
DBC
  5
DC2
331
DC8
  5
DCE
331
281
  5
281
331
380
  5
380
331
387
  5
387
331
39B
  5
39B
331
DB9
  5
DBF
331
DC5
  5
DCB
331
38E
  5
38E
331
C61
  5
C61
331
DCC
  5
ED1
331
395
  5
395
331
C84
  5
DAD
331
DAF
  5
DB8
331
384
  5
384
331
398
  5
398
331
DB6
  5
DBC
331
10CB
  5
DB6
331
E81
  5
109C
331
DC2
  5
DC8
331
38B
  5
38B
331
DBD
  5
DC3
331
DC9
  5
E5C
331
DAC
  5
DB0
331
2B1
  5
2B1
331
388
  5
388
331
DBA
  5
DC0
331
DC6
  5
DCC
331
38F
  5
38F
331
3AB
  5
3AB
331
C62
  5
C66
331
DCD
  5
FC5
331
396
  5
396
331
10A1
  5
109B
331
DB0
  5
DB9
331
385
  5
385
331
DB7
  5
DBD
331
399
  5
399
331
DC3
  5
DC9
331
E82
  5
109D
331
38C
  5
38C
331
DBE
  5
DC4
331
DCA
  5
E82
331
C7B
  5
C83
331
393
  5
393
331
C66
  5
C82
331
C82
  5
C84
331
DAD
  5
DB5
331
DC0
  5
DC6
331
389
  5
389
331
DBB
  5
DC1
331
DC7
  5
DCD
331
C63
  5
C7B
331
10E7
  5
C63
331
DCE
  5
1061
331
397
  5
397
331
ED4
  5
109F
331
37F
  5
37F
331
10A2
  5
109A
331
1102
  5
DB7
331
386
  5
386
331
39A
  5
39A
331
DB8
  5
DBE
331
DC4
  5
DCA
331
38D
  5
38D
331
DBF
  5
DC5
331
DCB
  5
EC1
331
C83
  5
DAC
331
ED1
  5
109E
331
383
  5
383
331
DB5
  5
DBB
  0
XRECORD
  5
11C3
102
{ACAD_REACTORS
330
11C2
102
}
330
11C2
100
AcDbXrecord
280
     1
 40
5721.0
  1
\A1;\U+2205500
  0
XRECORD
  5
11C9
102
{ACAD_REACTORS
330
11C8
102
}
330
11C8
100
AcDbXrecord
280
     1
 40
5721.0
  1
\A1;\U+2205500
  0
LAYOUT
  5
2D2
102
{ACAD_REACTORS
330
2D0
102
}
330
2D0
100
AcDbPlotSettings
  1

  2
EPSON LP-8000SX
  4

  6

 40
0.0
 41
0.0
 42
0.0
 43
0.0
 44
0.0
 45
0.0
 46
0.0
 47
0.0
 48
0.0
 49
0.0
140
0.0
141
0.0
142
1.0
143
1.0
 70
  1712
 72
     0
 73
     0
 74
     0
  7

 75
     0
147
1.0
 76
     0
 77
     2
 78
   300
148
0.0
149
0.0
100
AcDbLayout
  1
Model
 70
     1
 71
     0
 10
0.0
 20
0.0
 11
12.0
 21
9.0
 12
0.0
 22
0.0
 32
0.0
 14
0.0
 24
0.0
 34
0.0
 15
0.0
 25
0.0
 35
0.0
146
0.0
 13
0.0
 23
0.0
 33
0.0
 16
1.0
 26
0.0
 36
0.0
 17
0.0
 27
1.0
 37
0.0
 76
     0
330
18
331
EDE
  0
LAYOUT
  5
2D3
102
{ACAD_REACTORS
330
2D0
102
}
330
2D0
100
AcDbPlotSettings
  1

  2
EPSON LP-8000SX
  4

  6

 40
0.0
 41
0.0
 42
0.0
 43
0.0
 44
0.0
 45
0.0
 46
0.0
 47
0.0
 48
0.0
 49
0.0
140
0.0
141
0.0
142
1.0
143
1.0
 70
   688
 72
     0
 73
     0
 74
     5
  7

 75
    16
147
1.0
 76
     0
 77
     2
 78
   300
148
0.0
149
0.0
100
AcDbLayout
  1
ﾚｲｱｳﾄ1
 70
     1
 71
     1
 10
0.0
 20
0.0
 11
12.0
 21
9.0
 12
0.0
 22
0.0
 32
0.0
 14
1.000000000000000E+20
 24
1.000000000000000E+20
 34
1.000000000000000E+20
 15
-1.000000000000000E+20
 25
-1.000000000000000E+20
 35
-1.000000000000000E+20
146
0.0
 13
0.0
 23
0.0
 33
0.0
 16
1.0
 26
0.0
 36
0.0
 17
0.0
 27
1.0
 37
0.0
 76
     0
330
15
  0
MATERIAL
  5
EE9
102
{ACAD_XDICTIONARY
360
EEA
102
}
102
{ACAD_REACTORS
330
EE0
102
}
330
EE0
100
AcDbMaterial
  1
ByBlock
 72
     0
 43
0.0208333333333333
 43
0.0
 43
0.0
 43
0.0
 43
0.0
 43
0.0208333333333333
 43
0.0
 43
0.0
 43
0.0
 43
0.0
 43
1.0
 43
0.0
 43
0.0
 43
0.0
 43
0.0
 43
1.0
 77
     0
 47
0.0208333333333333
 47
0.0
 47
0.0
 47
0.0
 47
0.0
 47
0.0208333333333333
 47
0.0
 47
0.0
 47
0.0
 47
0.0
 47
1.0
 47
0.0
 47
0.0
 47
0.0
 47
0.0
 47
1.0
171
     0
 49
0.0208333333333333
 49
0.0
 49
0.0
 49
0.0
 49
0.0
 49
0.0208333333333333
 49
0.0
 49
0.0
 49
0.0
 49
0.0
 49
1.0
 49
0.0
 49
0.0
 49
0.0
 49
0.0
 49
1.0
175
     0
142
0.0208333333333333
142
0.0
142
0.0
142
0.0
142
0.0
142
0.0208333333333333
142
0.0
142
0.0
142
0.0
142
0.0
142
1.0
142
0.0
142
0.0
142
0.0
142
0.0
142
1.0
179
     0
144
0.0208333333333333
144
0.0
144
0.0
144
0.0
144
0.0
144
0.0208333333333333
144
0.0
144
0.0
144
0.0
144
0.0
144
1.0
144
0.0
144
0.0
144
0.0
144
0.0
144
1.0
147
0.0208333333333333
147
0.0
147
0.0
147
0.0
147
0.0
147
0.0208333333333333
147
0.0
147
0.0
147
0.0
147
0.0
147
1.0
147
0.0
147
0.0
147
0.0
147
0.0
147
1.0
  0
MATERIAL
  5
EE1
102
{ACAD_XDICTIONARY
360
EE2
102
}
102
{ACAD_REACTORS
330
EE0
102
}
330
EE0
100
AcDbMaterial
  1
ByLayer
 72
     0
 43
0.0208333333333333
 43
0.0
 43
0.0
 43
0.0
 43
0.0
 43
0.0208333333333333
 43
0.0
 43
0.0
 43
0.0
 43
0.0
 43
1.0
 43
0.0
 43
0.0
 43
0.0
 43
0.0
 43
1.0
 77
     0
 47
0.0208333333333333
 47
0.0
 47
0.0
 47
0.0
 47
0.0
 47
0.0208333333333333
 47
0.0
 47
0.0
 47
0.0
 47
0.0
 47
1.0
 47
0.0
 47
0.0
 47
0.0
 47
0.0
 47
1.0
171
     0
 49
0.0208333333333333
 49
0.0
 49
0.0
 49
0.0
 49
0.0
 49
0.0208333333333333
 49
0.0
 49
0.0
 49
0.0
 49
0.0
 49
1.0
 49
0.0
 49
0.0
 49
0.0
 49
0.0
 49
1.0
175
     0
142
0.0208333333333333
142
0.0
142
0.0
142
0.0
142
0.0
142
0.0208333333333333
142
0.0
142
0.0
142
0.0
142
0.0
142
1.0
142
0.0
142
0.0
142
0.0
142
0.0
142
1.0
179
     0
144
0.0208333333333333
144
0.0
144
0.0
144
0.0
144
0.0
144
0.0208333333333333
144
0.0
144
0.0
144
0.0
144
0.0
144
1.0
144
0.0
144
0.0
144
0.0
144
0.0
144
1.0
147
0.0208333333333333
147
0.0
147
0.0
147
0.0
147
0.0
147
0.0208333333333333
147
0.0
147
0.0
147
0.0
147
0.0
147
1.0
147
0.0
147
0.0
147
0.0
147
0.0
147
1.0
  0
MATERIAL
  5
EF1
102
{ACAD_XDICTIONARY
360
EF2
102
}
102
{ACAD_REACTORS
330
EE0
102
}
330
EE0
100
AcDbMaterial
  1
Global
 72
     0
 43
0.0208333333333333
 43
0.0
 43
0.0
 43
0.0
 43
0.0
 43
0.0208333333333333
 43
0.0
 43
0.0
 43
0.0
 43
0.0
 43
1.0
 43
0.0
 43
0.0
 43
0.0
 43
0.0
 43
1.0
 77
     0
 47
0.0208333333333333
 47
0.0
 47
0.0
 47
0.0
 47
0.0
 47
0.0208333333333333
 47
0.0
 47
0.0
 47
0.0
 47
0.0
 47
1.0
 47
0.0
 47
0.0
 47
0.0
 47
0.0
 47
1.0
171
     0
 49
0.0208333333333333
 49
0.0
 49
0.0
 49
0.0
 49
0.0
 49
0.0208333333333333
 49
0.0
 49
0.0
 49
0.0
 49
0.0
 49
1.0
 49
0.0
 49
0.0
 49
0.0
 49
0.0
 49
1.0
175
     0
142
0.0208333333333333
142
0.0
142
0.0
142
0.0
142
0.0
142
0.0208333333333333
142
0.0
142
0.0
142
0.0
142
0.0
142
1.0
142
0.0
142
0.0
142
0.0
142
0.0
142
1.0
179
     0
144
0.0208333333333333
144
0.0
144
0.0
144
0.0
144
0.0
144
0.0208333333333333
144
0.0
144
0.0
144
0.0
144
0.0
144
1.0
144
0.0
144
0.0
144
0.0
144
0.0
144
1.0
147
0.0208333333333333
147
0.0
147
0.0
147
0.0
147
0.0
147
0.0208333333333333
147
0.0
147
0.0
147
0.0
147
0.0
147
1.0
147
0.0
147
0.0
147
0.0
147
0.0
147
1.0
  0
MLEADERSTYLE
  5
F30
102
{ACAD_REACTORS
330
F2F
102
}
330
F2F
100
AcDbMLeaderStyle
170
     2
171
     1
172
     0
 90
        2
 40
0.0
 41
0.0
173
     1
 91
-1056964608
340
12
 92
       -2
290
     1
 42
0.09
291
     1
 43
0.36
  3
Standard
 44
0.18
300

342
10
174
     1
178
     6
175
     1
176
     0
 93
-1056964608
 45
0.18
292
     0
297
     0
 46
0.18
 94
-1056964608
 47
1.0
 49
1.0
140
1.0
293
     1
141
0.0
294
     1
177
     0
142
1.0
295
     0
296
     0
143
0.125
1001
ACAD_MLEADERVER
1070
     2
  0
MLINESTYLE
  5
1B
102
{ACAD_REACTORS
330
E
102
}
330
E
100
AcDbMlineStyle
  2
STANDARD
 70
     0
  3

 62
     0
 51
90.0
 52
90.0
 71
     2
 49
0.5
 62
   256
  6
BYLAYER
 49
-0.5
 62
   256
  6
BYLAYER
  0
ACDBPLACEHOLDER
  5
2CF
102
{ACAD_REACTORS
330
2CE
102
}
330
2CE
  0
SCALE
  5
F0E
102
{ACAD_REACTORS
330
F0D
102
}
330
F0D
100
AcDbScale
 70
     0
300
1:1
140
1.0
141
1.0
290
     1
  0
SCALE
  5
F0F
102
{ACAD_REACTORS
330
F0D
102
}
330
F0D
100
AcDbScale
 70
     0
300
1:2
140
1.0
141
2.0
290
     0
  0
SCALE
  5
F10
102
{ACAD_REACTORS
330
F0D
102
}
330
F0D
100
AcDbScale
 70
     0
300
1:4
140
1.0
141
4.0
290
     0
  0
SCALE
  5
F11
102
{ACAD_REACTORS
330
F0D
102
}
330
F0D
100
AcDbScale
 70
     0
300
1:5
140
1.0
141
5.0
290
     0
  0
SCALE
  5
F12
102
{ACAD_REACTORS
330
F0D
102
}
330
F0D
100
AcDbScale
 70
     0
300
1:8
140
1.0
141
8.0
290
     0
  0
SCALE
  5
F13
102
{ACAD_REACTORS
330
F0D
102
}
330
F0D
100
AcDbScale
 70
     0
300
1:10
140
1.0
141
10.0
290
     0
  0
SCALE
  5
F14
102
{ACAD_REACTORS
330
F0D
102
}
330
F0D
100
AcDbScale
 70
     0
300
1:16
140
1.0
141
16.0
290
     0
  0
SCALE
  5
F15
102
{ACAD_REACTORS
330
F0D
102
}
330
F0D
100
AcDbScale
 70
     0
300
1:20
140
1.0
141
20.0
290
     0
  0
SCALE
  5
F16
102
{ACAD_REACTORS
330
F0D
102
}
330
F0D
100
AcDbScale
 70
     0
300
1:30
140
1.0
141
30.0
290
     0
  0
SCALE
  5
F17
102
{ACAD_REACTORS
330
F0D
102
}
330
F0D
100
AcDbScale
 70
     0
300
1:40
140
1.0
141
40.0
290
     0
  0
SCALE
  5
F18
102
{ACAD_REACTORS
330
F0D
102
}
330
F0D
100
AcDbScale
 70
     0
300
1:50
140
1.0
141
50.0
290
     0
  0
SCALE
  5
F19
102
{ACAD_REACTORS
330
F0D
102
}
330
F0D
100
AcDbScale
 70
     0
300
1:100
140
1.0
141
100.0
290
     0
  0
SCALE
  5
F1A
102
{ACAD_REACTORS
330
F0D
102
}
330
F0D
100
AcDbScale
 70
     0
300
2:1
140
2.0
141
1.0
290
     0
  0
SCALE
  5
F1B
102
{ACAD_REACTORS
330
F0D
102
}
330
F0D
100
AcDbScale
 70
     0
300
4:1
140
4.0
141
1.0
290
     0
  0
SCALE
  5
F1C
102
{ACAD_REACTORS
330
F0D
102
}
330
F0D
100
AcDbScale
 70
     0
300
8:1
140
8.0
141
1.0
290
     0
  0
SCALE
  5
F1D
102
{ACAD_REACTORS
330
F0D
102
}
330
F0D
100
AcDbScale
 70
     0
300
10:1
140
10.0
141
1.0
290
     0
  0
SCALE
  5
F1E
102
{ACAD_REACTORS
330
F0D
102
}
330
F0D
100
AcDbScale
 70
     0
300
100:1
140
100.0
141
1.0
290
     0
  0
SCALE
  5
F1F
102
{ACAD_REACTORS
330
F0D
102
}
330
F0D
100
AcDbScale
 70
     0
300
1/128" = 1'-0"
140
0.0078125
141
12.0
290
     0
  0
SCALE
  5
F20
102
{ACAD_REACTORS
330
F0D
102
}
330
F0D
100
AcDbScale
 70
     0
300
1/64" = 1'-0"
140
0.015625
141
12.0
290
     0
  0
SCALE
  5
F21
102
{ACAD_REACTORS
330
F0D
102
}
330
F0D
100
AcDbScale
 70
     0
300
1/32" = 1'-0"
140
0.03125
141
12.0
290
     0
  0
SCALE
  5
F22
102
{ACAD_REACTORS
330
F0D
102
}
330
F0D
100
AcDbScale
 70
     0
300
1/16" = 1'-0"
140
0.0625
141
12.0
290
     0
  0
SCALE
  5
F23
102
{ACAD_REACTORS
330
F0D
102
}
330
F0D
100
AcDbScale
 70
     0
300
3/32" = 1'-0"
140
0.09375
141
12.0
290
     0
  0
SCALE
  5
F24
102
{ACAD_REACTORS
330
F0D
102
}
330
F0D
100
AcDbScale
 70
     0
300
1/8" = 1'-0"
140
0.125
141
12.0
290
     0
  0
SCALE
  5
F25
102
{ACAD_REACTORS
330
F0D
102
}
330
F0D
100
AcDbScale
 70
     0
300
3/16" = 1'-0"
140
0.1875
141
12.0
290
     0
  0
SCALE
  5
F26
102
{ACAD_REACTORS
330
F0D
102
}
330
F0D
100
AcDbScale
 70
     0
300
1/4" = 1'-0"
140
0.25
141
12.0
290
     0
  0
SCALE
  5
F27
102
{ACAD_REACTORS
330
F0D
102
}
330
F0D
100
AcDbScale
 70
     0
300
3/8" = 1'-0"
140
0.375
141
12.0
290
     0
  0
SCALE
  5
F28
102
{ACAD_REACTORS
330
F0D
102
}
330
F0D
100
AcDbScale
 70
     0
300
1/2" = 1'-0"
140
0.5
141
12.0
290
     0
  0
SCALE
  5
F29
102
{ACAD_REACTORS
330
F0D
102
}
330
F0D
100
AcDbScale
 70
     0
300
3/4" = 1'-0"
140
0.75
141
12.0
290
     0
  0
SCALE
  5
F2A
102
{ACAD_REACTORS
330
F0D
102
}
330
F0D
100
AcDbScale
 70
     0
300
1" = 1'-0"
140
1.0
141
12.0
290
     0
  0
SCALE
  5
F2B
102
{ACAD_REACTORS
330
F0D
102
}
330
F0D
100
AcDbScale
 70
     0
300
1-1/2" = 1'-0"
140
1.5
141
12.0
290
     0
  0
SCALE
  5
F2C
102
{ACAD_REACTORS
330
F0D
102
}
330
F0D
100
AcDbScale
 70
     0
300
3" = 1'-0"
140
3.0
141
12.0
290
     0
  0
SCALE
  5
F2D
102
{ACAD_REACTORS
330
F0D
102
}
330
F0D
100
AcDbScale
 70
     0
300
6" = 1'-0"
140
6.0
141
12.0
290
     0
  0
SCALE
  5
F2E
102
{ACAD_REACTORS
330
F0D
102
}
330
F0D
100
AcDbScale
 70
     0
300
1'-0" = 1'-0"
140
12.0
141
12.0
290
     0
  0
TABLESTYLE
  5
F0C
102
{ACAD_XDICTIONARY
360
F4C
102
}
102
{ACAD_REACTORS
330
F0B
102
}
330
F0B
100
AcDbTableStyle
  3
Standard
 70
     0
 71
     0
 40
0.06
 41
0.06
280
     0
281
     0
  7
STANDARD
140
0.18
170
     2
 62
     0
 63
     7
283
     0
274
    -2
284
     1
 64
     0
275
    -2
285
     1
 65
     0
276
    -2
286
     1
 66
     0
277
    -2
287
     1
 67
     0
278
    -2
288
     1
 68
     0
279
    -2
289
     1
 69
     0
  7
STANDARD
140
0.25
170
     5
 62
     0
 63
     7
283
     0
274
    -2
284
     1
 64
     0
275
    -2
285
     1
 65
     0
276
    -2
286
     1
 66
     0
277
    -2
287
     1
 67
     0
278
    -2
288
     1
 68
     0
279
    -2
289
     1
 69
     0
  7
STANDARD
140
0.18
170
     5
 62
     0
 63
     7
283
     0
274
    -2
284
     1
 64
     0
275
    -2
285
     1
 65
     0
276
    -2
286
     1
 66
     0
277
    -2
287
     1
 67
     0
278
    -2
288
     1
 68
     0
279
    -2
289
     1
 69
     0
  0
VISUALSTYLE
  5
EFF
102
{ACAD_REACTORS
330
EF9
102
}
330
EF9
100
AcDbVisualStyle
  2
2dWireframe
 70
     4
 71
     0
 72
     2
 73
     0
 90
        0
 40
-0.6
 41
-30.0
 62
     5
 63
     7
421
 16777215
 74
     1
 91
        4
 64
     7
 65
   257
 75
     1
175
     1
 42
1.0
 92
        0
 66
   257
 43
1.0
 76
     1
 77
     6
 78
     2
 67
     7
 79
     5
170
     0
171
     0
290
     0
174
     0
 93
        1
 44
0.0
173
     0
291
     0
 45
0.0
1001
ACAD
1000
AcDbSavedByObjectVersion
1070
     0
  0
VISUALSTYLE
  5
F01
102
{ACAD_REACTORS
330
EF9
102
}
330
EF9
100
AcDbVisualStyle
  2
3D Hidden
 70
     6
 71
     1
 72
     2
 73
     2
 90
        0
 40
-0.6
 41
-30.0
 62
     5
 63
     7
421
 16777215
 74
     2
 91
        2
 64
     7
 65
   257
 75
     2
175
     1
 42
40.0
 92
        0
 66
   257
 43
1.0
 76
     1
 77
     6
 78
     2
 67
     7
 79
     3
170
     0
171
     0
290
     0
174
     0
 93
        1
 44
0.0
173
     0
291
     0
 45
0.0
1001
ACAD
1000
AcDbSavedByObjectVersion
1070
     0
  0
VISUALSTYLE
  5
F00
102
{ACAD_REACTORS
330
EF9
102
}
330
EF9
100
AcDbVisualStyle
  2
3dWireframe
 70
     5
 71
     0
 72
     2
 73
     0
 90
        0
 40
-0.6
 41
-30.0
 62
     5
 63
     7
421
 16777215
 74
     1
 91
        4
 64
     7
 65
   257
 75
     1
175
     1
 42
1.0
 92
        0
 66
   257
 43
1.0
 76
     1
 77
     6
 78
     2
 67
     7
 79
     5
170
     0
171
     0
290
     0
174
     0
 93
        1
 44
0.0
173
     0
291
     0
 45
0.0
1001
ACAD
1000
AcDbSavedByObjectVersion
1070
     0
  0
VISUALSTYLE
  5
EFE
102
{ACAD_REACTORS
330
EF9
102
}
330
EF9
100
AcDbVisualStyle
  2
Basic
 70
     7
 71
     1
 72
     0
 73
     1
 90
        0
 40
-0.6
 41
-30.0
 62
     5
 63
     7
421
 16777215
 74
     0
 91
        4
 64
     7
 65
   257
 75
     1
175
     1
 42
1.0
 92
        8
 66
     7
 43
1.0
 76
     1
 77
     6
 78
     2
 67
     7
 79
     5
170
     0
171
     0
290
     0
174
     0
 93
        1
 44
0.0
173
     0
291
     1
 45
0.0
1001
ACAD
1000
AcDbSavedByObjectVersion
1070
     0
  0
VISUALSTYLE
  5
F05
102
{ACAD_REACTORS
330
EF9
102
}
330
EF9
100
AcDbVisualStyle
  2
Brighten
 70
    12
 71
     2
 72
     2
 73
     0
 90
        0
 40
-0.6
 41
-30.0
 62
     5
 63
     7
421
 16777215
 74
     1
 91
        4
 64
     7
 65
   257
 75
     1
175
     1
 42
1.0
 92
        8
 66
     7
 43
1.0
 76
     1
 77
     6
 78
     2
 67
     7
 79
     5
170
     0
171
     0
290
     0
174
     0
 93
        1
 44
50.0
173
     0
291
     1
 45
0.0
1001
ACAD
1000
AcDbSavedByObjectVersion
1070
     0
  0
VISUALSTYLE
  5
F09
102
{ACAD_REACTORS
330
EF9
102
}
330
EF9
100
AcDbVisualStyle
  2
ColorChange
 70
    16
 71
     2
 72
     2
 73
     3
 90
        0
 40
-0.6
 41
-30.0
 62
     5
 63
     8
421
  8421504
 74
     1
 91
        4
 64
     7
 65
   257
 75
     1
175
     1
 42
1.0
 92
        8
 66
     8
424
  8421504
 43
1.0
 76
     1
 77
     6
 78
     2
 67
     7
 79
     5
170
     0
171
     0
290
     0
174
     0
 93
        1
 44
0.0
173
     0
291
     1
 45
0.0
1001
ACAD
1000
AcDbSavedByObjectVersion
1070
     0
  0
VISUALSTYLE
  5
F02
102
{ACAD_REACTORS
330
EF9
102
}
330
EF9
100
AcDbVisualStyle
  2
Conceptual
 70
     9
 71
     3
 72
     2
 73
     0
 90
        0
 40
-0.6
 41
-30.0
 62
     5
 63
     7
421
 16777215
 74
     2
 91
        2
 64
     7
 65
   257
 75
     1
175
     1
 42
40.0
 92
        8
 66
     7
 43
1.0
 76
     1
 77
     6
 78
     2
 67
     7
 79
     3
170
     0
171
     0
290
     0
174
     0
 93
        1
 44
0.0
173
     0
291
     0
 45
0.0
1001
ACAD
1000
AcDbSavedByObjectVersion
1070
     0
  0
VISUALSTYLE
  5
F04
102
{ACAD_REACTORS
330
EF9
102
}
330
EF9
100
AcDbVisualStyle
  2
Dim
 70
    11
 71
     2
 72
     2
 73
     0
 90
        0
 40
-0.6
 41
-30.0
 62
     5
 63
     7
421
 16777215
 74
     1
 91
        4
 64
     7
 65
   257
 75
     1
175
     1
 42
1.0
 92
        8
 66
     7
 43
1.0
 76
     1
 77
     6
 78
     2
 67
     7
 79
     5
170
     0
171
     0
290
     0
174
     0
 93
        1
 44
-50.0
173
     0
291
     1
 45
0.0
1001
ACAD
1000
AcDbSavedByObjectVersion
1070
     0
  0
VISUALSTYLE
  5
F08
102
{ACAD_REACTORS
330
EF9
102
}
330
EF9
100
AcDbVisualStyle
  2
Facepattern
 70
    15
 71
     2
 72
     2
 73
     0
 90
        0
 40
-0.6
 41
-30.0
 62
     5
 63
     7
421
 16777215
 74
     1
 91
        4
 64
     7
 65
   257
 75
     1
175
     1
 42
1.0
 92
        8
 66
     7
 43
1.0
 76
     1
 77
     6
 78
     2
 67
     7
 79
     5
170
     0
171
     0
290
     0
174
     0
 93
        1
 44
0.0
173
     0
291
     1
 45
0.0
1001
ACAD
1000
AcDbSavedByObjectVersion
1070
     0
  0
VISUALSTYLE
  5
EFA
102
{ACAD_REACTORS
330
EF9
102
}
330
EF9
100
AcDbVisualStyle
  2
Flat
 70
     0
 71
     2
 72
     1
 73
     1
 90
        2
 40
-0.6
 41
30.0
 62
     5
 63
     7
421
 16777215
 74
     0
 91
        4
 64
     7
 65
   257
 75
     1
175
     1
 42
1.0
 92
        8
 66
     7
 43
1.0
 76
     1
 77
     6
 78
     2
 67
     7
 79
     5
170
     0
171
     0
290
     0
174
     0
 93
       13
 44
0.0
173
     0
291
     1
 45
0.0
1001
ACAD
1000
AcDbSavedByObjectVersion
1070
     0
  0
VISUALSTYLE
  5
EFB
102
{ACAD_REACTORS
330
EF9
102
}
330
EF9
100
AcDbVisualStyle
  2
FlatWithEdges
 70
     1
 71
     2
 72
     1
 73
     1
 90
        2
 40
-0.6
 41
30.0
 62
     5
 63
     7
421
 16777215
 74
     1
 91
        4
 64
     7
 65
   257
 75
     1
175
     1
 42
1.0
 92
        0
 66
   257
 43
1.0
 76
     1
 77
     6
 78
     2
 67
     7
 79
     5
170
     0
171
     0
290
     0
174
     0
 93
       13
 44
0.0
173
     0
291
     1
 45
0.0
1001
ACAD
1000
AcDbSavedByObjectVersion
1070
     0
  0
VISUALSTYLE
  5
EFC
102
{ACAD_REACTORS
330
EF9
102
}
330
EF9
100
AcDbVisualStyle
  2
Gouraud
 70
     2
 71
     2
 72
     2
 73
     1
 90
        2
 40
-0.6
 41
30.0
 62
     5
 63
     7
421
 16777215
 74
     0
 91
        4
 64
     7
 65
   257
 75
     1
175
     1
 42
1.0
 92
        0
 66
     7
 43
1.0
 76
     1
 77
     6
 78
     2
 67
     7
 79
     5
170
     0
171
     0
290
     0
174
     0
 93
       13
 44
0.0
173
     0
291
     1
 45
0.0
1001
ACAD
1000
AcDbSavedByObjectVersion
1070
     0
  0
VISUALSTYLE
  5
EFD
102
{ACAD_REACTORS
330
EF9
102
}
330
EF9
100
AcDbVisualStyle
  2
GouraudWithEdges
 70
     3
 71
     2
 72
     2
 73
     1
 90
        2
 40
-0.6
 41
30.0
 62
     5
 63
     7
421
 16777215
 74
     1
 91
        4
 64
     7
 65
   257
 75
     1
175
     1
 42
1.0
 92
        0
 66
   257
 43
1.0
 76
     1
 77
     6
 78
     2
 67
     7
 79
     5
170
     0
171
     0
290
     0
174
     0
 93
       13
 44
0.0
173
     0
291
     1
 45
0.0
1001
ACAD
1000
AcDbSavedByObjectVersion
1070
     0
  0
VISUALSTYLE
  5
F07
102
{ACAD_REACTORS
330
EF9
102
}
330
EF9
100
AcDbVisualStyle
  2
Linepattern
 70
    14
 71
     2
 72
     2
 73
     0
 90
        0
 40
-0.6
 41
-30.0
 62
     5
 63
     7
421
 16777215
 74
     1
 91
        4
 64
     7
 65
   257
 75
     7
175
     7
 42
1.0
 92
        8
 66
     7
 43
1.0
 76
     1
 77
     6
 78
     2
 67
     7
 79
     5
170
     0
171
     0
290
     0
174
     0
 93
        1
 44
0.0
173
     0
291
     1
 45
0.0
1001
ACAD
1000
AcDbSavedByObjectVersion
1070
     0
  0
VISUALSTYLE
  5
F03
102
{ACAD_REACTORS
330
EF9
102
}
330
EF9
100
AcDbVisualStyle
  2
Realistic
 70
     8
 71
     2
 72
     2
 73
     0
 90
        0
 40
-0.6
 41
-30.0
 62
     5
 63
     7
421
 16777215
 74
     1
 91
        0
 64
     7
 65
   257
 75
     1
175
     1
 42
1.0
 92
        8
 66
     8
424
  7895160
 43
1.0
 76
     1
 77
     6
 78
     2
 67
     7
 79
     5
170
     0
171
     0
290
     0
174
     0
 93
       13
 44
0.0
173
     0
291
     0
 45
0.0
1001
ACAD
1000
AcDbSavedByObjectVersion
1070
     0
  0
VISUALSTYLE
  5
F06
102
{ACAD_REACTORS
330
EF9
102
}
330
EF9
100
AcDbVisualStyle
  2
Thicken
 70
    13
 71
     2
 72
     2
 73
     0
 90
        0
 40
-0.6
 41
-30.0
 62
     5
 63
     7
421
 16777215
 74
     1
 91
        4
 64
     7
 65
   257
 75
     1
175
     1
 42
1.0
 92
       12
 66
     7
 43
1.0
 76
     1
 77
     6
 78
     2
 67
     7
 79
     5
170
     0
171
     0
290
     0
174
     0
 93
        1
 44
0.0
173
     0
291
     1
 45
0.0
1001
ACAD
1000
AcDbSavedByObjectVersion
1070
     0
  0
DICTIONARYVAR
  5
F40
102
{ACAD_REACTORS
330
2D8
102
}
330
2D8
100
DictionaryVariables
280
     0
  1
1:1
  0
DICTIONARYVAR
  5
F3F
102
{ACAD_REACTORS
330
2D8
102
}
330
2D8
100
DictionaryVariables
280
     0
  1
STANDARD
  0
DICTIONARYVAR
  5
F3E
102
{ACAD_REACTORS
330
2D8
102
}
330
2D8
100
DictionaryVariables
280
     0
  1
STANDARD
  0
DICTIONARYVAR
  5
F50
102
{ACAD_REACTORS
330
2D8
102
}
330
2D8
100
DictionaryVariables
280
     0
  1
0
  0
DICTIONARYVAR
  5
F4F
102
{ACAD_REACTORS
330
2D8
102
}
330
2D8
100
DictionaryVariables
280
     0
  1
0
  0
DICTIONARYVAR
  5
2D9
102
{ACAD_REACTORS
330
2D8
102
}
330
2D8
100
DictionaryVariables
280
     0
  1
96
  0
DICTIONARY
  5
EEA
330
EE9
100
AcDbDictionary
280
     1
281
     1
  3
ACAD_XREC_ROUNDTRIP
360
11C5
  3
BUMPTILE
360
EEC
  3
DIFFUSETILE
360
EEB
  3
OPACITYTILE
360
EEF
  3
REFLECTIONTILE
360
EEE
  3
REFRACTIONTILE
360
EF0
  3
SPECULARTILE
360
EED
  0
DICTIONARY
  5
EE2
330
EE1
100
AcDbDictionary
280
     1
281
     1
  3
ACAD_XREC_ROUNDTRIP
360
11C4
  3
BUMPTILE
360
EE4
  3
DIFFUSETILE
360
EE3
  3
OPACITYTILE
360
EE7
  3
REFLECTIONTILE
360
EE6
  3
REFRACTIONTILE
360
EE8
  3
SPECULARTILE
360
EE5
  0
DICTIONARY
  5
EF2
330
EF1
100
AcDbDictionary
280
     1
281
     1
  3
ACAD_XREC_ROUNDTRIP
360
11C6
  3
BUMPTILE
360
EF4
  3
DIFFUSETILE
360
EF3
  3
OPACITYTILE
360
EF7
  3
REFLECTIONTILE
360
EF6
  3
REFRACTIONTILE
360
EF8
  3
SPECULARTILE
360
EF5
  0
DICTIONARY
  5
F4C
330
F0C
100
AcDbDictionary
280
     1
281
     1
  3
ACAD_ROUNDTRIP_2008_TABLESTYLE_CELLSTYLEMAP
360
11C1
  3
ACAD_XREC_ROUNDTRIP
360
11C7
  0
XRECORD
  5
11C5
102
{ACAD_REACTORS
330
EEA
102
}
330
EEA
100
AcDbXrecord
280
     1
102
MATERIAL
148
0.0
149
0.0
149
0.0
 93
        0
 94
      127
282
     0
 72
     0
 77
     0
171
     0
175
     0
179
     0
273
     0
  0
XRECORD
  5
EEC
102
{ACAD_REACTORS
330
EEA
102
}
330
EEA
100
AcDbXrecord
280
     1
270
     1
271
     1
  0
XRECORD
  5
EEB
102
{ACAD_REACTORS
330
EEA
102
}
330
EEA
100
AcDbXrecord
280
     1
270
     1
271
     1
  0
XRECORD
  5
EEF
102
{ACAD_REACTORS
330
EEA
102
}
330
EEA
100
AcDbXrecord
280
     1
270
     1
271
     1
  0
XRECORD
  5
EEE
102
{ACAD_REACTORS
330
EEA
102
}
330
EEA
100
AcDbXrecord
280
     1
270
     1
271
     1
  0
XRECORD
  5
EF0
102
{ACAD_REACTORS
330
EEA
102
}
330
EEA
100
AcDbXrecord
280
     1
270
     1
271
     1
  0
XRECORD
  5
EED
102
{ACAD_REACTORS
330
EEA
102
}
330
EEA
100
AcDbXrecord
280
     1
270
     1
271
     1
  0
XRECORD
  5
11C4
102
{ACAD_REACTORS
330
EE2
102
}
330
EE2
100
AcDbXrecord
280
     1
102
MATERIAL
148
0.0
149
0.0
149
0.0
 93
        0
 94
      127
282
     0
 72
     0
 77
     0
171
     0
175
     0
179
     0
273
     0
  0
XRECORD
  5
EE4
102
{ACAD_REACTORS
330
EE2
102
}
330
EE2
100
AcDbXrecord
280
     1
270
     1
271
     1
  0
XRECORD
  5
EE3
102
{ACAD_REACTORS
330
EE2
102
}
330
EE2
100
AcDbXrecord
280
     1
270
     1
271
     1
  0
XRECORD
  5
EE7
102
{ACAD_REACTORS
330
EE2
102
}
330
EE2
100
AcDbXrecord
280
     1
270
     1
271
     1
  0
XRECORD
  5
EE6
102
{ACAD_REACTORS
330
EE2
102
}
330
EE2
100
AcDbXrecord
280
     1
270
     1
271
     1
  0
XRECORD
  5
EE8
102
{ACAD_REACTORS
330
EE2
102
}
330
EE2
100
AcDbXrecord
280
     1
270
     1
271
     1
  0
XRECORD
  5
EE5
102
{ACAD_REACTORS
330
EE2
102
}
330
EE2
100
AcDbXrecord
280
     1
270
     1
271
     1
  0
XRECORD
  5
11C6
102
{ACAD_REACTORS
330
EF2
102
}
330
EF2
100
AcDbXrecord
280
     1
102
MATERIAL
148
0.0
149
0.0
149
0.0
 93
        0
 94
      127
282
     0
 72
     0
 77
     0
171
     0
175
     0
179
     0
273
     0
  0
XRECORD
  5
EF4
102
{ACAD_REACTORS
330
EF2
102
}
330
EF2
100
AcDbXrecord
280
     1
270
     1
271
     1
  0
XRECORD
  5
EF3
102
{ACAD_REACTORS
330
EF2
102
}
330
EF2
100
AcDbXrecord
280
     1
270
     1
271
     1
  0
XRECORD
  5
EF7
102
{ACAD_REACTORS
330
EF2
102
}
330
EF2
100
AcDbXrecord
280
     1
270
     1
271
     1
  0
XRECORD
  5
EF6
102
{ACAD_REACTORS
330
EF2
102
}
330
EF2
100
AcDbXrecord
280
     1
270
     1
271
     1
  0
XRECORD
  5
EF8
102
{ACAD_REACTORS
330
EF2
102
}
330
EF2
100
AcDbXrecord
280
     1
270
     1
271
     1
  0
XRECORD
  5
EF5
102
{ACAD_REACTORS
330
EF2
102
}
330
EF2
100
AcDbXrecord
280
     1
270
     1
271
     1
  0
CELLSTYLEMAP
  5
11C1
102
{ACAD_REACTORS
330
F4C
102
}
330
F4C
100
AcDbCellStyleMap
 90
        3
300
CELLSTYLE
  1
TABLEFORMAT_BEGIN
 90
        5
170
     1
 91
        0
 92
    32768
 62
   257
 93
        1
300
CONTENTFORMAT
  1
CONTENTFORMAT_BEGIN
 90
        0
 91
        0
 92
      512
 93
        0
300

 40
0.0
140
1.0
 94
        5
 62
     0
340
10
144
0.25
309
CONTENTFORMAT_END
171
     0
 94
        0
309
TABLEFORMAT_END
  1
CELLSTYLE_BEGIN
 90
        1
 91
        1
300
_TITLE
309
CELLSTYLE_END
300
CELLSTYLE
  1
TABLEFORMAT_BEGIN
 90
        5
170
     1
 91
        0
 92
        0
 62
   257
 93
        1
300
CONTENTFORMAT
  1
CONTENTFORMAT_BEGIN
 90
        0
 91
        0
 92
      512
 93
        0
300

 40
0.0
140
1.0
 94
        5
 62
     0
340
10
144
0.18
309
CONTENTFORMAT_END
171
     0
 94
        0
309
TABLEFORMAT_END
  1
CELLSTYLE_BEGIN
 90
        2
 91
        1
300
_HEADER
309
CELLSTYLE_END
300
CELLSTYLE
  1
TABLEFORMAT_BEGIN
 90
        5
170
     1
 91
        0
 92
        0
 62
   257
 93
        1
300
CONTENTFORMAT
  1
CONTENTFORMAT_BEGIN
 90
        0
 91
        0
 92
      512
 93
        0
300

 40
0.0
140
1.0
 94
        2
 62
     0
340
10
144
0.18
309
CONTENTFORMAT_END
171
     0
 94
        0
309
TABLEFORMAT_END
  1
CELLSTYLE_BEGIN
 90
        3
 91
        2
300
_DATA
309
CELLSTYLE_END
  0
XRECORD
  5
11C7
102
{ACAD_REACTORS
330
F4C
102
}
330
F4C
100
AcDbXrecord
280
     1
102
ACAD_ROUNDTRIP_PRE2007_TABLESTYLE
 90
      512
 91
        0
  1

 92
      512
 93
        0
  2

 94
      512
 95
        0
  3

  0
ENDSEC
  0
EOF
