  0
SECTION
  2
HEADER
  9
$ACADVER
  1
AC1018
  9
$ACADMAINTVER
 70
   104
  9
$DWGCODEPAGE
  3
ANSI_932
  9
$LASTSAVEDBY
  1
poracon
  9
$INSBASE
 10
0.0
 20
0.0
 30
0.0
  9
$EXTMIN
 10
191.3555387148917
 20
-1432.783913955853
 30
-0.0015258207003583
  9
$EXTMAX
 10
5231.940157541732
 20
2131.54512775544
 30
0.0000000349246037
  9
$LIMMIN
 10
0.0
 20
0.0
  9
$LIMMAX
 10
2970.0
 20
2100.0
  9
$ORTHOMODE
 70
     0
  9
$REGENMODE
 70
     1
  9
$FILLMODE
 70
     1
  9
$QTEXTMODE
 70
     0
  9
$MIRRTEXT
 70
     1
  9
$LTSCALE
 40
60.0
  9
$ATTMODE
 70
     1
  9
$TEXTSIZE
 40
50.0
  9
$TRACEWID
 40
0.05
  9
$TEXTSTYLE
  7
BIGFONT
  9
$CLAYER
  8
0
  9
$CELTYPE
  6
BYLAYER
  9
$CECOLOR
 62
   256
  9
$CELTSCALE
 40
1.0
  9
$DISPSILH
 70
     0
  9
$DIMSCALE
 40
10.0
  9
$DIMASZ
 40
2.5
  9
$DIMEXO
 40
1.0
  9
$DIMDLI
 40
10.0
  9
$DIMRND
 40
0.0
  9
$DIMDLE
 40
0.0
  9
$DIMEXE
 40
1.0
  9
$DIMTP
 40
0.0
  9
$DIMTM
 40
0.0
  9
$DIMTXT
 40
4.5
  9
$DIMCEN
 40
0.0
  9
$DIMTSZ
 40
0.0
  9
$DIMTOL
 70
     0
  9
$DIMLIM
 70
     0
  9
$DIMTIH
 70
     0
  9
$DIMTOH
 70
     0
  9
$DIMSE1
 70
     0
  9
$DIMSE2
 70
     0
  9
$DIMTAD
 70
     1
  9
$DIMZIN
 70
     0
  9
$DIMBLK
  1

  9
$DIMASO
 70
     1
  9
$DIMSHO
 70
     1
  9
$DIMPOST
  1

  9
$DIMAPOST
  1

  9
$DIMALT
 70
     0
  9
$DIMALTD
 70
     2
  9
$DIMALTF
 40
25.4
  9
$DIMLFAC
 40
1.0
  9
$DIMTOFL
 70
     0
  9
$DIMTVP
 40
0.0
  9
$DIMTIX
 70
     0
  9
$DIMSOXD
 70
     0
  9
$DIMSAH
 70
     1
  9
$DIMBLK1
  1
ARROW
  9
$DIMBLK2
  1
ARROW
  9
$DIMSTYLE
  2
DIA1
  9
$DIMCLRD
 70
     0
  9
$DIMCLRE
 70
     0
  9
$DIMCLRT
 70
     0
  9
$DIMTFAC
 40
1.0
  9
$DIMGAP
 40
1.0
  9
$DIMJUST
 70
     0
  9
$DIMSD1
 70
     0
  9
$DIMSD2
 70
     0
  9
$DIMTOLJ
 70
     1
  9
$DIMTZIN
 70
     0
  9
$DIMALTZ
 70
     0
  9
$DIMALTTZ
 70
     0
  9
$DIMUPT
 70
     0
  9
$DIMDEC
 70
     0
  9
$DIMTDEC
 70
     0
  9
$DIMALTU
 70
     2
  9
$DIMALTTD
 70
     2
  9
$DIMTXSTY
  7
BIGFONT
  9
$DIMAUNIT
 70
     0
  9
$DIMADEC
 70
     0
  9
$DIMALTRND
 40
0.0
  9
$DIMAZIN
 70
     0
  9
$DIMDSEP
 70
    46
  9
$DIMATFIT
 70
     3
  9
$DIMFRAC
 70
     0
  9
$DIMLDRBLK
  1
ARROW
  9
$DIMLUNIT
 70
     2
  9
$DIMLWD
 70
    -2
  9
$DIMLWE
 70
    -2
  9
$DIMTMOVE
 70
     0
  9
$LUNITS
 70
     2
  9
$LUPREC
 70
     1
  9
$SKETCHINC
 40
0.1
  9
$FILLETRAD
 40
0.0
  9
$AUNITS
 70
     1
  9
$AUPREC
 70
     2
  9
$MENU
  1
MASTERS
  9
$ELEVATION
 40
0.0
  9
$PELEVATION
 40
0.0
  9
$THICKNESS
 40
0.0
  9
$LIMCHECK
 70
     0
  9
$CHAMFERA
 40
0.0
  9
$CHAMFERB
 40
0.0
  9
$CHAMFERC
 40
0.0
  9
$CHAMFERD
 40
0.0
  9
$SKPOLY
 70
     0
  9
$TDCREATE
 40
2449337.661539352
  9
$TDUCREATE
 40
2449337.286539352
  9
$TDUPDATE
 40
2456937.480559722
  9
$TDUUPDATE
 40
2456937.105559722
  9
$TDINDWG
 40
0.1384237616
  9
$TDUSRTIMER
 40
0.1384237616
  9
$USRTIMER
 70
     1
  9
$ANGBASE
 50
0.0
  9
$ANGDIR
 70
     0
  9
$PDMODE
 70
     0
  9
$PDSIZE
 40
0.0
  9
$PLINEWID
 40
0.0
  9
$SPLFRAME
 70
     0
  9
$SPLINETYPE
 70
     6
  9
$SPLINESEGS
 70
     8
  9
$HANDSEED
  5
1387
  9
$SURFTAB1
 70
     6
  9
$SURFTAB2
 70
     6
  9
$SURFTYPE
 70
     6
  9
$SURFU
 70
     6
  9
$SURFV
 70
     6
  9
$UCSBASE
  2

  9
$UCSNAME
  2

  9
$UCSORG
 10
0.0
 20
0.0
 30
0.0
  9
$UCSXDIR
 10
1.0
 20
0.0
 30
0.0
  9
$UCSYDIR
 10
0.0
 20
1.0
 30
0.0
  9
$UCSORTHOREF
  2

  9
$UCSORTHOVIEW
 70
     0
  9
$UCSORGTOP
 10
0.0
 20
0.0
 30
0.0
  9
$UCSORGBOTTOM
 10
0.0
 20
0.0
 30
0.0
  9
$UCSORGLEFT
 10
0.0
 20
0.0
 30
0.0
  9
$UCSORGRIGHT
 10
0.0
 20
0.0
 30
0.0
  9
$UCSORGFRONT
 10
0.0
 20
0.0
 30
0.0
  9
$UCSORGBACK
 10
0.0
 20
0.0
 30
0.0
  9
$PUCSBASE
  2

  9
$PUCSNAME
  2

  9
$PUCSORG
 10
0.0
 20
0.0
 30
0.0
  9
$PUCSXDIR
 10
1.0
 20
0.0
 30
0.0
  9
$PUCSYDIR
 10
0.0
 20
1.0
 30
0.0
  9
$PUCSORTHOREF
  2

  9
$PUCSORTHOVIEW
 70
     0
  9
$PUCSORGTOP
 10
0.0
 20
0.0
 30
0.0
  9
$PUCSORGBOTTOM
 10
0.0
 20
0.0
 30
0.0
  9
$PUCSORGLEFT
 10
0.0
 20
0.0
 30
0.0
  9
$PUCSORGRIGHT
 10
0.0
 20
0.0
 30
0.0
  9
$PUCSORGFRONT
 10
0.0
 20
0.0
 30
0.0
  9
$PUCSORGBACK
 10
0.0
 20
0.0
 30
0.0
  9
$USERI1
 70
     0
  9
$USERI2
 70
     0
  9
$USERI3
 70
     0
  9
$USERI4
 70
     0
  9
$USERI5
 70
     0
  9
$USERR1
 40
0.0
  9
$USERR2
 40
0.0
  9
$USERR3
 40
0.0
  9
$USERR4
 40
0.0
  9
$USERR5
 40
0.0
  9
$WORLDVIEW
 70
     1
  9
$SHADEDGE
 70
     3
  9
$SHADEDIF
 70
    70
  9
$TILEMODE
 70
     1
  9
$MAXACTVP
 70
    16
  9
$PINSBASE
 10
0.0
 20
0.0
 30
0.0
  9
$PLIMCHECK
 70
     0
  9
$PEXTMIN
 10
1.000000000000000E+20
 20
1.000000000000000E+20
 30
1.000000000000000E+20
  9
$PEXTMAX
 10
-1.000000000000000E+20
 20
-1.000000000000000E+20
 30
-1.000000000000000E+20
  9
$PLIMMIN
 10
0.0
 20
0.0
  9
$PLIMMAX
 10
12.0
 20
9.0
  9
$UNITMODE
 70
     0
  9
$VISRETAIN
 70
     0
  9
$PLINEGEN
 70
     0
  9
$PSLTSCALE
 70
     1
  9
$TREEDEPTH
 70
  3020
  9
$CMLSTYLE
  2
STANDARD
  9
$CMLJUST
 70
     0
  9
$CMLSCALE
 40
1.0
  9
$PROXYGRAPHICS
 70
     1
  9
$MEASUREMENT
 70
     0
  9
$CELWEIGHT
370
    -1
  9
$ENDCAPS
280
     0
  9
$JOINSTYLE
280
     0
  9
$LWDISPLAY
290
     0
  9
$INSUNITS
 70
     0
  9
$HYPERLINKBASE
  1

  9
$STYLESHEET
  1

  9
$XEDIT
290
     1
  9
$CEPSNTYPE
380
     0
  9
$PSTYLEMODE
290
     1
  9
$FINGERPRINTGUID
  2
{241947D8-10E5-11D6-BA8D-8D48D945A249}
  9
$VERSIONGUID
  2
{2C76EF8F-8C98-4893-84A7-F6682289051B}
  9
$EXTNAMES
290
     1
  9
$PSVPSCALE
 40
0.0
  9
$OLESTARTUP
290
     0
  9
$SORTENTS
280
    96
  9
$INDEXCTL
280
     0
  9
$HIDETEXT
280
     0
  9
$XCLIPFRAME
290
     0
  9
$HALOGAP
280
     0
  9
$OBSCOLOR
 70
   257
  9
$OBSLTYPE
280
     0
  9
$INTERSECTIONDISPLAY
280
     0
  9
$INTERSECTIONCOLOR
 70
   257
  9
$DIMASSOC
280
     1
  9
$PROJECTNAME
  1

  0
ENDSEC
  0
SECTION
  2
CLASSES
  0
CLASS
  1
ACDBDICTIONARYWDFLT
  2
AcDbDictionaryWithDefault
  3
ObjectDBX Classes
 90
        0
 91
        1
280
     0
281
     0
  0
CLASS
  1
DICTIONARYVAR
  2
AcDbDictionaryVar
  3
ObjectDBX Classes
 90
        0
 91
        6
280
     0
281
     0
  0
CLASS
  1
MATERIAL
  2
AcDbMaterial
  3
ObjectDBX Classes
 90
     1153
 91
        3
280
     0
281
     0
  0
CLASS
  1
VISUALSTYLE
  2
AcDbVisualStyle
  3
ObjectDBX Classes
 90
     4095
 91
       16
280
     0
281
     0
  0
CLASS
  1
TABLESTYLE
  2
AcDbTableStyle
  3
ObjectDBX Classes
 90
     4095
 91
        1
280
     0
281
     0
  0
CLASS
  1
SCALE
  2
AcDbScale
  3
ObjectDBX Classes
 90
     1153
 91
       33
280
     0
281
     0
  0
CLASS
  1
MLEADERSTYLE
  2
AcDbMLeaderStyle
  3
ACDB_MLEADERSTYLE_CLASS
 90
     4095
 91
        1
280
     0
281
     0
  0
CLASS
  1
CELLSTYLEMAP
  2
AcDbCellStyleMap
  3
ObjectDBX Classes
 90
     1152
 91
        3
280
     0
281
     0
  0
CLASS
  1
SORTENTSTABLE
  2
AcDbSortentsTable
  3
ObjectDBX Classes
 90
        0
 91
        2
280
     0
281
     0
  0
ENDSEC
  0
SECTION
  2
TABLES
  0
TABLE
  2
VPORT
  5
8
330
0
100
AcDbSymbolTable
 70
     1
  0
VPORT
  5
107C
330
8
100
AcDbSymbolTableRecord
100
AcDbViewportTableRecord
  2
*Active
 70
     0
 10
0.0
 20
0.0
 11
1.0
 21
1.0
 12
2615.970078770866
 22
349.3806068997933
 13
0.0
 23
0.0
 14
1.0
 24
1.0
 15
0.0
 25
0.0
 16
0.0
 26
0.0
 36
1.0
 17
0.0
 27
0.0
 37
0.0
 40
3592.654835420256
 41
1.669761273209549
 42
50.0
 43
0.0
 44
0.0
 50
0.0
 51
0.0
 71
     0
 72
   100
 73
     1
 74
     1
 75
     0
 76
     0
 77
     0
 78
     0
281
     0
 65
     1
110
0.0
120
0.0
130
0.0
111
1.0
121
0.0
131
0.0
112
0.0
122
1.0
132
0.0
 79
     0
146
0.0
  0
ENDTAB
  0
TABLE
  2
LTYPE
  5
5
330
0
100
AcDbSymbolTable
 70
    26
  0
LTYPE
  5
12
330
5
100
AcDbSymbolTableRecord
100
AcDbLinetypeTableRecord
  2
BYBLOCK
 70
     0
  3

 72
    65
 73
     0
 40
0.0
  0
LTYPE
  5
13
330
5
100
AcDbSymbolTableRecord
100
AcDbLinetypeTableRecord
  2
BYLAYER
 70
     0
  3

 72
    65
 73
     0
 40
0.0
  0
LTYPE
  5
14
330
5
100
AcDbSymbolTableRecord
100
AcDbLinetypeTableRecord
  2
CONTINUOUS
 70
     0
  3
Solid line
 72
    65
 73
     0
 40
0.0
  0
LTYPE
  5
2E
330
5
100
AcDbSymbolTableRecord
100
AcDbLinetypeTableRecord
  2
BORDER
 70
     0
  3
__ __ . __ __ . __ __ . __ __ . __ __ . __ __ .
 72
    65
 73
     6
 40
1.75
 49
0.5
 74
     0
 49
-0.25
 74
     0
 49
0.5
 74
     0
 49
-0.25
 74
     0
 49
0.0
 74
     0
 49
-0.25
 74
     0
  0
LTYPE
  5
2F
330
5
100
AcDbSymbolTableRecord
100
AcDbLinetypeTableRecord
  2
BORDER2
 70
     0
  3
__.__.__.__.__.__.__.__.__.__.__.__.__.__.__.__
 72
    65
 73
     6
 40
0.875
 49
0.25
 74
     0
 49
-0.125
 74
     0
 49
0.25
 74
     0
 49
-0.125
 74
     0
 49
0.0
 74
     0
 49
-0.125
 74
     0
  0
LTYPE
  5
30
330
5
100
AcDbSymbolTableRecord
100
AcDbLinetypeTableRecord
  2
BORDERX2
 70
     0
  3
____  ____  .  ____  ____  .  ____  ____  .  __
 72
    65
 73
     6
 40
3.5
 49
1.0
 74
     0
 49
-0.5
 74
     0
 49
1.0
 74
     0
 49
-0.5
 74
     0
 49
0.0
 74
     0
 49
-0.5
 74
     0
  0
LTYPE
  5
31
330
5
100
AcDbSymbolTableRecord
100
AcDbLinetypeTableRecord
  2
CENTER
 70
     0
  3
____ _ ____ _ ____ _ ____ _ ____ _ ____ _ ____ 
 72
    65
 73
     4
 40
2.0
 49
1.25
 74
     0
 49
-0.25
 74
     0
 49
0.25
 74
     0
 49
-0.25
 74
     0
  0
LTYPE
  5
32
330
5
100
AcDbSymbolTableRecord
100
AcDbLinetypeTableRecord
  2
CENTER2
 70
     0
  3
___ _ ___ _ ___ _ ___ _ ___ _ ___ _ ___ _ ___ _
 72
    65
 73
     4
 40
1.125
 49
0.75
 74
     0
 49
-0.125
 74
     0
 49
0.125
 74
     0
 49
-0.125
 74
     0
  0
LTYPE
  5
33
330
5
100
AcDbSymbolTableRecord
100
AcDbLinetypeTableRecord
  2
CENTERX2
 70
     0
  3
________  __  ________  __  ________  __  _____
 72
    65
 73
     4
 40
4.0
 49
2.5
 74
     0
 49
-0.5
 74
     0
 49
0.5
 74
     0
 49
-0.5
 74
     0
  0
LTYPE
  5
34
330
5
100
AcDbSymbolTableRecord
100
AcDbLinetypeTableRecord
  2
DASHDOT
 70
     0
  3
__ . __ . __ . __ . __ . __ . __ . __ . __ . __
 72
    65
 73
     4
 40
1.0
 49
0.5
 74
     0
 49
-0.25
 74
     0
 49
0.0
 74
     0
 49
-0.25
 74
     0
  0
LTYPE
  5
35
330
5
100
AcDbSymbolTableRecord
100
AcDbLinetypeTableRecord
  2
DASHDOT2
 70
     0
  3
_._._._._._._._._._._._._._._._._._._._._._._._
 72
    65
 73
     4
 40
0.5
 49
0.25
 74
     0
 49
-0.125
 74
     0
 49
0.0
 74
     0
 49
-0.125
 74
     0
  0
LTYPE
  5
36
330
5
100
AcDbSymbolTableRecord
100
AcDbLinetypeTableRecord
  2
DASHDOTX2
 70
     0
  3
____  .  ____  .  ____  .  ____  .  ____  .  __
 72
    65
 73
     4
 40
2.0
 49
1.0
 74
     0
 49
-0.5
 74
     0
 49
0.0
 74
     0
 49
-0.5
 74
     0
  0
LTYPE
  5
37
330
5
100
AcDbSymbolTableRecord
100
AcDbLinetypeTableRecord
  2
DASHED
 70
     0
  3
__ __ __ __ __ __ __ __ __ __ __ __ __ __ __ __
 72
    65
 73
     2
 40
0.75
 49
0.5
 74
     0
 49
-0.25
 74
     0
  0
LTYPE
  5
38
330
5
100
AcDbSymbolTableRecord
100
AcDbLinetypeTableRecord
  2
DASHED2
 70
     0
  3
_ _ _ _ _ _ _ _ _ _ _ _ _ _ _ _ _ _ _ _ _ _ _ _
 72
    65
 73
     2
 40
0.375
 49
0.25
 74
     0
 49
-0.125
 74
     0
  0
LTYPE
  5
39
330
5
100
AcDbSymbolTableRecord
100
AcDbLinetypeTableRecord
  2
DASHEDX2
 70
     0
  3
____  ____  ____  ____  ____  ____  ____  ____ 
 72
    65
 73
     2
 40
1.5
 49
1.0
 74
     0
 49
-0.5
 74
     0
  0
LTYPE
  5
3A
330
5
100
AcDbSymbolTableRecord
100
AcDbLinetypeTableRecord
  2
DIVIDE
 70
     0
  3
____ . . ____ . . ____ . . ____ . . ____ . . __
 72
    65
 73
     6
 40
1.25
 49
0.5
 74
     0
 49
-0.25
 74
     0
 49
0.0
 74
     0
 49
-0.25
 74
     0
 49
0.0
 74
     0
 49
-0.25
 74
     0
  0
LTYPE
  5
3B
330
5
100
AcDbSymbolTableRecord
100
AcDbLinetypeTableRecord
  2
DIVIDE2
 70
     0
  3
__..__..__..__..__..__..__..__..__..__..__..__.
 72
    65
 73
     6
 40
0.625
 49
0.25
 74
     0
 49
-0.125
 74
     0
 49
0.0
 74
     0
 49
-0.125
 74
     0
 49
0.0
 74
     0
 49
-0.125
 74
     0
  0
LTYPE
  5
3C
330
5
100
AcDbSymbolTableRecord
100
AcDbLinetypeTableRecord
  2
DIVIDEX2
 70
     0
  3
________  .  .  ________  .  .  ________  .  . 
 72
    65
 73
     6
 40
2.5
 49
1.0
 74
     0
 49
-0.5
 74
     0
 49
0.0
 74
     0
 49
-0.5
 74
     0
 49
0.0
 74
     0
 49
-0.5
 74
     0
  0
LTYPE
  5
3D
330
5
100
AcDbSymbolTableRecord
100
AcDbLinetypeTableRecord
  2
DOT
 70
     0
  3
. . . . . . . . . . . . . . . . . . . . . . . .
 72
    65
 73
     2
 40
0.25
 49
0.0
 74
     0
 49
-0.25
 74
     0
  0
LTYPE
  5
3E
330
5
100
AcDbSymbolTableRecord
100
AcDbLinetypeTableRecord
  2
DOT2
 70
     0
  3
...............................................
 72
    65
 73
     2
 40
0.125
 49
0.0
 74
     0
 49
-0.125
 74
     0
  0
LTYPE
  5
3F
330
5
100
AcDbSymbolTableRecord
100
AcDbLinetypeTableRecord
  2
DOTX2
 70
     0
  3
.  .  .  .  .  .  .  .  .  .  .  .  .  .  .  . 
 72
    65
 73
     2
 40
0.5
 49
0.0
 74
     0
 49
-0.5
 74
     0
  0
LTYPE
  5
40
330
5
100
AcDbSymbolTableRecord
100
AcDbLinetypeTableRecord
  2
HIDDEN
 70
     0
  3
__ __ __ __ __ __ __ __ __ __ __ __ __ __ __ __
 72
    65
 73
     2
 40
0.375
 49
0.25
 74
     0
 49
-0.125
 74
     0
  0
LTYPE
  5
41
330
5
100
AcDbSymbolTableRecord
100
AcDbLinetypeTableRecord
  2
HIDDEN2
 70
     0
  3
_ _ _ _ _ _ _ _ _ _ _ _ _ _ _ _ _ _ _ _ _ _ _ _
 72
    65
 73
     2
 40
0.1875
 49
0.125
 74
     0
 49
-0.0625
 74
     0
  0
LTYPE
  5
42
330
5
100
AcDbSymbolTableRecord
100
AcDbLinetypeTableRecord
  2
HIDDENX2
 70
     0
  3
____ ____ ____ ____ ____ ____ ____ ____ ____ __
 72
    65
 73
     2
 40
0.75
 49
0.5
 74
     0
 49
-0.25
 74
     0
  0
LTYPE
  5
43
330
5
100
AcDbSymbolTableRecord
100
AcDbLinetypeTableRecord
  2
PHANTOM
 70
     0
  3
______  __  __  ______  __  __  ______  __  __ 
 72
    65
 73
     6
 40
2.5
 49
1.25
 74
     0
 49
-0.25
 74
     0
 49
0.25
 74
     0
 49
-0.25
 74
     0
 49
0.25
 74
     0
 49
-0.25
 74
     0
  0
LTYPE
  5
44
330
5
100
AcDbSymbolTableRecord
100
AcDbLinetypeTableRecord
  2
PHANTOM2
 70
     0
  3
___ _ _ ___ _ _ ___ _ _ ___ _ _ ___ _ _ ___ _ _
 72
    65
 73
     6
 40
1.25
 49
0.625
 74
     0
 49
-0.125
 74
     0
 49
0.125
 74
     0
 49
-0.125
 74
     0
 49
0.125
 74
     0
 49
-0.125
 74
     0
  0
LTYPE
  5
45
330
5
100
AcDbSymbolTableRecord
100
AcDbLinetypeTableRecord
  2
PHANTOMX2
 70
     0
  3
____________    ____    ____    ____________   
 72
    65
 73
     6
 40
5.0
 49
2.5
 74
     0
 49
-0.5
 74
     0
 49
0.5
 74
     0
 49
-0.5
 74
     0
 49
0.5
 74
     0
 49
-0.5
 74
     0
  0
ENDTAB
  0
TABLE
  2
LAYER
  5
2
330
0
100
AcDbSymbolTable
 70
     6
  0
LAYER
  5
F
102
{ACAD_XDICTIONARY
360
10D4
102
}
330
2
100
AcDbSymbolTableRecord
100
AcDbLayerTableRecord
  2
0
 70
     0
 62
     7
  6
CONTINUOUS
370
    -3
390
2CF
  0
LAYER
  5
49
102
{ACAD_XDICTIONARY
360
10D6
102
}
330
2
100
AcDbSymbolTableRecord
100
AcDbLayerTableRecord
  2
SUNPOU
 70
     0
 62
     3
  6
CONTINUOUS
370
    -3
390
2CF
  0
LAYER
  5
4D
102
{ACAD_XDICTIONARY
360
10D8
102
}
330
2
100
AcDbSymbolTableRecord
100
AcDbLayerTableRecord
  2
CT2
 70
     0
 62
     1
  6
CENTER2
370
    -3
390
2CF
  0
LAYER
  5
4F
102
{ACAD_XDICTIONARY
360
10DA
102
}
330
2
100
AcDbSymbolTableRecord
100
AcDbLayerTableRecord
  2
SAISEKI
 70
     0
 62
     4
  6
CONTINUOUS
370
    -3
390
2CF
  0
LAYER
  5
50
330
2
100
AcDbSymbolTableRecord
100
AcDbLayerTableRecord
  2
DEFPOINTS
 70
     0
 62
     7
  6
CONTINUOUS
290
     0
370
    -3
390
2CF
  0
LAYER
  5
1333
102
{ACAD_XDICTIONARY
360
1334
102
}
330
2
100
AcDbSymbolTableRecord
100
AcDbLayerTableRecord
  2
KL
 70
     0
 62
     5
  6
HIDDEN
370
    -3
390
2CF
  0
ENDTAB
  0
TABLE
  2
STYLE
  5
3
330
0
100
AcDbSymbolTable
 70
     3
  0
STYLE
  5
10
330
3
100
AcDbSymbolTableRecord
100
AcDbTextStyleTableRecord
  2
STANDARD
 70
     0
 40
0.0
 41
1.0
 50
0.0
 71
     0
 42
0.2
  3
txt
  4

  0
STYLE
  5
2D
330
3
100
AcDbSymbolTableRecord
100
AcDbTextStyleTableRecord
  2
BIGFONT
 70
     0
 40
0.0
 41
1.0
 50
0.0
 71
     0
 42
50.0
  3
simplex
  4
extfont
  0
STYLE
  5
348
330
3
100
AcDbSymbolTableRecord
100
AcDbTextStyleTableRecord
  2
STYLE1
 70
     0
 40
0.0
 41
1.0
 50
0.0
 71
     0
 42
2.5
  3
txt.shx
  4
bigfont.shx
  0
ENDTAB
  0
TABLE
  2
VIEW
  5
6
330
0
100
AcDbSymbolTable
 70
     0
  0
ENDTAB
  0
TABLE
  2
UCS
  5
7
330
0
100
AcDbSymbolTable
 70
     0
  0
ENDTAB
  0
TABLE
  2
APPID
  5
9
330
0
100
AcDbSymbolTable
 70
     3
  0
APPID
  5
11
330
9
100
AcDbSymbolTableRecord
100
AcDbRegAppTableRecord
  2
ACAD
 70
     0
  0
APPID
  5
10CF
330
9
100
AcDbSymbolTableRecord
100
AcDbRegAppTableRecord
  2
ACAD_MLEADERVER
 70
     0
  0
APPID
  5
10F6
330
9
100
AcDbSymbolTableRecord
100
AcDbRegAppTableRecord
  2
ACAD_EXEMPT_FROM_CAD_STANDARDS
 70
     0
  0
ENDTAB
  0
TABLE
  2
DIMSTYLE
  5
A
330
0
100
AcDbSymbolTable
 70
     4
100
AcDbDimStyleTable
 71
     1
340
2CA
  0
DIMSTYLE
105
2C5
330
A
100
AcDbSymbolTableRecord
100
AcDbDimStyleTableRecord
  2
STANDARD
 70
     0
340
10
  0
DIMSTYLE
105
2CA
102
{ACAD_REACTORS
330
37F
330
393
330
38D
330
389
330
38B
330
38C
330
388
330
383
330
F2C
330
F2A
330
F28
330
F2B
330
F23
330
DD9
330
F1C
102
}
330
A
100
AcDbSymbolTableRecord
100
AcDbDimStyleTableRecord
  2
DIA1
 70
     0
 40
10.0
 41
2.0
 42
1.0
 43
10.0
 44
1.0
 73
     0
 74
     0
 77
     1
140
3.0
141
0.0
147
1.0
271
     0
340
2D
341
20
342
20
  0
DIMSTYLE
105
349
330
A
100
AcDbSymbolTableRecord
100
AcDbDimStyleTableRecord
  2
STYLE10
 70
     0
 40
10.0
 41
1.5
 42
5.0
 43
0.0
 44
0.0
 73
     0
 74
     0
 77
     1
 78
    12
140
2.0
141
2.0
147
1.0
172
     1
176
     3
177
     3
178
     3
340
10
  0
ENDTAB
  0
TABLE
  2
BLOCK_RECORD
  5
1
330
0
100
AcDbSymbolTable
 70
    23
  0
BLOCK_RECORD
  5
18
102
{ACAD_XDICTIONARY
360
1130
102
}
330
1
100
AcDbSymbolTableRecord
100
AcDbBlockTableRecord
  2
*MODEL_SPACE
340
2D2
  0
BLOCK_RECORD
  5
15
330
1
100
AcDbSymbolTableRecord
100
AcDbBlockTableRecord
  2
*PAPER_SPACE
340
2D3
  0
BLOCK_RECORD
  5
1C
330
1
100
AcDbSymbolTableRecord
100
AcDbBlockTableRecord
  2
SYASEN
340
0
  0
BLOCK_RECORD
  5
1D
330
1
100
AcDbSymbolTableRecord
100
AcDbBlockTableRecord
  2
YA2
340
0
  0
BLOCK_RECORD
  5
1E
330
1
100
AcDbSymbolTableRecord
100
AcDbBlockTableRecord
  2
YA_N
340
0
102
{BLKREFS
331
281
102
}
  0
BLOCK_RECORD
  5
1F
330
1
100
AcDbSymbolTableRecord
100
AcDbBlockTableRecord
  2
DOT
340
0
  0
BLOCK_RECORD
  5
20
330
1
100
AcDbSymbolTableRecord
100
AcDbBlockTableRecord
  2
ARROW
340
0
102
{BLKREFS
331
FCB
331
116E
331
116F
331
1207
331
1208
331
1210
331
1211
331
1219
331
121A
331
1276
331
1277
331
1314
331
1315
331
134D
331
1353
331
1354
331
135C
331
135D
331
1365
331
1366
331
136E
331
136F
331
1377
331
1378
102
}
  0
BLOCK_RECORD
  5
21
330
1
100
AcDbSymbolTableRecord
100
AcDbBlockTableRecord
  2
YA3
340
0
  0
BLOCK_RECORD
  5
22
330
1
100
AcDbSymbolTableRecord
100
AcDbBlockTableRecord
  2
BORDER
340
0
  0
BLOCK_RECORD
  5
2FA
330
1
100
AcDbSymbolTableRecord
100
AcDbBlockTableRecord
  2
_CLOSEDBLANK
340
0
  0
BLOCK_RECORD
  5
3AD
330
1
100
AcDbSymbolTableRecord
100
AcDbBlockTableRecord
  2
*D8
340
0
  0
BLOCK_RECORD
  5
3B9
330
1
100
AcDbSymbolTableRecord
100
AcDbBlockTableRecord
  2
*D9
340
0
  0
BLOCK_RECORD
  5
3C4
330
1
100
AcDbSymbolTableRecord
100
AcDbBlockTableRecord
  2
*D10
340
0
  0
BLOCK_RECORD
  5
3CF
330
1
100
AcDbSymbolTableRecord
100
AcDbBlockTableRecord
  2
*D11
340
0
  0
BLOCK_RECORD
  5
3DB
330
1
100
AcDbSymbolTableRecord
100
AcDbBlockTableRecord
  2
*D12
340
0
  0
BLOCK_RECORD
  5
3E6
330
1
100
AcDbSymbolTableRecord
100
AcDbBlockTableRecord
  2
*D13
340
0
  0
BLOCK_RECORD
  5
DDA
330
1
100
AcDbSymbolTableRecord
100
AcDbBlockTableRecord
  2
*D14
340
0
  0
BLOCK_RECORD
  5
F4A
330
1
100
AcDbSymbolTableRecord
100
AcDbBlockTableRecord
  2
*D15
340
0
  0
BLOCK_RECORD
  5
F56
330
1
100
AcDbSymbolTableRecord
100
AcDbBlockTableRecord
  2
*D16
340
0
  0
BLOCK_RECORD
  5
F62
330
1
100
AcDbSymbolTableRecord
100
AcDbBlockTableRecord
  2
*D17
340
0
  0
BLOCK_RECORD
  5
F6E
330
1
100
AcDbSymbolTableRecord
100
AcDbBlockTableRecord
  2
*D18
340
0
  0
BLOCK_RECORD
  5
F7A
330
1
100
AcDbSymbolTableRecord
100
AcDbBlockTableRecord
  2
*D19
340
0
  0
BLOCK_RECORD
  5
F86
330
1
100
AcDbSymbolTableRecord
100
AcDbBlockTableRecord
  2
*D20
340
0
  0
ENDTAB
  0
ENDSEC
  0
SECTION
  2
BLOCKS
  0
BLOCK
  5
53
330
18
100
AcDbEntity
  8
0
100
AcDbBlockBegin
  2
*MODEL_SPACE
 70
     0
 10
0.0
 20
0.0
 30
0.0
  3
*MODEL_SPACE
  1

  0
ENDBLK
  5
54
330
18
100
AcDbEntity
  8
0
100
AcDbBlockEnd
  0
BLOCK
  5
51
330
15
100
AcDbEntity
 67
     1
  8
0
100
AcDbBlockBegin
  2
*PAPER_SPACE
 70
     0
 10
0.0
 20
0.0
 30
0.0
  3
*PAPER_SPACE
  1

  0
ENDBLK
  5
52
330
15
100
AcDbEntity
 67
     1
  8
0
100
AcDbBlockEnd
  0
BLOCK
  5
55
330
1C
100
AcDbEntity
  8
0
100
AcDbBlockBegin
  2
SYASEN
 70
     0
 10
0.0
 20
0.0
 30
0.0
  3
SYASEN
  1

  0
LINE
  5
56
330
1C
100
AcDbEntity
  8
0
100
AcDbLine
 10
0.0
 20
0.0
 30
0.0
 11
-1.0
 21
0.0
 31
0.0
  0
LINE
  5
57
330
1C
100
AcDbEntity
  8
0
100
AcDbLine
 10
0.5
 20
0.5
 30
0.0
 11
-0.5
 21
-0.5
 31
0.0
  0
ENDBLK
  5
58
330
1C
100
AcDbEntity
  8
0
100
AcDbBlockEnd
  0
BLOCK
  5
59
330
1D
100
AcDbEntity
  8
0
100
AcDbBlockBegin
  2
YA2
 70
     0
 10
0.0
 20
0.0
 30
0.0
  3
YA2
  1

  0
LINE
  5
5A
330
1D
100
AcDbEntity
  8
0
100
AcDbLine
 10
-1.0
 20
0.0
 30
0.0
 11
0.0
 21
0.0
 31
0.0
  0
ENDBLK
  5
5B
330
1D
100
AcDbEntity
  8
0
100
AcDbBlockEnd
  0
BLOCK
  5
5C
330
1E
100
AcDbEntity
  8
0
100
AcDbBlockBegin
  2
YA_N
 70
     0
 10
0.0
 20
0.0
 30
0.0
  3
YA_N
  1

  0
ENDBLK
  5
5D
330
1E
100
AcDbEntity
  8
0
100
AcDbBlockEnd
  0
BLOCK
  5
5E
330
1F
100
AcDbEntity
  8
0
100
AcDbBlockBegin
  2
DOT
 70
     0
 10
0.0
 20
0.0
 30
0.0
  3
DOT
  1

  0
LWPOLYLINE
  5
5F
330
1F
100
AcDbEntity
  8
0
100
AcDbPolyline
 90
        2
 70
     1
 43
0.25
 10
-0.125
 20
0.0
 42
1.0
 10
0.125
 20
0.0
 42
1.0
  0
LINE
  5
63
330
1F
100
AcDbEntity
  8
0
100
AcDbLine
 10
-1.0
 20
0.0
 30
0.0
 11
-0.25
 21
0.0
 31
0.0
  0
ENDBLK
  5
64
330
1F
100
AcDbEntity
  8
0
100
AcDbBlockEnd
  0
BLOCK
  5
65
330
20
100
AcDbEntity
  8
0
100
AcDbBlockBegin
  2
ARROW
 70
     0
 10
0.0
 20
0.0
 30
0.0
  3
ARROW
  1

  0
LINE
  5
66
330
20
100
AcDbEntity
  8
0
100
AcDbLine
 10
-0.9999999999999991
 20
0.1666666667000003
 30
0.0
 11
0.0
 21
0.0
 31
0.0
  0
LINE
  5
67
330
20
100
AcDbEntity
  8
0
100
AcDbLine
 10
-0.9999999999999991
 20
0.0
 30
0.0
 11
0.0
 21
0.0
 31
0.0
  0
LINE
  5
68
330
20
100
AcDbEntity
  8
0
100
AcDbLine
 10
-0.9999999999999991
 20
-0.1666666667000003
 30
0.0
 11
0.0
 21
0.0
 31
0.0
  0
ENDBLK
  5
69
330
20
100
AcDbEntity
  8
0
100
AcDbBlockEnd
  0
BLOCK
  5
6A
330
21
100
AcDbEntity
  8
0
100
AcDbBlockBegin
  2
YA3
 70
     0
 10
0.0
 20
0.0
 30
0.0
  3
YA3
  1

  0
SOLID
  5
6B
330
21
100
AcDbEntity
  8
0
100
AcDbTrace
 10
1.0
 20
-0.1666666666666665
 30
0.0
 11
1.0
 21
0.166666666666667
 31
0.0
 12
0.0
 22
0.0
 32
0.0
 13
0.0
 23
0.0
 33
0.0
  0
ENDBLK
  5
6C
330
21
100
AcDbEntity
  8
0
100
AcDbBlockEnd
  0
BLOCK
  5
6D
330
22
100
AcDbEntity
  8
0
100
AcDbBlockBegin
  2
BORDER
 70
     0
 10
0.0
 20
0.0
 30
0.0
  3
BORDER
  1

  0
LINE
  5
6E
330
22
100
AcDbEntity
  8
0
100
AcDbLine
 10
0.0
 20
0.0
 30
0.0
 11
1.00000000000004
 21
0.0
 31
0.0
  0
LINE
  5
6F
330
22
100
AcDbEntity
  8
0
100
AcDbLine
 10
1.00000000000004
 20
0.0
 30
0.0
 11
1.00000000000004
 21
1.00000000000004
 31
0.0
  0
LINE
  5
70
330
22
100
AcDbEntity
  8
0
100
AcDbLine
 10
1.00000000000004
 20
1.00000000000004
 30
0.0
 11
0.0
 21
1.00000000000004
 31
0.0
  0
LINE
  5
71
330
22
100
AcDbEntity
  8
0
100
AcDbLine
 10
0.0
 20
1.00000000000004
 30
0.0
 11
0.0
 21
0.0
 31
0.0
  0
ENDBLK
  5
72
330
22
100
AcDbEntity
  8
0
100
AcDbBlockEnd
  0
BLOCK
  5
2FE
330
2FA
100
AcDbEntity
  8
0
100
AcDbBlockBegin
  2
_CLOSEDBLANK
 70
     0
 10
0.0
 20
0.0
 30
0.0
  3
_CLOSEDBLANK
  1

  0
LINE
  5
2FB
330
2FA
100
AcDbEntity
  8
0
  6
ByBlock
 62
     0
100
AcDbLine
 10
-1.0
 20
0.1666666666666666
 30
0.0
 11
0.0
 21
0.0
 31
0.0
  0
LINE
  5
2FC
330
2FA
100
AcDbEntity
  8
0
  6
ByBlock
 62
     0
100
AcDbLine
 10
0.0
 20
0.0
 30
0.0
 11
-1.0
 21
-0.1666666666666666
 31
0.0
  0
LINE
  5
2FD
330
2FA
100
AcDbEntity
  8
0
  6
ByBlock
 62
     0
100
AcDbLine
 10
-1.0
 20
0.1666666666666666
 30
0.0
 11
-1.0
 21
-0.1666666666666666
 31
0.0
  0
ENDBLK
  5
2FF
330
2FA
100
AcDbEntity
  8
0
100
AcDbBlockEnd
  0
BLOCK
  5
3B7
330
3AD
100
AcDbEntity
  8
0
100
AcDbBlockBegin
  2
*D8
 70
     1
 10
0.0
 20
0.0
 30
0.0
  3
*D8
  1

  0
LINE
  5
1273
330
3AD
100
AcDbEntity
  8
SUNPOU
 62
     0
370
    -2
100
AcDbLine
 10
698.8257633170421
 20
-299.5306630595525
 30
0.0
 11
698.8257633170421
 21
-655.5866141512015
 31
0.0
  0
LINE
  5
1274
330
3AD
100
AcDbEntity
  8
SUNPOU
 62
     0
370
    -2
100
AcDbLine
 10
2348.825763317043
 20
-299.5306630595525
 30
0.0
 11
2348.825763317043
 21
-655.5866141512015
 31
0.0
  0
LINE
  5
1275
330
3AD
100
AcDbEntity
  8
SUNPOU
 62
     0
370
    -2
100
AcDbLine
 10
723.8257633170421
 20
-645.5866141512014
 30
0.0
 11
2323.825763317042
 21
-645.5866141512014
 31
0.0
  0
INSERT
  5
1276
330
3AD
100
AcDbEntity
  8
SUNPOU
 62
     0
370
    -2
100
AcDbBlockReference
  2
ARROW
 10
698.8257633170421
 20
-645.5866141512014
 30
0.0
 41
25.0
 42
25.0
 43
25.0
 50
180.0
  0
INSERT
  5
1277
330
3AD
100
AcDbEntity
  8
SUNPOU
 62
     0
370
    -2
100
AcDbBlockReference
  2
ARROW
 10
2348.825763317043
 20
-645.5866141512014
 30
0.0
 41
25.0
 42
25.0
 43
25.0
  0
MTEXT
  5
1278
330
3AD
100
AcDbEntity
  8
SUNPOU
 62
     0
100
AcDbMText
 10
1523.825763317042
 20
-615.5866141512015
 30
0.0
 40
40.0
 41
0.0
 71
     5
 72
     1
  1
\A1;1650
  7
BIGFONT
 73
     1
 44
1.0
  0
POINT
  5
1279
330
3AD
100
AcDbEntity
  8
DEFPOINTS
 62
     0
100
AcDbPoint
 10
698.8257633170421
 20
-289.5306630595525
 30
0.0
  0
POINT
  5
127A
330
3AD
100
AcDbEntity
  8
DEFPOINTS
 62
     0
100
AcDbPoint
 10
2348.825763317043
 20
-289.5306630595525
 30
0.0
  0
POINT
  5
127B
330
3AD
100
AcDbEntity
  8
DEFPOINTS
 62
     0
100
AcDbPoint
 10
2348.825763317043
 20
-645.5866141512014
 30
0.0
  0
ENDBLK
  5
3B8
330
3AD
100
AcDbEntity
  8
0
100
AcDbBlockEnd
  0
BLOCK
  5
3C2
330
3B9
100
AcDbEntity
  8
0
100
AcDbBlockBegin
  2
*D9
 70
     1
 10
0.0
 20
0.0
 30
0.0
  3
*D9
  1

  0
LINE
  5
1204
330
3B9
100
AcDbEntity
  8
SUNPOU
 62
     0
370
    -2
100
AcDbLine
 10
584.3047831833946
 20
838.6371902153944
 30
0.0
 11
485.5912607002584
 21
838.6371902153944
 31
0.0
  0
LINE
  5
1205
330
3B9
100
AcDbEntity
  8
SUNPOU
 62
     0
370
    -2
100
AcDbLine
 10
584.3285087895901
 20
738.6371902153943
 30
0.0
 11
485.5912607002584
 21
738.6371902153943
 31
0.0
  0
LINE
  5
1206
330
3B9
100
AcDbEntity
  8
SUNPOU
 62
     0
370
    -2
100
AcDbLine
 10
495.5912607002584
 20
813.6371902153944
 30
0.0
 11
495.5912607002584
 21
763.6371902153943
 31
0.0
  0
INSERT
  5
1207
330
3B9
100
AcDbEntity
  8
SUNPOU
 62
     0
370
    -2
100
AcDbBlockReference
  2
ARROW
 10
495.5912607002584
 20
838.6371902153944
 30
0.0
 41
25.0
 42
25.0
 43
25.0
 50
90.0
  0
INSERT
  5
1208
330
3B9
100
AcDbEntity
  8
SUNPOU
 62
     0
370
    -2
100
AcDbBlockReference
  2
ARROW
 10
495.5912607002584
 20
738.6371902153943
 30
0.0
 41
25.0
 42
25.0
 43
25.0
 50
270.0
  0
MTEXT
  5
1209
330
3B9
100
AcDbEntity
  8
SUNPOU
 62
     0
100
AcDbMText
 10
465.5912607002583
 20
788.6371902153945
 30
0.0
 40
40.0
 41
0.0
 71
     5
 72
     1
  1
\A1;100
  7
BIGFONT
 11
0.0000000000000001
 21
1.0
 31
0.0
 73
     1
 44
1.0
  0
POINT
  5
120A
330
3B9
100
AcDbEntity
  8
DEFPOINTS
 62
     0
100
AcDbPoint
 10
594.3047831833946
 20
838.6371902153944
 30
0.0
  0
POINT
  5
120B
330
3B9
100
AcDbEntity
  8
DEFPOINTS
 62
     0
100
AcDbPoint
 10
594.3285087895901
 20
738.6371902153943
 30
0.0
  0
POINT
  5
120C
330
3B9
100
AcDbEntity
  8
DEFPOINTS
 62
     0
100
AcDbPoint
 10
495.5912607002584
 20
738.6371902153943
 30
0.0
  0
ENDBLK
  5
3C3
330
3B9
100
AcDbEntity
  8
0
100
AcDbBlockEnd
  0
BLOCK
  5
3CD
330
3C4
100
AcDbEntity
  8
0
100
AcDbBlockBegin
  2
*D10
 70
     1
 10
0.0
 20
0.0
 30
0.0
  3
*D10
  1

  0
LINE
  5
120D
330
3C4
100
AcDbEntity
  8
SUNPOU
 62
     0
370
    -2
100
AcDbLine
 10
584.3285087895901
 20
738.6371902153943
 30
0.0
 11
485.5912607002585
 21
738.6371902153943
 31
0.0
  0
LINE
  5
120E
330
3C4
100
AcDbEntity
  8
SUNPOU
 62
     0
370
    -2
100
AcDbLine
 10
584.3285087895901
 20
-11.36280978460547
 30
0.0
 11
485.5912607002583
 21
-11.36280978460544
 31
0.0
  0
LINE
  5
120F
330
3C4
100
AcDbEntity
  8
SUNPOU
 62
     0
370
    -2
100
AcDbLine
 10
495.5912607002584
 20
713.6371902153943
 30
0.0
 11
495.5912607002582
 21
13.63719021539455
 31
0.0
  0
INSERT
  5
1210
330
3C4
100
AcDbEntity
  8
SUNPOU
 62
     0
370
    -2
100
AcDbBlockReference
  2
ARROW
 10
495.5912607002584
 20
738.6371902153943
 30
0.0
 41
25.0
 42
25.0
 43
25.0
 50
90.0
  0
INSERT
  5
1211
330
3C4
100
AcDbEntity
  8
SUNPOU
 62
     0
370
    -2
100
AcDbBlockReference
  2
ARROW
 10
495.5912607002582
 20
-11.36280978460544
 30
0.0
 41
25.0
 42
25.0
 43
25.0
 50
270.0
  0
MTEXT
  5
1212
330
3C4
100
AcDbEntity
  8
SUNPOU
 62
     0
100
AcDbMText
 10
465.5912607002583
 20
363.6371902153945
 30
0.0
 40
40.0
 41
0.0
 71
     5
 72
     1
  1
\A1;750
  7
BIGFONT
 11
0.0000000000000001
 21
1.0
 31
0.0
 73
     1
 44
1.0
  0
POINT
  5
1213
330
3C4
100
AcDbEntity
  8
DEFPOINTS
 62
     0
100
AcDbPoint
 10
594.3285087895901
 20
738.6371902153943
 30
0.0
  0
POINT
  5
1214
330
3C4
100
AcDbEntity
  8
DEFPOINTS
 62
     0
100
AcDbPoint
 10
594.3285087895901
 20
-11.36280978460547
 30
0.0
  0
POINT
  5
1215
330
3C4
100
AcDbEntity
  8
DEFPOINTS
 62
     0
100
AcDbPoint
 10
495.5912607002582
 20
-11.36280978460544
 30
0.0
  0
ENDBLK
  5
3CE
330
3C4
100
AcDbEntity
  8
0
100
AcDbBlockEnd
  0
BLOCK
  5
3D9
330
3CF
100
AcDbEntity
  8
0
100
AcDbBlockBegin
  2
*D11
 70
     1
 10
0.0
 20
0.0
 30
0.0
  3
*D11
  1

  0
LINE
  5
1216
330
3CF
100
AcDbEntity
  8
SUNPOU
 62
     0
370
    -2
100
AcDbLine
 10
584.3285087895901
 20
838.6371902153943
 30
0.0
 11
319.2669063560207
 21
838.6371902153943
 31
0.0
  0
LINE
  5
1217
330
3CF
100
AcDbEntity
  8
SUNPOU
 62
     0
370
    -2
100
AcDbLine
 10
964.3285087895915
 20
-211.3628097846055
 30
0.0
 11
319.2669063560206
 21
-211.3628097846053
 31
0.0
  0
LINE
  5
1218
330
3CF
100
AcDbEntity
  8
SUNPOU
 62
     0
370
    -2
100
AcDbLine
 10
329.2669063560207
 20
813.6371902153943
 30
0.0
 11
329.2669063560205
 21
-186.3628097846053
 31
0.0
  0
INSERT
  5
1219
330
3CF
100
AcDbEntity
  8
SUNPOU
 62
     0
370
    -2
100
AcDbBlockReference
  2
ARROW
 10
329.2669063560207
 20
838.6371902153943
 30
0.0
 41
25.0
 42
25.0
 43
25.0
 50
90.0
  0
INSERT
  5
121A
330
3CF
100
AcDbEntity
  8
SUNPOU
 62
     0
370
    -2
100
AcDbBlockReference
  2
ARROW
 10
329.2669063560205
 20
-211.3628097846053
 30
0.0
 41
25.0
 42
25.0
 43
25.0
 50
270.0
  0
MTEXT
  5
121B
330
3CF
100
AcDbEntity
  8
SUNPOU
 62
     0
100
AcDbMText
 10
299.2669063560206
 20
313.6371902153946
 30
0.0
 40
40.0
 41
0.0
 71
     5
 72
     1
  1
\A1;1050
  7
BIGFONT
 11
0.0000000000000001
 21
1.0
 31
0.0
 73
     1
 44
1.0
  0
POINT
  5
121C
330
3CF
100
AcDbEntity
  8
DEFPOINTS
 62
     0
100
AcDbPoint
 10
594.3285087895901
 20
838.6371902153943
 30
0.0
  0
POINT
  5
121D
330
3CF
100
AcDbEntity
  8
DEFPOINTS
 62
     0
100
AcDbPoint
 10
974.3285087895914
 20
-211.3628097846055
 30
0.0
  0
POINT
  5
121E
330
3CF
100
AcDbEntity
  8
DEFPOINTS
 62
     0
100
AcDbPoint
 10
329.2669063560205
 20
-211.3628097846053
 30
0.0
  0
ENDBLK
  5
3DA
330
3CF
100
AcDbEntity
  8
0
100
AcDbBlockEnd
  0
BLOCK
  5
3E4
330
3DB
100
AcDbEntity
  8
0
100
AcDbBlockBegin
  2
*D12
 70
     1
 10
0.0
 20
0.0
 30
0.0
  3
*D12
  1

  0
LINE
  5
1311
330
3DB
100
AcDbEntity
  8
SUNPOU
 62
     0
370
    -2
100
AcDbLine
 10
584.3285087895901
 20
-11.36280978460547
 30
0.0
 11
485.5912607002583
 21
-11.36280978460544
 31
0.0
  0
LINE
  5
1312
330
3DB
100
AcDbEntity
  8
SUNPOU
 62
     0
370
    -2
100
AcDbLine
 10
964.3285087895915
 20
-211.3628097846055
 30
0.0
 11
485.5912607002582
 21
-211.3628097846053
 31
0.0
  0
LINE
  5
1313
330
3DB
100
AcDbEntity
  8
SUNPOU
 62
     0
370
    -2
100
AcDbLine
 10
495.5912607002582
 20
-36.36280978460545
 30
0.0
 11
495.5912607002582
 21
-186.3628097846053
 31
0.0
  0
INSERT
  5
1314
330
3DB
100
AcDbEntity
  8
SUNPOU
 62
     0
370
    -2
100
AcDbBlockReference
  2
ARROW
 10
495.5912607002582
 20
-11.36280978460544
 30
0.0
 41
25.0
 42
25.0
 43
25.0
 50
90.0
  0
INSERT
  5
1315
330
3DB
100
AcDbEntity
  8
SUNPOU
 62
     0
370
    -2
100
AcDbBlockReference
  2
ARROW
 10
495.5912607002582
 20
-211.3628097846053
 30
0.0
 41
25.0
 42
25.0
 43
25.0
 50
270.0
  0
MTEXT
  5
1316
330
3DB
100
AcDbEntity
  8
SUNPOU
 62
     0
100
AcDbMText
 10
465.5912607002583
 20
-111.3628097846053
 30
0.0
 40
40.0
 41
0.0
 71
     5
 72
     1
  1
\A1;200
  7
BIGFONT
 11
0.0000000000000001
 21
1.0
 31
0.0
 73
     1
 44
1.0
  0
POINT
  5
1317
330
3DB
100
AcDbEntity
  8
DEFPOINTS
 62
     0
100
AcDbPoint
 10
594.3285087895901
 20
-11.36280978460547
 30
0.0
  0
POINT
  5
1318
330
3DB
100
AcDbEntity
  8
DEFPOINTS
 62
     0
100
AcDbPoint
 10
974.3285087895914
 20
-211.3628097846055
 30
0.0
  0
POINT
  5
1319
330
3DB
100
AcDbEntity
  8
DEFPOINTS
 62
     0
100
AcDbPoint
 10
495.5912607002582
 20
-211.3628097846053
 30
0.0
  0
ENDBLK
  5
3E5
330
3DB
100
AcDbEntity
  8
0
100
AcDbBlockEnd
  0
BLOCK
  5
3F0
330
3E6
100
AcDbEntity
  8
0
100
AcDbBlockBegin
  2
*D13
 70
     1
 10
0.0
 20
0.0
 30
0.0
  3
*D13
  1

  0
LINE
  5
116B
330
3E6
100
AcDbEntity
  8
SUNPOU
 62
     0
370
    -2
100
AcDbLine
 10
1098.825763317042
 20
-221.3628097846055
 30
0.0
 11
1098.825763317042
 21
-474.0020944228672
 31
0.0
  0
LINE
  5
116C
330
3E6
100
AcDbEntity
  8
SUNPOU
 62
     0
370
    -2
100
AcDbLine
 10
1948.71037424436
 20
-221.2607875991954
 30
0.0
 11
1948.71037424436
 21
-474.0020944228672
 31
0.0
  0
LINE
  5
116D
330
3E6
100
AcDbEntity
  8
SUNPOU
 62
     0
370
    -2
100
AcDbLine
 10
1123.825763317042
 20
-464.0020944228672
 30
0.0
 11
1923.71037424436
 21
-464.0020944228672
 31
0.0
  0
INSERT
  5
116E
330
3E6
100
AcDbEntity
  8
SUNPOU
 62
     0
370
    -2
100
AcDbBlockReference
  2
ARROW
 10
1098.825763317042
 20
-464.0020944228672
 30
0.0
 41
25.0
 42
25.0
 43
25.0
 50
180.0
  0
INSERT
  5
116F
330
3E6
100
AcDbEntity
  8
SUNPOU
 62
     0
370
    -2
100
AcDbBlockReference
  2
ARROW
 10
1948.71037424436
 20
-464.0020944228672
 30
0.0
 41
25.0
 42
25.0
 43
25.0
  0
MTEXT
  5
1170
330
3E6
100
AcDbEntity
  8
SUNPOU
 62
     0
100
AcDbMText
 10
1523.768068780701
 20
-434.0020944228672
 30
0.0
 40
40.0
 41
0.0
 71
     5
 72
     1
  1
\A1;850
  7
BIGFONT
 73
     1
 44
1.0
  0
POINT
  5
1171
330
3E6
100
AcDbEntity
  8
DEFPOINTS
 62
     0
100
AcDbPoint
 10
1098.825763317042
 20
-211.3628097846055
 30
0.0
  0
POINT
  5
1172
330
3E6
100
AcDbEntity
  8
DEFPOINTS
 62
     0
100
AcDbPoint
 10
1948.71037424436
 20
-211.2607875991954
 30
0.0
  0
POINT
  5
1173
330
3E6
100
AcDbEntity
  8
DEFPOINTS
 62
     0
100
AcDbPoint
 10
1948.71037424436
 20
-464.0020944228672
 30
0.0
  0
ENDBLK
  5
3F1
330
3E6
100
AcDbEntity
  8
0
100
AcDbBlockEnd
  0
BLOCK
  5
DE0
330
DDA
100
AcDbEntity
  8
0
100
AcDbBlockBegin
  2
*D14
 70
     1
 10
0.0
 20
0.0
 30
0.0
  3
*D14
  1

  0
LINE
  5
FC9
330
DDA
100
AcDbEntity
  8
SUNPOU
 62
     0
370
    -2
100
AcDbLine
 10
1365.093635134684
 20
344.0989451051929
 30
0.0
 11
1796.765877858108
 21
397.2332297782444
 31
0.0
  0
MTEXT
  5
FCA
102
{ACAD_XDICTIONARY
360
137F
102
}
330
DDA
100
AcDbEntity
  8
SUNPOU
 62
     0
100
AcDbMText
 10
1448.676711357314
 20
387.132415488649
 30
0.0
 40
45.0
 41
0.0
 71
     5
 72
     1
  1
\A1;\U+2205600
  7
BIGFONT
 11
0.9925095074220662
 21
0.1221674165921823
 31
0.0
 73
     1
 44
1.0
  0
INSERT
  5
FCB
330
DDA
100
AcDbEntity
  8
SUNPOU
 62
     0
370
    -2
100
AcDbBlockReference
  2
ARROW
 10
1821.57861554366
 20
400.2874151930489
 30
0.0
 41
25.0
 42
25.0
 43
25.0
 50
7.017206908427755
  0
POINT
  5
FCC
330
DDA
100
AcDbEntity
  8
DEFPOINTS
 62
     0
100
AcDbPoint
 10
1821.57861554366
 20
400.2874151930489
 30
0.0
  0
POINT
  5
FCD
330
DDA
100
AcDbEntity
  8
DEFPOINTS
 62
     0
100
AcDbPoint
 10
1226.072911090421
 20
326.9869652377397
 30
0.0
  0
ENDBLK
  5
DE1
330
DDA
100
AcDbEntity
  8
0
100
AcDbBlockEnd
  0
BLOCK
  5
F54
330
F4A
100
AcDbEntity
  8
0
100
AcDbBlockBegin
  2
*D15
 70
     1
 10
0.0
 20
0.0
 30
0.0
  3
*D15
  1

  0
LINE
  5
1374
330
F4A
100
AcDbEntity
  8
SUNPOU
 62
     0
370
    -2
100
AcDbLine
 10
3486.607882614874
 20
838.6371902153943
 30
0.0
 11
3284.141602784865
 21
838.6371902153944
 31
0.0
  0
LINE
  5
1375
330
F4A
100
AcDbEntity
  8
SUNPOU
 62
     0
370
    -2
100
AcDbLine
 10
3486.607882614873
 20
738.6371902153942
 30
0.0
 11
3284.141602784865
 21
738.6371902153943
 31
0.0
  0
LINE
  5
1376
330
F4A
100
AcDbEntity
  8
SUNPOU
 62
     0
370
    -2
100
AcDbLine
 10
3294.141602784865
 20
813.6371902153944
 30
0.0
 11
3294.141602784865
 21
763.6371902153943
 31
0.0
  0
INSERT
  5
1377
330
F4A
100
AcDbEntity
  8
SUNPOU
 62
     0
370
    -2
100
AcDbBlockReference
  2
ARROW
 10
3294.141602784865
 20
838.6371902153944
 30
0.0
 41
25.0
 42
25.0
 43
25.0
 50
90.0
  0
INSERT
  5
1378
330
F4A
100
AcDbEntity
  8
SUNPOU
 62
     0
370
    -2
100
AcDbBlockReference
  2
ARROW
 10
3294.141602784865
 20
738.6371902153943
 30
0.0
 41
25.0
 42
25.0
 43
25.0
 50
270.0
  0
MTEXT
  5
1379
330
F4A
100
AcDbEntity
  8
SUNPOU
 62
     0
100
AcDbMText
 10
3264.141602784866
 20
788.6371902153948
 30
0.0
 40
40.0
 41
0.0
 71
     5
 72
     1
  1
\A1;100
  7
BIGFONT
 11
0.0000000000000001
 21
1.0
 31
0.0
 73
     1
 44
1.0
  0
POINT
  5
137A
330
F4A
100
AcDbEntity
  8
DEFPOINTS
 62
     0
100
AcDbPoint
 10
3496.607882614874
 20
838.6371902153943
 30
0.0
  0
POINT
  5
137B
330
F4A
100
AcDbEntity
  8
DEFPOINTS
 62
     0
100
AcDbPoint
 10
3496.607882614873
 20
738.6371902153942
 30
0.0
  0
POINT
  5
137C
330
F4A
100
AcDbEntity
  8
DEFPOINTS
 62
     0
100
AcDbPoint
 10
3294.141602784865
 20
738.6371902153943
 30
0.0
  0
ENDBLK
  5
F55
330
F4A
100
AcDbEntity
  8
0
100
AcDbBlockEnd
  0
BLOCK
  5
F60
330
F56
100
AcDbEntity
  8
0
100
AcDbBlockBegin
  2
*D16
 70
     1
 10
0.0
 20
0.0
 30
0.0
  3
*D16
  1

  0
LINE
  5
1362
330
F56
100
AcDbEntity
  8
SUNPOU
 62
     0
370
    -2
100
AcDbLine
 10
3486.607882614873
 20
738.6371902153942
 30
0.0
 11
3284.141602784865
 21
738.6371902153943
 31
0.0
  0
LINE
  5
1363
330
F56
100
AcDbEntity
  8
SUNPOU
 62
     0
370
    -2
100
AcDbLine
 10
3486.607882614873
 20
-11.36280978460567
 30
0.0
 11
3284.141602784865
 21
-11.36280978460561
 31
0.0
  0
LINE
  5
1364
330
F56
100
AcDbEntity
  8
SUNPOU
 62
     0
370
    -2
100
AcDbLine
 10
3294.141602784865
 20
713.6371902153943
 30
0.0
 11
3294.141602784865
 21
13.63719021539438
 31
0.0
  0
INSERT
  5
1365
330
F56
100
AcDbEntity
  8
SUNPOU
 62
     0
370
    -2
100
AcDbBlockReference
  2
ARROW
 10
3294.141602784865
 20
738.6371902153943
 30
0.0
 41
25.0
 42
25.0
 43
25.0
 50
90.0
  0
INSERT
  5
1366
330
F56
100
AcDbEntity
  8
SUNPOU
 62
     0
370
    -2
100
AcDbBlockReference
  2
ARROW
 10
3294.141602784865
 20
-11.36280978460561
 30
0.0
 41
25.0
 42
25.0
 43
25.0
 50
270.0
  0
MTEXT
  5
1367
330
F56
100
AcDbEntity
  8
SUNPOU
 62
     0
100
AcDbMText
 10
3264.141602784866
 20
363.6371902153948
 30
0.0
 40
40.0
 41
0.0
 71
     5
 72
     1
  1
\A1;750
  7
BIGFONT
 11
0.0000000000000001
 21
1.0
 31
0.0
 73
     1
 44
1.0
  0
POINT
  5
1368
330
F56
100
AcDbEntity
  8
DEFPOINTS
 62
     0
100
AcDbPoint
 10
3496.607882614873
 20
738.6371902153942
 30
0.0
  0
POINT
  5
1369
330
F56
100
AcDbEntity
  8
DEFPOINTS
 62
     0
100
AcDbPoint
 10
3496.607882614873
 20
-11.36280978460567
 30
0.0
  0
POINT
  5
136A
330
F56
100
AcDbEntity
  8
DEFPOINTS
 62
     0
100
AcDbPoint
 10
3294.141602784865
 20
-11.36280978460561
 30
0.0
  0
ENDBLK
  5
F61
330
F56
100
AcDbEntity
  8
0
100
AcDbBlockEnd
  0
BLOCK
  5
F6C
330
F62
100
AcDbEntity
  8
0
100
AcDbBlockBegin
  2
*D17
 70
     1
 10
0.0
 20
0.0
 30
0.0
  3
*D17
  1

  0
LINE
  5
1359
330
F62
100
AcDbEntity
  8
SUNPOU
 62
     0
370
    -2
100
AcDbLine
 10
3464.528023568362
 20
838.6371902153937
 30
0.0
 11
3151.676445244889
 21
838.6371902153939
 31
0.0
  0
LINE
  5
135A
330
F62
100
AcDbEntity
  8
SUNPOU
 62
     0
370
    -2
100
AcDbLine
 10
3486.607882614873
 20
-211.3628097846058
 30
0.0
 11
3151.676445244889
 21
-211.3628097846057
 31
0.0
  0
LINE
  5
135B
330
F62
100
AcDbEntity
  8
SUNPOU
 62
     0
370
    -2
100
AcDbLine
 10
3161.676445244889
 20
813.6371902153939
 30
0.0
 11
3161.676445244889
 21
-186.3628097846057
 31
0.0
  0
INSERT
  5
135C
330
F62
100
AcDbEntity
  8
SUNPOU
 62
     0
370
    -2
100
AcDbBlockReference
  2
ARROW
 10
3161.676445244889
 20
838.6371902153939
 30
0.0
 41
25.0
 42
25.0
 43
25.0
 50
90.0
  0
INSERT
  5
135D
330
F62
100
AcDbEntity
  8
SUNPOU
 62
     0
370
    -2
100
AcDbBlockReference
  2
ARROW
 10
3161.676445244889
 20
-211.3628097846057
 30
0.0
 41
25.0
 42
25.0
 43
25.0
 50
270.0
  0
MTEXT
  5
135E
330
F62
100
AcDbEntity
  8
SUNPOU
 62
     0
100
AcDbMText
 10
3131.676445244889
 20
313.6371902153947
 30
0.0
 40
40.0
 41
0.0
 71
     5
 72
     1
  1
\A1;1050
  7
BIGFONT
 11
0.0000000000000001
 21
1.0
 31
0.0
 73
     1
 44
1.0
  0
POINT
  5
135F
330
F62
100
AcDbEntity
  8
DEFPOINTS
 62
     0
100
AcDbPoint
 10
3474.528023568363
 20
838.6371902153937
 30
0.0
  0
POINT
  5
1360
330
F62
100
AcDbEntity
  8
DEFPOINTS
 62
     0
100
AcDbPoint
 10
3496.607882614873
 20
-211.3628097846058
 30
0.0
  0
POINT
  5
1361
330
F62
100
AcDbEntity
  8
DEFPOINTS
 62
     0
100
AcDbPoint
 10
3161.676445244889
 20
-211.3628097846057
 30
0.0
  0
ENDBLK
  5
F6D
330
F62
100
AcDbEntity
  8
0
100
AcDbBlockEnd
  0
BLOCK
  5
F78
330
F6E
100
AcDbEntity
  8
0
100
AcDbBlockBegin
  2
*D18
 70
     1
 10
0.0
 20
0.0
 30
0.0
  3
*D18
  1

  0
LINE
  5
136B
330
F6E
100
AcDbEntity
  8
SUNPOU
 62
     0
370
    -2
100
AcDbLine
 10
3486.607882614873
 20
-11.36280978460567
 30
0.0
 11
3284.141602784865
 21
-11.36280978460561
 31
0.0
  0
LINE
  5
136C
330
F6E
100
AcDbEntity
  8
SUNPOU
 62
     0
370
    -2
100
AcDbLine
 10
3486.607882614873
 20
-211.3628097846058
 30
0.0
 11
3284.141602784865
 21
-211.3628097846058
 31
0.0
  0
LINE
  5
136D
330
F6E
100
AcDbEntity
  8
SUNPOU
 62
     0
370
    -2
100
AcDbLine
 10
3294.141602784865
 20
-36.36280978460562
 30
0.0
 11
3294.141602784865
 21
-186.3628097846057
 31
0.0
  0
INSERT
  5
136E
330
F6E
100
AcDbEntity
  8
SUNPOU
 62
     0
370
    -2
100
AcDbBlockReference
  2
ARROW
 10
3294.141602784865
 20
-11.36280978460561
 30
0.0
 41
25.0
 42
25.0
 43
25.0
 50
90.0
  0
INSERT
  5
136F
330
F6E
100
AcDbEntity
  8
SUNPOU
 62
     0
370
    -2
100
AcDbBlockReference
  2
ARROW
 10
3294.141602784865
 20
-211.3628097846058
 30
0.0
 41
25.0
 42
25.0
 43
25.0
 50
270.0
  0
MTEXT
  5
1370
330
F6E
100
AcDbEntity
  8
SUNPOU
 62
     0
100
AcDbMText
 10
3264.141602784866
 20
-111.3628097846051
 30
0.0
 40
40.0
 41
0.0
 71
     5
 72
     1
  1
\A1;200
  7
BIGFONT
 11
0.0000000000000001
 21
1.0
 31
0.0
 73
     1
 44
1.0
  0
POINT
  5
1371
330
F6E
100
AcDbEntity
  8
DEFPOINTS
 62
     0
100
AcDbPoint
 10
3496.607882614873
 20
-11.36280978460567
 30
0.0
  0
POINT
  5
1372
330
F6E
100
AcDbEntity
  8
DEFPOINTS
 62
     0
100
AcDbPoint
 10
3496.607882614873
 20
-211.3628097846058
 30
0.0
  0
POINT
  5
1373
330
F6E
100
AcDbEntity
  8
DEFPOINTS
 62
     0
100
AcDbPoint
 10
3294.141602784865
 20
-211.3628097846058
 30
0.0
  0
ENDBLK
  5
F79
330
F6E
100
AcDbEntity
  8
0
100
AcDbBlockEnd
  0
BLOCK
  5
F84
330
F7A
100
AcDbEntity
  8
0
100
AcDbBlockBegin
  2
*D19
 70
     1
 10
0.0
 20
0.0
 30
0.0
  3
*D19
  1

  0
LINE
  5
1350
330
F7A
100
AcDbEntity
  8
SUNPOU
 62
     0
370
    -2
100
AcDbLine
 10
3496.607882614873
 20
-221.3628097846058
 30
0.0
 11
3496.607882614873
 21
-474.0020944228676
 31
0.0
  0
LINE
  5
1351
330
F7A
100
AcDbEntity
  8
SUNPOU
 62
     0
370
    -2
100
AcDbLine
 10
4446.607882614872
 20
-221.3628097846058
 30
0.0
 11
4446.607882614872
 21
-474.0020944228676
 31
0.0
  0
LINE
  5
1352
330
F7A
100
AcDbEntity
  8
SUNPOU
 62
     0
370
    -2
100
AcDbLine
 10
3521.607882614873
 20
-464.0020944228677
 30
0.0
 11
4421.607882614873
 21
-464.0020944228677
 31
0.0
  0
INSERT
  5
1353
330
F7A
100
AcDbEntity
  8
SUNPOU
 62
     0
370
    -2
100
AcDbBlockReference
  2
ARROW
 10
3496.607882614873
 20
-464.0020944228677
 30
0.0
 41
25.0
 42
25.0
 43
25.0
 50
180.0
  0
INSERT
  5
1354
330
F7A
100
AcDbEntity
  8
SUNPOU
 62
     0
370
    -2
100
AcDbBlockReference
  2
ARROW
 10
4446.607882614872
 20
-464.0020944228677
 30
0.0
 41
25.0
 42
25.0
 43
25.0
  0
MTEXT
  5
1355
330
F7A
100
AcDbEntity
  8
SUNPOU
 62
     0
100
AcDbMText
 10
3971.607882614873
 20
-434.0020944228676
 30
0.0
 40
40.0
 41
0.0
 71
     5
 72
     1
  1
\A1;950
  7
BIGFONT
 73
     1
 44
1.0
  0
POINT
  5
1356
330
F7A
100
AcDbEntity
  8
DEFPOINTS
 62
     0
100
AcDbPoint
 10
3496.607882614873
 20
-211.3628097846058
 30
0.0
  0
POINT
  5
1357
330
F7A
100
AcDbEntity
  8
DEFPOINTS
 62
     0
100
AcDbPoint
 10
4446.607882614872
 20
-211.3628097846058
 30
0.0
  0
POINT
  5
1358
330
F7A
100
AcDbEntity
  8
DEFPOINTS
 62
     0
100
AcDbPoint
 10
4446.607882614872
 20
-464.0020944228677
 30
0.0
  0
ENDBLK
  5
F85
330
F7A
100
AcDbEntity
  8
0
100
AcDbBlockEnd
  0
BLOCK
  5
F8C
330
F86
100
AcDbEntity
  8
0
100
AcDbBlockBegin
  2
*D20
 70
     1
 10
0.0
 20
0.0
 30
0.0
  3
*D20
  1

  0
LINE
  5
134B
330
F86
100
AcDbEntity
  8
SUNPOU
 62
     0
370
    -2
100
AcDbLine
 10
3812.875754432515
 20
344.0989451051923
 30
0.0
 11
4244.54799715594
 21
397.2332297782441
 31
0.0
  0
MTEXT
  5
134C
102
{ACAD_XDICTIONARY
360
1385
102
}
330
F86
100
AcDbEntity
  8
SUNPOU
 62
     0
100
AcDbMText
 10
3896.458830655144
 20
387.1324154886483
 30
0.0
 40
45.0
 41
0.0
 71
     5
 72
     1
  1
\A1;\U+2205600
  7
BIGFONT
 11
0.9925095074220662
 21
0.1221674165921823
 31
0.0
 73
     1
 44
1.0
  0
INSERT
  5
134D
330
F86
100
AcDbEntity
  8
SUNPOU
 62
     0
370
    -2
100
AcDbBlockReference
  2
ARROW
 10
4269.360734841493
 20
400.2874151930485
 30
0.0
 41
25.0
 42
25.0
 43
25.0
 50
7.017206908427755
  0
POINT
  5
134E
330
F86
100
AcDbEntity
  8
DEFPOINTS
 62
     0
100
AcDbPoint
 10
4269.360734841493
 20
400.2874151930485
 30
0.0
  0
POINT
  5
134F
330
F86
100
AcDbEntity
  8
DEFPOINTS
 62
     0
100
AcDbPoint
 10
3673.855030388251
 20
326.9869652377389
 30
0.0
  0
ENDBLK
  5
F8D
330
F86
100
AcDbEntity
  8
0
100
AcDbBlockEnd
  0
ENDSEC
  0
SECTION
  2
ENTITIES
  0
INSERT
  5
281
330
18
100
AcDbEntity
  8
0
100
AcDbBlockReference
  2
YA_N
 10
6.0
 20
5.0
 30
0.0
  0
TEXT
  5
2B1
330
18
100
AcDbEntity
  8
0
100
AcDbText
 10
2022.258315152742
 20
1600.278358436209
 30
0.0
 40
50.0
  1
S=1/10
  7
BIGFONT
 11
2022.258315152742
 21
1625.278358436209
 31
0.0
100
AcDbText
 73
     2
  0
DIMENSION
  5
37F
330
18
100
AcDbEntity
  8
SUNPOU
100
AcDbDimension
  2
*D8
 10
2348.825763317043
 20
-645.5866141512014
 30
0.0
 11
1523.825763317042
 21
-615.5866141512015
 31
0.0
 70
    32
 71
     5
 42
1650.0
  3
DIA1
100
AcDbAlignedDimension
 13
698.8257633170421
 23
-289.5306630595525
 33
0.0
 14
2348.825763317043
 24
-289.5306630595525
 34
0.0
100
AcDbRotatedDimension
1001
ACAD
1000
DSTYLE
1002
{
1070
    41
1040
2.5
1070
   140
1040
4.0
1070
   173
1070
     1
1070
   272
1070
     0
1070
   342
1005
0
1070
   343
1005
20
1070
   344
1005
20
1002
}
  0
LINE
  5
380
330
18
100
AcDbEntity
  8
0
100
AcDbLine
 10
2371.626259201242
 20
1180.156994348061
 30
0.0
 11
615.4413530293541
 21
1180.156994348061
 31
0.0
  0
LEADER
  5
383
330
18
100
AcDbEntity
  8
SUNPOU
  6
ByBlock
100
AcDbLeader
  3
DIA1
 73
     0
 74
     0
 75
     1
 40
70.0
 41
261.3333333333333
 76
     3
 10
1912.935629320694
 20
189.3684986143633
 30
0.0
 10
2078.464888003337
 20
-137.808426730072
 30
0.0
 10
2103.464888003337
 20
-137.808426730072
 30
0.0
340
384
1001
ACAD
1000
DSTYLE
1002
{
1070
    41
1040
2.5
1070
   140
1040
4.0
1070
   173
1070
     1
1070
   272
1070
     0
1070
   342
1005
0
1070
   343
1005
20
1070
   344
1005
20
1002
}
  0
MTEXT
  5
384
102
{ACAD_REACTORS
330
383
102
}
330
18
100
AcDbEntity
  8
SUNPOU
  6
ByBlock
100
AcDbMText
 10
2113.464888003337
 20
-92.80842673007203
 30
0.0
 40
70.0
 41
0.0
 71
     4
 72
     1
  1
{\Ftxt.shx,bigfont.shx;ﾌｨﾙﾀｰ砂}
 73
     1
 44
1.0
  0
LINE
  5
385
330
18
100
AcDbEntity
  8
0
  6
ByBlock
100
AcDbLine
 10
752.7801991763526
 20
1160.156994348062
 30
0.0
 11
792.7801991763526
 21
1120.156994348062
 31
0.0
  0
LINE
  5
386
330
18
100
AcDbEntity
  8
0
  6
ByBlock
100
AcDbLine
 10
772.7801991763526
 20
1180.156994348061
 30
0.0
 11
692.7801991763535
 21
1100.156994348062
 31
0.0
  0
LINE
  5
387
330
18
100
AcDbEntity
  8
0
  6
ByBlock
100
AcDbLine
 10
732.7801991763521
 20
1140.15699434806
 30
0.0
 11
772.7801991763508
 21
1100.156994348062
 31
0.0
  0
DIMENSION
  5
388
330
18
100
AcDbEntity
  8
SUNPOU
100
AcDbDimension
  2
*D9
 10
495.5912607002584
 20
738.6371902153943
 30
0.0
 11
495.5912607002582
 21
788.6371902153945
 31
0.0
 70
   160
 71
     5
 42
100.0000000000002
  3
DIA1
100
AcDbAlignedDimension
 13
594.3047831833946
 23
838.6371902153944
 33
0.0
 14
594.3285087895901
 24
738.6371902153943
 34
0.0
 50
90.0
100
AcDbRotatedDimension
1001
ACAD
1000
DSTYLE
1002
{
1070
    41
1040
2.5
1070
   140
1040
4.0
1070
   173
1070
     1
1070
   272
1070
     0
1070
   342
1005
0
1070
   343
1005
20
1070
   344
1005
20
1002
}
  0
DIMENSION
  5
389
330
18
100
AcDbEntity
  8
SUNPOU
100
AcDbDimension
  2
*D10
 10
495.5912607002582
 20
-11.36280978460544
 30
0.0
 11
465.5912607002583
 21
363.6371902153945
 31
0.0
 70
    32
 71
     5
 42
749.9999999999998
  3
DIA1
100
AcDbAlignedDimension
 13
594.3285087895901
 23
738.6371902153943
 33
0.0
 14
594.3285087895901
 24
-11.36280978460547
 34
0.0
 50
90.0
100
AcDbRotatedDimension
1001
ACAD
1000
DSTYLE
1002
{
1070
    41
1040
2.5
1070
   140
1040
4.0
1070
   173
1070
     1
1070
   272
1070
     0
1070
   342
1005
0
1070
   343
1005
20
1070
   344
1005
20
1002
}
  0
MTEXT
  5
38A
102
{ACAD_REACTORS
330
38D
102
}
330
18
100
AcDbEntity
  8
SUNPOU
  6
ByBlock
100
AcDbMText
 10
2084.899049945937
 20
-267.542010001679
 30
0.0
 40
70.0
 41
0.0
 71
     4
 72
     1
  1
{\Ftxt.shx,bigfont.shx;透水ｺﾝｸﾘｰﾄ管}
 73
     1
 44
1.0
  0
DIMENSION
  5
38B
330
18
100
AcDbEntity
  8
SUNPOU
100
AcDbDimension
  2
*D11
 10
329.2669063560205
 20
-211.3628097846053
 30
0.0
 11
299.2669063560206
 21
313.6371902153946
 31
0.0
 70
    32
 71
     5
 42
1049.999999999999
  3
DIA1
100
AcDbAlignedDimension
 13
594.3285087895901
 23
838.6371902153943
 33
0.0
 14
974.3285087895914
 24
-211.3628097846055
 34
0.0
 50
90.0
100
AcDbRotatedDimension
1001
ACAD
1000
DSTYLE
1002
{
1070
    41
1040
2.5
1070
   140
1040
4.0
1070
   173
1070
     1
1070
   272
1070
     0
1070
   342
1005
0
1070
   343
1005
20
1070
   344
1005
20
1002
}
  0
DIMENSION
  5
38C
330
18
100
AcDbEntity
  8
SUNPOU
100
AcDbDimension
  2
*D12
 10
495.5912607002582
 20
-211.3628097846053
 30
0.0
 11
465.5912607002583
 21
-111.3628097846053
 31
0.0
 70
    32
 71
     5
 42
199.9999999999999
  3
DIA1
100
AcDbAlignedDimension
 13
594.3285087895901
 23
-11.36280978460547
 33
0.0
 14
974.3285087895914
 24
-211.3628097846055
 34
0.0
 50
90.0
100
AcDbRotatedDimension
1001
ACAD
1000
DSTYLE
1002
{
1070
    41
1040
2.5
1070
   140
1040
4.0
1070
   173
1070
     1
1070
   272
1070
     0
1070
   342
1005
0
1070
   343
1005
20
1070
   344
1005
20
1002
}
  0
LEADER
  5
38D
330
18
100
AcDbEntity
  8
SUNPOU
  6
ByBlock
100
AcDbLeader
  3
DIA1
 73
     0
 74
     0
 75
     1
 40
70.00000000000001
 41
485.3333333333334
 76
     3
 10
1768.523411009708
 20
79.47515683711992
 30
0.0
 10
2049.899049945937
 20
-312.542010001679
 30
0.0
 10
2074.899049945936
 20
-312.542010001679
 30
0.0
340
38A
1001
ACAD
1000
DSTYLE
1002
{
1070
    41
1040
2.5
1070
   140
1040
4.0
1070
   173
1070
     1
1070
   272
1070
     0
1070
   342
1005
0
1070
   343
1005
20
1070
   344
1005
20
1002
}
  0
LINE
  5
38E
330
18
100
AcDbEntity
  8
0
  6
ByBlock
100
AcDbLine
 10
692.7801991763526
 20
1180.156994348061
 30
0.0
 11
612.7801991763536
 21
1100.156994348062
 31
0.0
  0
LINE
  5
38F
330
18
100
AcDbEntity
  8
0
  6
ByBlock
100
AcDbLine
 10
732.7801991763526
 20
1180.156994348061
 30
0.0
 11
652.7801991763535
 21
1100.156994348062
 31
0.0
  0
DIMENSION
  5
393
330
18
100
AcDbEntity
  8
SUNPOU
100
AcDbDimension
  2
*D13
 10
1948.71037424436
 20
-464.0020944228672
 30
0.0
 11
1523.768068780701
 21
-434.0020944228672
 31
0.0
 70
    32
 71
     5
 42
849.8846109273186
  3
DIA1
100
AcDbAlignedDimension
 13
1098.825763317042
 23
-211.3628097846055
 33
0.0
 14
1948.71037424436
 24
-211.2607875991954
 34
0.0
100
AcDbRotatedDimension
1001
ACAD
1000
DSTYLE
1002
{
1070
    41
1040
2.5
1070
   140
1040
4.0
1070
   173
1070
     1
1070
   272
1070
     0
1070
   342
1005
0
1070
   343
1005
20
1070
   344
1005
20
1002
}
  0
LINE
  5
395
330
18
100
AcDbEntity
  8
0
  6
ByBlock
100
AcDbLine
 10
912.7801991763526
 20
1160.156994348061
 30
0.0
 11
972.7801991763532
 21
1100.156994348063
 31
0.0
  0
LINE
  5
396
330
18
100
AcDbEntity
  8
0
  6
ByBlock
100
AcDbLine
 10
892.7801991763518
 20
1140.156994348062
 30
0.0
 11
932.7801991763527
 21
1100.156994348062
 31
0.0
  0
LINE
  5
397
330
18
100
AcDbEntity
  8
0
  6
ByBlock
100
AcDbLine
 10
932.7801991763527
 20
1180.156994348061
 30
0.0
 11
852.7801991763531
 21
1100.156994348062
 31
0.0
  0
LINE
  5
398
330
18
100
AcDbEntity
  8
0
  6
ByBlock
100
AcDbLine
 10
852.7801991763526
 20
1180.156994348061
 30
0.0
 11
772.7801991763526
 21
1100.156994348062
 31
0.0
  0
LINE
  5
399
330
18
100
AcDbEntity
  8
0
  6
ByBlock
100
AcDbLine
 10
892.7801991763526
 20
1180.156994348061
 30
0.0
 11
812.7801991763535
 21
1100.156994348062
 31
0.0
  0
LINE
  5
39A
330
18
100
AcDbEntity
  8
0
  6
ByBlock
100
AcDbLine
 10
772.7801991763526
 20
1180.156994348061
 30
0.0
 11
812.7801991763531
 21
1140.156994348062
 31
0.0
  0
LINE
  5
39B
330
18
100
AcDbEntity
  8
0
  6
ByBlock
100
AcDbLine
 10
932.7801991763527
 20
1180.156994348061
 30
0.0
 11
1012.780199176351
 21
1100.156994348062
 31
0.0
  0
TEXT
  5
3AB
330
18
100
AcDbEntity
  8
0
 62
     7
100
AcDbText
 10
1105.153757089972
 20
1596.844053342179
 30
0.0
 40
65.0
  1
透水管 K-600 構造図
  7
STYLE1
 72
     4
 11
1518.987090423306
 21
1629.344053342179
 31
0.0
100
AcDbText
  0
LINE
  5
C7B
330
18
100
AcDbEntity
  8
0
100
AcDbLine
 10
698.8257633170418
 20
838.6371902153944
 30
0.0
 11
2352.671917163196
 21
838.6371902153944
 31
0.0
  0
CIRCLE
  5
DB9
330
18
100
AcDbEntity
  8
0
100
AcDbCircle
 10
1523.825763317041
 20
363.6371902153945
 30
0.0
 40
375.0
  0
HATCH
  5
DBA
330
18
100
AcDbEntity
  8
SAISEKI
100
AcDbHatch
 10
0.0
 20
0.0
 30
0.0
210
0.0
220
0.0
230
1.0
  2
HONEY
 70
     0
 71
     0
 91
        5
 92
        7
 72
     1
 73
     1
 93
        4
 10
1395.07206376736
 20
634.6030272728925
 42
0.0
 10
1362.883638879941
 20
702.3444865372674
 42
0.2895076207442984
 10
1148.825763317041
 20
363.6371902153945
 42
0.0
 10
1223.825763317041
 20
363.6371902153945
 42
-0.2895076207442975
 97
        0
 92
        7
 72
     1
 73
     1
 93
        4
 10
1223.825763317041
 20
363.6371902153945
 42
0.0
 10
1148.825763317041
 20
363.6371902153945
 42
0.1107338138161556
 10
1184.725885108895
 20
203.5238784664319
 42
0.0
 10
1252.545860750524
 20
235.5465408162248
 42
-0.1107338138161552
 97
        0
 92
        7
 72
     1
 73
     1
 93
        4
 10
1876.75714950192
 20
236.8916315333639
 42
0.0
 10
1815.185794148523
 20
292.1575956874598
 42
-0.2731270216781974
 10
1602.028072731605
 20
74.00915496633786
 42
0.0
 10
1621.092612195406
 20
1.471261241846036
 42
0.2456812861855683
 97
        0
 92
        7
 72
     1
 73
     1
 93
        4
 10
1898.825763317042
 20
363.6371902153945
 42
0.0
 10
1823.825763317042
 20
363.6371902153945
 42
-0.0602174611153463
 10
1815.185794148523
 20
292.1575956874598
 42
0.0
 10
1876.75714950192
 20
236.8916315333639
 42
0.0864087054566319
 97
        0
 92
        7
 72
     1
 73
     1
 93
        4
 10
1787.220648392329
 20
630.5606521219423
 42
0.0
 10
1733.736059137248
 20
577.9679339473035
 42
-0.2016216610064718
 10
1823.825763317042
 20
363.6371902153945
 42
0.0
 10
1898.825763317042
 20
363.6371902153945
 42
0.2006421549289518
 97
        0
 75
     0
 76
     1
 52
20.0
 41
120.0
 77
     0
 78
     3
 53
20.0
 43
-5800.798622384371
 44
-2928.21018488263
 45
16.70011199620789
 46
19.90241839172501
 79
     2
 49
15.0
 49
-30.0
 53
140.0
 43
-5800.798622384371
 44
-2928.21018488263
 45
-25.58605592208444
 46
4.511512038898787
 79
     2
 49
15.0
 49
-30.0
 53
80.0
 43
-5800.798622384371
 44
-2928.21018488263
 45
-8.885943925876544
 46
24.4139304306238
 79
     2
 49
-29.99999999999997
 49
14.99999999999998
 47
4.524285756630684
 98
        5
 10
1322.010075124488
 20
610.7256875310098
 10
1186.136547157812
 20
262.3556709800208
 10
1693.397737899931
 20
90.4328103390593
 10
1842.85862357991
 20
325.6956802757189
 10
1829.271265866611
 20
493.0942456476108
  0
CIRCLE
  5
DBB
330
18
100
AcDbEntity
  8
0
100
AcDbCircle
 10
1523.825763317041
 20
363.6371902153945
 30
0.0
 40
300.0
  0
LINE
  5
DD5
330
18
100
AcDbEntity
  8
0
100
AcDbLine
 10
698.8257633170418
 20
838.6371902153944
 30
0.0
 11
1098.825763317042
 21
-211.3628097846055
 31
0.0
  0
LINE
  5
DD6
330
18
100
AcDbEntity
  8
0
100
AcDbLine
 10
1098.825763317042
 20
-211.3628097846055
 30
0.0
 11
1948.825763317042
 21
-211.3628097846055
 31
0.0
  0
LINE
  5
DD7
330
18
100
AcDbEntity
  8
0
100
AcDbLine
 10
1948.825763317042
 20
-211.3628097846055
 30
0.0
 11
2352.671917163196
 21
838.6371902153944
 31
0.0
  0
DIMENSION
  5
DD9
330
18
100
AcDbEntity
  8
SUNPOU
100
AcDbDimension
  2
*D14
 10
1226.072911090421
 20
326.9869652377397
 30
0.0
 11
1452.64715239656
 21
354.8758564974319
 31
0.0
 70
   163
 71
     5
 42
599.9999999999988
  3
DIA1
100
AcDbDiametricDimension
 15
1821.57861554366
 25
400.2874151930489
 35
0.0
 40
0.0
1001
ACAD
1000
DSTYLE
1002
{
1070
    41
1040
2.5
1070
   140
1040
4.5
1070
   173
1070
     1
1070
   272
1070
     0
1070
   342
1005
0
1070
   343
1005
20
1070
   344
1005
20
1002
}
  0
DIMENSION
  5
F1C
330
18
100
AcDbEntity
  8
SUNPOU
100
AcDbDimension
  2
*D20
 10
3673.855030388251
 20
326.9869652377389
 30
0.0
 11
3900.42927169439
 21
354.8758564974312
 31
0.0
 70
   163
 71
     5
 42
600.0000000000018
  3
DIA1
100
AcDbDiametricDimension
 15
4269.360734841493
 25
400.2874151930485
 35
0.0
 40
0.0
1001
ACAD
1000
DSTYLE
1002
{
1070
    41
1040
2.5
1070
   140
1040
4.5
1070
   173
1070
     1
1070
   272
1070
     0
1070
   342
1005
0
1070
   343
1005
20
1070
   344
1005
20
1002
}
  0
LINE
  5
F1D
330
18
100
AcDbEntity
  8
0
100
AcDbLine
 10
3496.607882614873
 20
-211.3628097846058
 30
0.0
 11
4446.607882614872
 21
-211.3628097846058
 31
0.0
  0
CIRCLE
  5
F1E
330
18
100
AcDbEntity
  8
0
100
AcDbCircle
 10
3971.607882614872
 20
363.6371902153942
 30
0.0
 40
300.0
  0
HATCH
  5
F1F
330
18
100
AcDbEntity
  8
SAISEKI
100
AcDbHatch
 10
0.0
 20
0.0
 30
0.0
210
0.0
220
0.0
230
1.0
  2
HONEY
 70
     0
 71
     0
 91
        5
 92
        7
 72
     1
 73
     1
 93
        4
 10
3842.854183065191
 20
634.6030272728921
 42
0.0
 10
3810.665758177772
 20
702.3444865372669
 42
0.2895076207442984
 10
3596.607882614872
 20
363.6371902153941
 42
0.0
 10
3671.607882614873
 20
363.6371902153941
 42
-0.2895076207442975
 97
        0
 92
        7
 72
     1
 73
     1
 93
        4
 10
3671.607882614873
 20
363.6371902153941
 42
0.0
 10
3596.607882614872
 20
363.6371902153941
 42
0.1107338138161556
 10
3632.508004406727
 20
203.5238784664315
 42
0.0
 10
3700.327980048355
 20
235.5465408162244
 42
-0.1107338138161552
 97
        0
 92
        7
 72
     1
 73
     1
 93
        4
 10
4324.539268799751
 20
236.8916315333635
 42
0.0
 10
4262.967913446354
 20
292.1575956874593
 42
-0.2731270216781974
 10
4049.810192029435
 20
74.0091549663374
 42
0.0
 10
4068.874731493237
 20
1.471261241845581
 42
0.2456812861855683
 97
        0
 92
        7
 72
     1
 73
     1
 93
        4
 10
4346.607882614872
 20
363.6371902153941
 42
0.0
 10
4271.607882614872
 20
363.6371902153941
 42
-0.0602174611153463
 10
4262.967913446354
 20
292.1575956874593
 42
0.0
 10
4324.539268799751
 20
236.8916315333635
 42
0.0864087054566319
 97
        0
 92
        7
 72
     1
 73
     1
 93
        4
 10
4235.00276769016
 20
630.5606521219418
 42
0.0
 10
4181.518178435079
 20
577.967933947303
 42
-0.2016216610064718
 10
4271.607882614872
 20
363.6371902153941
 42
0.0
 10
4346.607882614872
 20
363.6371902153941
 42
0.2006421549289518
 97
        0
 75
     0
 76
     1
 52
20.0
 41
120.0
 77
     0
 78
     3
 53
20.0
 43
-3353.016503086541
 44
-2928.21018488263
 45
16.70011199620789
 46
19.90241839172501
 79
     2
 49
15.0
 49
-30.0
 53
140.0
 43
-3353.016503086541
 44
-2928.21018488263
 45
-25.58605592208444
 46
4.511512038898787
 79
     2
 49
15.0
 49
-30.0
 53
80.0
 43
-3353.016503086541
 44
-2928.21018488263
 45
-8.885943925876544
 46
24.4139304306238
 79
     2
 49
-29.99999999999996
 49
14.99999999999998
 47
4.524285756630684
 98
        5
 10
3769.792194422319
 20
610.7256875310094
 10
3633.918666455643
 20
262.3556709800204
 10
4141.179857197762
 20
90.43281033905884
 10
4290.640742877741
 20
325.6956802757185
 10
4277.053385164442
 20
493.0942456476103
  0
CIRCLE
  5
F20
330
18
100
AcDbEntity
  8
0
100
AcDbCircle
 10
3971.607882614872
 20
363.6371902153942
 30
0.0
 40
375.0
  0
LINE
  5
F21
102
{ACAD_REACTORS
330
12C4
102
}
330
18
100
AcDbEntity
  8
0
100
AcDbLine
 10
3496.607882614874
 20
838.6371902153943
 30
0.0
 11
4446.607882614872
 21
838.6371902153937
 31
0.0
  0
TEXT
  5
F22
330
18
100
AcDbEntity
  8
0
 62
     7
100
AcDbText
 10
3552.935876387804
 20
1596.844053342178
 30
0.0
 40
65.0
  1
透水管 K-600 構造図
  7
STYLE1
 72
     4
 11
3966.769209721137
 21
1629.344053342179
 31
0.0
100
AcDbText
  0
DIMENSION
  5
F23
330
18
100
AcDbEntity
  8
SUNPOU
100
AcDbDimension
  2
*D19
 10
4446.607882614872
 20
-464.0020944228677
 30
0.0
 11
3971.607882614873
 21
-434.0020944228676
 31
0.0
 70
    32
 71
     5
 42
950.0000000000005
  3
DIA1
100
AcDbAlignedDimension
 13
3496.607882614873
 23
-211.3628097846058
 33
0.0
 14
4446.607882614872
 24
-211.3628097846058
 34
0.0
100
AcDbRotatedDimension
1001
ACAD
1000
DSTYLE
1002
{
1070
    41
1040
2.5
1070
   140
1040
4.0
1070
   173
1070
     1
1070
   272
1070
     0
1070
   342
1005
0
1070
   343
1005
20
1070
   344
1005
20
1002
}
  0
LINE
  5
F24
102
{ACAD_REACTORS
330
12C4
102
}
330
18
100
AcDbEntity
  8
0
100
AcDbLine
 10
4819.408378499073
 20
1180.156994348061
 30
0.0
 11
3063.223472327185
 21
1180.156994348061
 31
0.0
  0
LEADER
  5
F26
330
18
100
AcDbEntity
  8
SUNPOU
  6
ByBlock
100
AcDbLeader
  3
DIA1
 73
     0
 74
     0
 75
     1
 40
70.00000000000001
 41
485.3333333333334
 76
     3
 10
4226.616418354525
 20
88.69056503167213
 30
0.0
 10
4604.025836785747
 20
-314.6144894969479
 30
0.0
 10
4629.025836785747
 20
-314.6144894969479
 30
0.0
340
F27
1001
ACAD
1000
DSTYLE
1002
{
1070
    41
1040
2.5
1070
   140
1040
4.0
1070
   173
1070
     1
1070
   272
1070
     0
1070
   342
1005
0
1070
   343
1005
20
1070
   344
1005
20
1002
}
  0
MTEXT
  5
F27
102
{ACAD_REACTORS
330
F26
102
}
330
18
100
AcDbEntity
  8
SUNPOU
  6
ByBlock
100
AcDbMText
 10
4639.025836785747
 20
-269.614489496948
 30
0.0
 40
70.0
 41
0.0
 71
     4
 72
     1
  1
{\Ftxt.shx,bigfont.shx;透水ｺﾝｸﾘｰﾄ管}
 73
     1
 44
1.0
  0
DIMENSION
  5
F28
330
18
100
AcDbEntity
  8
SUNPOU
100
AcDbDimension
  2
*D17
 10
3161.676445244889
 20
-211.3628097846057
 30
0.0
 11
3131.676445244889
 21
313.6371902153947
 31
0.0
 70
    32
 71
     5
 42
1049.999999999999
  3
DIA1
100
AcDbAlignedDimension
 13
3474.528023568363
 23
838.6371902153937
 33
0.0
 14
3496.607882614873
 24
-211.3628097846058
 34
0.0
 50
90.0
100
AcDbRotatedDimension
1001
ACAD
1000
DSTYLE
1002
{
1070
    41
1040
2.5
1070
   140
1040
4.0
1070
   173
1070
     1
1070
   272
1070
     0
1070
   342
1005
0
1070
   343
1005
20
1070
   344
1005
20
1002
}
  0
DIMENSION
  5
F2A
330
18
100
AcDbEntity
  8
SUNPOU
100
AcDbDimension
  2
*D16
 10
3294.141602784865
 20
-11.36280978460561
 30
0.0
 11
3264.141602784866
 21
363.6371902153948
 31
0.0
 70
    32
 71
     5
 42
749.9999999999999
  3
DIA1
100
AcDbAlignedDimension
 13
3496.607882614873
 23
738.6371902153942
 33
0.0
 14
3496.607882614873
 24
-11.36280978460567
 34
0.0
 50
90.0
100
AcDbRotatedDimension
1001
ACAD
1000
DSTYLE
1002
{
1070
    41
1040
2.5
1070
   140
1040
4.0
1070
   173
1070
     1
1070
   272
1070
     0
1070
   342
1005
0
1070
   343
1005
20
1070
   344
1005
20
1002
}
  0
DIMENSION
  5
F2B
330
18
100
AcDbEntity
  8
SUNPOU
100
AcDbDimension
  2
*D18
 10
3294.141602784865
 20
-211.3628097846058
 30
0.0
 11
3264.141602784866
 21
-111.3628097846051
 31
0.0
 70
    32
 71
     5
 42
200.0000000000001
  3
DIA1
100
AcDbAlignedDimension
 13
3496.607882614873
 23
-11.36280978460567
 33
0.0
 14
3496.607882614873
 24
-211.3628097846058
 34
0.0
 50
90.0
100
AcDbRotatedDimension
1001
ACAD
1000
DSTYLE
1002
{
1070
    41
1040
2.5
1070
   140
1040
4.0
1070
   173
1070
     1
1070
   272
1070
     0
1070
   342
1005
0
1070
   343
1005
20
1070
   344
1005
20
1002
}
  0
DIMENSION
  5
F2C
330
18
100
AcDbEntity
  8
SUNPOU
100
AcDbDimension
  2
*D15
 10
3294.141602784865
 20
738.6371902153943
 30
0.0
 11
3294.141602784865
 21
788.6371902153948
 31
0.0
 70
   160
 71
     5
 42
100.0000000000001
  3
DIA1
100
AcDbAlignedDimension
 13
3496.607882614874
 23
838.6371902153943
 33
0.0
 14
3496.607882614873
 24
738.6371902153942
 34
0.0
 50
90.0
100
AcDbRotatedDimension
1001
ACAD
1000
DSTYLE
1002
{
1070
    41
1040
2.5
1070
   140
1040
4.0
1070
   173
1070
     1
1070
   272
1070
     0
1070
   342
1005
0
1070
   343
1005
20
1070
   344
1005
20
1002
}
  0
LINE
  5
F2D
330
18
100
AcDbEntity
  8
0
  6
ByBlock
100
AcDbLine
 10
3220.562318474184
 20
1180.156994348061
 30
0.0
 11
3260.562318474184
 21
1140.156994348061
 31
0.0
  0
LINE
  5
F2E
330
18
100
AcDbEntity
  8
0
  6
ByBlock
100
AcDbLine
 10
3300.562318474184
 20
1180.156994348061
 30
0.0
 11
3220.562318474184
 21
1100.156994348062
 31
0.0
  0
LINE
  5
F2F
330
18
100
AcDbEntity
  8
0
  6
ByBlock
100
AcDbLine
 10
3200.562318474184
 20
1160.156994348062
 30
0.0
 11
3240.562318474184
 21
1120.156994348061
 31
0.0
  0
LINE
  5
F30
330
18
100
AcDbEntity
  8
0
  6
ByBlock
100
AcDbLine
 10
3180.562318474184
 20
1180.156994348061
 30
0.0
 11
3100.562318474184
 21
1100.156994348062
 31
0.0
  0
LINE
  5
F31
330
18
100
AcDbEntity
  8
0
  6
ByBlock
100
AcDbLine
 10
3140.562318474183
 20
1180.156994348061
 30
0.0
 11
3060.562318474185
 21
1100.156994348062
 31
0.0
  0
LINE
  5
F32
330
18
100
AcDbEntity
  8
0
  6
ByBlock
100
AcDbLine
 10
3220.562318474184
 20
1180.156994348061
 30
0.0
 11
3140.562318474185
 21
1100.156994348062
 31
0.0
  0
LINE
  5
F33
330
18
100
AcDbEntity
  8
0
  6
ByBlock
100
AcDbLine
 10
3180.562318474183
 20
1140.15699434806
 30
0.0
 11
3220.562318474182
 21
1100.156994348062
 31
0.0
  0
LINE
  5
F34
330
18
100
AcDbEntity
  8
0
  6
ByBlock
100
AcDbLine
 10
3380.562318474183
 20
1180.156994348061
 30
0.0
 11
3300.562318474185
 21
1100.156994348062
 31
0.0
  0
LINE
  5
F35
330
18
100
AcDbEntity
  8
0
  6
ByBlock
100
AcDbLine
 10
3340.562318474183
 20
1140.156994348061
 30
0.0
 11
3380.562318474183
 21
1100.156994348062
 31
0.0
  0
LINE
  5
F36
330
18
100
AcDbEntity
  8
0
  6
ByBlock
100
AcDbLine
 10
3340.562318474184
 20
1180.156994348061
 30
0.0
 11
3260.562318474184
 21
1100.156994348062
 31
0.0
  0
LINE
  5
F37
330
18
100
AcDbEntity
  8
0
  6
ByBlock
100
AcDbLine
 10
3380.562318474183
 20
1180.156994348061
 30
0.0
 11
3460.562318474182
 21
1100.156994348062
 31
0.0
  0
LINE
  5
F38
330
18
100
AcDbEntity
  8
0
  6
ByBlock
100
AcDbLine
 10
3360.562318474184
 20
1160.15699434806
 30
0.0
 11
3420.562318474185
 21
1100.156994348063
 31
0.0
  0
LEADER
  5
F3A
330
18
100
AcDbEntity
  8
SUNPOU
  6
ByBlock
100
AcDbLeader
  3
DIA1
 73
     0
 74
     0
 75
     1
 40
70.0
 41
261.3333333333333
 76
     3
 10
4360.717748618525
 20
189.3684986143629
 30
0.0
 10
4539.911407821247
 20
-40.20875641553675
 30
0.0
 10
4564.911407821247
 20
-40.20875641553675
 30
0.0
340
F3C
1001
ACAD
1000
DSTYLE
1002
{
1070
    41
1040
2.5
1070
   140
1040
4.0
1070
   173
1070
     1
1070
   272
1070
     0
1070
   342
1005
0
1070
   343
1005
20
1070
   344
1005
20
1002
}
  0
MTEXT
  5
F3C
102
{ACAD_REACTORS
330
F3A
102
}
330
18
100
AcDbEntity
  8
SUNPOU
  6
ByBlock
100
AcDbMText
 10
4574.911407821247
 20
4.791243584463245
 30
0.0
 40
70.0
 41
0.0
 71
     4
 72
     1
  1
{\Ftxt.shx,bigfont.shx;ﾌｨﾙﾀｰ砂}
 73
     1
 44
1.0
  0
TEXT
  5
F3D
330
18
100
AcDbEntity
  8
0
100
AcDbText
 10
4470.040434450572
 20
1600.278358436209
 30
0.0
 40
50.0
  1
S=1/10
  7
BIGFONT
 11
4470.040434450572
 21
1625.278358436209
 31
0.0
100
AcDbText
 73
     2
  0
LEADER
  5
FFA
330
18
100
AcDbEntity
  8
SUNPOU
  6
ByBlock
100
AcDbLeader
  3
DIA1
 73
     0
 74
     0
 75
     1
 40
70.0
 41
317.3333333333333
 76
     3
 10
4360.717748618525
 20
993.2869780802297
 30
0.0
 10
4601.633763258112
 20
718.70972305033
 30
0.0
 10
4626.633763258111
 20
718.70972305033
 30
0.0
340
FFB
1001
ACAD
1000
DSTYLE
1002
{
1070
    41
1040
2.5
1070
   140
1040
4.0
1070
   173
1070
     1
1070
   272
1070
     0
1070
   342
1005
0
1070
   343
1005
20
1070
   344
1005
20
1002
}
  0
MTEXT
  5
FFB
102
{ACAD_REACTORS
330
FFA
102
}
330
18
100
AcDbEntity
  8
SUNPOU
  6
ByBlock
100
AcDbMText
 10
4636.633763258111
 20
763.70972305033
 30
0.0
 40
70.0
 41
0.0
 71
     4
 72
     1
  1
{\Ftxt.shx,bigfont.shx;埋戻し土}
 73
     1
 44
1.0
  0
MTEXT
  5
107A
330
18
100
AcDbEntity
  8
0
100
AcDbMText
 10
1920.511933867809
 20
-809.9302575685184
 30
0.0
 40
35.0
 41
431.0406971753466
 71
     1
 72
     5
  1
{\C1;製品長 Ｌ＝1.000ｍ}
  7
BIGFONT
 73
     1
 44
1.0
  0
MTEXT
  5
107B
330
18
100
AcDbEntity
  8
0
100
AcDbMText
 10
4368.29405316564
 20
-809.9302575685188
 30
0.0
 40
35.0
 41
431.0406971753466
 71
     1
 72
     5
  1
{\C1;製品長 Ｌ＝1.000ｍ}
  7
BIGFONT
 73
     1
 44
1.0
  0
LINE
  5
114E
102
{ACAD_REACTORS
330
12C4
102
}
330
18
100
AcDbEntity
  8
0
100
AcDbLine
 10
3496.607882614873
 20
-211.3628097846058
 30
0.0
 11
3496.607882614873
 21
1180.156994348061
 31
0.0
  0
LINE
  5
114F
102
{ACAD_REACTORS
330
12C4
102
}
330
18
100
AcDbEntity
  8
0
100
AcDbLine
 10
4446.607882614872
 20
-211.3628097846058
 30
0.0
 11
4446.607882614872
 21
1180.156994348061
 31
0.0
  0
HATCH
  5
12C4
330
18
100
AcDbEntity
  8
0
100
AcDbHatch
 10
0.0
 20
0.0
 30
0.0
210
0.0
220
0.0
230
1.0
  2
ANSI31
 70
     0
 71
     1
 91
        1
 92
        7
 72
     0
 73
     1
 93
        4
 10
4446.607882614872
 20
838.6371902153936
 10
4446.607882614872
 20
1180.156994348061
 10
3496.607882614873
 20
1180.156994348061
 10
3496.607882614873
 20
838.6371902153941
 97
        4
330
F24
330
114E
330
F21
330
114F
 75
     0
 76
     1
 52
0.0
 41
200.0
 77
     0
 78
     1
 53
45.0
 43
269.2775480543724
 44
-0.0000000000004547
 45
-17.67766952966368
 46
17.67766952966369
 79
     0
 47
4.748650965643596
 98
        1
 10
3727.393980807262
 20
941.6751469281766
1001
ACAD
1010
0.0
1020
0.0
1030
0.0
  0
HATCH
  5
12DF
330
18
100
AcDbEntity
  8
0
100
AcDbHatch
 10
0.0
 20
0.0
 30
0.0
210
0.0
220
0.0
230
1.0
  2
AR-SAND
 70
     0
 71
     0
 91
        2
 92
        7
 72
     1
 73
     1
 93
        6
 10
1611.029119019058
 20
728.3570481259662
 42
0.0
 10
1637.396749541253
 20
838.6371902153944
 42
0.0
 10
698.8257633170414
 20
838.6371902153944
 42
0.0
 10
961.9740634083651
 20
147.8729024756709
 42
0.0
 10
1173.751790274067
 20
229.200538226783
 42
-0.0919221418999164
 10
1148.825763317041
 20
363.6371902153945
 42
-0.4847480676226492
 97
        0
 92
        7
 72
     1
 73
     1
 93
        5
 10
2121.95510676605
 20
238.7734831828151
 42
0.0
 10
1890.912335329301
 20
287.005286622388
 42
-0.4202257607818086
 10
1439.691349461621
 20
-1.802819095579764
 42
0.0
 10
1391.444834206186
 20
-211.3628097846055
 42
0.0
 10
1948.825763317042
 20
-211.3628097846055
 42
0.0
 97
        0
 75
     0
 76
     1
 52
0.0
 41
20.0
 77
     0
 78
     4
 53
37.5
 43
0.0
 44
0.0
 45
-1.259867162192163
 46
38.53647538026317
 79
     6
 49
0.0
 49
-30.4
 49
0.0
 49
-34.0
 49
0.0
 49
-32.5
 53
7.499999999999999
 43
0.0
 44
0.0
 45
35.39553410535454
 46
56.4429213045948
 79
     6
 49
0.0
 49
-16.4
 49
0.0
 49
-27.4
 49
0.0
 49
-10.5
 53
327.5
 43
-24.6
 44
0.0
 45
62.2828372350299
 46
0.11318107073929
 79
     6
 49
0.0
 49
-10.0
 49
0.0
 49
-36.0
 49
0.0
 49
-47.0
 53
317.5
 43
-24.6
 44
0.0
 45
60.12253209144586
 46
17.55351129868498
 79
     6
 49
0.0
 49
-5.0
 49
0.0
 49
-23.6
 49
0.0
 49
-27.0
 47
4.748650965643596
 98
        2
 10
987.5053424384386
 20
542.7884507222443
 10
1723.937488625896
 20
-103.0280818521896
1001
ACAD
1010
0.0
1020
0.0
1030
0.0
  0
HATCH
  5
12F9
330
18
100
AcDbEntity
  8
0
100
AcDbHatch
 10
0.0
 20
0.0
 30
0.0
210
0.0
220
0.0
230
1.0
  2
AR-SAND
 70
     0
 71
     0
 91
        2
 92
        7
 72
     1
 73
     1
 93
        6
 10
4030.794484680175
 20
733.9369959619857
 42
0.0
 10
4047.529164626719
 20
838.6371902153939
 42
0.0
 10
3496.607882614873
 20
838.6371902153943
 42
0.0
 10
3496.607882614873
 20
215.0809389254376
 42
0.0
 10
3613.703374041413
 20
251.702554187084
 42
-0.0759235347841432
 10
3596.607882614872
 20
363.6371902153942
 42
-0.4614350246202044
 97
        0
 92
        7
 72
     1
 73
     1
 93
        5
 10
4446.607882614874
 20
297.1009583893339
 42
0.0
 10
4342.982146963426
 20
311.6164656955459
 42
-0.4472613374996059
 10
3878.58765129056
 20
0.3573579037567356
 42
0.0
 10
3824.375285993334
 20
-211.3628097846058
 42
0.0
 10
4446.607882614872
 20
-211.3628097846059
 42
0.0
 97
        0
 75
     0
 76
     1
 52
0.0
 41
20.0
 77
     0
 78
     4
 53
37.5
 43
269.2775480543724
 44
-0.0000000000004547
 45
-1.259867162192163
 46
38.53647538026317
 79
     6
 49
0.0
 49
-30.4
 49
0.0
 49
-34.0
 49
0.0
 49
-32.5
 53
7.499999999999999
 43
269.2775480543724
 44
-0.0000000000004547
 45
35.39553410535454
 46
56.4429213045948
 79
     6
 49
0.0
 49
-16.4
 49
0.0
 49
-27.4
 49
0.0
 49
-10.5
 53
327.5
 43
244.6775480543724
 44
-0.0000000000004547
 45
62.2828372350299
 46
0.11318107073929
 79
     6
 49
0.0
 49
-10.0
 49
0.0
 49
-36.0
 49
0.0
 49
-47.0
 53
317.5
 43
244.6775480543724
 44
-0.0000000000004547
 45
60.12253209144586
 46
17.55351129868498
 79
     6
 49
0.0
 49
-5.0
 49
0.0
 49
-23.6
 49
0.0
 49
-27.0
 47
4.748650965643596
 98
        2
 10
3580.107562410712
 20
595.0236121612647
 10
4078.980934278109
 20
-107.776706331821
1001
ACAD
1010
0.0
1020
0.0
1030
0.0
  0
LWPOLYLINE
  5
133C
330
18
100
AcDbEntity
  8
KL
  6
ByBlock
 62
     0
 48
2.0
100
AcDbPolyline
 90
        4
 70
     1
 43
0.0
 10
2711.607882614873
 20
2131.349656682299
 10
2711.60788261487
 20
-1432.6503433177
 10
191.6078826148691
 20
-1432.650343317698
 10
191.607882614873
 20
2131.349656682302
  0
LWPOLYLINE
  5
1346
330
18
100
AcDbEntity
  8
KL
  6
ByBlock
 62
     0
 48
2.0
100
AcDbPolyline
 90
        4
 70
     1
 43
0.0
 10
5231.607882614873
 20
2131.349656682296
 10
5231.60788261487
 20
-1432.650343317703
 10
2711.607882614869
 20
-1432.6503433177
 10
2711.607882614873
 20
2131.349656682299
  0
LINE
  5
1347
330
18
100
AcDbEntity
  8
0
100
AcDbLine
 10
3971.607882614873
 20
-464.0020944228677
 30
0.0
 11
3971.607882614873
 21
-464.0020944228677
 31
0.0
  0
ENDSEC
  0
SECTION
  2
OBJECTS
  0
DICTIONARY
  5
C
330
0
100
AcDbDictionary
281
     1
  3
ACAD_COLOR
350
10A8
  3
ACAD_GROUP
350
D
  3
ACAD_LAYOUT
350
2D0
  3
ACAD_MATERIAL
350
107E
  3
ACAD_MLEADERSTYLE
350
10CD
  3
ACAD_MLINESTYLE
350
E
  3
ACAD_PLOTSETTINGS
350
2D1
  3
ACAD_PLOTSTYLENAME
350
2CE
  3
ACAD_SCALELIST
350
10AB
  3
ACAD_TABLESTYLE
350
10A9
  3
ACAD_VISUALSTYLE
350
1097
  3
ACDB_RECOMPOSE_DATA
350
10EC
  3
AcDbVariableDictionary
350
2D8
  0
DICTIONARY
  5
10D4
330
F
100
AcDbDictionary
280
     1
281
     1
  3
ADSK_XREC_LAYER_RECONCILED
360
10D5
  0
DICTIONARY
  5
10D6
330
49
100
AcDbDictionary
280
     1
281
     1
  3
ADSK_XREC_LAYER_RECONCILED
360
10D7
  0
DICTIONARY
  5
10D8
330
4D
100
AcDbDictionary
280
     1
281
     1
  3
ADSK_XREC_LAYER_RECONCILED
360
10D9
  0
DICTIONARY
  5
10DA
330
4F
100
AcDbDictionary
280
     1
281
     1
  3
ADSK_XREC_LAYER_RECONCILED
360
10DB
  0
DICTIONARY
  5
1334
330
1333
100
AcDbDictionary
280
     1
281
     1
  0
DICTIONARY
  5
1130
330
18
100
AcDbDictionary
280
     1
281
     1
  3
ACAD_SORTENTS
360
1131
  0
DICTIONARY
  5
137F
330
FCA
100
AcDbDictionary
280
     1
281
     1
  3
ACAD_MTEXT_2008_RT
360
1380
  0
DICTIONARY
  5
1385
330
134C
100
AcDbDictionary
280
     1
281
     1
  3
ACAD_MTEXT_2008_RT
360
1386
  0
DICTIONARY
  5
10A8
102
{ACAD_REACTORS
330
C
102
}
330
C
100
AcDbDictionary
281
     1
  0
DICTIONARY
  5
D
102
{ACAD_REACTORS
330
C
102
}
330
C
100
AcDbDictionary
281
     1
  0
DICTIONARY
  5
2D0
102
{ACAD_REACTORS
330
C
102
}
330
C
100
AcDbDictionary
281
     1
  3
Model
350
2D2
  3
ﾚｲｱｳﾄ1
350
2D3
  0
DICTIONARY
  5
107E
102
{ACAD_REACTORS
330
C
102
}
330
C
100
AcDbDictionary
281
     1
  3
ByBlock
350
1087
  3
ByLayer
350
107F
  3
Global
350
108F
  0
DICTIONARY
  5
10CD
102
{ACAD_REACTORS
330
C
102
}
330
C
100
AcDbDictionary
281
     1
  3
Standard
350
10CE
  0
DICTIONARY
  5
E
102
{ACAD_REACTORS
330
C
102
}
330
C
100
AcDbDictionary
281
     1
  3
STANDARD
350
1B
  0
DICTIONARY
  5
2D1
102
{ACAD_REACTORS
330
C
102
}
330
C
100
AcDbDictionary
281
     1
  0
ACDBDICTIONARYWDFLT
  5
2CE
102
{ACAD_REACTORS
330
C
102
}
330
C
100
AcDbDictionary
281
     1
  3
Normal
350
2CF
100
AcDbDictionaryWithDefault
340
2CF
  0
DICTIONARY
  5
10AB
102
{ACAD_REACTORS
330
C
102
}
330
C
100
AcDbDictionary
281
     1
  3
A0
350
10AC
  3
A1
350
10AD
  3
A2
350
10AE
  3
A3
350
10AF
  3
A4
350
10B0
  3
A5
350
10B1
  3
A6
350
10B2
  3
A7
350
10B3
  3
A8
350
10B4
  3
A9
350
10B5
  3
B0
350
10B6
  3
B1
350
10B7
  3
B2
350
10B8
  3
B3
350
10B9
  3
B4
350
10BA
  3
B5
350
10BB
  3
B6
350
10BC
  3
B7
350
10BD
  3
B8
350
10BE
  3
B9
350
10BF
  3
C0
350
10C0
  3
C1
350
10C1
  3
C2
350
10C2
  3
C3
350
10C3
  3
C4
350
10C4
  3
C5
350
10C5
  3
C6
350
10C6
  3
C7
350
10C7
  3
C8
350
10C8
  3
C9
350
10C9
  3
D0
350
10CA
  3
D1
350
10CB
  3
D2
350
10CC
  0
DICTIONARY
  5
10A9
102
{ACAD_REACTORS
330
C
102
}
330
C
100
AcDbDictionary
281
     1
  3
Standard
350
10AA
  0
DICTIONARY
  5
1097
102
{ACAD_REACTORS
330
C
102
}
330
C
100
AcDbDictionary
281
     1
  3
2dWireframe
350
109D
  3
3D Hidden
350
109F
  3
3dWireframe
350
109E
  3
Basic
350
109C
  3
Brighten
350
10A3
  3
ColorChange
350
10A7
  3
Conceptual
350
10A0
  3
Dim
350
10A2
  3
Facepattern
350
10A6
  3
Flat
350
1098
  3
FlatWithEdges
350
1099
  3
Gouraud
350
109A
  3
GouraudWithEdges
350
109B
  3
Linepattern
350
10A5
  3
Realistic
350
10A1
  3
Thicken
350
10A4
  0
XRECORD
  5
10EC
102
{ACAD_REACTORS
330
C
102
}
330
C
100
AcDbXrecord
280
     1
 90
        1
330
10AA
  0
DICTIONARY
  5
2D8
102
{ACAD_REACTORS
330
C
102
}
330
C
100
AcDbDictionary
281
     1
  3
CANNOSCALE
350
10DE
  3
CMLEADERSTYLE
350
10DD
  3
CTABLESTYLE
350
10DC
  3
LIGHTINGUNITS
350
10EE
  3
MSLTSCALE
350
10ED
  3
SORTENTS
350
2D9
  0
XRECORD
  5
10D5
102
{ACAD_REACTORS
330
10D4
102
}
330
10D4
100
AcDbXrecord
280
     1
290
     1
  0
XRECORD
  5
10D7
102
{ACAD_REACTORS
330
10D6
102
}
330
10D6
100
AcDbXrecord
280
     1
290
     1
  0
XRECORD
  5
10D9
102
{ACAD_REACTORS
330
10D8
102
}
330
10D8
100
AcDbXrecord
280
     1
290
     1
  0
XRECORD
  5
10DB
102
{ACAD_REACTORS
330
10DA
102
}
330
10DA
100
AcDbXrecord
280
     1
290
     1
  0
SORTENTSTABLE
  5
1131
102
{ACAD_REACTORS
330
1130
102
}
330
1130
100
AcDbSortentsTable
330
18
331
F22
  5
F2C
331
39B
  5
39B
331
F23
  5
F2D
331
F24
  5
F2E
331
F26
  5
F2F
331
F27
  5
F30
331
F28
  5
F31
331
3AB
  5
3AB
331
F2A
  5
F32
331
F2B
  5
F33
331
F2C
  5
F34
331
F2D
  5
F35
331
F2E
  5
F36
331
F2F
  5
F37
331
F30
  5
F38
331
114E
  5
12AB
331
F31
  5
F3A
331
114F
  5
12AC
331
F32
  5
F3C
331
F33
  5
F3D
331
F34
  5
FD5
331
F35
  5
FFB
331
F36
  5
107A
331
DD5
  5
DD9
331
F37
  5
107B
331
DD6
  5
F1C
331
37F
  5
37F
331
DD7
  5
F1D
331
380
  5
380
331
DD9
  5
F1E
331
383
  5
383
331
384
  5
384
331
FFA
  5
12AD
331
385
  5
385
331
FFB
  5
12AE
331
386
  5
386
331
387
  5
387
331
388
  5
388
331
389
  5
389
331
38A
  5
38A
331
38B
  5
38B
331
38C
  5
38C
331
107A
  5
12AF
331
38D
  5
38D
331
107B
  5
12B0
331
38E
  5
38E
331
12DF
  5
C7B
331
38F
  5
38F
331
12F9
  5
F23
331
393
  5
393
331
395
  5
395
331
F1C
  5
F1F
331
396
  5
396
331
F1D
  5
F24
331
397
  5
397
331
F1E
  5
F26
331
F1F
  5
F27
331
281
  5
281
331
C7B
  5
DBB
331
F38
  5
10FC
331
F3A
  5
112F
331
F3C
  5
12A9
331
F3D
  5
12AA
331
DB9
  5
DD5
331
2B1
  5
2B1
331
DBA
  5
DD6
331
DBB
  5
DD7
331
12C4
  5
F2A
331
398
  5
398
331
399
  5
399
331
F20
  5
F28
331
39A
  5
39A
331
F21
  5
F2B
  0
XRECORD
  5
1380
102
{ACAD_REACTORS
330
137F
102
}
330
137F
100
AcDbXrecord
280
     1
 40
5733.0
  1
\A1;\U+2205600
  0
XRECORD
  5
1386
102
{ACAD_REACTORS
330
1385
102
}
330
1385
100
AcDbXrecord
280
     1
 40
5733.0
  1
\A1;\U+2205600
  0
LAYOUT
  5
2D2
102
{ACAD_REACTORS
330
2D0
102
}
330
2D0
100
AcDbPlotSettings
  1

  2
EPSON LP-8000SX
  4

  6

 40
0.0
 41
0.0
 42
0.0
 43
0.0
 44
0.0
 45
0.0
 46
0.0
 47
0.0
 48
0.0
 49
0.0
140
0.0
141
0.0
142
1.0
143
1.0
 70
  1712
 72
     0
 73
     0
 74
     0
  7

 75
     0
147
1.0
 76
     0
 77
     2
 78
   300
148
0.0
149
0.0
100
AcDbLayout
  1
Model
 70
     1
 71
     0
 10
0.0
 20
0.0
 11
12.0
 21
9.0
 12
0.0
 22
0.0
 32
0.0
 14
0.0
 24
0.0
 34
0.0
 15
0.0
 25
0.0
 35
0.0
146
0.0
 13
0.0
 23
0.0
 33
0.0
 16
1.0
 26
0.0
 36
0.0
 17
0.0
 27
1.0
 37
0.0
 76
     0
330
18
331
107C
  0
LAYOUT
  5
2D3
102
{ACAD_REACTORS
330
2D0
102
}
330
2D0
100
AcDbPlotSettings
  1

  2
EPSON LP-8000SX
  4

  6

 40
0.0
 41
0.0
 42
0.0
 43
0.0
 44
0.0
 45
0.0
 46
0.0
 47
0.0
 48
0.0
 49
0.0
140
0.0
141
0.0
142
1.0
143
1.0
 70
   688
 72
     0
 73
     0
 74
     5
  7

 75
    16
147
1.0
 76
     0
 77
     2
 78
   300
148
0.0
149
0.0
100
AcDbLayout
  1
ﾚｲｱｳﾄ1
 70
     1
 71
     1
 10
0.0
 20
0.0
 11
12.0
 21
9.0
 12
0.0
 22
0.0
 32
0.0
 14
1.000000000000000E+20
 24
1.000000000000000E+20
 34
1.000000000000000E+20
 15
-1.000000000000000E+20
 25
-1.000000000000000E+20
 35
-1.000000000000000E+20
146
0.0
 13
0.0
 23
0.0
 33
0.0
 16
1.0
 26
0.0
 36
0.0
 17
0.0
 27
1.0
 37
0.0
 76
     0
330
15
  0
MATERIAL
  5
1087
102
{ACAD_XDICTIONARY
360
1088
102
}
102
{ACAD_REACTORS
330
107E
102
}
330
107E
100
AcDbMaterial
  1
ByBlock
 72
     0
 43
0.0208333333333333
 43
0.0
 43
0.0
 43
0.0
 43
0.0
 43
0.0208333333333333
 43
0.0
 43
0.0
 43
0.0
 43
0.0
 43
1.0
 43
0.0
 43
0.0
 43
0.0
 43
0.0
 43
1.0
 77
     0
 47
0.0208333333333333
 47
0.0
 47
0.0
 47
0.0
 47
0.0
 47
0.0208333333333333
 47
0.0
 47
0.0
 47
0.0
 47
0.0
 47
1.0
 47
0.0
 47
0.0
 47
0.0
 47
0.0
 47
1.0
171
     0
 49
0.0208333333333333
 49
0.0
 49
0.0
 49
0.0
 49
0.0
 49
0.0208333333333333
 49
0.0
 49
0.0
 49
0.0
 49
0.0
 49
1.0
 49
0.0
 49
0.0
 49
0.0
 49
0.0
 49
1.0
175
     0
142
0.0208333333333333
142
0.0
142
0.0
142
0.0
142
0.0
142
0.0208333333333333
142
0.0
142
0.0
142
0.0
142
0.0
142
1.0
142
0.0
142
0.0
142
0.0
142
0.0
142
1.0
179
     0
144
0.0208333333333333
144
0.0
144
0.0
144
0.0
144
0.0
144
0.0208333333333333
144
0.0
144
0.0
144
0.0
144
0.0
144
1.0
144
0.0
144
0.0
144
0.0
144
0.0
144
1.0
147
0.0208333333333333
147
0.0
147
0.0
147
0.0
147
0.0
147
0.0208333333333333
147
0.0
147
0.0
147
0.0
147
0.0
147
1.0
147
0.0
147
0.0
147
0.0
147
0.0
147
1.0
  0
MATERIAL
  5
107F
102
{ACAD_XDICTIONARY
360
1080
102
}
102
{ACAD_REACTORS
330
107E
102
}
330
107E
100
AcDbMaterial
  1
ByLayer
 72
     0
 43
0.0208333333333333
 43
0.0
 43
0.0
 43
0.0
 43
0.0
 43
0.0208333333333333
 43
0.0
 43
0.0
 43
0.0
 43
0.0
 43
1.0
 43
0.0
 43
0.0
 43
0.0
 43
0.0
 43
1.0
 77
     0
 47
0.0208333333333333
 47
0.0
 47
0.0
 47
0.0
 47
0.0
 47
0.0208333333333333
 47
0.0
 47
0.0
 47
0.0
 47
0.0
 47
1.0
 47
0.0
 47
0.0
 47
0.0
 47
0.0
 47
1.0
171
     0
 49
0.0208333333333333
 49
0.0
 49
0.0
 49
0.0
 49
0.0
 49
0.0208333333333333
 49
0.0
 49
0.0
 49
0.0
 49
0.0
 49
1.0
 49
0.0
 49
0.0
 49
0.0
 49
0.0
 49
1.0
175
     0
142
0.0208333333333333
142
0.0
142
0.0
142
0.0
142
0.0
142
0.0208333333333333
142
0.0
142
0.0
142
0.0
142
0.0
142
1.0
142
0.0
142
0.0
142
0.0
142
0.0
142
1.0
179
     0
144
0.0208333333333333
144
0.0
144
0.0
144
0.0
144
0.0
144
0.0208333333333333
144
0.0
144
0.0
144
0.0
144
0.0
144
1.0
144
0.0
144
0.0
144
0.0
144
0.0
144
1.0
147
0.0208333333333333
147
0.0
147
0.0
147
0.0
147
0.0
147
0.0208333333333333
147
0.0
147
0.0
147
0.0
147
0.0
147
1.0
147
0.0
147
0.0
147
0.0
147
0.0
147
1.0
  0
MATERIAL
  5
108F
102
{ACAD_XDICTIONARY
360
1090
102
}
102
{ACAD_REACTORS
330
107E
102
}
330
107E
100
AcDbMaterial
  1
Global
 72
     0
 43
0.0208333333333333
 43
0.0
 43
0.0
 43
0.0
 43
0.0
 43
0.0208333333333333
 43
0.0
 43
0.0
 43
0.0
 43
0.0
 43
1.0
 43
0.0
 43
0.0
 43
0.0
 43
0.0
 43
1.0
 77
     0
 47
0.0208333333333333
 47
0.0
 47
0.0
 47
0.0
 47
0.0
 47
0.0208333333333333
 47
0.0
 47
0.0
 47
0.0
 47
0.0
 47
1.0
 47
0.0
 47
0.0
 47
0.0
 47
0.0
 47
1.0
171
     0
 49
0.0208333333333333
 49
0.0
 49
0.0
 49
0.0
 49
0.0
 49
0.0208333333333333
 49
0.0
 49
0.0
 49
0.0
 49
0.0
 49
1.0
 49
0.0
 49
0.0
 49
0.0
 49
0.0
 49
1.0
175
     0
142
0.0208333333333333
142
0.0
142
0.0
142
0.0
142
0.0
142
0.0208333333333333
142
0.0
142
0.0
142
0.0
142
0.0
142
1.0
142
0.0
142
0.0
142
0.0
142
0.0
142
1.0
179
     0
144
0.0208333333333333
144
0.0
144
0.0
144
0.0
144
0.0
144
0.0208333333333333
144
0.0
144
0.0
144
0.0
144
0.0
144
1.0
144
0.0
144
0.0
144
0.0
144
0.0
144
1.0
147
0.0208333333333333
147
0.0
147
0.0
147
0.0
147
0.0
147
0.0208333333333333
147
0.0
147
0.0
147
0.0
147
0.0
147
1.0
147
0.0
147
0.0
147
0.0
147
0.0
147
1.0
  0
MLEADERSTYLE
  5
10CE
102
{ACAD_REACTORS
330
10CD
102
}
330
10CD
100
AcDbMLeaderStyle
170
     2
171
     1
172
     0
 90
        2
 40
0.0
 41
0.0
173
     1
 91
-1056964608
340
12
 92
       -2
290
     1
 42
0.09
291
     1
 43
0.36
  3
Standard
 44
0.18
300

342
10
174
     1
178
     6
175
     1
176
     0
 93
-1056964608
 45
0.18
292
     0
297
     0
 46
0.18
 94
-1056964608
 47
1.0
 49
1.0
140
1.0
293
     1
141
0.0
294
     1
177
     0
142
1.0
295
     0
296
     0
143
0.125
1001
ACAD_MLEADERVER
1070
     2
  0
MLINESTYLE
  5
1B
102
{ACAD_REACTORS
330
E
102
}
330
E
100
AcDbMlineStyle
  2
STANDARD
 70
     0
  3

 62
     0
 51
90.0
 52
90.0
 71
     2
 49
0.5
 62
   256
  6
BYLAYER
 49
-0.5
 62
   256
  6
BYLAYER
  0
ACDBPLACEHOLDER
  5
2CF
102
{ACAD_REACTORS
330
2CE
102
}
330
2CE
  0
SCALE
  5
10AC
102
{ACAD_REACTORS
330
10AB
102
}
330
10AB
100
AcDbScale
 70
     0
300
1:1
140
1.0
141
1.0
290
     1
  0
SCALE
  5
10AD
102
{ACAD_REACTORS
330
10AB
102
}
330
10AB
100
AcDbScale
 70
     0
300
1:2
140
1.0
141
2.0
290
     0
  0
SCALE
  5
10AE
102
{ACAD_REACTORS
330
10AB
102
}
330
10AB
100
AcDbScale
 70
     0
300
1:4
140
1.0
141
4.0
290
     0
  0
SCALE
  5
10AF
102
{ACAD_REACTORS
330
10AB
102
}
330
10AB
100
AcDbScale
 70
     0
300
1:5
140
1.0
141
5.0
290
     0
  0
SCALE
  5
10B0
102
{ACAD_REACTORS
330
10AB
102
}
330
10AB
100
AcDbScale
 70
     0
300
1:8
140
1.0
141
8.0
290
     0
  0
SCALE
  5
10B1
102
{ACAD_REACTORS
330
10AB
102
}
330
10AB
100
AcDbScale
 70
     0
300
1:10
140
1.0
141
10.0
290
     0
  0
SCALE
  5
10B2
102
{ACAD_REACTORS
330
10AB
102
}
330
10AB
100
AcDbScale
 70
     0
300
1:16
140
1.0
141
16.0
290
     0
  0
SCALE
  5
10B3
102
{ACAD_REACTORS
330
10AB
102
}
330
10AB
100
AcDbScale
 70
     0
300
1:20
140
1.0
141
20.0
290
     0
  0
SCALE
  5
10B4
102
{ACAD_REACTORS
330
10AB
102
}
330
10AB
100
AcDbScale
 70
     0
300
1:30
140
1.0
141
30.0
290
     0
  0
SCALE
  5
10B5
102
{ACAD_REACTORS
330
10AB
102
}
330
10AB
100
AcDbScale
 70
     0
300
1:40
140
1.0
141
40.0
290
     0
  0
SCALE
  5
10B6
102
{ACAD_REACTORS
330
10AB
102
}
330
10AB
100
AcDbScale
 70
     0
300
1:50
140
1.0
141
50.0
290
     0
  0
SCALE
  5
10B7
102
{ACAD_REACTORS
330
10AB
102
}
330
10AB
100
AcDbScale
 70
     0
300
1:100
140
1.0
141
100.0
290
     0
  0
SCALE
  5
10B8
102
{ACAD_REACTORS
330
10AB
102
}
330
10AB
100
AcDbScale
 70
     0
300
2:1
140
2.0
141
1.0
290
     0
  0
SCALE
  5
10B9
102
{ACAD_REACTORS
330
10AB
102
}
330
10AB
100
AcDbScale
 70
     0
300
4:1
140
4.0
141
1.0
290
     0
  0
SCALE
  5
10BA
102
{ACAD_REACTORS
330
10AB
102
}
330
10AB
100
AcDbScale
 70
     0
300
8:1
140
8.0
141
1.0
290
     0
  0
SCALE
  5
10BB
102
{ACAD_REACTORS
330
10AB
102
}
330
10AB
100
AcDbScale
 70
     0
300
10:1
140
10.0
141
1.0
290
     0
  0
SCALE
  5
10BC
102
{ACAD_REACTORS
330
10AB
102
}
330
10AB
100
AcDbScale
 70
     0
300
100:1
140
100.0
141
1.0
290
     0
  0
SCALE
  5
10BD
102
{ACAD_REACTORS
330
10AB
102
}
330
10AB
100
AcDbScale
 70
     0
300
1/128" = 1'-0"
140
0.0078125
141
12.0
290
     0
  0
SCALE
  5
10BE
102
{ACAD_REACTORS
330
10AB
102
}
330
10AB
100
AcDbScale
 70
     0
300
1/64" = 1'-0"
140
0.015625
141
12.0
290
     0
  0
SCALE
  5
10BF
102
{ACAD_REACTORS
330
10AB
102
}
330
10AB
100
AcDbScale
 70
     0
300
1/32" = 1'-0"
140
0.03125
141
12.0
290
     0
  0
SCALE
  5
10C0
102
{ACAD_REACTORS
330
10AB
102
}
330
10AB
100
AcDbScale
 70
     0
300
1/16" = 1'-0"
140
0.0625
141
12.0
290
     0
  0
SCALE
  5
10C1
102
{ACAD_REACTORS
330
10AB
102
}
330
10AB
100
AcDbScale
 70
     0
300
3/32" = 1'-0"
140
0.09375
141
12.0
290
     0
  0
SCALE
  5
10C2
102
{ACAD_REACTORS
330
10AB
102
}
330
10AB
100
AcDbScale
 70
     0
300
1/8" = 1'-0"
140
0.125
141
12.0
290
     0
  0
SCALE
  5
10C3
102
{ACAD_REACTORS
330
10AB
102
}
330
10AB
100
AcDbScale
 70
     0
300
3/16" = 1'-0"
140
0.1875
141
12.0
290
     0
  0
SCALE
  5
10C4
102
{ACAD_REACTORS
330
10AB
102
}
330
10AB
100
AcDbScale
 70
     0
300
1/4" = 1'-0"
140
0.25
141
12.0
290
     0
  0
SCALE
  5
10C5
102
{ACAD_REACTORS
330
10AB
102
}
330
10AB
100
AcDbScale
 70
     0
300
3/8" = 1'-0"
140
0.375
141
12.0
290
     0
  0
SCALE
  5
10C6
102
{ACAD_REACTORS
330
10AB
102
}
330
10AB
100
AcDbScale
 70
     0
300
1/2" = 1'-0"
140
0.5
141
12.0
290
     0
  0
SCALE
  5
10C7
102
{ACAD_REACTORS
330
10AB
102
}
330
10AB
100
AcDbScale
 70
     0
300
3/4" = 1'-0"
140
0.75
141
12.0
290
     0
  0
SCALE
  5
10C8
102
{ACAD_REACTORS
330
10AB
102
}
330
10AB
100
AcDbScale
 70
     0
300
1" = 1'-0"
140
1.0
141
12.0
290
     0
  0
SCALE
  5
10C9
102
{ACAD_REACTORS
330
10AB
102
}
330
10AB
100
AcDbScale
 70
     0
300
1-1/2" = 1'-0"
140
1.5
141
12.0
290
     0
  0
SCALE
  5
10CA
102
{ACAD_REACTORS
330
10AB
102
}
330
10AB
100
AcDbScale
 70
     0
300
3" = 1'-0"
140
3.0
141
12.0
290
     0
  0
SCALE
  5
10CB
102
{ACAD_REACTORS
330
10AB
102
}
330
10AB
100
AcDbScale
 70
     0
300
6" = 1'-0"
140
6.0
141
12.0
290
     0
  0
SCALE
  5
10CC
102
{ACAD_REACTORS
330
10AB
102
}
330
10AB
100
AcDbScale
 70
     0
300
1'-0" = 1'-0"
140
12.0
141
12.0
290
     0
  0
TABLESTYLE
  5
10AA
102
{ACAD_XDICTIONARY
360
10EA
102
}
102
{ACAD_REACTORS
330
10A9
102
}
330
10A9
100
AcDbTableStyle
  3
Standard
 70
     0
 71
     0
 40
0.06
 41
0.06
280
     0
281
     0
  7
STANDARD
140
0.18
170
     2
 62
     0
 63
     7
283
     0
274
    -2
284
     1
 64
     0
275
    -2
285
     1
 65
     0
276
    -2
286
     1
 66
     0
277
    -2
287
     1
 67
     0
278
    -2
288
     1
 68
     0
279
    -2
289
     1
 69
     0
  7
STANDARD
140
0.25
170
     5
 62
     0
 63
     7
283
     0
274
    -2
284
     1
 64
     0
275
    -2
285
     1
 65
     0
276
    -2
286
     1
 66
     0
277
    -2
287
     1
 67
     0
278
    -2
288
     1
 68
     0
279
    -2
289
     1
 69
     0
  7
STANDARD
140
0.18
170
     5
 62
     0
 63
     7
283
     0
274
    -2
284
     1
 64
     0
275
    -2
285
     1
 65
     0
276
    -2
286
     1
 66
     0
277
    -2
287
     1
 67
     0
278
    -2
288
     1
 68
     0
279
    -2
289
     1
 69
     0
  0
VISUALSTYLE
  5
109D
102
{ACAD_REACTORS
330
1097
102
}
330
1097
100
AcDbVisualStyle
  2
2dWireframe
 70
     4
 71
     0
 72
     2
 73
     0
 90
        0
 40
-0.6
 41
-30.0
 62
     5
 63
     7
421
 16777215
 74
     1
 91
        4
 64
     7
 65
   257
 75
     1
175
     1
 42
1.0
 92
        0
 66
   257
 43
1.0
 76
     1
 77
     6
 78
     2
 67
     7
 79
     5
170
     0
171
     0
290
     0
174
     0
 93
        1
 44
0.0
173
     0
291
     0
 45
0.0
1001
ACAD
1000
AcDbSavedByObjectVersion
1070
     0
  0
VISUALSTYLE
  5
109F
102
{ACAD_REACTORS
330
1097
102
}
330
1097
100
AcDbVisualStyle
  2
3D Hidden
 70
     6
 71
     1
 72
     2
 73
     2
 90
        0
 40
-0.6
 41
-30.0
 62
     5
 63
     7
421
 16777215
 74
     2
 91
        2
 64
     7
 65
   257
 75
     2
175
     1
 42
40.0
 92
        0
 66
   257
 43
1.0
 76
     1
 77
     6
 78
     2
 67
     7
 79
     3
170
     0
171
     0
290
     0
174
     0
 93
        1
 44
0.0
173
     0
291
     0
 45
0.0
1001
ACAD
1000
AcDbSavedByObjectVersion
1070
     0
  0
VISUALSTYLE
  5
109E
102
{ACAD_REACTORS
330
1097
102
}
330
1097
100
AcDbVisualStyle
  2
3dWireframe
 70
     5
 71
     0
 72
     2
 73
     0
 90
        0
 40
-0.6
 41
-30.0
 62
     5
 63
     7
421
 16777215
 74
     1
 91
        4
 64
     7
 65
   257
 75
     1
175
     1
 42
1.0
 92
        0
 66
   257
 43
1.0
 76
     1
 77
     6
 78
     2
 67
     7
 79
     5
170
     0
171
     0
290
     0
174
     0
 93
        1
 44
0.0
173
     0
291
     0
 45
0.0
1001
ACAD
1000
AcDbSavedByObjectVersion
1070
     0
  0
VISUALSTYLE
  5
109C
102
{ACAD_REACTORS
330
1097
102
}
330
1097
100
AcDbVisualStyle
  2
Basic
 70
     7
 71
     1
 72
     0
 73
     1
 90
        0
 40
-0.6
 41
-30.0
 62
     5
 63
     7
421
 16777215
 74
     0
 91
        4
 64
     7
 65
   257
 75
     1
175
     1
 42
1.0
 92
        8
 66
     7
 43
1.0
 76
     1
 77
     6
 78
     2
 67
     7
 79
     5
170
     0
171
     0
290
     0
174
     0
 93
        1
 44
0.0
173
     0
291
     1
 45
0.0
1001
ACAD
1000
AcDbSavedByObjectVersion
1070
     0
  0
VISUALSTYLE
  5
10A3
102
{ACAD_REACTORS
330
1097
102
}
330
1097
100
AcDbVisualStyle
  2
Brighten
 70
    12
 71
     2
 72
     2
 73
     0
 90
        0
 40
-0.6
 41
-30.0
 62
     5
 63
     7
421
 16777215
 74
     1
 91
        4
 64
     7
 65
   257
 75
     1
175
     1
 42
1.0
 92
        8
 66
     7
 43
1.0
 76
     1
 77
     6
 78
     2
 67
     7
 79
     5
170
     0
171
     0
290
     0
174
     0
 93
        1
 44
50.0
173
     0
291
     1
 45
0.0
1001
ACAD
1000
AcDbSavedByObjectVersion
1070
     0
  0
VISUALSTYLE
  5
10A7
102
{ACAD_REACTORS
330
1097
102
}
330
1097
100
AcDbVisualStyle
  2
ColorChange
 70
    16
 71
     2
 72
     2
 73
     3
 90
        0
 40
-0.6
 41
-30.0
 62
     5
 63
     8
421
  8421504
 74
     1
 91
        4
 64
     7
 65
   257
 75
     1
175
     1
 42
1.0
 92
        8
 66
     8
424
  8421504
 43
1.0
 76
     1
 77
     6
 78
     2
 67
     7
 79
     5
170
     0
171
     0
290
     0
174
     0
 93
        1
 44
0.0
173
     0
291
     1
 45
0.0
1001
ACAD
1000
AcDbSavedByObjectVersion
1070
     0
  0
VISUALSTYLE
  5
10A0
102
{ACAD_REACTORS
330
1097
102
}
330
1097
100
AcDbVisualStyle
  2
Conceptual
 70
     9
 71
     3
 72
     2
 73
     0
 90
        0
 40
-0.6
 41
-30.0
 62
     5
 63
     7
421
 16777215
 74
     2
 91
        2
 64
     7
 65
   257
 75
     1
175
     1
 42
40.0
 92
        8
 66
     7
 43
1.0
 76
     1
 77
     6
 78
     2
 67
     7
 79
     3
170
     0
171
     0
290
     0
174
     0
 93
        1
 44
0.0
173
     0
291
     0
 45
0.0
1001
ACAD
1000
AcDbSavedByObjectVersion
1070
     0
  0
VISUALSTYLE
  5
10A2
102
{ACAD_REACTORS
330
1097
102
}
330
1097
100
AcDbVisualStyle
  2
Dim
 70
    11
 71
     2
 72
     2
 73
     0
 90
        0
 40
-0.6
 41
-30.0
 62
     5
 63
     7
421
 16777215
 74
     1
 91
        4
 64
     7
 65
   257
 75
     1
175
     1
 42
1.0
 92
        8
 66
     7
 43
1.0
 76
     1
 77
     6
 78
     2
 67
     7
 79
     5
170
     0
171
     0
290
     0
174
     0
 93
        1
 44
-50.0
173
     0
291
     1
 45
0.0
1001
ACAD
1000
AcDbSavedByObjectVersion
1070
     0
  0
VISUALSTYLE
  5
10A6
102
{ACAD_REACTORS
330
1097
102
}
330
1097
100
AcDbVisualStyle
  2
Facepattern
 70
    15
 71
     2
 72
     2
 73
     0
 90
        0
 40
-0.6
 41
-30.0
 62
     5
 63
     7
421
 16777215
 74
     1
 91
        4
 64
     7
 65
   257
 75
     1
175
     1
 42
1.0
 92
        8
 66
     7
 43
1.0
 76
     1
 77
     6
 78
     2
 67
     7
 79
     5
170
     0
171
     0
290
     0
174
     0
 93
        1
 44
0.0
173
     0
291
     1
 45
0.0
1001
ACAD
1000
AcDbSavedByObjectVersion
1070
     0
  0
VISUALSTYLE
  5
1098
102
{ACAD_REACTORS
330
1097
102
}
330
1097
100
AcDbVisualStyle
  2
Flat
 70
     0
 71
     2
 72
     1
 73
     1
 90
        2
 40
-0.6
 41
30.0
 62
     5
 63
     7
421
 16777215
 74
     0
 91
        4
 64
     7
 65
   257
 75
     1
175
     1
 42
1.0
 92
        8
 66
     7
 43
1.0
 76
     1
 77
     6
 78
     2
 67
     7
 79
     5
170
     0
171
     0
290
     0
174
     0
 93
       13
 44
0.0
173
     0
291
     1
 45
0.0
1001
ACAD
1000
AcDbSavedByObjectVersion
1070
     0
  0
VISUALSTYLE
  5
1099
102
{ACAD_REACTORS
330
1097
102
}
330
1097
100
AcDbVisualStyle
  2
FlatWithEdges
 70
     1
 71
     2
 72
     1
 73
     1
 90
        2
 40
-0.6
 41
30.0
 62
     5
 63
     7
421
 16777215
 74
     1
 91
        4
 64
     7
 65
   257
 75
     1
175
     1
 42
1.0
 92
        0
 66
   257
 43
1.0
 76
     1
 77
     6
 78
     2
 67
     7
 79
     5
170
     0
171
     0
290
     0
174
     0
 93
       13
 44
0.0
173
     0
291
     1
 45
0.0
1001
ACAD
1000
AcDbSavedByObjectVersion
1070
     0
  0
VISUALSTYLE
  5
109A
102
{ACAD_REACTORS
330
1097
102
}
330
1097
100
AcDbVisualStyle
  2
Gouraud
 70
     2
 71
     2
 72
     2
 73
     1
 90
        2
 40
-0.6
 41
30.0
 62
     5
 63
     7
421
 16777215
 74
     0
 91
        4
 64
     7
 65
   257
 75
     1
175
     1
 42
1.0
 92
        0
 66
     7
 43
1.0
 76
     1
 77
     6
 78
     2
 67
     7
 79
     5
170
     0
171
     0
290
     0
174
     0
 93
       13
 44
0.0
173
     0
291
     1
 45
0.0
1001
ACAD
1000
AcDbSavedByObjectVersion
1070
     0
  0
VISUALSTYLE
  5
109B
102
{ACAD_REACTORS
330
1097
102
}
330
1097
100
AcDbVisualStyle
  2
GouraudWithEdges
 70
     3
 71
     2
 72
     2
 73
     1
 90
        2
 40
-0.6
 41
30.0
 62
     5
 63
     7
421
 16777215
 74
     1
 91
        4
 64
     7
 65
   257
 75
     1
175
     1
 42
1.0
 92
        0
 66
   257
 43
1.0
 76
     1
 77
     6
 78
     2
 67
     7
 79
     5
170
     0
171
     0
290
     0
174
     0
 93
       13
 44
0.0
173
     0
291
     1
 45
0.0
1001
ACAD
1000
AcDbSavedByObjectVersion
1070
     0
  0
VISUALSTYLE
  5
10A5
102
{ACAD_REACTORS
330
1097
102
}
330
1097
100
AcDbVisualStyle
  2
Linepattern
 70
    14
 71
     2
 72
     2
 73
     0
 90
        0
 40
-0.6
 41
-30.0
 62
     5
 63
     7
421
 16777215
 74
     1
 91
        4
 64
     7
 65
   257
 75
     7
175
     7
 42
1.0
 92
        8
 66
     7
 43
1.0
 76
     1
 77
     6
 78
     2
 67
     7
 79
     5
170
     0
171
     0
290
     0
174
     0
 93
        1
 44
0.0
173
     0
291
     1
 45
0.0
1001
ACAD
1000
AcDbSavedByObjectVersion
1070
     0
  0
VISUALSTYLE
  5
10A1
102
{ACAD_REACTORS
330
1097
102
}
330
1097
100
AcDbVisualStyle
  2
Realistic
 70
     8
 71
     2
 72
     2
 73
     0
 90
        0
 40
-0.6
 41
-30.0
 62
     5
 63
     7
421
 16777215
 74
     1
 91
        0
 64
     7
 65
   257
 75
     1
175
     1
 42
1.0
 92
        8
 66
     8
424
  7895160
 43
1.0
 76
     1
 77
     6
 78
     2
 67
     7
 79
     5
170
     0
171
     0
290
     0
174
     0
 93
       13
 44
0.0
173
     0
291
     0
 45
0.0
1001
ACAD
1000
AcDbSavedByObjectVersion
1070
     0
  0
VISUALSTYLE
  5
10A4
102
{ACAD_REACTORS
330
1097
102
}
330
1097
100
AcDbVisualStyle
  2
Thicken
 70
    13
 71
     2
 72
     2
 73
     0
 90
        0
 40
-0.6
 41
-30.0
 62
     5
 63
     7
421
 16777215
 74
     1
 91
        4
 64
     7
 65
   257
 75
     1
175
     1
 42
1.0
 92
       12
 66
     7
 43
1.0
 76
     1
 77
     6
 78
     2
 67
     7
 79
     5
170
     0
171
     0
290
     0
174
     0
 93
        1
 44
0.0
173
     0
291
     1
 45
0.0
1001
ACAD
1000
AcDbSavedByObjectVersion
1070
     0
  0
DICTIONARYVAR
  5
10DE
102
{ACAD_REACTORS
330
2D8
102
}
330
2D8
100
DictionaryVariables
280
     0
  1
1:1
  0
DICTIONARYVAR
  5
10DD
102
{ACAD_REACTORS
330
2D8
102
}
330
2D8
100
DictionaryVariables
280
     0
  1
STANDARD
  0
DICTIONARYVAR
  5
10DC
102
{ACAD_REACTORS
330
2D8
102
}
330
2D8
100
DictionaryVariables
280
     0
  1
STANDARD
  0
DICTIONARYVAR
  5
10EE
102
{ACAD_REACTORS
330
2D8
102
}
330
2D8
100
DictionaryVariables
280
     0
  1
0
  0
DICTIONARYVAR
  5
10ED
102
{ACAD_REACTORS
330
2D8
102
}
330
2D8
100
DictionaryVariables
280
     0
  1
0
  0
DICTIONARYVAR
  5
2D9
102
{ACAD_REACTORS
330
2D8
102
}
330
2D8
100
DictionaryVariables
280
     0
  1
96
  0
DICTIONARY
  5
1088
330
1087
100
AcDbDictionary
280
     1
281
     1
  3
ACAD_XREC_ROUNDTRIP
360
1382
  3
BUMPTILE
360
108A
  3
DIFFUSETILE
360
1089
  3
OPACITYTILE
360
108D
  3
REFLECTIONTILE
360
108C
  3
REFRACTIONTILE
360
108E
  3
SPECULARTILE
360
108B
  0
DICTIONARY
  5
1080
330
107F
100
AcDbDictionary
280
     1
281
     1
  3
ACAD_XREC_ROUNDTRIP
360
1381
  3
BUMPTILE
360
1082
  3
DIFFUSETILE
360
1081
  3
OPACITYTILE
360
1085
  3
REFLECTIONTILE
360
1084
  3
REFRACTIONTILE
360
1086
  3
SPECULARTILE
360
1083
  0
DICTIONARY
  5
1090
330
108F
100
AcDbDictionary
280
     1
281
     1
  3
ACAD_XREC_ROUNDTRIP
360
1383
  3
BUMPTILE
360
1092
  3
DIFFUSETILE
360
1091
  3
OPACITYTILE
360
1095
  3
REFLECTIONTILE
360
1094
  3
REFRACTIONTILE
360
1096
  3
SPECULARTILE
360
1093
  0
DICTIONARY
  5
10EA
330
10AA
100
AcDbDictionary
280
     1
281
     1
  3
ACAD_ROUNDTRIP_2008_TABLESTYLE_CELLSTYLEMAP
360
137E
  3
ACAD_XREC_ROUNDTRIP
360
1384
  0
XRECORD
  5
1382
102
{ACAD_REACTORS
330
1088
102
}
330
1088
100
AcDbXrecord
280
     1
102
MATERIAL
148
0.0
149
0.0
149
0.0
 93
        0
 94
      127
282
     0
 72
     0
 77
     0
171
     0
175
     0
179
     0
273
     0
  0
XRECORD
  5
108A
102
{ACAD_REACTORS
330
1088
102
}
330
1088
100
AcDbXrecord
280
     1
270
     1
271
     1
  0
XRECORD
  5
1089
102
{ACAD_REACTORS
330
1088
102
}
330
1088
100
AcDbXrecord
280
     1
270
     1
271
     1
  0
XRECORD
  5
108D
102
{ACAD_REACTORS
330
1088
102
}
330
1088
100
AcDbXrecord
280
     1
270
     1
271
     1
  0
XRECORD
  5
108C
102
{ACAD_REACTORS
330
1088
102
}
330
1088
100
AcDbXrecord
280
     1
270
     1
271
     1
  0
XRECORD
  5
108E
102
{ACAD_REACTORS
330
1088
102
}
330
1088
100
AcDbXrecord
280
     1
270
     1
271
     1
  0
XRECORD
  5
108B
102
{ACAD_REACTORS
330
1088
102
}
330
1088
100
AcDbXrecord
280
     1
270
     1
271
     1
  0
XRECORD
  5
1381
102
{ACAD_REACTORS
330
1080
102
}
330
1080
100
AcDbXrecord
280
     1
102
MATERIAL
148
0.0
149
0.0
149
0.0
 93
        0
 94
      127
282
     0
 72
     0
 77
     0
171
     0
175
     0
179
     0
273
     0
  0
XRECORD
  5
1082
102
{ACAD_REACTORS
330
1080
102
}
330
1080
100
AcDbXrecord
280
     1
270
     1
271
     1
  0
XRECORD
  5
1081
102
{ACAD_REACTORS
330
1080
102
}
330
1080
100
AcDbXrecord
280
     1
270
     1
271
     1
  0
XRECORD
  5
1085
102
{ACAD_REACTORS
330
1080
102
}
330
1080
100
AcDbXrecord
280
     1
270
     1
271
     1
  0
XRECORD
  5
1084
102
{ACAD_REACTORS
330
1080
102
}
330
1080
100
AcDbXrecord
280
     1
270
     1
271
     1
  0
XRECORD
  5
1086
102
{ACAD_REACTORS
330
1080
102
}
330
1080
100
AcDbXrecord
280
     1
270
     1
271
     1
  0
XRECORD
  5
1083
102
{ACAD_REACTORS
330
1080
102
}
330
1080
100
AcDbXrecord
280
     1
270
     1
271
     1
  0
XRECORD
  5
1383
102
{ACAD_REACTORS
330
1090
102
}
330
1090
100
AcDbXrecord
280
     1
102
MATERIAL
148
0.0
149
0.0
149
0.0
 93
        0
 94
      127
282
     0
 72
     0
 77
     0
171
     0
175
     0
179
     0
273
     0
  0
XRECORD
  5
1092
102
{ACAD_REACTORS
330
1090
102
}
330
1090
100
AcDbXrecord
280
     1
270
     1
271
     1
  0
XRECORD
  5
1091
102
{ACAD_REACTORS
330
1090
102
}
330
1090
100
AcDbXrecord
280
     1
270
     1
271
     1
  0
XRECORD
  5
1095
102
{ACAD_REACTORS
330
1090
102
}
330
1090
100
AcDbXrecord
280
     1
270
     1
271
     1
  0
XRECORD
  5
1094
102
{ACAD_REACTORS
330
1090
102
}
330
1090
100
AcDbXrecord
280
     1
270
     1
271
     1
  0
XRECORD
  5
1096
102
{ACAD_REACTORS
330
1090
102
}
330
1090
100
AcDbXrecord
280
     1
270
     1
271
     1
  0
XRECORD
  5
1093
102
{ACAD_REACTORS
330
1090
102
}
330
1090
100
AcDbXrecord
280
     1
270
     1
271
     1
  0
CELLSTYLEMAP
  5
137E
102
{ACAD_REACTORS
330
10EA
102
}
330
10EA
100
AcDbCellStyleMap
 90
        3
300
CELLSTYLE
  1
TABLEFORMAT_BEGIN
 90
        5
170
     1
 91
        0
 92
    32768
 62
   257
 93
        1
300
CONTENTFORMAT
  1
CONTENTFORMAT_BEGIN
 90
        0
 91
        0
 92
      512
 93
        0
300

 40
0.0
140
1.0
 94
        5
 62
     0
340
10
144
0.25
309
CONTENTFORMAT_END
171
     0
 94
        0
309
TABLEFORMAT_END
  1
CELLSTYLE_BEGIN
 90
        1
 91
        1
300
_TITLE
309
CELLSTYLE_END
300
CELLSTYLE
  1
TABLEFORMAT_BEGIN
 90
        5
170
     1
 91
        0
 92
        0
 62
   257
 93
        1
300
CONTENTFORMAT
  1
CONTENTFORMAT_BEGIN
 90
        0
 91
        0
 92
      512
 93
        0
300

 40
0.0
140
1.0
 94
        5
 62
     0
340
10
144
0.18
309
CONTENTFORMAT_END
171
     0
 94
        0
309
TABLEFORMAT_END
  1
CELLSTYLE_BEGIN
 90
        2
 91
        1
300
_HEADER
309
CELLSTYLE_END
300
CELLSTYLE
  1
TABLEFORMAT_BEGIN
 90
        5
170
     1
 91
        0
 92
        0
 62
   257
 93
        1
300
CONTENTFORMAT
  1
CONTENTFORMAT_BEGIN
 90
        0
 91
        0
 92
      512
 93
        0
300

 40
0.0
140
1.0
 94
        2
 62
     0
340
10
144
0.18
309
CONTENTFORMAT_END
171
     0
 94
        0
309
TABLEFORMAT_END
  1
CELLSTYLE_BEGIN
 90
        3
 91
        2
300
_DATA
309
CELLSTYLE_END
  0
XRECORD
  5
1384
102
{ACAD_REACTORS
330
10EA
102
}
330
10EA
100
AcDbXrecord
280
     1
102
ACAD_ROUNDTRIP_PRE2007_TABLESTYLE
 90
      512
 91
        0
  1

 92
      512
 93
        0
  2

 94
      512
 95
        0
  3

  0
ENDSEC
  0
EOF
