  0
SECTION
  2
HEADER
  9
$ACADVER
  1
AC1018
  9
$ACADMAINTVER
 70
   104
  9
$DWGCODEPAGE
  3
ANSI_932
  9
$LASTSAVEDBY
  1
poracon
  9
$INSBASE
 10
0.0
 20
0.0
 30
0.0
  9
$EXTMIN
 10
-258.3000621593856
 20
-834.3431006376968
 30
-0.0015258207003583
  9
$EXTMAX
 10
6869.897006928328
 20
1685.939870362812
 30
0.0000000349246037
  9
$LIMMIN
 10
0.0
 20
0.0
  9
$LIMMAX
 10
2970.0
 20
2100.0
  9
$ORTHOMODE
 70
     1
  9
$REGENMODE
 70
     1
  9
$FILLMODE
 70
     1
  9
$QTEXTMODE
 70
     0
  9
$MIRRTEXT
 70
     1
  9
$LTSCALE
 40
60.0
  9
$ATTMODE
 70
     1
  9
$TEXTSIZE
 40
50.0
  9
$TRACEWID
 40
0.05
  9
$TEXTSTYLE
  7
BIGFONT
  9
$CLAYER
  8
0
  9
$CELTYPE
  6
BYLAYER
  9
$CECOLOR
 62
   256
  9
$CELTSCALE
 40
1.0
  9
$DISPSILH
 70
     0
  9
$DIMSCALE
 40
10.0
  9
$DIMASZ
 40
2.5
  9
$DIMEXO
 40
1.0
  9
$DIMDLI
 40
10.0
  9
$DIMRND
 40
0.0
  9
$DIMDLE
 40
0.0
  9
$DIMEXE
 40
1.0
  9
$DIMTP
 40
0.0
  9
$DIMTM
 40
0.0
  9
$DIMTXT
 40
4.5
  9
$DIMCEN
 40
0.0
  9
$DIMTSZ
 40
0.0
  9
$DIMTOL
 70
     0
  9
$DIMLIM
 70
     0
  9
$DIMTIH
 70
     0
  9
$DIMTOH
 70
     0
  9
$DIMSE1
 70
     0
  9
$DIMSE2
 70
     0
  9
$DIMTAD
 70
     1
  9
$DIMZIN
 70
     0
  9
$DIMBLK
  1

  9
$DIMASO
 70
     1
  9
$DIMSHO
 70
     1
  9
$DIMPOST
  1

  9
$DIMAPOST
  1

  9
$DIMALT
 70
     0
  9
$DIMALTD
 70
     2
  9
$DIMALTF
 40
25.4
  9
$DIMLFAC
 40
1.0
  9
$DIMTOFL
 70
     0
  9
$DIMTVP
 40
0.0
  9
$DIMTIX
 70
     0
  9
$DIMSOXD
 70
     0
  9
$DIMSAH
 70
     1
  9
$DIMBLK1
  1
ARROW
  9
$DIMBLK2
  1
ARROW
  9
$DIMSTYLE
  2
DIA1
  9
$DIMCLRD
 70
     0
  9
$DIMCLRE
 70
     0
  9
$DIMCLRT
 70
     0
  9
$DIMTFAC
 40
1.0
  9
$DIMGAP
 40
1.0
  9
$DIMJUST
 70
     0
  9
$DIMSD1
 70
     0
  9
$DIMSD2
 70
     0
  9
$DIMTOLJ
 70
     1
  9
$DIMTZIN
 70
     0
  9
$DIMALTZ
 70
     0
  9
$DIMALTTZ
 70
     0
  9
$DIMUPT
 70
     0
  9
$DIMDEC
 70
     0
  9
$DIMTDEC
 70
     0
  9
$DIMALTU
 70
     2
  9
$DIMALTTD
 70
     2
  9
$DIMTXSTY
  7
BIGFONT
  9
$DIMAUNIT
 70
     0
  9
$DIMADEC
 70
     0
  9
$DIMALTRND
 40
0.0
  9
$DIMAZIN
 70
     0
  9
$DIMDSEP
 70
    46
  9
$DIMATFIT
 70
     3
  9
$DIMFRAC
 70
     0
  9
$DIMLDRBLK
  1
ARROW
  9
$DIMLUNIT
 70
     2
  9
$DIMLWD
 70
    -2
  9
$DIMLWE
 70
    -2
  9
$DIMTMOVE
 70
     0
  9
$LUNITS
 70
     2
  9
$LUPREC
 70
     1
  9
$SKETCHINC
 40
0.1
  9
$FILLETRAD
 40
0.0
  9
$AUNITS
 70
     1
  9
$AUPREC
 70
     2
  9
$MENU
  1
MASTERS
  9
$ELEVATION
 40
0.0
  9
$PELEVATION
 40
0.0
  9
$THICKNESS
 40
0.0
  9
$LIMCHECK
 70
     0
  9
$CHAMFERA
 40
0.0
  9
$CHAMFERB
 40
0.0
  9
$CHAMFERC
 40
0.0
  9
$CHAMFERD
 40
0.0
  9
$SKPOLY
 70
     0
  9
$TDCREATE
 40
2449337.661539352
  9
$TDUCREATE
 40
2449337.286539352
  9
$TDUPDATE
 40
2456937.483856783
  9
$TDUUPDATE
 40
2456937.108856783
  9
$TDINDWG
 40
0.1435062616
  9
$TDUSRTIMER
 40
0.1435062616
  9
$USRTIMER
 70
     1
  9
$ANGBASE
 50
0.0
  9
$ANGDIR
 70
     0
  9
$PDMODE
 70
     0
  9
$PDSIZE
 40
0.0
  9
$PLINEWID
 40
0.0
  9
$SPLFRAME
 70
     0
  9
$SPLINETYPE
 70
     6
  9
$SPLINESEGS
 70
     8
  9
$HANDSEED
  5
14C0
  9
$SURFTAB1
 70
     6
  9
$SURFTAB2
 70
     6
  9
$SURFTYPE
 70
     6
  9
$SURFU
 70
     6
  9
$SURFV
 70
     6
  9
$UCSBASE
  2

  9
$UCSNAME
  2

  9
$UCSORG
 10
0.0
 20
0.0
 30
0.0
  9
$UCSXDIR
 10
1.0
 20
0.0
 30
0.0
  9
$UCSYDIR
 10
0.0
 20
1.0
 30
0.0
  9
$UCSORTHOREF
  2

  9
$UCSORTHOVIEW
 70
     0
  9
$UCSORGTOP
 10
0.0
 20
0.0
 30
0.0
  9
$UCSORGBOTTOM
 10
0.0
 20
0.0
 30
0.0
  9
$UCSORGLEFT
 10
0.0
 20
0.0
 30
0.0
  9
$UCSORGRIGHT
 10
0.0
 20
0.0
 30
0.0
  9
$UCSORGFRONT
 10
0.0
 20
0.0
 30
0.0
  9
$UCSORGBACK
 10
0.0
 20
0.0
 30
0.0
  9
$PUCSBASE
  2

  9
$PUCSNAME
  2

  9
$PUCSORG
 10
0.0
 20
0.0
 30
0.0
  9
$PUCSXDIR
 10
1.0
 20
0.0
 30
0.0
  9
$PUCSYDIR
 10
0.0
 20
1.0
 30
0.0
  9
$PUCSORTHOREF
  2

  9
$PUCSORTHOVIEW
 70
     0
  9
$PUCSORGTOP
 10
0.0
 20
0.0
 30
0.0
  9
$PUCSORGBOTTOM
 10
0.0
 20
0.0
 30
0.0
  9
$PUCSORGLEFT
 10
0.0
 20
0.0
 30
0.0
  9
$PUCSORGRIGHT
 10
0.0
 20
0.0
 30
0.0
  9
$PUCSORGFRONT
 10
0.0
 20
0.0
 30
0.0
  9
$PUCSORGBACK
 10
0.0
 20
0.0
 30
0.0
  9
$USERI1
 70
     0
  9
$USERI2
 70
     0
  9
$USERI3
 70
     0
  9
$USERI4
 70
     0
  9
$USERI5
 70
     0
  9
$USERR1
 40
0.0
  9
$USERR2
 40
0.0
  9
$USERR3
 40
0.0
  9
$USERR4
 40
0.0
  9
$USERR5
 40
0.0
  9
$WORLDVIEW
 70
     1
  9
$SHADEDGE
 70
     3
  9
$SHADEDIF
 70
    70
  9
$TILEMODE
 70
     1
  9
$MAXACTVP
 70
    16
  9
$PINSBASE
 10
0.0
 20
0.0
 30
0.0
  9
$PLIMCHECK
 70
     0
  9
$PEXTMIN
 10
1.000000000000000E+20
 20
1.000000000000000E+20
 30
1.000000000000000E+20
  9
$PEXTMAX
 10
-1.000000000000000E+20
 20
-1.000000000000000E+20
 30
-1.000000000000000E+20
  9
$PLIMMIN
 10
0.0
 20
0.0
  9
$PLIMMAX
 10
12.0
 20
9.0
  9
$UNITMODE
 70
     0
  9
$VISRETAIN
 70
     0
  9
$PLINEGEN
 70
     0
  9
$PSLTSCALE
 70
     1
  9
$TREEDEPTH
 70
  3020
  9
$CMLSTYLE
  2
STANDARD
  9
$CMLJUST
 70
     0
  9
$CMLSCALE
 40
1.0
  9
$PROXYGRAPHICS
 70
     1
  9
$MEASUREMENT
 70
     0
  9
$CELWEIGHT
370
    -1
  9
$ENDCAPS
280
     0
  9
$JOINSTYLE
280
     0
  9
$LWDISPLAY
290
     0
  9
$INSUNITS
 70
     0
  9
$HYPERLINKBASE
  1

  9
$STYLESHEET
  1

  9
$XEDIT
290
     1
  9
$CEPSNTYPE
380
     0
  9
$PSTYLEMODE
290
     1
  9
$FINGERPRINTGUID
  2
{241947D8-10E5-11D6-BA8D-8D48D945A249}
  9
$VERSIONGUID
  2
{17096F3A-C3BA-476D-ACA8-343CBEFB79AF}
  9
$EXTNAMES
290
     1
  9
$PSVPSCALE
 40
0.0
  9
$OLESTARTUP
290
     0
  9
$SORTENTS
280
    96
  9
$INDEXCTL
280
     0
  9
$HIDETEXT
280
     0
  9
$XCLIPFRAME
290
     0
  9
$HALOGAP
280
     0
  9
$OBSCOLOR
 70
   257
  9
$OBSLTYPE
280
     0
  9
$INTERSECTIONDISPLAY
280
     0
  9
$INTERSECTIONCOLOR
 70
   257
  9
$DIMASSOC
280
     1
  9
$PROJECTNAME
  1

  0
ENDSEC
  0
SECTION
  2
CLASSES
  0
CLASS
  1
ACDBDICTIONARYWDFLT
  2
AcDbDictionaryWithDefault
  3
ObjectDBX Classes
 90
        0
 91
        1
280
     0
281
     0
  0
CLASS
  1
DICTIONARYVAR
  2
AcDbDictionaryVar
  3
ObjectDBX Classes
 90
        0
 91
        6
280
     0
281
     0
  0
CLASS
  1
MATERIAL
  2
AcDbMaterial
  3
ObjectDBX Classes
 90
     1153
 91
        3
280
     0
281
     0
  0
CLASS
  1
VISUALSTYLE
  2
AcDbVisualStyle
  3
ObjectDBX Classes
 90
     4095
 91
       16
280
     0
281
     0
  0
CLASS
  1
TABLESTYLE
  2
AcDbTableStyle
  3
ObjectDBX Classes
 90
     4095
 91
        1
280
     0
281
     0
  0
CLASS
  1
SCALE
  2
AcDbScale
  3
ObjectDBX Classes
 90
     1153
 91
       33
280
     0
281
     0
  0
CLASS
  1
MLEADERSTYLE
  2
AcDbMLeaderStyle
  3
ACDB_MLEADERSTYLE_CLASS
 90
     4095
 91
        1
280
     0
281
     0
  0
CLASS
  1
CELLSTYLEMAP
  2
AcDbCellStyleMap
  3
ObjectDBX Classes
 90
     1152
 91
        3
280
     0
281
     0
  0
CLASS
  1
SORTENTSTABLE
  2
AcDbSortentsTable
  3
ObjectDBX Classes
 90
        0
 91
        2
280
     0
281
     0
  0
ENDSEC
  0
SECTION
  2
TABLES
  0
TABLE
  2
VPORT
  5
8
330
0
100
AcDbSymbolTable
 70
     1
  0
VPORT
  5
1187
330
8
100
AcDbSymbolTableRecord
100
AcDbViewportTableRecord
  2
*Active
 70
     0
 10
0.0
 20
0.0
 11
1.0
 21
1.0
 12
3305.79847238447
 22
632.8284496811516
 13
0.0
 23
0.0
 14
1.0
 24
1.0
 15
0.0
 25
0.0
 16
0.0
 26
0.0
 36
1.0
 17
0.0
 27
0.0
 37
0.0
 40
4289.309463637542
 41
1.669761273209549
 42
50.0
 43
0.0
 44
0.0
 50
0.0
 51
0.0
 71
     0
 72
   100
 73
     1
 74
     1
 75
     0
 76
     0
 77
     0
 78
     0
281
     0
 65
     1
110
0.0
120
0.0
130
0.0
111
1.0
121
0.0
131
0.0
112
0.0
122
1.0
132
0.0
 79
     0
146
0.0
  0
ENDTAB
  0
TABLE
  2
LTYPE
  5
5
330
0
100
AcDbSymbolTable
 70
    26
  0
LTYPE
  5
12
330
5
100
AcDbSymbolTableRecord
100
AcDbLinetypeTableRecord
  2
BYBLOCK
 70
     0
  3

 72
    65
 73
     0
 40
0.0
  0
LTYPE
  5
13
330
5
100
AcDbSymbolTableRecord
100
AcDbLinetypeTableRecord
  2
BYLAYER
 70
     0
  3

 72
    65
 73
     0
 40
0.0
  0
LTYPE
  5
14
330
5
100
AcDbSymbolTableRecord
100
AcDbLinetypeTableRecord
  2
CONTINUOUS
 70
     0
  3
Solid line
 72
    65
 73
     0
 40
0.0
  0
LTYPE
  5
2E
330
5
100
AcDbSymbolTableRecord
100
AcDbLinetypeTableRecord
  2
BORDER
 70
     0
  3
__ __ . __ __ . __ __ . __ __ . __ __ . __ __ .
 72
    65
 73
     6
 40
1.75
 49
0.5
 74
     0
 49
-0.25
 74
     0
 49
0.5
 74
     0
 49
-0.25
 74
     0
 49
0.0
 74
     0
 49
-0.25
 74
     0
  0
LTYPE
  5
2F
330
5
100
AcDbSymbolTableRecord
100
AcDbLinetypeTableRecord
  2
BORDER2
 70
     0
  3
__.__.__.__.__.__.__.__.__.__.__.__.__.__.__.__
 72
    65
 73
     6
 40
0.875
 49
0.25
 74
     0
 49
-0.125
 74
     0
 49
0.25
 74
     0
 49
-0.125
 74
     0
 49
0.0
 74
     0
 49
-0.125
 74
     0
  0
LTYPE
  5
30
330
5
100
AcDbSymbolTableRecord
100
AcDbLinetypeTableRecord
  2
BORDERX2
 70
     0
  3
____  ____  .  ____  ____  .  ____  ____  .  __
 72
    65
 73
     6
 40
3.5
 49
1.0
 74
     0
 49
-0.5
 74
     0
 49
1.0
 74
     0
 49
-0.5
 74
     0
 49
0.0
 74
     0
 49
-0.5
 74
     0
  0
LTYPE
  5
31
330
5
100
AcDbSymbolTableRecord
100
AcDbLinetypeTableRecord
  2
CENTER
 70
     0
  3
____ _ ____ _ ____ _ ____ _ ____ _ ____ _ ____ 
 72
    65
 73
     4
 40
2.0
 49
1.25
 74
     0
 49
-0.25
 74
     0
 49
0.25
 74
     0
 49
-0.25
 74
     0
  0
LTYPE
  5
32
330
5
100
AcDbSymbolTableRecord
100
AcDbLinetypeTableRecord
  2
CENTER2
 70
     0
  3
___ _ ___ _ ___ _ ___ _ ___ _ ___ _ ___ _ ___ _
 72
    65
 73
     4
 40
1.125
 49
0.75
 74
     0
 49
-0.125
 74
     0
 49
0.125
 74
     0
 49
-0.125
 74
     0
  0
LTYPE
  5
33
330
5
100
AcDbSymbolTableRecord
100
AcDbLinetypeTableRecord
  2
CENTERX2
 70
     0
  3
________  __  ________  __  ________  __  _____
 72
    65
 73
     4
 40
4.0
 49
2.5
 74
     0
 49
-0.5
 74
     0
 49
0.5
 74
     0
 49
-0.5
 74
     0
  0
LTYPE
  5
34
330
5
100
AcDbSymbolTableRecord
100
AcDbLinetypeTableRecord
  2
DASHDOT
 70
     0
  3
__ . __ . __ . __ . __ . __ . __ . __ . __ . __
 72
    65
 73
     4
 40
1.0
 49
0.5
 74
     0
 49
-0.25
 74
     0
 49
0.0
 74
     0
 49
-0.25
 74
     0
  0
LTYPE
  5
35
330
5
100
AcDbSymbolTableRecord
100
AcDbLinetypeTableRecord
  2
DASHDOT2
 70
     0
  3
_._._._._._._._._._._._._._._._._._._._._._._._
 72
    65
 73
     4
 40
0.5
 49
0.25
 74
     0
 49
-0.125
 74
     0
 49
0.0
 74
     0
 49
-0.125
 74
     0
  0
LTYPE
  5
36
330
5
100
AcDbSymbolTableRecord
100
AcDbLinetypeTableRecord
  2
DASHDOTX2
 70
     0
  3
____  .  ____  .  ____  .  ____  .  ____  .  __
 72
    65
 73
     4
 40
2.0
 49
1.0
 74
     0
 49
-0.5
 74
     0
 49
0.0
 74
     0
 49
-0.5
 74
     0
  0
LTYPE
  5
37
330
5
100
AcDbSymbolTableRecord
100
AcDbLinetypeTableRecord
  2
DASHED
 70
     0
  3
__ __ __ __ __ __ __ __ __ __ __ __ __ __ __ __
 72
    65
 73
     2
 40
0.75
 49
0.5
 74
     0
 49
-0.25
 74
     0
  0
LTYPE
  5
38
330
5
100
AcDbSymbolTableRecord
100
AcDbLinetypeTableRecord
  2
DASHED2
 70
     0
  3
_ _ _ _ _ _ _ _ _ _ _ _ _ _ _ _ _ _ _ _ _ _ _ _
 72
    65
 73
     2
 40
0.375
 49
0.25
 74
     0
 49
-0.125
 74
     0
  0
LTYPE
  5
39
330
5
100
AcDbSymbolTableRecord
100
AcDbLinetypeTableRecord
  2
DASHEDX2
 70
     0
  3
____  ____  ____  ____  ____  ____  ____  ____ 
 72
    65
 73
     2
 40
1.5
 49
1.0
 74
     0
 49
-0.5
 74
     0
  0
LTYPE
  5
3A
330
5
100
AcDbSymbolTableRecord
100
AcDbLinetypeTableRecord
  2
DIVIDE
 70
     0
  3
____ . . ____ . . ____ . . ____ . . ____ . . __
 72
    65
 73
     6
 40
1.25
 49
0.5
 74
     0
 49
-0.25
 74
     0
 49
0.0
 74
     0
 49
-0.25
 74
     0
 49
0.0
 74
     0
 49
-0.25
 74
     0
  0
LTYPE
  5
3B
330
5
100
AcDbSymbolTableRecord
100
AcDbLinetypeTableRecord
  2
DIVIDE2
 70
     0
  3
__..__..__..__..__..__..__..__..__..__..__..__.
 72
    65
 73
     6
 40
0.625
 49
0.25
 74
     0
 49
-0.125
 74
     0
 49
0.0
 74
     0
 49
-0.125
 74
     0
 49
0.0
 74
     0
 49
-0.125
 74
     0
  0
LTYPE
  5
3C
330
5
100
AcDbSymbolTableRecord
100
AcDbLinetypeTableRecord
  2
DIVIDEX2
 70
     0
  3
________  .  .  ________  .  .  ________  .  . 
 72
    65
 73
     6
 40
2.5
 49
1.0
 74
     0
 49
-0.5
 74
     0
 49
0.0
 74
     0
 49
-0.5
 74
     0
 49
0.0
 74
     0
 49
-0.5
 74
     0
  0
LTYPE
  5
3D
330
5
100
AcDbSymbolTableRecord
100
AcDbLinetypeTableRecord
  2
DOT
 70
     0
  3
. . . . . . . . . . . . . . . . . . . . . . . .
 72
    65
 73
     2
 40
0.25
 49
0.0
 74
     0
 49
-0.25
 74
     0
  0
LTYPE
  5
3E
330
5
100
AcDbSymbolTableRecord
100
AcDbLinetypeTableRecord
  2
DOT2
 70
     0
  3
...............................................
 72
    65
 73
     2
 40
0.125
 49
0.0
 74
     0
 49
-0.125
 74
     0
  0
LTYPE
  5
3F
330
5
100
AcDbSymbolTableRecord
100
AcDbLinetypeTableRecord
  2
DOTX2
 70
     0
  3
.  .  .  .  .  .  .  .  .  .  .  .  .  .  .  . 
 72
    65
 73
     2
 40
0.5
 49
0.0
 74
     0
 49
-0.5
 74
     0
  0
LTYPE
  5
40
330
5
100
AcDbSymbolTableRecord
100
AcDbLinetypeTableRecord
  2
HIDDEN
 70
     0
  3
__ __ __ __ __ __ __ __ __ __ __ __ __ __ __ __
 72
    65
 73
     2
 40
0.375
 49
0.25
 74
     0
 49
-0.125
 74
     0
  0
LTYPE
  5
41
330
5
100
AcDbSymbolTableRecord
100
AcDbLinetypeTableRecord
  2
HIDDEN2
 70
     0
  3
_ _ _ _ _ _ _ _ _ _ _ _ _ _ _ _ _ _ _ _ _ _ _ _
 72
    65
 73
     2
 40
0.1875
 49
0.125
 74
     0
 49
-0.0625
 74
     0
  0
LTYPE
  5
42
330
5
100
AcDbSymbolTableRecord
100
AcDbLinetypeTableRecord
  2
HIDDENX2
 70
     0
  3
____ ____ ____ ____ ____ ____ ____ ____ ____ __
 72
    65
 73
     2
 40
0.75
 49
0.5
 74
     0
 49
-0.25
 74
     0
  0
LTYPE
  5
43
330
5
100
AcDbSymbolTableRecord
100
AcDbLinetypeTableRecord
  2
PHANTOM
 70
     0
  3
______  __  __  ______  __  __  ______  __  __ 
 72
    65
 73
     6
 40
2.5
 49
1.25
 74
     0
 49
-0.25
 74
     0
 49
0.25
 74
     0
 49
-0.25
 74
     0
 49
0.25
 74
     0
 49
-0.25
 74
     0
  0
LTYPE
  5
44
330
5
100
AcDbSymbolTableRecord
100
AcDbLinetypeTableRecord
  2
PHANTOM2
 70
     0
  3
___ _ _ ___ _ _ ___ _ _ ___ _ _ ___ _ _ ___ _ _
 72
    65
 73
     6
 40
1.25
 49
0.625
 74
     0
 49
-0.125
 74
     0
 49
0.125
 74
     0
 49
-0.125
 74
     0
 49
0.125
 74
     0
 49
-0.125
 74
     0
  0
LTYPE
  5
45
330
5
100
AcDbSymbolTableRecord
100
AcDbLinetypeTableRecord
  2
PHANTOMX2
 70
     0
  3
____________    ____    ____    ____________   
 72
    65
 73
     6
 40
5.0
 49
2.5
 74
     0
 49
-0.5
 74
     0
 49
0.5
 74
     0
 49
-0.5
 74
     0
 49
0.5
 74
     0
 49
-0.5
 74
     0
  0
ENDTAB
  0
TABLE
  2
LAYER
  5
2
330
0
100
AcDbSymbolTable
 70
     6
  0
LAYER
  5
F
102
{ACAD_XDICTIONARY
360
11DF
102
}
330
2
100
AcDbSymbolTableRecord
100
AcDbLayerTableRecord
  2
0
 70
     0
 62
     7
  6
CONTINUOUS
370
    -3
390
2CF
  0
LAYER
  5
49
102
{ACAD_XDICTIONARY
360
11E1
102
}
330
2
100
AcDbSymbolTableRecord
100
AcDbLayerTableRecord
  2
SUNPOU
 70
     0
 62
     3
  6
CONTINUOUS
370
    -3
390
2CF
  0
LAYER
  5
4D
102
{ACAD_XDICTIONARY
360
11E3
102
}
330
2
100
AcDbSymbolTableRecord
100
AcDbLayerTableRecord
  2
CT2
 70
     0
 62
     1
  6
CENTER2
370
    -3
390
2CF
  0
LAYER
  5
4F
102
{ACAD_XDICTIONARY
360
11E5
102
}
330
2
100
AcDbSymbolTableRecord
100
AcDbLayerTableRecord
  2
SAISEKI
 70
     0
 62
     4
  6
CONTINUOUS
370
    -3
390
2CF
  0
LAYER
  5
50
330
2
100
AcDbSymbolTableRecord
100
AcDbLayerTableRecord
  2
DEFPOINTS
 70
     0
 62
     7
  6
CONTINUOUS
290
     0
370
    -3
390
2CF
  0
LAYER
  5
143D
102
{ACAD_XDICTIONARY
360
143E
102
}
330
2
100
AcDbSymbolTableRecord
100
AcDbLayerTableRecord
  2
KL
 70
     0
 62
     5
  6
HIDDEN
370
    -3
390
2CF
  0
ENDTAB
  0
TABLE
  2
STYLE
  5
3
330
0
100
AcDbSymbolTable
 70
     3
  0
STYLE
  5
10
330
3
100
AcDbSymbolTableRecord
100
AcDbTextStyleTableRecord
  2
STANDARD
 70
     0
 40
0.0
 41
1.0
 50
0.0
 71
     0
 42
0.2
  3
txt
  4

  0
STYLE
  5
2D
330
3
100
AcDbSymbolTableRecord
100
AcDbTextStyleTableRecord
  2
BIGFONT
 70
     0
 40
0.0
 41
1.0
 50
0.0
 71
     0
 42
50.0
  3
simplex
  4
extfont
  0
STYLE
  5
348
330
3
100
AcDbSymbolTableRecord
100
AcDbTextStyleTableRecord
  2
STYLE1
 70
     0
 40
0.0
 41
1.0
 50
0.0
 71
     0
 42
2.5
  3
txt.shx
  4
bigfont.shx
  0
ENDTAB
  0
TABLE
  2
VIEW
  5
6
330
0
100
AcDbSymbolTable
 70
     0
  0
ENDTAB
  0
TABLE
  2
UCS
  5
7
330
0
100
AcDbSymbolTable
 70
     0
  0
ENDTAB
  0
TABLE
  2
APPID
  5
9
330
0
100
AcDbSymbolTable
 70
     3
  0
APPID
  5
11
330
9
100
AcDbSymbolTableRecord
100
AcDbRegAppTableRecord
  2
ACAD
 70
     0
  0
APPID
  5
11DA
330
9
100
AcDbSymbolTableRecord
100
AcDbRegAppTableRecord
  2
ACAD_MLEADERVER
 70
     0
  0
APPID
  5
1201
330
9
100
AcDbSymbolTableRecord
100
AcDbRegAppTableRecord
  2
ACAD_EXEMPT_FROM_CAD_STANDARDS
 70
     0
  0
ENDTAB
  0
TABLE
  2
DIMSTYLE
  5
A
330
0
100
AcDbSymbolTable
 70
     4
100
AcDbDimStyleTable
 71
     1
340
2CA
  0
DIMSTYLE
105
2C5
330
A
100
AcDbSymbolTableRecord
100
AcDbDimStyleTableRecord
  2
STANDARD
 70
     0
340
10
  0
DIMSTYLE
105
2CA
102
{ACAD_REACTORS
330
37F
330
393
330
38D
330
389
330
38B
330
38C
330
388
330
383
330
F32
330
1052
330
1048
330
1047
330
104B
330
104D
330
104E
102
}
330
A
100
AcDbSymbolTableRecord
100
AcDbDimStyleTableRecord
  2
DIA1
 70
     0
 40
10.0
 41
2.0
 42
1.0
 43
10.0
 44
1.0
 73
     0
 74
     0
 77
     1
140
3.0
141
0.0
147
1.0
271
     0
340
2D
341
20
342
20
  0
DIMSTYLE
105
349
330
A
100
AcDbSymbolTableRecord
100
AcDbDimStyleTableRecord
  2
STYLE10
 70
     0
 40
10.0
 41
1.5
 42
5.0
 43
0.0
 44
0.0
 73
     0
 74
     0
 77
     1
 78
    12
140
2.0
141
2.0
147
1.0
172
     1
176
     3
177
     3
178
     3
340
10
  0
ENDTAB
  0
TABLE
  2
BLOCK_RECORD
  5
1
330
0
100
AcDbSymbolTable
 70
    23
  0
BLOCK_RECORD
  5
18
102
{ACAD_XDICTIONARY
360
1209
102
}
330
1
100
AcDbSymbolTableRecord
100
AcDbBlockTableRecord
  2
*MODEL_SPACE
340
2D2
  0
BLOCK_RECORD
  5
15
330
1
100
AcDbSymbolTableRecord
100
AcDbBlockTableRecord
  2
*PAPER_SPACE
340
2D3
  0
BLOCK_RECORD
  5
1C
330
1
100
AcDbSymbolTableRecord
100
AcDbBlockTableRecord
  2
SYASEN
340
0
  0
BLOCK_RECORD
  5
1D
330
1
100
AcDbSymbolTableRecord
100
AcDbBlockTableRecord
  2
YA2
340
0
  0
BLOCK_RECORD
  5
1E
330
1
100
AcDbSymbolTableRecord
100
AcDbBlockTableRecord
  2
YA_N
340
0
102
{BLKREFS
331
281
102
}
  0
BLOCK_RECORD
  5
1F
330
1
100
AcDbSymbolTableRecord
100
AcDbBlockTableRecord
  2
DOT
340
0
  0
BLOCK_RECORD
  5
20
330
1
100
AcDbSymbolTableRecord
100
AcDbBlockTableRecord
  2
ARROW
340
0
102
{BLKREFS
331
100A
331
100B
331
103A
331
123F
331
1240
331
1359
331
135A
331
139D
331
139E
331
1426
331
1427
331
142F
331
1430
331
1487
331
1488
331
1490
331
1491
331
1499
331
149A
331
14A2
331
14A3
331
14AA
331
14B0
331
14B1
102
}
  0
BLOCK_RECORD
  5
21
330
1
100
AcDbSymbolTableRecord
100
AcDbBlockTableRecord
  2
YA3
340
0
  0
BLOCK_RECORD
  5
22
330
1
100
AcDbSymbolTableRecord
100
AcDbBlockTableRecord
  2
BORDER
340
0
  0
BLOCK_RECORD
  5
2FA
330
1
100
AcDbSymbolTableRecord
100
AcDbBlockTableRecord
  2
_CLOSEDBLANK
340
0
  0
BLOCK_RECORD
  5
3AD
330
1
100
AcDbSymbolTableRecord
100
AcDbBlockTableRecord
  2
*D8
340
0
  0
BLOCK_RECORD
  5
3B9
330
1
100
AcDbSymbolTableRecord
100
AcDbBlockTableRecord
  2
*D9
340
0
  0
BLOCK_RECORD
  5
3C4
330
1
100
AcDbSymbolTableRecord
100
AcDbBlockTableRecord
  2
*D10
340
0
  0
BLOCK_RECORD
  5
3CF
330
1
100
AcDbSymbolTableRecord
100
AcDbBlockTableRecord
  2
*D11
340
0
  0
BLOCK_RECORD
  5
3DB
330
1
100
AcDbSymbolTableRecord
100
AcDbBlockTableRecord
  2
*D12
340
0
  0
BLOCK_RECORD
  5
3E6
330
1
100
AcDbSymbolTableRecord
100
AcDbBlockTableRecord
  2
*D13
340
0
  0
BLOCK_RECORD
  5
F34
330
1
100
AcDbSymbolTableRecord
100
AcDbBlockTableRecord
  2
*D14
340
0
  0
BLOCK_RECORD
  5
106C
330
1
100
AcDbSymbolTableRecord
100
AcDbBlockTableRecord
  2
*D15
340
0
  0
BLOCK_RECORD
  5
1078
330
1
100
AcDbSymbolTableRecord
100
AcDbBlockTableRecord
  2
*D16
340
0
  0
BLOCK_RECORD
  5
1084
330
1
100
AcDbSymbolTableRecord
100
AcDbBlockTableRecord
  2
*D17
340
0
  0
BLOCK_RECORD
  5
1090
330
1
100
AcDbSymbolTableRecord
100
AcDbBlockTableRecord
  2
*D18
340
0
  0
BLOCK_RECORD
  5
109C
330
1
100
AcDbSymbolTableRecord
100
AcDbBlockTableRecord
  2
*D19
340
0
  0
BLOCK_RECORD
  5
10A8
330
1
100
AcDbSymbolTableRecord
100
AcDbBlockTableRecord
  2
*D20
340
0
  0
ENDTAB
  0
ENDSEC
  0
SECTION
  2
BLOCKS
  0
BLOCK
  5
53
330
18
100
AcDbEntity
  8
0
100
AcDbBlockBegin
  2
*MODEL_SPACE
 70
     0
 10
0.0
 20
0.0
 30
0.0
  3
*MODEL_SPACE
  1

  0
ENDBLK
  5
54
330
18
100
AcDbEntity
  8
0
100
AcDbBlockEnd
  0
BLOCK
  5
51
330
15
100
AcDbEntity
 67
     1
  8
0
100
AcDbBlockBegin
  2
*PAPER_SPACE
 70
     0
 10
0.0
 20
0.0
 30
0.0
  3
*PAPER_SPACE
  1

  0
ENDBLK
  5
52
330
15
100
AcDbEntity
 67
     1
  8
0
100
AcDbBlockEnd
  0
BLOCK
  5
55
330
1C
100
AcDbEntity
  8
0
100
AcDbBlockBegin
  2
SYASEN
 70
     0
 10
0.0
 20
0.0
 30
0.0
  3
SYASEN
  1

  0
LINE
  5
56
330
1C
100
AcDbEntity
  8
0
100
AcDbLine
 10
0.0
 20
0.0
 30
0.0
 11
-1.0
 21
0.0
 31
0.0
  0
LINE
  5
57
330
1C
100
AcDbEntity
  8
0
100
AcDbLine
 10
0.5
 20
0.5
 30
0.0
 11
-0.5
 21
-0.5
 31
0.0
  0
ENDBLK
  5
58
330
1C
100
AcDbEntity
  8
0
100
AcDbBlockEnd
  0
BLOCK
  5
59
330
1D
100
AcDbEntity
  8
0
100
AcDbBlockBegin
  2
YA2
 70
     0
 10
0.0
 20
0.0
 30
0.0
  3
YA2
  1

  0
LINE
  5
5A
330
1D
100
AcDbEntity
  8
0
100
AcDbLine
 10
-1.0
 20
0.0
 30
0.0
 11
0.0
 21
0.0
 31
0.0
  0
ENDBLK
  5
5B
330
1D
100
AcDbEntity
  8
0
100
AcDbBlockEnd
  0
BLOCK
  5
5C
330
1E
100
AcDbEntity
  8
0
100
AcDbBlockBegin
  2
YA_N
 70
     0
 10
0.0
 20
0.0
 30
0.0
  3
YA_N
  1

  0
ENDBLK
  5
5D
330
1E
100
AcDbEntity
  8
0
100
AcDbBlockEnd
  0
BLOCK
  5
5E
330
1F
100
AcDbEntity
  8
0
100
AcDbBlockBegin
  2
DOT
 70
     0
 10
0.0
 20
0.0
 30
0.0
  3
DOT
  1

  0
LWPOLYLINE
  5
5F
330
1F
100
AcDbEntity
  8
0
100
AcDbPolyline
 90
        2
 70
     1
 43
0.25
 10
-0.125
 20
0.0
 42
1.0
 10
0.125
 20
0.0
 42
1.0
  0
LINE
  5
63
330
1F
100
AcDbEntity
  8
0
100
AcDbLine
 10
-1.0
 20
0.0
 30
0.0
 11
-0.25
 21
0.0
 31
0.0
  0
ENDBLK
  5
64
330
1F
100
AcDbEntity
  8
0
100
AcDbBlockEnd
  0
BLOCK
  5
65
330
20
100
AcDbEntity
  8
0
100
AcDbBlockBegin
  2
ARROW
 70
     0
 10
0.0
 20
0.0
 30
0.0
  3
ARROW
  1

  0
LINE
  5
66
330
20
100
AcDbEntity
  8
0
100
AcDbLine
 10
-0.9999999999999991
 20
0.1666666667000003
 30
0.0
 11
0.0
 21
0.0
 31
0.0
  0
LINE
  5
67
330
20
100
AcDbEntity
  8
0
100
AcDbLine
 10
-0.9999999999999991
 20
0.0
 30
0.0
 11
0.0
 21
0.0
 31
0.0
  0
LINE
  5
68
330
20
100
AcDbEntity
  8
0
100
AcDbLine
 10
-0.9999999999999991
 20
-0.1666666667000003
 30
0.0
 11
0.0
 21
0.0
 31
0.0
  0
ENDBLK
  5
69
330
20
100
AcDbEntity
  8
0
100
AcDbBlockEnd
  0
BLOCK
  5
6A
330
21
100
AcDbEntity
  8
0
100
AcDbBlockBegin
  2
YA3
 70
     0
 10
0.0
 20
0.0
 30
0.0
  3
YA3
  1

  0
SOLID
  5
6B
330
21
100
AcDbEntity
  8
0
100
AcDbTrace
 10
1.0
 20
-0.1666666666666665
 30
0.0
 11
1.0
 21
0.166666666666667
 31
0.0
 12
0.0
 22
0.0
 32
0.0
 13
0.0
 23
0.0
 33
0.0
  0
ENDBLK
  5
6C
330
21
100
AcDbEntity
  8
0
100
AcDbBlockEnd
  0
BLOCK
  5
6D
330
22
100
AcDbEntity
  8
0
100
AcDbBlockBegin
  2
BORDER
 70
     0
 10
0.0
 20
0.0
 30
0.0
  3
BORDER
  1

  0
LINE
  5
6E
330
22
100
AcDbEntity
  8
0
100
AcDbLine
 10
0.0
 20
0.0
 30
0.0
 11
1.00000000000004
 21
0.0
 31
0.0
  0
LINE
  5
6F
330
22
100
AcDbEntity
  8
0
100
AcDbLine
 10
1.00000000000004
 20
0.0
 30
0.0
 11
1.00000000000004
 21
1.00000000000004
 31
0.0
  0
LINE
  5
70
330
22
100
AcDbEntity
  8
0
100
AcDbLine
 10
1.00000000000004
 20
1.00000000000004
 30
0.0
 11
0.0
 21
1.00000000000004
 31
0.0
  0
LINE
  5
71
330
22
100
AcDbEntity
  8
0
100
AcDbLine
 10
0.0
 20
1.00000000000004
 30
0.0
 11
0.0
 21
0.0
 31
0.0
  0
ENDBLK
  5
72
330
22
100
AcDbEntity
  8
0
100
AcDbBlockEnd
  0
BLOCK
  5
2FE
330
2FA
100
AcDbEntity
  8
0
100
AcDbBlockBegin
  2
_CLOSEDBLANK
 70
     0
 10
0.0
 20
0.0
 30
0.0
  3
_CLOSEDBLANK
  1

  0
LINE
  5
2FB
330
2FA
100
AcDbEntity
  8
0
  6
ByBlock
 62
     0
100
AcDbLine
 10
-1.0
 20
0.1666666666666666
 30
0.0
 11
0.0
 21
0.0
 31
0.0
  0
LINE
  5
2FC
330
2FA
100
AcDbEntity
  8
0
  6
ByBlock
 62
     0
100
AcDbLine
 10
0.0
 20
0.0
 30
0.0
 11
-1.0
 21
-0.1666666666666666
 31
0.0
  0
LINE
  5
2FD
330
2FA
100
AcDbEntity
  8
0
  6
ByBlock
 62
     0
100
AcDbLine
 10
-1.0
 20
0.1666666666666666
 30
0.0
 11
-1.0
 21
-0.1666666666666666
 31
0.0
  0
ENDBLK
  5
2FF
330
2FA
100
AcDbEntity
  8
0
100
AcDbBlockEnd
  0
BLOCK
  5
3B7
330
3AD
100
AcDbEntity
  8
0
100
AcDbBlockBegin
  2
*D8
 70
     1
 10
0.0
 20
0.0
 30
0.0
  3
*D8
  1

  0
LINE
  5
1356
330
3AD
100
AcDbEntity
  8
SUNPOU
 62
     0
370
    -2
100
AcDbLine
 10
588.8257633170422
 20
-342.1523941806456
 30
0.0
 11
588.8257633170422
 21
-712.4155889793255
 31
0.0
  0
LINE
  5
1357
330
3AD
100
AcDbEntity
  8
SUNPOU
 62
     0
370
    -2
100
AcDbLine
 10
2458.825763317042
 20
-342.1523941806455
 30
0.0
 11
2458.825763317042
 21
-712.4155889793255
 31
0.0
  0
LINE
  5
1358
330
3AD
100
AcDbEntity
  8
SUNPOU
 62
     0
370
    -2
100
AcDbLine
 10
613.8257633170422
 20
-702.4155889793255
 30
0.0
 11
2433.825763317043
 21
-702.4155889793255
 31
0.0
  0
INSERT
  5
1359
330
3AD
100
AcDbEntity
  8
SUNPOU
 62
     0
370
    -2
100
AcDbBlockReference
  2
ARROW
 10
588.8257633170422
 20
-702.4155889793255
 30
0.0
 41
25.0
 42
25.0
 43
25.0
 50
180.0
  0
INSERT
  5
135A
330
3AD
100
AcDbEntity
  8
SUNPOU
 62
     0
370
    -2
100
AcDbBlockReference
  2
ARROW
 10
2458.825763317042
 20
-702.4155889793255
 30
0.0
 41
25.0
 42
25.0
 43
25.0
  0
MTEXT
  5
135B
330
3AD
100
AcDbEntity
  8
SUNPOU
 62
     0
100
AcDbMText
 10
1523.825763317042
 20
-672.4155889793255
 30
0.0
 40
40.0
 41
0.0
 71
     5
 72
     1
  1
\A1;1870
  7
BIGFONT
 73
     1
 44
1.0
  0
POINT
  5
135C
330
3AD
100
AcDbEntity
  8
DEFPOINTS
 62
     0
100
AcDbPoint
 10
588.8257633170422
 20
-332.1523941806455
 30
0.0
  0
POINT
  5
135D
330
3AD
100
AcDbEntity
  8
DEFPOINTS
 62
     0
100
AcDbPoint
 10
2458.825763317042
 20
-332.1523941806455
 30
0.0
  0
POINT
  5
135E
330
3AD
100
AcDbEntity
  8
DEFPOINTS
 62
     0
100
AcDbPoint
 10
2458.825763317042
 20
-702.4155889793255
 30
0.0
  0
ENDBLK
  5
3B8
330
3AD
100
AcDbEntity
  8
0
100
AcDbBlockEnd
  0
BLOCK
  5
3C2
330
3B9
100
AcDbEntity
  8
0
100
AcDbBlockBegin
  2
*D9
 70
     1
 10
0.0
 20
0.0
 30
0.0
  3
*D9
  1

  0
LINE
  5
1423
330
3B9
100
AcDbEntity
  8
SUNPOU
 62
     0
370
    -2
100
AcDbLine
 10
588.8020377108451
 20
838.6371902153944
 30
0.0
 11
500.0885152277088
 21
838.6371902153944
 31
0.0
  0
LINE
  5
1424
330
3B9
100
AcDbEntity
  8
SUNPOU
 62
     0
370
    -2
100
AcDbLine
 10
598.8257633170405
 20
738.6371902153943
 30
0.0
 11
500.0885152277088
 21
738.6371902153943
 31
0.0
  0
LINE
  5
1425
330
3B9
100
AcDbEntity
  8
SUNPOU
 62
     0
370
    -2
100
AcDbLine
 10
510.0885152277088
 20
813.6371902153944
 30
0.0
 11
510.0885152277088
 21
763.6371902153943
 31
0.0
  0
INSERT
  5
1426
330
3B9
100
AcDbEntity
  8
SUNPOU
 62
     0
370
    -2
100
AcDbBlockReference
  2
ARROW
 10
510.0885152277088
 20
838.6371902153944
 30
0.0
 41
25.0
 42
25.0
 43
25.0
 50
90.0
  0
INSERT
  5
1427
330
3B9
100
AcDbEntity
  8
SUNPOU
 62
     0
370
    -2
100
AcDbBlockReference
  2
ARROW
 10
510.0885152277088
 20
738.6371902153943
 30
0.0
 41
25.0
 42
25.0
 43
25.0
 50
270.0
  0
MTEXT
  5
1428
330
3B9
100
AcDbEntity
  8
SUNPOU
 62
     0
100
AcDbMText
 10
480.0885152277087
 20
788.6371902153945
 30
0.0
 40
40.0
 41
0.0
 71
     5
 72
     1
  1
\A1;100
  7
BIGFONT
 11
0.0000000000000001
 21
1.0
 31
0.0
 73
     1
 44
1.0
  0
POINT
  5
1429
330
3B9
100
AcDbEntity
  8
DEFPOINTS
 62
     0
100
AcDbPoint
 10
598.802037710845
 20
838.6371902153944
 30
0.0
  0
POINT
  5
142A
330
3B9
100
AcDbEntity
  8
DEFPOINTS
 62
     0
100
AcDbPoint
 10
608.8257633170406
 20
738.6371902153943
 30
0.0
  0
POINT
  5
142B
330
3B9
100
AcDbEntity
  8
DEFPOINTS
 62
     0
100
AcDbPoint
 10
510.0885152277088
 20
738.6371902153943
 30
0.0
  0
ENDBLK
  5
3C3
330
3B9
100
AcDbEntity
  8
0
100
AcDbBlockEnd
  0
BLOCK
  5
3CD
330
3C4
100
AcDbEntity
  8
0
100
AcDbBlockBegin
  2
*D10
 70
     1
 10
0.0
 20
0.0
 30
0.0
  3
*D10
  1

  0
LINE
  5
1007
330
3C4
100
AcDbEntity
  8
SUNPOU
 62
     0
370
    -2
100
AcDbLine
 10
598.8257633170405
 20
738.6371902153943
 30
0.0
 11
500.0885152277088
 21
738.6371902153943
 31
0.0
  0
LINE
  5
1008
330
3C4
100
AcDbEntity
  8
SUNPOU
 62
     0
370
    -2
100
AcDbLine
 10
598.8257633170405
 20
-135.3628097846056
 30
0.0
 11
500.0885152277087
 21
-135.3628097846055
 31
0.0
  0
LINE
  5
1009
330
3C4
100
AcDbEntity
  8
SUNPOU
 62
     0
370
    -2
100
AcDbLine
 10
510.0885152277089
 20
713.6371902153943
 30
0.0
 11
510.0885152277087
 21
-110.3628097846055
 31
0.0
  0
INSERT
  5
100A
330
3C4
100
AcDbEntity
  8
SUNPOU
 62
     0
370
    -2
100
AcDbBlockReference
  2
ARROW
 10
510.0885152277089
 20
738.6371902153943
 30
0.0
 41
25.0
 42
25.0
 43
25.0
 50
90.0
  0
INSERT
  5
100B
330
3C4
100
AcDbEntity
  8
SUNPOU
 62
     0
370
    -2
100
AcDbBlockReference
  2
ARROW
 10
510.0885152277086
 20
-135.3628097846055
 30
0.0
 41
25.0
 42
25.0
 43
25.0
 50
270.0
  0
MTEXT
  5
100C
330
3C4
100
AcDbEntity
  8
SUNPOU
 62
     0
100
AcDbMText
 10
480.0885152277087
 20
301.6371902153944
 30
0.0
 40
40.0
 41
0.0
 71
     5
 72
     1
  1
\A1;874
  7
BIGFONT
 11
0.0000000000000001
 21
1.0
 31
0.0
 73
     1
 44
1.0
  0
POINT
  5
100D
330
3C4
100
AcDbEntity
  8
DEFPOINTS
 62
     0
100
AcDbPoint
 10
608.8257633170406
 20
738.6371902153943
 30
0.0
  0
POINT
  5
100E
330
3C4
100
AcDbEntity
  8
DEFPOINTS
 62
     0
100
AcDbPoint
 10
608.8257633170406
 20
-135.3628097846056
 30
0.0
  0
POINT
  5
100F
330
3C4
100
AcDbEntity
  8
DEFPOINTS
 62
     0
100
AcDbPoint
 10
510.0885152277086
 20
-135.3628097846055
 30
0.0
  0
ENDBLK
  5
3CE
330
3C4
100
AcDbEntity
  8
0
100
AcDbBlockEnd
  0
BLOCK
  5
3D9
330
3CF
100
AcDbEntity
  8
0
100
AcDbBlockBegin
  2
*D11
 70
     1
 10
0.0
 20
0.0
 30
0.0
  3
*D11
  1

  0
LINE
  5
142C
330
3CF
100
AcDbEntity
  8
SUNPOU
 62
     0
370
    -2
100
AcDbLine
 10
588.8257633170406
 20
838.6371902153946
 30
0.0
 11
335.9809489917936
 21
838.6371902153946
 31
0.0
  0
LINE
  5
142D
330
3CF
100
AcDbEntity
  8
SUNPOU
 62
     0
370
    -2
100
AcDbLine
 10
1028.825763317042
 20
-335.3628097846057
 30
0.0
 11
335.9809489917934
 21
-335.3628097846055
 31
0.0
  0
LINE
  5
142E
330
3CF
100
AcDbEntity
  8
SUNPOU
 62
     0
370
    -2
100
AcDbLine
 10
345.9809489917936
 20
813.6371902153946
 30
0.0
 11
345.9809489917934
 21
-310.3628097846055
 31
0.0
  0
INSERT
  5
142F
330
3CF
100
AcDbEntity
  8
SUNPOU
 62
     0
370
    -2
100
AcDbBlockReference
  2
ARROW
 10
345.9809489917936
 20
838.6371902153946
 30
0.0
 41
25.0
 42
25.0
 43
25.0
 50
90.0
  0
INSERT
  5
1430
330
3CF
100
AcDbEntity
  8
SUNPOU
 62
     0
370
    -2
100
AcDbBlockReference
  2
ARROW
 10
345.9809489917934
 20
-335.3628097846055
 30
0.0
 41
25.0
 42
25.0
 43
25.0
 50
270.0
  0
MTEXT
  5
1431
330
3CF
100
AcDbEntity
  8
SUNPOU
 62
     0
100
AcDbMText
 10
315.9809489917934
 20
251.6371902153947
 30
0.0
 40
40.0
 41
0.0
 71
     5
 72
     1
  1
\A1;1174
  7
BIGFONT
 11
0.0000000000000001
 21
1.0
 31
0.0
 73
     1
 44
1.0
  0
POINT
  5
1432
330
3CF
100
AcDbEntity
  8
DEFPOINTS
 62
     0
100
AcDbPoint
 10
598.8257633170405
 20
838.6371902153946
 30
0.0
  0
POINT
  5
1433
330
3CF
100
AcDbEntity
  8
DEFPOINTS
 62
     0
100
AcDbPoint
 10
1038.825763317042
 20
-335.3628097846057
 30
0.0
  0
POINT
  5
1434
330
3CF
100
AcDbEntity
  8
DEFPOINTS
 62
     0
100
AcDbPoint
 10
345.9809489917934
 20
-335.3628097846055
 30
0.0
  0
ENDBLK
  5
3DA
330
3CF
100
AcDbEntity
  8
0
100
AcDbBlockEnd
  0
BLOCK
  5
3E4
330
3DB
100
AcDbEntity
  8
0
100
AcDbBlockBegin
  2
*D12
 70
     1
 10
0.0
 20
0.0
 30
0.0
  3
*D12
  1

  0
LINE
  5
139A
330
3DB
100
AcDbEntity
  8
SUNPOU
 62
     0
370
    -2
100
AcDbLine
 10
598.8257633170405
 20
-135.3628097846056
 30
0.0
 11
500.0885152277086
 21
-135.3628097846055
 31
0.0
  0
LINE
  5
139B
330
3DB
100
AcDbEntity
  8
SUNPOU
 62
     0
370
    -2
100
AcDbLine
 10
1028.825763317042
 20
-335.3628097846057
 30
0.0
 11
500.0885152277087
 21
-335.3628097846055
 31
0.0
  0
LINE
  5
139C
330
3DB
100
AcDbEntity
  8
SUNPOU
 62
     0
370
    -2
100
AcDbLine
 10
510.0885152277085
 20
-160.3628097846055
 30
0.0
 11
510.0885152277085
 21
-310.3628097846055
 31
0.0
  0
INSERT
  5
139D
330
3DB
100
AcDbEntity
  8
SUNPOU
 62
     0
370
    -2
100
AcDbBlockReference
  2
ARROW
 10
510.0885152277085
 20
-135.3628097846055
 30
0.0
 41
25.0
 42
25.0
 43
25.0
 50
90.0
  0
INSERT
  5
139E
330
3DB
100
AcDbEntity
  8
SUNPOU
 62
     0
370
    -2
100
AcDbBlockReference
  2
ARROW
 10
510.0885152277085
 20
-335.3628097846055
 30
0.0
 41
25.0
 42
25.0
 43
25.0
 50
270.0
  0
MTEXT
  5
139F
330
3DB
100
AcDbEntity
  8
SUNPOU
 62
     0
100
AcDbMText
 10
480.0885152277087
 20
-235.3628097846054
 30
0.0
 40
40.0
 41
0.0
 71
     5
 72
     1
  1
\A1;200
  7
BIGFONT
 11
0.0000000000000001
 21
1.0
 31
0.0
 73
     1
 44
1.0
  0
POINT
  5
13A0
330
3DB
100
AcDbEntity
  8
DEFPOINTS
 62
     0
100
AcDbPoint
 10
608.8257633170406
 20
-135.3628097846056
 30
0.0
  0
POINT
  5
13A1
330
3DB
100
AcDbEntity
  8
DEFPOINTS
 62
     0
100
AcDbPoint
 10
1038.825763317042
 20
-335.3628097846057
 30
0.0
  0
POINT
  5
13A2
330
3DB
100
AcDbEntity
  8
DEFPOINTS
 62
     0
100
AcDbPoint
 10
510.0885152277085
 20
-335.3628097846055
 30
0.0
  0
ENDBLK
  5
3E5
330
3DB
100
AcDbEntity
  8
0
100
AcDbBlockEnd
  0
BLOCK
  5
3F0
330
3E6
100
AcDbEntity
  8
0
100
AcDbBlockBegin
  2
*D13
 70
     1
 10
0.0
 20
0.0
 30
0.0
  3
*D13
  1

  0
LINE
  5
123C
330
3E6
100
AcDbEntity
  8
SUNPOU
 62
     0
370
    -2
100
AcDbLine
 10
1038.825763317042
 20
-345.3628097846056
 30
0.0
 11
1038.825763317042
 21
-584.2995821031791
 31
0.0
  0
LINE
  5
123D
330
3E6
100
AcDbEntity
  8
SUNPOU
 62
     0
370
    -2
100
AcDbLine
 10
2008.71037424436
 20
-345.2607875991954
 30
0.0
 11
2008.71037424436
 21
-584.2995821031791
 31
0.0
  0
LINE
  5
123E
330
3E6
100
AcDbEntity
  8
SUNPOU
 62
     0
370
    -2
100
AcDbLine
 10
1063.825763317042
 20
-574.299582103179
 30
0.0
 11
1983.71037424436
 21
-574.299582103179
 31
0.0
  0
INSERT
  5
123F
330
3E6
100
AcDbEntity
  8
SUNPOU
 62
     0
370
    -2
100
AcDbBlockReference
  2
ARROW
 10
1038.825763317042
 20
-574.299582103179
 30
0.0
 41
25.0
 42
25.0
 43
25.0
 50
180.0
  0
INSERT
  5
1240
330
3E6
100
AcDbEntity
  8
SUNPOU
 62
     0
370
    -2
100
AcDbBlockReference
  2
ARROW
 10
2008.71037424436
 20
-574.299582103179
 30
0.0
 41
25.0
 42
25.0
 43
25.0
  0
MTEXT
  5
1241
330
3E6
100
AcDbEntity
  8
SUNPOU
 62
     0
100
AcDbMText
 10
1523.768068780701
 20
-544.299582103179
 30
0.0
 40
40.0
 41
0.0
 71
     5
 72
     1
  1
\A1;970
  7
BIGFONT
 73
     1
 44
1.0
  0
POINT
  5
1242
330
3E6
100
AcDbEntity
  8
DEFPOINTS
 62
     0
100
AcDbPoint
 10
1038.825763317042
 20
-335.3628097846056
 30
0.0
  0
POINT
  5
1243
330
3E6
100
AcDbEntity
  8
DEFPOINTS
 62
     0
100
AcDbPoint
 10
2008.71037424436
 20
-335.2607875991954
 30
0.0
  0
POINT
  5
1244
330
3E6
100
AcDbEntity
  8
DEFPOINTS
 62
     0
100
AcDbPoint
 10
2008.71037424436
 20
-574.299582103179
 30
0.0
  0
ENDBLK
  5
3F1
330
3E6
100
AcDbEntity
  8
0
100
AcDbBlockEnd
  0
BLOCK
  5
F3A
330
F34
100
AcDbEntity
  8
0
100
AcDbBlockBegin
  2
*D14
 70
     1
 10
0.0
 20
0.0
 30
0.0
  3
*D14
  1

  0
LINE
  5
1038
330
F34
100
AcDbEntity
  8
SUNPOU
 62
     0
370
    -2
100
AcDbLine
 10
1566.922706384821
 20
306.6580872856454
 30
0.0
 11
1201.009143629683
 21
264.028280983311
 31
0.0
  0
MTEXT
  5
1039
102
{ACAD_XDICTIONARY
360
14B8
102
}
330
F34
100
AcDbEntity
  8
SUNPOU
 62
     0
100
AcDbMText
 10
1475.540161546472
 20
328.7316167485299
 30
0.0
 40
45.0
 41
0.0
 71
     5
 72
     1
  1
\A1;\U+2205700
  7
BIGFONT
 11
0.993281906730335
 21
0.1157197207141049
 31
0.0
 73
     1
 44
1.0
  0
INSERT
  5
103A
330
F34
100
AcDbEntity
  8
SUNPOU
 62
     0
370
    -2
100
AcDbBlockReference
  2
ARROW
 10
1176.177095961425
 20
261.1352879654583
 30
0.0
 41
25.0
 42
25.0
 43
25.0
 50
186.6451391670177
  0
POINT
  5
103B
330
F34
100
AcDbEntity
  8
DEFPOINTS
 62
     0
100
AcDbPoint
 10
1176.177095961425
 20
261.1352879654583
 30
0.0
  0
POINT
  5
103C
330
F34
100
AcDbEntity
  8
DEFPOINTS
 62
     0
100
AcDbPoint
 10
1871.474430672659
 20
342.1390924653309
 30
0.0
  0
ENDBLK
  5
F3B
330
F34
100
AcDbEntity
  8
0
100
AcDbBlockEnd
  0
BLOCK
  5
1076
330
106C
100
AcDbEntity
  8
0
100
AcDbBlockBegin
  2
*D15
 70
     1
 10
0.0
 20
0.0
 30
0.0
  3
*D15
  1

  0
LINE
  5
14AD
330
106C
100
AcDbEntity
  8
SUNPOU
 62
     0
370
    -2
100
AcDbLine
 10
4527.825763317042
 20
838.637190215396
 30
0.0
 11
4287.578274476879
 21
838.637190215396
 31
0.0
  0
LINE
  5
14AE
330
106C
100
AcDbEntity
  8
SUNPOU
 62
     0
370
    -2
100
AcDbLine
 10
4537.825763317041
 20
738.6371902153958
 30
0.0
 11
4287.578274476879
 21
738.6371902153959
 31
0.0
  0
LINE
  5
14AF
330
106C
100
AcDbEntity
  8
SUNPOU
 62
     0
370
    -2
100
AcDbLine
 10
4297.578274476879
 20
813.637190215396
 30
0.0
 11
4297.578274476879
 21
763.6371902153959
 31
0.0
  0
INSERT
  5
14B0
330
106C
100
AcDbEntity
  8
SUNPOU
 62
     0
370
    -2
100
AcDbBlockReference
  2
ARROW
 10
4297.578274476879
 20
838.637190215396
 30
0.0
 41
25.0
 42
25.0
 43
25.0
 50
90.0
  0
INSERT
  5
14B1
330
106C
100
AcDbEntity
  8
SUNPOU
 62
     0
370
    -2
100
AcDbBlockReference
  2
ARROW
 10
4297.578274476879
 20
738.6371902153959
 30
0.0
 41
25.0
 42
25.0
 43
25.0
 50
270.0
  0
MTEXT
  5
14B2
330
106C
100
AcDbEntity
  8
SUNPOU
 62
     0
100
AcDbMText
 10
4267.578274476879
 20
788.6371902153967
 30
0.0
 40
40.0
 41
0.0
 71
     5
 72
     1
  1
\A1;100
  7
BIGFONT
 11
0.0000000000000001
 21
1.0
 31
0.0
 73
     1
 44
1.0
  0
POINT
  5
14B3
330
106C
100
AcDbEntity
  8
DEFPOINTS
 62
     0
100
AcDbPoint
 10
4537.825763317041
 20
838.637190215396
 30
0.0
  0
POINT
  5
14B4
330
106C
100
AcDbEntity
  8
DEFPOINTS
 62
     0
100
AcDbPoint
 10
4547.825763317042
 20
738.6371902153958
 30
0.0
  0
POINT
  5
14B5
330
106C
100
AcDbEntity
  8
DEFPOINTS
 62
     0
100
AcDbPoint
 10
4297.578274476879
 20
738.6371902153959
 30
0.0
  0
ENDBLK
  5
1077
330
106C
100
AcDbEntity
  8
0
100
AcDbBlockEnd
  0
BLOCK
  5
1082
330
1078
100
AcDbEntity
  8
0
100
AcDbBlockBegin
  2
*D16
 70
     1
 10
0.0
 20
0.0
 30
0.0
  3
*D16
  1

  0
LINE
  5
148D
330
1078
100
AcDbEntity
  8
SUNPOU
 62
     0
370
    -2
100
AcDbLine
 10
4537.825763317041
 20
738.6371902153958
 30
0.0
 11
4287.578274476879
 21
738.6371902153959
 31
0.0
  0
LINE
  5
148E
330
1078
100
AcDbEntity
  8
SUNPOU
 62
     0
370
    -2
100
AcDbLine
 10
4537.825763317041
 20
-135.362809784604
 30
0.0
 11
4287.578274476879
 21
-135.3628097846039
 31
0.0
  0
LINE
  5
148F
330
1078
100
AcDbEntity
  8
SUNPOU
 62
     0
370
    -2
100
AcDbLine
 10
4297.578274476879
 20
713.6371902153959
 30
0.0
 11
4297.578274476879
 21
-110.3628097846039
 31
0.0
  0
INSERT
  5
1490
330
1078
100
AcDbEntity
  8
SUNPOU
 62
     0
370
    -2
100
AcDbBlockReference
  2
ARROW
 10
4297.578274476879
 20
738.6371902153959
 30
0.0
 41
25.0
 42
25.0
 43
25.0
 50
90.0
  0
INSERT
  5
1491
330
1078
100
AcDbEntity
  8
SUNPOU
 62
     0
370
    -2
100
AcDbBlockReference
  2
ARROW
 10
4297.578274476879
 20
-135.362809784604
 30
0.0
 41
25.0
 42
25.0
 43
25.0
 50
270.0
  0
MTEXT
  5
1492
330
1078
100
AcDbEntity
  8
SUNPOU
 62
     0
100
AcDbMText
 10
4267.578274476879
 20
301.6371902153966
 30
0.0
 40
40.0
 41
0.0
 71
     5
 72
     1
  1
\A1;874
  7
BIGFONT
 11
0.0000000000000001
 21
1.0
 31
0.0
 73
     1
 44
1.0
  0
POINT
  5
1493
330
1078
100
AcDbEntity
  8
DEFPOINTS
 62
     0
100
AcDbPoint
 10
4547.825763317042
 20
738.6371902153958
 30
0.0
  0
POINT
  5
1494
330
1078
100
AcDbEntity
  8
DEFPOINTS
 62
     0
100
AcDbPoint
 10
4547.825763317042
 20
-135.3628097846041
 30
0.0
  0
POINT
  5
1495
330
1078
100
AcDbEntity
  8
DEFPOINTS
 62
     0
100
AcDbPoint
 10
4297.578274476879
 20
-135.362809784604
 30
0.0
  0
ENDBLK
  5
1083
330
1078
100
AcDbEntity
  8
0
100
AcDbBlockEnd
  0
BLOCK
  5
108E
330
1084
100
AcDbEntity
  8
0
100
AcDbBlockBegin
  2
*D17
 70
     1
 10
0.0
 20
0.0
 30
0.0
  3
*D17
  1

  0
LINE
  5
1484
330
1084
100
AcDbEntity
  8
SUNPOU
 62
     0
370
    -2
100
AcDbLine
 10
4537.825763317041
 20
838.637190215396
 30
0.0
 11
4157.767630295011
 21
838.637190215396
 31
0.0
  0
LINE
  5
1485
330
1084
100
AcDbEntity
  8
SUNPOU
 62
     0
370
    -2
100
AcDbLine
 10
4537.825763317041
 20
-335.3628097846042
 30
0.0
 11
4157.767630295011
 21
-335.3628097846041
 31
0.0
  0
LINE
  5
1486
330
1084
100
AcDbEntity
  8
SUNPOU
 62
     0
370
    -2
100
AcDbLine
 10
4167.767630295011
 20
813.637190215396
 30
0.0
 11
4167.767630295011
 21
-310.3628097846041
 31
0.0
  0
INSERT
  5
1487
330
1084
100
AcDbEntity
  8
SUNPOU
 62
     0
370
    -2
100
AcDbBlockReference
  2
ARROW
 10
4167.767630295011
 20
838.637190215396
 30
0.0
 41
25.0
 42
25.0
 43
25.0
 50
90.0
  0
INSERT
  5
1488
330
1084
100
AcDbEntity
  8
SUNPOU
 62
     0
370
    -2
100
AcDbBlockReference
  2
ARROW
 10
4167.767630295011
 20
-335.3628097846041
 30
0.0
 41
25.0
 42
25.0
 43
25.0
 50
270.0
  0
MTEXT
  5
1489
330
1084
100
AcDbEntity
  8
SUNPOU
 62
     0
100
AcDbMText
 10
4137.767630295011
 20
251.6371902153966
 30
0.0
 40
40.0
 41
0.0
 71
     5
 72
     1
  1
\A1;1174
  7
BIGFONT
 11
0.0000000000000001
 21
1.0
 31
0.0
 73
     1
 44
1.0
  0
POINT
  5
148A
330
1084
100
AcDbEntity
  8
DEFPOINTS
 62
     0
100
AcDbPoint
 10
4547.825763317042
 20
838.637190215396
 30
0.0
  0
POINT
  5
148B
330
1084
100
AcDbEntity
  8
DEFPOINTS
 62
     0
100
AcDbPoint
 10
4547.825763317042
 20
-335.3628097846042
 30
0.0
  0
POINT
  5
148C
330
1084
100
AcDbEntity
  8
DEFPOINTS
 62
     0
100
AcDbPoint
 10
4167.767630295011
 20
-335.3628097846041
 30
0.0
  0
ENDBLK
  5
108F
330
1084
100
AcDbEntity
  8
0
100
AcDbBlockEnd
  0
BLOCK
  5
109A
330
1090
100
AcDbEntity
  8
0
100
AcDbBlockBegin
  2
*D18
 70
     1
 10
0.0
 20
0.0
 30
0.0
  3
*D18
  1

  0
LINE
  5
1496
330
1090
100
AcDbEntity
  8
SUNPOU
 62
     0
370
    -2
100
AcDbLine
 10
4386.315522566211
 20
-135.3628097846042
 30
0.0
 11
4287.578274476879
 21
-135.3628097846042
 31
0.0
  0
LINE
  5
1497
330
1090
100
AcDbEntity
  8
SUNPOU
 62
     0
370
    -2
100
AcDbLine
 10
4537.825763317041
 20
-335.3628097846042
 30
0.0
 11
4287.578274476879
 21
-335.3628097846041
 31
0.0
  0
LINE
  5
1498
330
1090
100
AcDbEntity
  8
SUNPOU
 62
     0
370
    -2
100
AcDbLine
 10
4297.578274476879
 20
-160.3628097846042
 30
0.0
 11
4297.578274476879
 21
-310.3628097846041
 31
0.0
  0
INSERT
  5
1499
330
1090
100
AcDbEntity
  8
SUNPOU
 62
     0
370
    -2
100
AcDbBlockReference
  2
ARROW
 10
4297.578274476879
 20
-135.3628097846042
 30
0.0
 41
25.0
 42
25.0
 43
25.0
 50
90.0
  0
INSERT
  5
149A
330
1090
100
AcDbEntity
  8
SUNPOU
 62
     0
370
    -2
100
AcDbBlockReference
  2
ARROW
 10
4297.578274476879
 20
-335.3628097846041
 30
0.0
 41
25.0
 42
25.0
 43
25.0
 50
270.0
  0
MTEXT
  5
149B
330
1090
100
AcDbEntity
  8
SUNPOU
 62
     0
100
AcDbMText
 10
4267.578274476879
 20
-235.3628097846035
 30
0.0
 40
40.0
 41
0.0
 71
     5
 72
     1
  1
\A1;200
  7
BIGFONT
 11
0.0000000000000001
 21
1.0
 31
0.0
 73
     1
 44
1.0
  0
POINT
  5
149C
330
1090
100
AcDbEntity
  8
DEFPOINTS
 62
     0
100
AcDbPoint
 10
4396.315522566211
 20
-135.3628097846042
 30
0.0
  0
POINT
  5
149D
330
1090
100
AcDbEntity
  8
DEFPOINTS
 62
     0
100
AcDbPoint
 10
4547.825763317042
 20
-335.3628097846042
 30
0.0
  0
POINT
  5
149E
330
1090
100
AcDbEntity
  8
DEFPOINTS
 62
     0
100
AcDbPoint
 10
4297.578274476879
 20
-335.3628097846041
 30
0.0
  0
ENDBLK
  5
109B
330
1090
100
AcDbEntity
  8
0
100
AcDbBlockEnd
  0
BLOCK
  5
10A6
330
109C
100
AcDbEntity
  8
0
100
AcDbBlockBegin
  2
*D19
 70
     1
 10
0.0
 20
0.0
 30
0.0
  3
*D19
  1

  0
LINE
  5
149F
330
109C
100
AcDbEntity
  8
SUNPOU
 62
     0
370
    -2
100
AcDbLine
 10
4547.825763317042
 20
-345.3628097846042
 30
0.0
 11
4547.825763317042
 21
-584.2995821031776
 31
0.0
  0
LINE
  5
14A0
330
109C
100
AcDbEntity
  8
SUNPOU
 62
     0
370
    -2
100
AcDbLine
 10
5627.825763317042
 20
-345.3628097846042
 30
0.0
 11
5627.825763317042
 21
-584.2995821031776
 31
0.0
  0
LINE
  5
14A1
330
109C
100
AcDbEntity
  8
SUNPOU
 62
     0
370
    -2
100
AcDbLine
 10
4572.825763317041
 20
-574.2995821031777
 30
0.0
 11
5602.825763317042
 21
-574.2995821031777
 31
0.0
  0
INSERT
  5
14A2
330
109C
100
AcDbEntity
  8
SUNPOU
 62
     0
370
    -2
100
AcDbBlockReference
  2
ARROW
 10
4547.825763317042
 20
-574.2995821031777
 30
0.0
 41
25.0
 42
25.0
 43
25.0
 50
180.0
  0
INSERT
  5
14A3
330
109C
100
AcDbEntity
  8
SUNPOU
 62
     0
370
    -2
100
AcDbBlockReference
  2
ARROW
 10
5627.825763317042
 20
-574.2995821031777
 30
0.0
 41
25.0
 42
25.0
 43
25.0
  0
MTEXT
  5
14A4
330
109C
100
AcDbEntity
  8
SUNPOU
 62
     0
100
AcDbMText
 10
5087.825763317042
 20
-544.2995821031777
 30
0.0
 40
40.0
 41
0.0
 71
     5
 72
     1
  1
\A1;1080
  7
BIGFONT
 73
     1
 44
1.0
  0
POINT
  5
14A5
330
109C
100
AcDbEntity
  8
DEFPOINTS
 62
     0
100
AcDbPoint
 10
4547.825763317042
 20
-335.3628097846042
 30
0.0
  0
POINT
  5
14A6
330
109C
100
AcDbEntity
  8
DEFPOINTS
 62
     0
100
AcDbPoint
 10
5627.825763317042
 20
-335.3628097846042
 30
0.0
  0
POINT
  5
14A7
330
109C
100
AcDbEntity
  8
DEFPOINTS
 62
     0
100
AcDbPoint
 10
5627.825763317042
 20
-574.2995821031777
 30
0.0
  0
ENDBLK
  5
10A7
330
109C
100
AcDbEntity
  8
0
100
AcDbBlockEnd
  0
BLOCK
  5
10AE
330
10A8
100
AcDbEntity
  8
0
100
AcDbBlockBegin
  2
*D20
 70
     1
 10
0.0
 20
0.0
 30
0.0
  3
*D20
  1

  0
LINE
  5
14A8
330
10A8
100
AcDbEntity
  8
SUNPOU
 62
     0
370
    -2
100
AcDbLine
 10
5130.922706384819
 20
306.6580872856466
 30
0.0
 11
4765.009143629682
 21
264.0282809833122
 31
0.0
  0
MTEXT
  5
14A9
102
{ACAD_XDICTIONARY
360
14BE
102
}
330
10A8
100
AcDbEntity
  8
SUNPOU
 62
     0
100
AcDbMText
 10
5039.540161546472
 20
328.7316167485311
 30
0.0
 40
45.0
 41
0.0
 71
     5
 72
     1
  1
\A1;\U+2205700
  7
BIGFONT
 11
0.993281906730335
 21
0.1157197207141049
 31
0.0
 73
     1
 44
1.0
  0
INSERT
  5
14AA
330
10A8
100
AcDbEntity
  8
SUNPOU
 62
     0
370
    -2
100
AcDbBlockReference
  2
ARROW
 10
4740.177095961423
 20
261.1352879654596
 30
0.0
 41
25.0
 42
25.0
 43
25.0
 50
186.6451391670177
  0
POINT
  5
14AB
330
10A8
100
AcDbEntity
  8
DEFPOINTS
 62
     0
100
AcDbPoint
 10
4740.177095961423
 20
261.1352879654596
 30
0.0
  0
POINT
  5
14AC
330
10A8
100
AcDbEntity
  8
DEFPOINTS
 62
     0
100
AcDbPoint
 10
5435.474430672658
 20
342.1390924653321
 30
0.0
  0
ENDBLK
  5
10AF
330
10A8
100
AcDbEntity
  8
0
100
AcDbBlockEnd
  0
ENDSEC
  0
SECTION
  2
ENTITIES
  0
INSERT
  5
281
330
18
100
AcDbEntity
  8
0
100
AcDbBlockReference
  2
YA_N
 10
6.0
 20
5.0
 30
0.0
  0
TEXT
  5
2B1
330
18
100
AcDbEntity
  8
0
100
AcDbText
 10
1996.611365948218
 20
1427.880822626781
 30
0.0
 40
50.0
  1
S=1/10
  7
BIGFONT
 11
1996.611365948218
 21
1452.880822626781
 31
0.0
100
AcDbText
 73
     2
  0
DIMENSION
  5
37F
330
18
100
AcDbEntity
  8
SUNPOU
100
AcDbDimension
  2
*D8
 10
2458.825763317042
 20
-702.4155889793255
 30
0.0
 11
1523.825763317042
 21
-672.4155889793255
 31
0.0
 70
    32
 71
     5
 42
1870.0
  3
DIA1
100
AcDbAlignedDimension
 13
588.8257633170422
 23
-332.1523941806455
 33
0.0
 14
2458.825763317042
 24
-332.1523941806455
 34
0.0
100
AcDbRotatedDimension
1001
ACAD
1000
DSTYLE
1002
{
1070
    41
1040
2.5
1070
   140
1040
4.0
1070
   173
1070
     1
1070
   272
1070
     0
1070
   342
1005
0
1070
   343
1005
20
1070
   344
1005
20
1002
}
  0
LINE
  5
380
330
18
100
AcDbEntity
  8
0
100
AcDbLine
 10
2371.626259201242
 20
1180.156994348061
 30
0.0
 11
615.4413530293541
 21
1180.156994348061
 31
0.0
  0
LEADER
  5
383
330
18
100
AcDbEntity
  8
SUNPOU
  6
ByBlock
100
AcDbLeader
  3
DIA1
 73
     0
 74
     0
 75
     1
 40
70.0
 41
261.3333333333333
 76
     3
 10
1839.744844228533
 20
-114.2847762329329
 30
0.0
 10
2138.464888003337
 20
-261.808426730072
 30
0.0
 10
2163.464888003337
 20
-261.808426730072
 30
0.0
340
384
1001
ACAD
1000
DSTYLE
1002
{
1070
    41
1040
2.5
1070
   140
1040
4.0
1070
   173
1070
     1
1070
   272
1070
     0
1070
   342
1005
0
1070
   343
1005
20
1070
   344
1005
20
1002
}
  0
MTEXT
  5
384
102
{ACAD_REACTORS
330
383
102
}
330
18
100
AcDbEntity
  8
SUNPOU
  6
ByBlock
100
AcDbMText
 10
2173.464888003337
 20
-216.808426730072
 30
0.0
 40
70.0
 41
0.0
 71
     4
 72
     1
  1
{\Ftxt.shx,bigfont.shx;ﾌｨﾙﾀｰ砂}
 73
     1
 44
1.0
  0
LINE
  5
385
330
18
100
AcDbEntity
  8
0
  6
ByBlock
100
AcDbLine
 10
752.7801991763526
 20
1160.156994348062
 30
0.0
 11
792.7801991763526
 21
1120.156994348062
 31
0.0
  0
LINE
  5
386
330
18
100
AcDbEntity
  8
0
  6
ByBlock
100
AcDbLine
 10
772.7801991763526
 20
1180.156994348061
 30
0.0
 11
692.7801991763535
 21
1100.156994348062
 31
0.0
  0
LINE
  5
387
330
18
100
AcDbEntity
  8
0
  6
ByBlock
100
AcDbLine
 10
732.7801991763521
 20
1140.15699434806
 30
0.0
 11
772.7801991763508
 21
1100.156994348062
 31
0.0
  0
DIMENSION
  5
388
330
18
100
AcDbEntity
  8
SUNPOU
100
AcDbDimension
  2
*D9
 10
510.0885152277088
 20
738.6371902153943
 30
0.0
 11
510.0885152277087
 21
788.6371902153945
 31
0.0
 70
   160
 71
     5
 42
100.0000000000002
  3
DIA1
100
AcDbAlignedDimension
 13
598.802037710845
 23
838.6371902153944
 33
0.0
 14
608.8257633170406
 24
738.6371902153943
 34
0.0
 50
90.0
100
AcDbRotatedDimension
1001
ACAD
1000
DSTYLE
1002
{
1070
    41
1040
2.5
1070
   140
1040
4.0
1070
   173
1070
     1
1070
   272
1070
     0
1070
   342
1005
0
1070
   343
1005
20
1070
   344
1005
20
1002
}
  0
DIMENSION
  5
389
330
18
100
AcDbEntity
  8
SUNPOU
100
AcDbDimension
  2
*D10
 10
510.0885152277086
 20
-135.3628097846055
 30
0.0
 11
480.0885152277087
 21
301.6371902153944
 31
0.0
 70
    32
 71
     5
 42
873.9999999999998
  3
DIA1
100
AcDbAlignedDimension
 13
608.8257633170406
 23
738.6371902153943
 33
0.0
 14
608.8257633170406
 24
-135.3628097846056
 34
0.0
 50
90.0
100
AcDbRotatedDimension
1001
ACAD
1000
DSTYLE
1002
{
1070
    41
1040
2.5
1070
   140
1040
4.0
1070
   173
1070
     1
1070
   272
1070
     0
1070
   342
1005
0
1070
   343
1005
20
1070
   344
1005
20
1002
}
  0
MTEXT
  5
38A
102
{ACAD_REACTORS
330
38D
102
}
330
18
100
AcDbEntity
  8
SUNPOU
  6
ByBlock
100
AcDbMText
 10
2258.363330221126
 20
-69.18910543419861
 30
0.0
 40
70.0
 41
0.0
 71
     4
 72
     1
  1
{\Ftxt.shx,bigfont.shx;透水ｺﾝｸﾘｰﾄ管}
 73
     1
 44
1.0
  0
DIMENSION
  5
38B
330
18
100
AcDbEntity
  8
SUNPOU
100
AcDbDimension
  2
*D11
 10
345.9809489917934
 20
-335.3628097846055
 30
0.0
 11
315.9809489917934
 21
251.6371902153947
 31
0.0
 70
    32
 71
     5
 42
1174.0
  3
DIA1
100
AcDbAlignedDimension
 13
598.8257633170405
 23
838.6371902153946
 33
0.0
 14
1038.825763317042
 24
-335.3628097846057
 34
0.0
 50
90.0
100
AcDbRotatedDimension
1001
ACAD
1000
DSTYLE
1002
{
1070
    41
1040
2.5
1070
   140
1040
4.0
1070
   173
1070
     1
1070
   272
1070
     0
1070
   342
1005
0
1070
   343
1005
20
1070
   344
1005
20
1002
}
  0
DIMENSION
  5
38C
330
18
100
AcDbEntity
  8
SUNPOU
100
AcDbDimension
  2
*D12
 10
510.0885152277085
 20
-335.3628097846055
 30
0.0
 11
480.0885152277087
 21
-235.3628097846054
 31
0.0
 70
    32
 71
     5
 42
200.0
  3
DIA1
100
AcDbAlignedDimension
 13
608.8257633170406
 23
-135.3628097846056
 33
0.0
 14
1038.825763317042
 24
-335.3628097846057
 34
0.0
 50
90.0
100
AcDbRotatedDimension
1001
ACAD
1000
DSTYLE
1002
{
1070
    41
1040
2.5
1070
   140
1040
4.0
1070
   173
1070
     1
1070
   272
1070
     0
1070
   342
1005
0
1070
   343
1005
20
1070
   344
1005
20
1002
}
  0
LEADER
  5
38D
330
18
100
AcDbEntity
  8
SUNPOU
  6
ByBlock
100
AcDbLeader
  3
DIA1
 73
     0
 74
     0
 75
     1
 40
70.00000000000001
 41
485.3333333333334
 76
     3
 10
1905.709069619589
 20
89.18921924971256
 30
0.0
 10
2223.363330221125
 20
-114.1891054341986
 30
0.0
 10
2248.363330221126
 20
-114.1891054341986
 30
0.0
340
38A
1001
ACAD
1000
DSTYLE
1002
{
1070
    41
1040
2.5
1070
   140
1040
4.0
1070
   173
1070
     1
1070
   272
1070
     0
1070
   342
1005
0
1070
   343
1005
20
1070
   344
1005
20
1002
}
  0
LINE
  5
38E
330
18
100
AcDbEntity
  8
0
  6
ByBlock
100
AcDbLine
 10
692.7801991763526
 20
1180.156994348061
 30
0.0
 11
612.7801991763536
 21
1100.156994348062
 31
0.0
  0
LINE
  5
38F
330
18
100
AcDbEntity
  8
0
  6
ByBlock
100
AcDbLine
 10
732.7801991763526
 20
1180.156994348061
 30
0.0
 11
652.7801991763535
 21
1100.156994348062
 31
0.0
  0
DIMENSION
  5
393
330
18
100
AcDbEntity
  8
SUNPOU
100
AcDbDimension
  2
*D13
 10
2008.71037424436
 20
-574.299582103179
 30
0.0
 11
1523.768068780701
 21
-544.299582103179
 31
0.0
 70
    32
 71
     5
 42
969.8846109273176
  3
DIA1
100
AcDbAlignedDimension
 13
1038.825763317042
 23
-335.3628097846056
 33
0.0
 14
2008.71037424436
 24
-335.2607875991954
 34
0.0
100
AcDbRotatedDimension
1001
ACAD
1000
DSTYLE
1002
{
1070
    41
1040
2.5
1070
   140
1040
4.0
1070
   173
1070
     1
1070
   272
1070
     0
1070
   342
1005
0
1070
   343
1005
20
1070
   344
1005
20
1002
}
  0
LINE
  5
395
330
18
100
AcDbEntity
  8
0
  6
ByBlock
100
AcDbLine
 10
912.7801991763526
 20
1160.156994348061
 30
0.0
 11
972.7801991763532
 21
1100.156994348063
 31
0.0
  0
LINE
  5
396
330
18
100
AcDbEntity
  8
0
  6
ByBlock
100
AcDbLine
 10
892.7801991763518
 20
1140.156994348062
 30
0.0
 11
932.7801991763527
 21
1100.156994348062
 31
0.0
  0
LINE
  5
397
330
18
100
AcDbEntity
  8
0
  6
ByBlock
100
AcDbLine
 10
932.7801991763527
 20
1180.156994348061
 30
0.0
 11
852.7801991763531
 21
1100.156994348062
 31
0.0
  0
LINE
  5
398
330
18
100
AcDbEntity
  8
0
  6
ByBlock
100
AcDbLine
 10
852.7801991763526
 20
1180.156994348061
 30
0.0
 11
772.7801991763526
 21
1100.156994348062
 31
0.0
  0
LINE
  5
399
330
18
100
AcDbEntity
  8
0
  6
ByBlock
100
AcDbLine
 10
892.7801991763526
 20
1180.156994348061
 30
0.0
 11
812.7801991763535
 21
1100.156994348062
 31
0.0
  0
LINE
  5
39A
330
18
100
AcDbEntity
  8
0
  6
ByBlock
100
AcDbLine
 10
772.7801991763526
 20
1180.156994348061
 30
0.0
 11
812.7801991763531
 21
1140.156994348062
 31
0.0
  0
LINE
  5
39B
330
18
100
AcDbEntity
  8
0
  6
ByBlock
100
AcDbLine
 10
932.7801991763527
 20
1180.156994348061
 30
0.0
 11
1012.780199176351
 21
1100.156994348062
 31
0.0
  0
TEXT
  5
3AB
330
18
100
AcDbEntity
  8
0
 62
     7
100
AcDbText
 10
1105.153757089972
 20
1426.241850092887
 30
0.0
 40
65.0
  1
透水管 K-700 構造図
  7
STYLE1
 72
     4
 11
1518.987090423306
 21
1458.741850092887
 31
0.0
100
AcDbText
  0
LINE
  5
C7B
330
18
100
AcDbEntity
  8
0
100
AcDbLine
 10
598.8257633170405
 20
838.6371902153946
 30
0.0
 11
2458.825763317043
 21
838.6371902153948
 31
0.0
  0
HATCH
  5
F2E
330
18
100
AcDbEntity
  8
SAISEKI
100
AcDbHatch
 10
0.0
 20
0.0
 30
0.0
210
0.0
220
0.0
230
1.0
  2
HONEY
 70
     0
 71
     0
 91
        4
 92
        7
 72
     1
 73
     1
 93
        4
 10
1173.825763317042
 20
301.6371902153944
 42
0.0
 10
1086.825763317042
 20
301.6371902153944
 42
0.1196949589659647
 10
1135.50763557424
 20
101.1926051891949
 42
0.0
 10
1212.81582118894
 20
141.098048890063
 42
-0.1196949589659647
 97
        0
 92
        7
 72
     1
 73
     1
 93
        4
 10
1373.69411588364
 20
617.8024767965316
 42
0.0
 10
1336.375677807337
 20
696.3921337467001
 42
0.2895770450089269
 10
1086.825763317042
 20
301.6371902153944
 42
0.0
 10
1173.825763317042
 20
301.6371902153944
 42
-0.2895770450089269
 97
        0
 92
        7
 72
     1
 73
     1
 93
        4
 10
1875.972751883478
 20
560.4063893941029
 42
0.0
 10
1805.86568550984
 20
508.8894092372433
 42
-0.1597698258122102
 10
1873.825763317042
 20
301.6371902153944
 42
0.0
 10
1960.825763317042
 20
301.6371902153944
 42
0.1597698258122102
 97
        0
 92
        7
 72
     1
 73
     1
 93
        4
 10
1960.825763317042
 20
301.6371902153944
 42
0.0
 10
1873.825763317042
 20
301.6371902153944
 42
-0.3243185908212376
 10
1632.705514541458
 20
-30.99654194854162
 42
0.0
 10
1659.769909845813
 20
-113.6797839435772
 42
0.3243185908212376
 97
        0
 75
     0
 76
     1
 52
20.0
 41
120.0
 77
     0
 78
     3
 53
20.0
 43
-1558.99342063263
 44
-240.3929746868987
 45
16.70011199620789
 46
19.90241839172501
 79
     2
 49
15.0
 49
-30.0
 53
140.0
 43
-1558.99342063263
 44
-240.3929746868987
 45
-25.58605592208444
 46
4.511512038898787
 79
     2
 49
15.0
 49
-30.0
 53
80.0
 43
-1558.99342063263
 44
-240.3929746868987
 45
-8.885943925876544
 46
24.4139304306238
 79
     2
 49
-29.99999999999999
 49
14.99999999999999
 47
5.15348848691879
 98
        4
 10
1152.963450780726
 20
210.589415150783
 10
1152.963450780726
 20
427.0359305531131
 10
1901.01007362284
 20
365.1940690095901
 10
1890.6921956749
 20
133.2870848020568
  0
CIRCLE
  5
F2F
330
18
100
AcDbEntity
  8
0
100
AcDbCircle
 10
1523.825763317042
 20
301.6371902153944
 30
0.0
 40
437.0
  0
CIRCLE
  5
F30
330
18
100
AcDbEntity
  8
0
100
AcDbCircle
 10
1523.825763317042
 20
301.6371902153944
 30
0.0
 40
350.0
  0
DIMENSION
  5
F32
330
18
100
AcDbEntity
  8
SUNPOU
100
AcDbDimension
  2
*D14
 10
1871.474430672659
 20
342.1390924653309
 30
0.0
 11
1479.301052469681
 21
296.449954779794
 31
0.0
 70
   163
 71
     5
 42
699.9999999999995
  3
DIA1
100
AcDbDiametricDimension
 15
1176.177095961425
 25
261.1352879654583
 35
0.0
 40
0.0
1001
ACAD
1000
DSTYLE
1002
{
1070
    41
1040
2.5
1070
   140
1040
4.5
1070
   173
1070
     1
1070
   272
1070
     0
1070
   342
1005
0
1070
   343
1005
20
1070
   344
1005
20
1002
}
  0
LINE
  5
F4D
330
18
100
AcDbEntity
  8
0
100
AcDbLine
 10
598.8257633170405
 20
838.6371902153946
 30
0.0
 11
1038.825763317042
 21
-335.3628097846056
 31
0.0
  0
LINE
  5
F4E
330
18
100
AcDbEntity
  8
0
100
AcDbLine
 10
1038.825763317042
 20
-335.3628097846056
 30
0.0
 11
2008.825763317042
 21
-335.3628097846056
 31
0.0
  0
LINE
  5
F4F
330
18
100
AcDbEntity
  8
0
100
AcDbLine
 10
2008.825763317042
 20
-335.3628097846056
 30
0.0
 11
2458.825763317043
 21
838.6371902153948
 31
0.0
  0
LEADER
  5
103D
330
18
100
AcDbEntity
  8
SUNPOU
  6
ByBlock
100
AcDbLeader
  3
DIA1
 73
     0
 74
     0
 75
     1
 40
70.0
 41
261.3333333333333
 76
     3
 10
5536.935629320693
 20
65.36849861436474
 30
0.0
 10
5763.082162088813
 20
-155.8280825450106
 30
0.0
 10
5788.082162088812
 20
-155.8280825450106
 30
0.0
340
103E
1001
ACAD
1000
DSTYLE
1002
{
1070
    41
1040
2.5
1070
   140
1040
4.0
1070
   173
1070
     1
1070
   272
1070
     0
1070
   342
1005
0
1070
   343
1005
20
1070
   344
1005
20
1002
}
  0
MTEXT
  5
103E
102
{ACAD_REACTORS
330
103D
102
}
330
18
100
AcDbEntity
  8
SUNPOU
  6
ByBlock
100
AcDbMText
 10
5798.082162088813
 20
-110.8280825450106
 30
0.0
 40
70.0
 41
0.0
 71
     4
 72
     1
  1
{\Ftxt.shx,bigfont.shx;ﾌｨﾙﾀｰ砂}
 73
     1
 44
1.0
  0
LINE
  5
1040
330
18
100
AcDbEntity
  8
0
100
AcDbLine
 10
4547.825763317042
 20
838.637190215396
 30
0.0
 11
5627.825763317042
 21
838.6371902153957
 31
0.0
  0
LINE
  5
1041
330
18
100
AcDbEntity
  8
0
100
AcDbLine
 10
5935.626259201242
 20
1180.156994348063
 30
0.0
 11
4179.441353029353
 21
1180.156994348063
 31
0.0
  0
CIRCLE
  5
1046
330
18
100
AcDbEntity
  8
0
100
AcDbCircle
 10
5087.825763317042
 20
301.6371902153958
 30
0.0
 40
437.0
  0
DIMENSION
  5
1047
330
18
100
AcDbEntity
  8
SUNPOU
100
AcDbDimension
  2
*D17
 10
4167.767630295011
 20
-335.3628097846041
 30
0.0
 11
4137.767630295011
 21
251.6371902153966
 31
0.0
 70
    32
 71
     5
 42
1174.0
  3
DIA1
100
AcDbAlignedDimension
 13
4547.825763317042
 23
838.637190215396
 33
0.0
 14
4547.825763317042
 24
-335.3628097846042
 34
0.0
 50
90.0
100
AcDbRotatedDimension
1001
ACAD
1000
DSTYLE
1002
{
1070
    41
1040
2.5
1070
   140
1040
4.0
1070
   173
1070
     1
1070
   272
1070
     0
1070
   342
1005
0
1070
   343
1005
20
1070
   344
1005
20
1002
}
  0
DIMENSION
  5
1048
330
18
100
AcDbEntity
  8
SUNPOU
100
AcDbDimension
  2
*D16
 10
4297.578274476879
 20
-135.362809784604
 30
0.0
 11
4267.578274476879
 21
301.6371902153966
 31
0.0
 70
    32
 71
     5
 42
873.9999999999998
  3
DIA1
100
AcDbAlignedDimension
 13
4547.825763317042
 23
738.6371902153958
 33
0.0
 14
4547.825763317042
 24
-135.3628097846041
 34
0.0
 50
90.0
100
AcDbRotatedDimension
1001
ACAD
1000
DSTYLE
1002
{
1070
    41
1040
2.5
1070
   140
1040
4.0
1070
   173
1070
     1
1070
   272
1070
     0
1070
   342
1005
0
1070
   343
1005
20
1070
   344
1005
20
1002
}
  0
LEADER
  5
1049
330
18
100
AcDbEntity
  8
SUNPOU
  6
ByBlock
100
AcDbLeader
  3
DIA1
 73
     0
 74
     0
 75
     1
 40
70.00000000000001
 41
485.3333333333334
 76
     3
 10
5357.284610115147
 20
-42.39904317032665
 30
0.0
 10
5682.57506722467
 20
-321.7409207402775
 30
0.0
 10
5707.57506722467
 20
-321.7409207402775
 30
0.0
340
104A
1001
ACAD
1000
DSTYLE
1002
{
1070
    41
1040
2.5
1070
   140
1040
4.0
1070
   173
1070
     1
1070
   272
1070
     0
1070
   342
1005
0
1070
   343
1005
20
1070
   344
1005
20
1002
}
  0
MTEXT
  5
104A
102
{ACAD_REACTORS
330
1049
102
}
330
18
100
AcDbEntity
  8
SUNPOU
  6
ByBlock
100
AcDbMText
 10
5717.575067224669
 20
-276.7409207402775
 30
0.0
 40
70.0
 41
0.0
 71
     4
 72
     1
  1
{\Ftxt.shx,bigfont.shx;透水ｺﾝｸﾘｰﾄ管}
 73
     1
 44
1.0
  0
DIMENSION
  5
104B
330
18
100
AcDbEntity
  8
SUNPOU
100
AcDbDimension
  2
*D18
 10
4297.578274476879
 20
-335.3628097846041
 30
0.0
 11
4267.578274476879
 21
-235.3628097846035
 31
0.0
 70
    32
 71
     5
 42
199.9999999999999
  3
DIA1
100
AcDbAlignedDimension
 13
4396.315522566211
 23
-135.3628097846042
 33
0.0
 14
4547.825763317042
 24
-335.3628097846042
 34
0.0
 50
90.0
100
AcDbRotatedDimension
1001
ACAD
1000
DSTYLE
1002
{
1070
    41
1040
2.5
1070
   140
1040
4.0
1070
   173
1070
     1
1070
   272
1070
     0
1070
   342
1005
0
1070
   343
1005
20
1070
   344
1005
20
1002
}
  0
LINE
  5
104C
330
18
100
AcDbEntity
  8
0
100
AcDbLine
 10
4547.825763317042
 20
-335.3628097846042
 30
0.0
 11
5627.825763317042
 21
-335.3628097846042
 31
0.0
  0
DIMENSION
  5
104D
330
18
100
AcDbEntity
  8
SUNPOU
100
AcDbDimension
  2
*D19
 10
5627.825763317042
 20
-574.2995821031777
 30
0.0
 11
5087.825763317042
 21
-544.2995821031777
 31
0.0
 70
    32
 71
     5
 42
1080.0
  3
DIA1
100
AcDbAlignedDimension
 13
4547.825763317042
 23
-335.3628097846042
 33
0.0
 14
5627.825763317042
 24
-335.3628097846042
 34
0.0
100
AcDbRotatedDimension
1001
ACAD
1000
DSTYLE
1002
{
1070
    41
1040
2.5
1070
   140
1040
4.0
1070
   173
1070
     1
1070
   272
1070
     0
1070
   342
1005
0
1070
   343
1005
20
1070
   344
1005
20
1002
}
  0
DIMENSION
  5
104E
330
18
100
AcDbEntity
  8
SUNPOU
100
AcDbDimension
  2
*D20
 10
5435.474430672658
 20
342.1390924653321
 30
0.0
 11
5043.301052469679
 21
296.4499547797952
 31
0.0
 70
   163
 71
     5
 42
699.9999999999991
  3
DIA1
100
AcDbDiametricDimension
 15
4740.177095961423
 25
261.1352879654596
 35
0.0
 40
0.0
1001
ACAD
1000
DSTYLE
1002
{
1070
    41
1040
2.5
1070
   140
1040
4.5
1070
   173
1070
     1
1070
   272
1070
     0
1070
   342
1005
0
1070
   343
1005
20
1070
   344
1005
20
1002
}
  0
CIRCLE
  5
104F
330
18
100
AcDbEntity
  8
0
100
AcDbCircle
 10
5087.825763317042
 20
301.6371902153958
 30
0.0
 40
350.0
  0
HATCH
  5
1050
330
18
100
AcDbEntity
  8
SAISEKI
100
AcDbHatch
 10
0.0
 20
0.0
 30
0.0
210
0.0
220
0.0
230
1.0
  2
HONEY
 70
     0
 71
     0
 91
        4
 92
        7
 72
     1
 73
     1
 93
        4
 10
4737.825763317041
 20
301.6371902153958
 42
0.0
 10
4650.825763317041
 20
301.6371902153958
 42
0.1196949589659647
 10
4699.50763557424
 20
101.1926051891963
 42
0.0
 10
4776.81582118894
 20
141.0980488900644
 42
-0.1196949589659647
 97
        0
 92
        7
 72
     1
 73
     1
 93
        4
 10
4937.69411588364
 20
617.802476796533
 42
0.0
 10
4900.375677807336
 20
696.3921337467016
 42
0.2895770450089269
 10
4650.825763317041
 20
301.6371902153958
 42
0.0
 10
4737.825763317041
 20
301.6371902153958
 42
-0.2895770450089269
 97
        0
 92
        7
 72
     1
 73
     1
 93
        4
 10
5439.972751883479
 20
560.4063893941042
 42
0.0
 10
5369.865685509839
 20
508.8894092372448
 42
-0.1597698258122102
 10
5437.825763317041
 20
301.6371902153958
 42
0.0
 10
5524.825763317042
 20
301.6371902153958
 42
0.1597698258122102
 97
        0
 92
        7
 72
     1
 73
     1
 93
        4
 10
5524.825763317042
 20
301.6371902153958
 42
0.0
 10
5437.825763317041
 20
301.6371902153958
 42
-0.3243185908212376
 10
5196.705514541458
 20
-30.99654194854025
 42
0.0
 10
5223.769909845813
 20
-113.6797839435758
 42
0.3243185908212376
 97
        0
 75
     0
 76
     1
 52
20.0
 41
120.0
 77
     0
 78
     3
 53
20.0
 43
2005.00657936737
 44
-240.3929746868973
 45
16.70011199620789
 46
19.90241839172501
 79
     2
 49
15.0
 49
-30.0
 53
140.0
 43
2005.00657936737
 44
-240.3929746868973
 45
-25.58605592208444
 46
4.511512038898787
 79
     2
 49
15.0
 49
-30.0
 53
80.0
 43
2005.00657936737
 44
-240.3929746868973
 45
-8.885943925876544
 46
24.4139304306238
 79
     2
 49
-29.99999999999997
 49
14.99999999999998
 47
5.15348848691879
 98
        4
 10
4716.963450780726
 20
210.5894151507844
 10
4716.963450780726
 20
427.0359305531144
 10
5465.010073622839
 20
365.1940690095914
 10
5454.692195674899
 20
133.2870848020582
  0
LINE
  5
1051
330
18
100
AcDbEntity
  8
0
  6
ByBlock
100
AcDbLine
 10
4205.763476730492
 20
1180.156994348063
 30
0.0
 11
4125.763476730493
 21
1100.156994348064
 31
0.0
  0
DIMENSION
  5
1052
330
18
100
AcDbEntity
  8
SUNPOU
100
AcDbDimension
  2
*D15
 10
4297.578274476879
 20
738.6371902153959
 30
0.0
 11
4297.578274476879
 21
788.6371902153967
 31
0.0
 70
   160
 71
     5
 42
100.0000000000002
  3
DIA1
100
AcDbAlignedDimension
 13
4537.825763317041
 23
838.637190215396
 33
0.0
 14
4547.825763317042
 24
738.6371902153958
 34
0.0
 50
90.0
100
AcDbRotatedDimension
1001
ACAD
1000
DSTYLE
1002
{
1070
    41
1040
2.5
1070
   140
1040
4.0
1070
   173
1070
     1
1070
   272
1070
     0
1070
   342
1005
0
1070
   343
1005
20
1070
   344
1005
20
1002
}
  0
TEXT
  5
1053
330
18
100
AcDbEntity
  8
0
 62
     7
100
AcDbText
 10
4669.153757089972
 20
1426.241850092888
 30
0.0
 40
65.0
  1
透水管 K-700 構造図
  7
STYLE1
 72
     4
 11
5082.987090423307
 21
1458.741850092888
 31
0.0
100
AcDbText
  0
LINE
  5
1054
330
18
100
AcDbEntity
  8
0
  6
ByBlock
100
AcDbLine
 10
4445.763476730492
 20
1180.156994348063
 30
0.0
 11
4525.763476730491
 21
1100.156994348064
 31
0.0
  0
LINE
  5
1055
330
18
100
AcDbEntity
  8
0
  6
ByBlock
100
AcDbLine
 10
4285.763476730493
 20
1180.156994348063
 30
0.0
 11
4325.763476730493
 21
1140.156994348063
 31
0.0
  0
LINE
  5
1056
330
18
100
AcDbEntity
  8
0
  6
ByBlock
100
AcDbLine
 10
4405.763476730492
 20
1180.156994348063
 30
0.0
 11
4325.763476730493
 21
1100.156994348064
 31
0.0
  0
LINE
  5
1057
330
18
100
AcDbEntity
  8
0
  6
ByBlock
100
AcDbLine
 10
4365.763476730492
 20
1180.156994348063
 30
0.0
 11
4285.763476730493
 21
1100.156994348064
 31
0.0
  0
LINE
  5
1058
330
18
100
AcDbEntity
  8
0
  6
ByBlock
100
AcDbLine
 10
4445.763476730492
 20
1180.156994348063
 30
0.0
 11
4365.763476730493
 21
1100.156994348064
 31
0.0
  0
LINE
  5
1059
330
18
100
AcDbEntity
  8
0
  6
ByBlock
100
AcDbLine
 10
4425.763476730493
 20
1160.156994348062
 30
0.0
 11
4485.763476730493
 21
1100.156994348065
 31
0.0
  0
LINE
  5
105A
330
18
100
AcDbEntity
  8
0
  6
ByBlock
100
AcDbLine
 10
4245.763476730492
 20
1180.156994348063
 30
0.0
 11
4165.763476730493
 21
1100.156994348064
 31
0.0
  0
LINE
  5
105B
330
18
100
AcDbEntity
  8
0
  6
ByBlock
100
AcDbLine
 10
4285.763476730493
 20
1180.156994348063
 30
0.0
 11
4205.763476730493
 21
1100.156994348064
 31
0.0
  0
LINE
  5
105C
330
18
100
AcDbEntity
  8
0
  6
ByBlock
100
AcDbLine
 10
4265.763476730493
 20
1160.156994348064
 30
0.0
 11
4305.763476730493
 21
1120.156994348063
 31
0.0
  0
LINE
  5
105D
330
18
100
AcDbEntity
  8
0
  6
ByBlock
100
AcDbLine
 10
4245.763476730491
 20
1140.156994348062
 30
0.0
 11
4285.76347673049
 21
1100.156994348064
 31
0.0
  0
LINE
  5
105E
330
18
100
AcDbEntity
  8
0
  6
ByBlock
100
AcDbLine
 10
4405.763476730491
 20
1140.156994348063
 30
0.0
 11
4445.763476730492
 21
1100.156994348064
 31
0.0
  0
TEXT
  5
105F
330
18
100
AcDbEntity
  8
0
100
AcDbText
 10
5560.611365948219
 20
1427.880822626783
 30
0.0
 40
50.0
  1
S=1/10
  7
BIGFONT
 11
5560.611365948219
 21
1452.880822626783
 31
0.0
100
AcDbText
 73
     2
  0
MTEXT
  5
10F0
102
{ACAD_REACTORS
330
10F1
102
}
330
18
100
AcDbEntity
  8
SUNPOU
  6
ByBlock
100
AcDbMText
 10
5823.748828755481
 20
811.0258457983587
 30
0.0
 40
70.0
 41
0.0
 71
     4
 72
     1
  1
{\Ftxt.shx,bigfont.shx;埋戻し土}
 73
     1
 44
1.0
  0
LEADER
  5
10F1
330
18
100
AcDbEntity
  8
SUNPOU
  6
ByBlock
100
AcDbLeader
  3
DIA1
 73
     0
 74
     0
 75
     1
 40
70.0
 41
317.3333333333333
 76
     3
 10
5536.935629320693
 20
1048.786149594086
 30
0.0
 10
5788.748828755481
 20
766.0258457983586
 30
0.0
 10
5813.748828755481
 20
766.0258457983586
 30
0.0
340
10F0
1001
ACAD
1000
DSTYLE
1002
{
1070
    41
1040
2.5
1070
   140
1040
4.0
1070
   173
1070
     1
1070
   272
1070
     0
1070
   342
1005
0
1070
   343
1005
20
1070
   344
1005
20
1002
}
  0
MTEXT
  5
1185
330
18
100
AcDbEntity
  8
0
100
AcDbMText
 10
1874.270183848181
 20
1354.228844689004
 30
0.0
 40
35.0
 41
431.0406971753466
 71
     1
 72
     5
  1
{\C1;製品長 Ｌ＝1.000ｍ}
  7
BIGFONT
 73
     1
 44
1.0
  0
MTEXT
  5
1186
330
18
100
AcDbEntity
  8
0
100
AcDbMText
 10
5414.635775516581
 20
1353.522538142333
 30
0.0
 40
35.0
 41
431.0406971753466
 71
     1
 72
     5
  1
{\C1;製品長 Ｌ＝1.000ｍ}
  7
BIGFONT
 73
     1
 44
1.0
  0
LINE
  5
120D
330
18
100
AcDbEntity
  8
0
100
AcDbLine
 10
4547.825763317042
 20
-335.3628097846042
 30
0.0
 11
4547.825763317042
 21
1180.156994348063
 31
0.0
  0
LINE
  5
120E
330
18
100
AcDbEntity
  8
0
100
AcDbLine
 10
5627.825763317042
 20
-335.3628097846042
 30
0.0
 11
5627.825763317042
 21
1180.156994348063
 31
0.0
  0
HATCH
  5
13D4
330
18
100
AcDbEntity
  8
0
100
AcDbHatch
 10
0.0
 20
0.0
 30
0.0
210
0.0
220
0.0
230
1.0
  2
ANSI31
 70
     0
 71
     0
 91
        2
 92
        7
 72
     0
 73
     1
 93
        4
 10
5154.357332943813
 20
1180.156994348063
 10
4547.825763317042
 20
1180.156994348063
 10
4547.825763317042
 20
838.637190215396
 10
5128.493546469463
 20
838.6371902153959
 97
        0
 92
        7
 72
     0
 73
     1
 93
        4
 10
5627.825763317042
 20
1180.156994348063
 10
5154.357332943812
 20
1180.156994348063
 10
5128.493546469464
 20
838.6371902153959
 10
5627.825763317042
 20
838.6371902153957
 97
        0
 75
     0
 76
     1
 52
0.0
 41
200.0
 77
     0
 78
     1
 53
45.0
 43
1013.948935111408
 44
0.0000000000013642
 45
-17.67766952966368
 46
17.67766952966369
 79
     0
 47
5.474104497203603
 98
        2
 10
4984.040781933023
 20
1000.315343949025
 10
5361.954772751735
 20
1000.315343949025
1001
ACAD
1010
0.0
1020
0.0
1030
0.0
  0
HATCH
  5
13EC
330
18
100
AcDbEntity
  8
0
100
AcDbHatch
 10
0.0
 20
0.0
 30
0.0
210
0.0
220
0.0
230
1.0
  2
AR-SAND
 70
     0
 71
     0
 91
        2
 92
        7
 72
     1
 73
     1
 93
        6
 10
5120.825905740758
 20
737.3894026022228
 42
0.0
 10
5128.493546469463
 20
838.6371902153959
 42
0.0
 10
4547.825763317042
 20
838.637190215396
 42
0.0
 10
4547.825763317042
 20
188.3771994160596
 42
0.0
 10
4660.131894988658
 20
211.9323687490895
 42
-0.0517320385617732
 10
4650.825763317041
 20
301.6371902153958
 42
-0.4365298607584449
 97
        0
 92
        7
 72
     1
 73
     1
 93
        5
 10
5627.825763317042
 20
212.132401593002
 42
0.0
 10
5518.943848875528
 20
230.1795362909451
 42
-0.4126106140569652
 10
5018.729931833128
 20
-129.865725269015
 42
0.0
 10
4985.824031519141
 20
-335.3628097846042
 42
0.0
 10
5627.825763317042
 20
-335.3628097846042
 42
0.0
 97
        0
 75
     0
 76
     1
 52
0.0
 41
20.0
 77
     0
 78
     4
 53
37.5
 43
1013.948935111408
 44
0.0000000000013642
 45
-1.259867162192163
 46
38.53647538026317
 79
     6
 49
0.0
 49
-30.4
 49
0.0
 49
-34.0
 49
0.0
 49
-32.5
 53
7.499999999999999
 43
1013.948935111408
 44
0.0000000000013642
 45
35.39553410535454
 46
56.4429213045948
 79
     6
 49
0.0
 49
-16.4
 49
0.0
 49
-27.4
 49
0.0
 49
-10.5
 53
327.5
 43
989.348935111408
 44
0.0000000000013642
 45
62.2828372350299
 46
0.11318107073929
 79
     6
 49
0.0
 49
-10.0
 49
0.0
 49
-36.0
 49
0.0
 49
-47.0
 53
317.5
 43
989.348935111408
 44
0.0000000000013642
 45
60.12253209144586
 46
17.55351129868498
 79
     6
 49
0.0
 49
-5.0
 49
0.0
 49
-23.6
 49
0.0
 49
-27.0
 47
3.801157243809138
 98
        2
 10
4661.230936549442
 20
614.6946092002031
 10
5292.558450847305
 20
-236.7646166607678
1001
ACAD
1010
0.0
1020
0.0
1030
0.0
  0
HATCH
  5
1418
330
18
100
AcDbEntity
  8
0
100
AcDbHatch
 10
0.0
 20
0.0
 30
0.0
210
0.0
220
0.0
230
1.0
  2
AR-SAND
 70
     0
 71
     0
 91
        2
 92
        7
 72
     1
 73
     1
 93
        6
 10
1598.864463179223
 20
732.146416043359
 42
0.0
 10
1617.426038081174
 20
838.6371902153946
 42
0.0
 10
598.8257633170405
 20
838.6371902153946
 42
0.0
 10
881.5984884330262
 20
84.14814638319885
 42
0.0
 10
1109.91583950021
 20
161.4673826035376
 42
-0.0818133550979526
 10
1086.825763317042
 20
301.6371902153944
 42
-0.4657099040253778
 97
        0
 92
        7
 72
     1
 73
     1
 93
        5
 10
2187.720178382413
 20
131.3528419637156
 42
0.0
 10
1947.123432742867
 20
193.0642513279151
 42
-0.3994589685049728
 10
1436.817267134521
 20
-126.6133457936762
 42
0.0
 10
1394.40523162367
 20
-335.3628097846056
 42
0.0
 10
2008.825763317042
 20
-335.3628097846055
 42
0.0
 97
        0
 75
     0
 76
     1
 52
0.0
 41
20.0
 77
     0
 78
     4
 53
37.5
 43
0.0
 44
0.0
 45
-1.259867162192163
 46
38.53647538026317
 79
     6
 49
0.0
 49
-30.4
 49
0.0
 49
-34.0
 49
0.0
 49
-32.5
 53
7.499999999999999
 43
0.0
 44
0.0
 45
35.39553410535454
 46
56.4429213045948
 79
     6
 49
0.0
 49
-16.4
 49
0.0
 49
-27.4
 49
0.0
 49
-10.5
 53
327.5
 43
-24.6
 44
0.0
 45
62.2828372350299
 46
0.11318107073929
 79
     6
 49
0.0
 49
-10.0
 49
0.0
 49
-36.0
 49
0.0
 49
-47.0
 53
317.5
 43
-24.6
 44
0.0
 45
60.12253209144586
 46
17.55351129868498
 79
     6
 49
0.0
 49
-5.0
 49
0.0
 49
-23.6
 49
0.0
 49
-27.0
 47
6.079835054483536
 98
        2
 10
927.2668379945608
 20
630.8772523222633
 10
1748.480858508928
 20
-208.1399872013444
1001
ACAD
1010
0.0
1020
0.0
1030
0.0
  0
LWPOLYLINE
  5
1446
330
18
100
AcDbEntity
  8
KL
  6
ByBlock
 62
     0
 48
2.0
100
AcDbPolyline
 90
        4
 70
     1
 43
0.0
 10
3305.825763317038
 20
-834.2905816522234
 10
-258.1742366829606
 20
-834.2905816522193
 10
-258.1742366829574
 20
1685.709418347781
 10
3305.825763317042
 20
1685.709418347778
  0
LWPOLYLINE
  5
1481
330
18
100
AcDbEntity
  8
KL
  6
ByBlock
 62
     0
 48
2.0
100
AcDbPolyline
 90
        4
 70
     1
 43
0.0
 10
6869.825763317038
 20
-834.2905816522275
 10
3305.825763317038
 20
-834.2905816522234
 10
3305.825763317042
 20
1685.709418347778
 10
6869.825763317042
 20
1685.709418347773
  0
LINE
  5
1482
330
18
100
AcDbEntity
  8
0
100
AcDbLine
 10
5087.825763317042
 20
-574.2995821031777
 30
0.0
 11
5087.825763317042
 21
-574.2995821031777
 31
0.0
  0
ENDSEC
  0
SECTION
  2
OBJECTS
  0
DICTIONARY
  5
C
330
0
100
AcDbDictionary
281
     1
  3
ACAD_COLOR
350
11B3
  3
ACAD_GROUP
350
D
  3
ACAD_LAYOUT
350
2D0
  3
ACAD_MATERIAL
350
1189
  3
ACAD_MLEADERSTYLE
350
11D8
  3
ACAD_MLINESTYLE
350
E
  3
ACAD_PLOTSETTINGS
350
2D1
  3
ACAD_PLOTSTYLENAME
350
2CE
  3
ACAD_SCALELIST
350
11B6
  3
ACAD_TABLESTYLE
350
11B4
  3
ACAD_VISUALSTYLE
350
11A2
  3
ACDB_RECOMPOSE_DATA
350
11F7
  3
AcDbVariableDictionary
350
2D8
  0
DICTIONARY
  5
11DF
330
F
100
AcDbDictionary
280
     1
281
     1
  3
ADSK_XREC_LAYER_RECONCILED
360
11E0
  0
DICTIONARY
  5
11E1
330
49
100
AcDbDictionary
280
     1
281
     1
  3
ADSK_XREC_LAYER_RECONCILED
360
11E2
  0
DICTIONARY
  5
11E3
330
4D
100
AcDbDictionary
280
     1
281
     1
  3
ADSK_XREC_LAYER_RECONCILED
360
11E4
  0
DICTIONARY
  5
11E5
330
4F
100
AcDbDictionary
280
     1
281
     1
  3
ADSK_XREC_LAYER_RECONCILED
360
11E6
  0
DICTIONARY
  5
143E
330
143D
100
AcDbDictionary
280
     1
281
     1
  0
DICTIONARY
  5
1209
330
18
100
AcDbDictionary
280
     1
281
     1
  3
ACAD_SORTENTS
360
120A
  0
DICTIONARY
  5
14B8
330
1039
100
AcDbDictionary
280
     1
281
     1
  3
ACAD_MTEXT_2008_RT
360
14B9
  0
DICTIONARY
  5
14BE
330
14A9
100
AcDbDictionary
280
     1
281
     1
  3
ACAD_MTEXT_2008_RT
360
14BF
  0
DICTIONARY
  5
11B3
102
{ACAD_REACTORS
330
C
102
}
330
C
100
AcDbDictionary
281
     1
  0
DICTIONARY
  5
D
102
{ACAD_REACTORS
330
C
102
}
330
C
100
AcDbDictionary
281
     1
  0
DICTIONARY
  5
2D0
102
{ACAD_REACTORS
330
C
102
}
330
C
100
AcDbDictionary
281
     1
  3
Model
350
2D2
  3
ﾚｲｱｳﾄ1
350
2D3
  0
DICTIONARY
  5
1189
102
{ACAD_REACTORS
330
C
102
}
330
C
100
AcDbDictionary
281
     1
  3
ByBlock
350
1192
  3
ByLayer
350
118A
  3
Global
350
119A
  0
DICTIONARY
  5
11D8
102
{ACAD_REACTORS
330
C
102
}
330
C
100
AcDbDictionary
281
     1
  3
Standard
350
11D9
  0
DICTIONARY
  5
E
102
{ACAD_REACTORS
330
C
102
}
330
C
100
AcDbDictionary
281
     1
  3
STANDARD
350
1B
  0
DICTIONARY
  5
2D1
102
{ACAD_REACTORS
330
C
102
}
330
C
100
AcDbDictionary
281
     1
  0
ACDBDICTIONARYWDFLT
  5
2CE
102
{ACAD_REACTORS
330
C
102
}
330
C
100
AcDbDictionary
281
     1
  3
Normal
350
2CF
100
AcDbDictionaryWithDefault
340
2CF
  0
DICTIONARY
  5
11B6
102
{ACAD_REACTORS
330
C
102
}
330
C
100
AcDbDictionary
281
     1
  3
A0
350
11B7
  3
A1
350
11B8
  3
A2
350
11B9
  3
A3
350
11BA
  3
A4
350
11BB
  3
A5
350
11BC
  3
A6
350
11BD
  3
A7
350
11BE
  3
A8
350
11BF
  3
A9
350
11C0
  3
B0
350
11C1
  3
B1
350
11C2
  3
B2
350
11C3
  3
B3
350
11C4
  3
B4
350
11C5
  3
B5
350
11C6
  3
B6
350
11C7
  3
B7
350
11C8
  3
B8
350
11C9
  3
B9
350
11CA
  3
C0
350
11CB
  3
C1
350
11CC
  3
C2
350
11CD
  3
C3
350
11CE
  3
C4
350
11CF
  3
C5
350
11D0
  3
C6
350
11D1
  3
C7
350
11D2
  3
C8
350
11D3
  3
C9
350
11D4
  3
D0
350
11D5
  3
D1
350
11D6
  3
D2
350
11D7
  0
DICTIONARY
  5
11B4
102
{ACAD_REACTORS
330
C
102
}
330
C
100
AcDbDictionary
281
     1
  3
Standard
350
11B5
  0
DICTIONARY
  5
11A2
102
{ACAD_REACTORS
330
C
102
}
330
C
100
AcDbDictionary
281
     1
  3
2dWireframe
350
11A8
  3
3D Hidden
350
11AA
  3
3dWireframe
350
11A9
  3
Basic
350
11A7
  3
Brighten
350
11AE
  3
ColorChange
350
11B2
  3
Conceptual
350
11AB
  3
Dim
350
11AD
  3
Facepattern
350
11B1
  3
Flat
350
11A3
  3
FlatWithEdges
350
11A4
  3
Gouraud
350
11A5
  3
GouraudWithEdges
350
11A6
  3
Linepattern
350
11B0
  3
Realistic
350
11AC
  3
Thicken
350
11AF
  0
XRECORD
  5
11F7
102
{ACAD_REACTORS
330
C
102
}
330
C
100
AcDbXrecord
280
     1
 90
        1
330
11B5
  0
DICTIONARY
  5
2D8
102
{ACAD_REACTORS
330
C
102
}
330
C
100
AcDbDictionary
281
     1
  3
CANNOSCALE
350
11E9
  3
CMLEADERSTYLE
350
11E8
  3
CTABLESTYLE
350
11E7
  3
LIGHTINGUNITS
350
11F9
  3
MSLTSCALE
350
11F8
  3
SORTENTS
350
2D9
  0
XRECORD
  5
11E0
102
{ACAD_REACTORS
330
11DF
102
}
330
11DF
100
AcDbXrecord
280
     1
290
     1
  0
XRECORD
  5
11E2
102
{ACAD_REACTORS
330
11E1
102
}
330
11E1
100
AcDbXrecord
280
     1
290
     1
  0
XRECORD
  5
11E4
102
{ACAD_REACTORS
330
11E3
102
}
330
11E3
100
AcDbXrecord
280
     1
290
     1
  0
XRECORD
  5
11E6
102
{ACAD_REACTORS
330
11E5
102
}
330
11E5
100
AcDbXrecord
280
     1
290
     1
  0
SORTENTSTABLE
  5
120A
102
{ACAD_REACTORS
330
1209
102
}
330
1209
100
AcDbSortentsTable
330
18
331
105D
  5
120D
331
1047
  5
104E
331
38C
  5
38C
331
1050
  5
1057
331
37F
  5
37F
331
105E
  5
120E
331
1051
  5
1058
331
38D
  5
38D
331
F30
  5
F4D
331
380
  5
380
331
105F
  5
13B5
331
38E
  5
38E
331
1052
  5
1059
331
F2E
  5
F30
331
1053
  5
105A
331
38F
  5
38F
331
103D
  5
1046
331
120D
  5
13BB
331
F32
  5
F4E
331
281
  5
281
331
F2F
  5
F32
331
103E
  5
1047
331
1054
  5
105B
331
383
  5
383
331
120E
  5
13BA
331
13EC
  5
104A
331
1055
  5
105C
331
C7B
  5
F2E
331
1048
  5
104F
331
384
  5
384
331
1040
  5
104B
331
1056
  5
105D
331
1049
  5
1050
331
3AB
  5
3AB
331
385
  5
385
331
1057
  5
105E
331
393
  5
393
331
1041
  5
104C
331
104A
  5
1051
331
386
  5
386
331
1058
  5
105F
331
104B
  5
1052
331
387
  5
387
331
1418
  5
C7B
331
398
  5
398
331
F4D
  5
F4F
331
1059
  5
10F1
331
395
  5
395
331
104C
  5
1053
331
388
  5
388
331
399
  5
399
331
105A
  5
1185
331
396
  5
396
331
F4E
  5
103D
331
104D
  5
1054
331
389
  5
389
331
13D4
  5
1048
331
39A
  5
39A
331
1185
  5
13B8
331
F4F
  5
103E
331
105B
  5
1186
331
397
  5
397
331
38A
  5
38A
331
104E
  5
1055
331
10F0
  5
13B6
331
39B
  5
39B
331
2B1
  5
2B1
331
105C
  5
1207
331
1046
  5
104D
331
1186
  5
13B9
331
104F
  5
1056
331
10F1
  5
13B7
331
38B
  5
38B
  0
XRECORD
  5
14B9
102
{ACAD_REACTORS
330
14B8
102
}
330
14B8
100
AcDbXrecord
280
     1
 40
5745.0
  1
\A1;\U+2205700
  0
XRECORD
  5
14BF
102
{ACAD_REACTORS
330
14BE
102
}
330
14BE
100
AcDbXrecord
280
     1
 40
5745.0
  1
\A1;\U+2205700
  0
LAYOUT
  5
2D2
102
{ACAD_REACTORS
330
2D0
102
}
330
2D0
100
AcDbPlotSettings
  1

  2
EPSON LP-8000SX
  4

  6

 40
0.0
 41
0.0
 42
0.0
 43
0.0
 44
0.0
 45
0.0
 46
0.0
 47
0.0
 48
0.0
 49
0.0
140
0.0
141
0.0
142
1.0
143
1.0
 70
  1712
 72
     0
 73
     0
 74
     0
  7

 75
     0
147
1.0
 76
     0
 77
     2
 78
   300
148
0.0
149
0.0
100
AcDbLayout
  1
Model
 70
     1
 71
     0
 10
0.0
 20
0.0
 11
12.0
 21
9.0
 12
0.0
 22
0.0
 32
0.0
 14
0.0
 24
0.0
 34
0.0
 15
0.0
 25
0.0
 35
0.0
146
0.0
 13
0.0
 23
0.0
 33
0.0
 16
1.0
 26
0.0
 36
0.0
 17
0.0
 27
1.0
 37
0.0
 76
     0
330
18
331
1187
  0
LAYOUT
  5
2D3
102
{ACAD_REACTORS
330
2D0
102
}
330
2D0
100
AcDbPlotSettings
  1

  2
EPSON LP-8000SX
  4

  6

 40
0.0
 41
0.0
 42
0.0
 43
0.0
 44
0.0
 45
0.0
 46
0.0
 47
0.0
 48
0.0
 49
0.0
140
0.0
141
0.0
142
1.0
143
1.0
 70
   688
 72
     0
 73
     0
 74
     5
  7

 75
    16
147
1.0
 76
     0
 77
     2
 78
   300
148
0.0
149
0.0
100
AcDbLayout
  1
ﾚｲｱｳﾄ1
 70
     1
 71
     1
 10
0.0
 20
0.0
 11
12.0
 21
9.0
 12
0.0
 22
0.0
 32
0.0
 14
1.000000000000000E+20
 24
1.000000000000000E+20
 34
1.000000000000000E+20
 15
-1.000000000000000E+20
 25
-1.000000000000000E+20
 35
-1.000000000000000E+20
146
0.0
 13
0.0
 23
0.0
 33
0.0
 16
1.0
 26
0.0
 36
0.0
 17
0.0
 27
1.0
 37
0.0
 76
     0
330
15
  0
MATERIAL
  5
1192
102
{ACAD_XDICTIONARY
360
1193
102
}
102
{ACAD_REACTORS
330
1189
102
}
330
1189
100
AcDbMaterial
  1
ByBlock
 72
     0
 43
0.0208333333333333
 43
0.0
 43
0.0
 43
0.0
 43
0.0
 43
0.0208333333333333
 43
0.0
 43
0.0
 43
0.0
 43
0.0
 43
1.0
 43
0.0
 43
0.0
 43
0.0
 43
0.0
 43
1.0
 77
     0
 47
0.0208333333333333
 47
0.0
 47
0.0
 47
0.0
 47
0.0
 47
0.0208333333333333
 47
0.0
 47
0.0
 47
0.0
 47
0.0
 47
1.0
 47
0.0
 47
0.0
 47
0.0
 47
0.0
 47
1.0
171
     0
 49
0.0208333333333333
 49
0.0
 49
0.0
 49
0.0
 49
0.0
 49
0.0208333333333333
 49
0.0
 49
0.0
 49
0.0
 49
0.0
 49
1.0
 49
0.0
 49
0.0
 49
0.0
 49
0.0
 49
1.0
175
     0
142
0.0208333333333333
142
0.0
142
0.0
142
0.0
142
0.0
142
0.0208333333333333
142
0.0
142
0.0
142
0.0
142
0.0
142
1.0
142
0.0
142
0.0
142
0.0
142
0.0
142
1.0
179
     0
144
0.0208333333333333
144
0.0
144
0.0
144
0.0
144
0.0
144
0.0208333333333333
144
0.0
144
0.0
144
0.0
144
0.0
144
1.0
144
0.0
144
0.0
144
0.0
144
0.0
144
1.0
147
0.0208333333333333
147
0.0
147
0.0
147
0.0
147
0.0
147
0.0208333333333333
147
0.0
147
0.0
147
0.0
147
0.0
147
1.0
147
0.0
147
0.0
147
0.0
147
0.0
147
1.0
  0
MATERIAL
  5
118A
102
{ACAD_XDICTIONARY
360
118B
102
}
102
{ACAD_REACTORS
330
1189
102
}
330
1189
100
AcDbMaterial
  1
ByLayer
 72
     0
 43
0.0208333333333333
 43
0.0
 43
0.0
 43
0.0
 43
0.0
 43
0.0208333333333333
 43
0.0
 43
0.0
 43
0.0
 43
0.0
 43
1.0
 43
0.0
 43
0.0
 43
0.0
 43
0.0
 43
1.0
 77
     0
 47
0.0208333333333333
 47
0.0
 47
0.0
 47
0.0
 47
0.0
 47
0.0208333333333333
 47
0.0
 47
0.0
 47
0.0
 47
0.0
 47
1.0
 47
0.0
 47
0.0
 47
0.0
 47
0.0
 47
1.0
171
     0
 49
0.0208333333333333
 49
0.0
 49
0.0
 49
0.0
 49
0.0
 49
0.0208333333333333
 49
0.0
 49
0.0
 49
0.0
 49
0.0
 49
1.0
 49
0.0
 49
0.0
 49
0.0
 49
0.0
 49
1.0
175
     0
142
0.0208333333333333
142
0.0
142
0.0
142
0.0
142
0.0
142
0.0208333333333333
142
0.0
142
0.0
142
0.0
142
0.0
142
1.0
142
0.0
142
0.0
142
0.0
142
0.0
142
1.0
179
     0
144
0.0208333333333333
144
0.0
144
0.0
144
0.0
144
0.0
144
0.0208333333333333
144
0.0
144
0.0
144
0.0
144
0.0
144
1.0
144
0.0
144
0.0
144
0.0
144
0.0
144
1.0
147
0.0208333333333333
147
0.0
147
0.0
147
0.0
147
0.0
147
0.0208333333333333
147
0.0
147
0.0
147
0.0
147
0.0
147
1.0
147
0.0
147
0.0
147
0.0
147
0.0
147
1.0
  0
MATERIAL
  5
119A
102
{ACAD_XDICTIONARY
360
119B
102
}
102
{ACAD_REACTORS
330
1189
102
}
330
1189
100
AcDbMaterial
  1
Global
 72
     0
 43
0.0208333333333333
 43
0.0
 43
0.0
 43
0.0
 43
0.0
 43
0.0208333333333333
 43
0.0
 43
0.0
 43
0.0
 43
0.0
 43
1.0
 43
0.0
 43
0.0
 43
0.0
 43
0.0
 43
1.0
 77
     0
 47
0.0208333333333333
 47
0.0
 47
0.0
 47
0.0
 47
0.0
 47
0.0208333333333333
 47
0.0
 47
0.0
 47
0.0
 47
0.0
 47
1.0
 47
0.0
 47
0.0
 47
0.0
 47
0.0
 47
1.0
171
     0
 49
0.0208333333333333
 49
0.0
 49
0.0
 49
0.0
 49
0.0
 49
0.0208333333333333
 49
0.0
 49
0.0
 49
0.0
 49
0.0
 49
1.0
 49
0.0
 49
0.0
 49
0.0
 49
0.0
 49
1.0
175
     0
142
0.0208333333333333
142
0.0
142
0.0
142
0.0
142
0.0
142
0.0208333333333333
142
0.0
142
0.0
142
0.0
142
0.0
142
1.0
142
0.0
142
0.0
142
0.0
142
0.0
142
1.0
179
     0
144
0.0208333333333333
144
0.0
144
0.0
144
0.0
144
0.0
144
0.0208333333333333
144
0.0
144
0.0
144
0.0
144
0.0
144
1.0
144
0.0
144
0.0
144
0.0
144
0.0
144
1.0
147
0.0208333333333333
147
0.0
147
0.0
147
0.0
147
0.0
147
0.0208333333333333
147
0.0
147
0.0
147
0.0
147
0.0
147
1.0
147
0.0
147
0.0
147
0.0
147
0.0
147
1.0
  0
MLEADERSTYLE
  5
11D9
102
{ACAD_REACTORS
330
11D8
102
}
330
11D8
100
AcDbMLeaderStyle
170
     2
171
     1
172
     0
 90
        2
 40
0.0
 41
0.0
173
     1
 91
-1056964608
340
12
 92
       -2
290
     1
 42
0.09
291
     1
 43
0.36
  3
Standard
 44
0.18
300

342
10
174
     1
178
     6
175
     1
176
     0
 93
-1056964608
 45
0.18
292
     0
297
     0
 46
0.18
 94
-1056964608
 47
1.0
 49
1.0
140
1.0
293
     1
141
0.0
294
     1
177
     0
142
1.0
295
     0
296
     0
143
0.125
1001
ACAD_MLEADERVER
1070
     2
  0
MLINESTYLE
  5
1B
102
{ACAD_REACTORS
330
E
102
}
330
E
100
AcDbMlineStyle
  2
STANDARD
 70
     0
  3

 62
     0
 51
90.0
 52
90.0
 71
     2
 49
0.5
 62
   256
  6
BYLAYER
 49
-0.5
 62
   256
  6
BYLAYER
  0
ACDBPLACEHOLDER
  5
2CF
102
{ACAD_REACTORS
330
2CE
102
}
330
2CE
  0
SCALE
  5
11B7
102
{ACAD_REACTORS
330
11B6
102
}
330
11B6
100
AcDbScale
 70
     0
300
1:1
140
1.0
141
1.0
290
     1
  0
SCALE
  5
11B8
102
{ACAD_REACTORS
330
11B6
102
}
330
11B6
100
AcDbScale
 70
     0
300
1:2
140
1.0
141
2.0
290
     0
  0
SCALE
  5
11B9
102
{ACAD_REACTORS
330
11B6
102
}
330
11B6
100
AcDbScale
 70
     0
300
1:4
140
1.0
141
4.0
290
     0
  0
SCALE
  5
11BA
102
{ACAD_REACTORS
330
11B6
102
}
330
11B6
100
AcDbScale
 70
     0
300
1:5
140
1.0
141
5.0
290
     0
  0
SCALE
  5
11BB
102
{ACAD_REACTORS
330
11B6
102
}
330
11B6
100
AcDbScale
 70
     0
300
1:8
140
1.0
141
8.0
290
     0
  0
SCALE
  5
11BC
102
{ACAD_REACTORS
330
11B6
102
}
330
11B6
100
AcDbScale
 70
     0
300
1:10
140
1.0
141
10.0
290
     0
  0
SCALE
  5
11BD
102
{ACAD_REACTORS
330
11B6
102
}
330
11B6
100
AcDbScale
 70
     0
300
1:16
140
1.0
141
16.0
290
     0
  0
SCALE
  5
11BE
102
{ACAD_REACTORS
330
11B6
102
}
330
11B6
100
AcDbScale
 70
     0
300
1:20
140
1.0
141
20.0
290
     0
  0
SCALE
  5
11BF
102
{ACAD_REACTORS
330
11B6
102
}
330
11B6
100
AcDbScale
 70
     0
300
1:30
140
1.0
141
30.0
290
     0
  0
SCALE
  5
11C0
102
{ACAD_REACTORS
330
11B6
102
}
330
11B6
100
AcDbScale
 70
     0
300
1:40
140
1.0
141
40.0
290
     0
  0
SCALE
  5
11C1
102
{ACAD_REACTORS
330
11B6
102
}
330
11B6
100
AcDbScale
 70
     0
300
1:50
140
1.0
141
50.0
290
     0
  0
SCALE
  5
11C2
102
{ACAD_REACTORS
330
11B6
102
}
330
11B6
100
AcDbScale
 70
     0
300
1:100
140
1.0
141
100.0
290
     0
  0
SCALE
  5
11C3
102
{ACAD_REACTORS
330
11B6
102
}
330
11B6
100
AcDbScale
 70
     0
300
2:1
140
2.0
141
1.0
290
     0
  0
SCALE
  5
11C4
102
{ACAD_REACTORS
330
11B6
102
}
330
11B6
100
AcDbScale
 70
     0
300
4:1
140
4.0
141
1.0
290
     0
  0
SCALE
  5
11C5
102
{ACAD_REACTORS
330
11B6
102
}
330
11B6
100
AcDbScale
 70
     0
300
8:1
140
8.0
141
1.0
290
     0
  0
SCALE
  5
11C6
102
{ACAD_REACTORS
330
11B6
102
}
330
11B6
100
AcDbScale
 70
     0
300
10:1
140
10.0
141
1.0
290
     0
  0
SCALE
  5
11C7
102
{ACAD_REACTORS
330
11B6
102
}
330
11B6
100
AcDbScale
 70
     0
300
100:1
140
100.0
141
1.0
290
     0
  0
SCALE
  5
11C8
102
{ACAD_REACTORS
330
11B6
102
}
330
11B6
100
AcDbScale
 70
     0
300
1/128" = 1'-0"
140
0.0078125
141
12.0
290
     0
  0
SCALE
  5
11C9
102
{ACAD_REACTORS
330
11B6
102
}
330
11B6
100
AcDbScale
 70
     0
300
1/64" = 1'-0"
140
0.015625
141
12.0
290
     0
  0
SCALE
  5
11CA
102
{ACAD_REACTORS
330
11B6
102
}
330
11B6
100
AcDbScale
 70
     0
300
1/32" = 1'-0"
140
0.03125
141
12.0
290
     0
  0
SCALE
  5
11CB
102
{ACAD_REACTORS
330
11B6
102
}
330
11B6
100
AcDbScale
 70
     0
300
1/16" = 1'-0"
140
0.0625
141
12.0
290
     0
  0
SCALE
  5
11CC
102
{ACAD_REACTORS
330
11B6
102
}
330
11B6
100
AcDbScale
 70
     0
300
3/32" = 1'-0"
140
0.09375
141
12.0
290
     0
  0
SCALE
  5
11CD
102
{ACAD_REACTORS
330
11B6
102
}
330
11B6
100
AcDbScale
 70
     0
300
1/8" = 1'-0"
140
0.125
141
12.0
290
     0
  0
SCALE
  5
11CE
102
{ACAD_REACTORS
330
11B6
102
}
330
11B6
100
AcDbScale
 70
     0
300
3/16" = 1'-0"
140
0.1875
141
12.0
290
     0
  0
SCALE
  5
11CF
102
{ACAD_REACTORS
330
11B6
102
}
330
11B6
100
AcDbScale
 70
     0
300
1/4" = 1'-0"
140
0.25
141
12.0
290
     0
  0
SCALE
  5
11D0
102
{ACAD_REACTORS
330
11B6
102
}
330
11B6
100
AcDbScale
 70
     0
300
3/8" = 1'-0"
140
0.375
141
12.0
290
     0
  0
SCALE
  5
11D1
102
{ACAD_REACTORS
330
11B6
102
}
330
11B6
100
AcDbScale
 70
     0
300
1/2" = 1'-0"
140
0.5
141
12.0
290
     0
  0
SCALE
  5
11D2
102
{ACAD_REACTORS
330
11B6
102
}
330
11B6
100
AcDbScale
 70
     0
300
3/4" = 1'-0"
140
0.75
141
12.0
290
     0
  0
SCALE
  5
11D3
102
{ACAD_REACTORS
330
11B6
102
}
330
11B6
100
AcDbScale
 70
     0
300
1" = 1'-0"
140
1.0
141
12.0
290
     0
  0
SCALE
  5
11D4
102
{ACAD_REACTORS
330
11B6
102
}
330
11B6
100
AcDbScale
 70
     0
300
1-1/2" = 1'-0"
140
1.5
141
12.0
290
     0
  0
SCALE
  5
11D5
102
{ACAD_REACTORS
330
11B6
102
}
330
11B6
100
AcDbScale
 70
     0
300
3" = 1'-0"
140
3.0
141
12.0
290
     0
  0
SCALE
  5
11D6
102
{ACAD_REACTORS
330
11B6
102
}
330
11B6
100
AcDbScale
 70
     0
300
6" = 1'-0"
140
6.0
141
12.0
290
     0
  0
SCALE
  5
11D7
102
{ACAD_REACTORS
330
11B6
102
}
330
11B6
100
AcDbScale
 70
     0
300
1'-0" = 1'-0"
140
12.0
141
12.0
290
     0
  0
TABLESTYLE
  5
11B5
102
{ACAD_XDICTIONARY
360
11F5
102
}
102
{ACAD_REACTORS
330
11B4
102
}
330
11B4
100
AcDbTableStyle
  3
Standard
 70
     0
 71
     0
 40
0.06
 41
0.06
280
     0
281
     0
  7
STANDARD
140
0.18
170
     2
 62
     0
 63
     7
283
     0
274
    -2
284
     1
 64
     0
275
    -2
285
     1
 65
     0
276
    -2
286
     1
 66
     0
277
    -2
287
     1
 67
     0
278
    -2
288
     1
 68
     0
279
    -2
289
     1
 69
     0
  7
STANDARD
140
0.25
170
     5
 62
     0
 63
     7
283
     0
274
    -2
284
     1
 64
     0
275
    -2
285
     1
 65
     0
276
    -2
286
     1
 66
     0
277
    -2
287
     1
 67
     0
278
    -2
288
     1
 68
     0
279
    -2
289
     1
 69
     0
  7
STANDARD
140
0.18
170
     5
 62
     0
 63
     7
283
     0
274
    -2
284
     1
 64
     0
275
    -2
285
     1
 65
     0
276
    -2
286
     1
 66
     0
277
    -2
287
     1
 67
     0
278
    -2
288
     1
 68
     0
279
    -2
289
     1
 69
     0
  0
VISUALSTYLE
  5
11A8
102
{ACAD_REACTORS
330
11A2
102
}
330
11A2
100
AcDbVisualStyle
  2
2dWireframe
 70
     4
 71
     0
 72
     2
 73
     0
 90
        0
 40
-0.6
 41
-30.0
 62
     5
 63
     7
421
 16777215
 74
     1
 91
        4
 64
     7
 65
   257
 75
     1
175
     1
 42
1.0
 92
        0
 66
   257
 43
1.0
 76
     1
 77
     6
 78
     2
 67
     7
 79
     5
170
     0
171
     0
290
     0
174
     0
 93
        1
 44
0.0
173
     0
291
     0
 45
0.0
1001
ACAD
1000
AcDbSavedByObjectVersion
1070
     0
  0
VISUALSTYLE
  5
11AA
102
{ACAD_REACTORS
330
11A2
102
}
330
11A2
100
AcDbVisualStyle
  2
3D Hidden
 70
     6
 71
     1
 72
     2
 73
     2
 90
        0
 40
-0.6
 41
-30.0
 62
     5
 63
     7
421
 16777215
 74
     2
 91
        2
 64
     7
 65
   257
 75
     2
175
     1
 42
40.0
 92
        0
 66
   257
 43
1.0
 76
     1
 77
     6
 78
     2
 67
     7
 79
     3
170
     0
171
     0
290
     0
174
     0
 93
        1
 44
0.0
173
     0
291
     0
 45
0.0
1001
ACAD
1000
AcDbSavedByObjectVersion
1070
     0
  0
VISUALSTYLE
  5
11A9
102
{ACAD_REACTORS
330
11A2
102
}
330
11A2
100
AcDbVisualStyle
  2
3dWireframe
 70
     5
 71
     0
 72
     2
 73
     0
 90
        0
 40
-0.6
 41
-30.0
 62
     5
 63
     7
421
 16777215
 74
     1
 91
        4
 64
     7
 65
   257
 75
     1
175
     1
 42
1.0
 92
        0
 66
   257
 43
1.0
 76
     1
 77
     6
 78
     2
 67
     7
 79
     5
170
     0
171
     0
290
     0
174
     0
 93
        1
 44
0.0
173
     0
291
     0
 45
0.0
1001
ACAD
1000
AcDbSavedByObjectVersion
1070
     0
  0
VISUALSTYLE
  5
11A7
102
{ACAD_REACTORS
330
11A2
102
}
330
11A2
100
AcDbVisualStyle
  2
Basic
 70
     7
 71
     1
 72
     0
 73
     1
 90
        0
 40
-0.6
 41
-30.0
 62
     5
 63
     7
421
 16777215
 74
     0
 91
        4
 64
     7
 65
   257
 75
     1
175
     1
 42
1.0
 92
        8
 66
     7
 43
1.0
 76
     1
 77
     6
 78
     2
 67
     7
 79
     5
170
     0
171
     0
290
     0
174
     0
 93
        1
 44
0.0
173
     0
291
     1
 45
0.0
1001
ACAD
1000
AcDbSavedByObjectVersion
1070
     0
  0
VISUALSTYLE
  5
11AE
102
{ACAD_REACTORS
330
11A2
102
}
330
11A2
100
AcDbVisualStyle
  2
Brighten
 70
    12
 71
     2
 72
     2
 73
     0
 90
        0
 40
-0.6
 41
-30.0
 62
     5
 63
     7
421
 16777215
 74
     1
 91
        4
 64
     7
 65
   257
 75
     1
175
     1
 42
1.0
 92
        8
 66
     7
 43
1.0
 76
     1
 77
     6
 78
     2
 67
     7
 79
     5
170
     0
171
     0
290
     0
174
     0
 93
        1
 44
50.0
173
     0
291
     1
 45
0.0
1001
ACAD
1000
AcDbSavedByObjectVersion
1070
     0
  0
VISUALSTYLE
  5
11B2
102
{ACAD_REACTORS
330
11A2
102
}
330
11A2
100
AcDbVisualStyle
  2
ColorChange
 70
    16
 71
     2
 72
     2
 73
     3
 90
        0
 40
-0.6
 41
-30.0
 62
     5
 63
     8
421
  8421504
 74
     1
 91
        4
 64
     7
 65
   257
 75
     1
175
     1
 42
1.0
 92
        8
 66
     8
424
  8421504
 43
1.0
 76
     1
 77
     6
 78
     2
 67
     7
 79
     5
170
     0
171
     0
290
     0
174
     0
 93
        1
 44
0.0
173
     0
291
     1
 45
0.0
1001
ACAD
1000
AcDbSavedByObjectVersion
1070
     0
  0
VISUALSTYLE
  5
11AB
102
{ACAD_REACTORS
330
11A2
102
}
330
11A2
100
AcDbVisualStyle
  2
Conceptual
 70
     9
 71
     3
 72
     2
 73
     0
 90
        0
 40
-0.6
 41
-30.0
 62
     5
 63
     7
421
 16777215
 74
     2
 91
        2
 64
     7
 65
   257
 75
     1
175
     1
 42
40.0
 92
        8
 66
     7
 43
1.0
 76
     1
 77
     6
 78
     2
 67
     7
 79
     3
170
     0
171
     0
290
     0
174
     0
 93
        1
 44
0.0
173
     0
291
     0
 45
0.0
1001
ACAD
1000
AcDbSavedByObjectVersion
1070
     0
  0
VISUALSTYLE
  5
11AD
102
{ACAD_REACTORS
330
11A2
102
}
330
11A2
100
AcDbVisualStyle
  2
Dim
 70
    11
 71
     2
 72
     2
 73
     0
 90
        0
 40
-0.6
 41
-30.0
 62
     5
 63
     7
421
 16777215
 74
     1
 91
        4
 64
     7
 65
   257
 75
     1
175
     1
 42
1.0
 92
        8
 66
     7
 43
1.0
 76
     1
 77
     6
 78
     2
 67
     7
 79
     5
170
     0
171
     0
290
     0
174
     0
 93
        1
 44
-50.0
173
     0
291
     1
 45
0.0
1001
ACAD
1000
AcDbSavedByObjectVersion
1070
     0
  0
VISUALSTYLE
  5
11B1
102
{ACAD_REACTORS
330
11A2
102
}
330
11A2
100
AcDbVisualStyle
  2
Facepattern
 70
    15
 71
     2
 72
     2
 73
     0
 90
        0
 40
-0.6
 41
-30.0
 62
     5
 63
     7
421
 16777215
 74
     1
 91
        4
 64
     7
 65
   257
 75
     1
175
     1
 42
1.0
 92
        8
 66
     7
 43
1.0
 76
     1
 77
     6
 78
     2
 67
     7
 79
     5
170
     0
171
     0
290
     0
174
     0
 93
        1
 44
0.0
173
     0
291
     1
 45
0.0
1001
ACAD
1000
AcDbSavedByObjectVersion
1070
     0
  0
VISUALSTYLE
  5
11A3
102
{ACAD_REACTORS
330
11A2
102
}
330
11A2
100
AcDbVisualStyle
  2
Flat
 70
     0
 71
     2
 72
     1
 73
     1
 90
        2
 40
-0.6
 41
30.0
 62
     5
 63
     7
421
 16777215
 74
     0
 91
        4
 64
     7
 65
   257
 75
     1
175
     1
 42
1.0
 92
        8
 66
     7
 43
1.0
 76
     1
 77
     6
 78
     2
 67
     7
 79
     5
170
     0
171
     0
290
     0
174
     0
 93
       13
 44
0.0
173
     0
291
     1
 45
0.0
1001
ACAD
1000
AcDbSavedByObjectVersion
1070
     0
  0
VISUALSTYLE
  5
11A4
102
{ACAD_REACTORS
330
11A2
102
}
330
11A2
100
AcDbVisualStyle
  2
FlatWithEdges
 70
     1
 71
     2
 72
     1
 73
     1
 90
        2
 40
-0.6
 41
30.0
 62
     5
 63
     7
421
 16777215
 74
     1
 91
        4
 64
     7
 65
   257
 75
     1
175
     1
 42
1.0
 92
        0
 66
   257
 43
1.0
 76
     1
 77
     6
 78
     2
 67
     7
 79
     5
170
     0
171
     0
290
     0
174
     0
 93
       13
 44
0.0
173
     0
291
     1
 45
0.0
1001
ACAD
1000
AcDbSavedByObjectVersion
1070
     0
  0
VISUALSTYLE
  5
11A5
102
{ACAD_REACTORS
330
11A2
102
}
330
11A2
100
AcDbVisualStyle
  2
Gouraud
 70
     2
 71
     2
 72
     2
 73
     1
 90
        2
 40
-0.6
 41
30.0
 62
     5
 63
     7
421
 16777215
 74
     0
 91
        4
 64
     7
 65
   257
 75
     1
175
     1
 42
1.0
 92
        0
 66
     7
 43
1.0
 76
     1
 77
     6
 78
     2
 67
     7
 79
     5
170
     0
171
     0
290
     0
174
     0
 93
       13
 44
0.0
173
     0
291
     1
 45
0.0
1001
ACAD
1000
AcDbSavedByObjectVersion
1070
     0
  0
VISUALSTYLE
  5
11A6
102
{ACAD_REACTORS
330
11A2
102
}
330
11A2
100
AcDbVisualStyle
  2
GouraudWithEdges
 70
     3
 71
     2
 72
     2
 73
     1
 90
        2
 40
-0.6
 41
30.0
 62
     5
 63
     7
421
 16777215
 74
     1
 91
        4
 64
     7
 65
   257
 75
     1
175
     1
 42
1.0
 92
        0
 66
   257
 43
1.0
 76
     1
 77
     6
 78
     2
 67
     7
 79
     5
170
     0
171
     0
290
     0
174
     0
 93
       13
 44
0.0
173
     0
291
     1
 45
0.0
1001
ACAD
1000
AcDbSavedByObjectVersion
1070
     0
  0
VISUALSTYLE
  5
11B0
102
{ACAD_REACTORS
330
11A2
102
}
330
11A2
100
AcDbVisualStyle
  2
Linepattern
 70
    14
 71
     2
 72
     2
 73
     0
 90
        0
 40
-0.6
 41
-30.0
 62
     5
 63
     7
421
 16777215
 74
     1
 91
        4
 64
     7
 65
   257
 75
     7
175
     7
 42
1.0
 92
        8
 66
     7
 43
1.0
 76
     1
 77
     6
 78
     2
 67
     7
 79
     5
170
     0
171
     0
290
     0
174
     0
 93
        1
 44
0.0
173
     0
291
     1
 45
0.0
1001
ACAD
1000
AcDbSavedByObjectVersion
1070
     0
  0
VISUALSTYLE
  5
11AC
102
{ACAD_REACTORS
330
11A2
102
}
330
11A2
100
AcDbVisualStyle
  2
Realistic
 70
     8
 71
     2
 72
     2
 73
     0
 90
        0
 40
-0.6
 41
-30.0
 62
     5
 63
     7
421
 16777215
 74
     1
 91
        0
 64
     7
 65
   257
 75
     1
175
     1
 42
1.0
 92
        8
 66
     8
424
  7895160
 43
1.0
 76
     1
 77
     6
 78
     2
 67
     7
 79
     5
170
     0
171
     0
290
     0
174
     0
 93
       13
 44
0.0
173
     0
291
     0
 45
0.0
1001
ACAD
1000
AcDbSavedByObjectVersion
1070
     0
  0
VISUALSTYLE
  5
11AF
102
{ACAD_REACTORS
330
11A2
102
}
330
11A2
100
AcDbVisualStyle
  2
Thicken
 70
    13
 71
     2
 72
     2
 73
     0
 90
        0
 40
-0.6
 41
-30.0
 62
     5
 63
     7
421
 16777215
 74
     1
 91
        4
 64
     7
 65
   257
 75
     1
175
     1
 42
1.0
 92
       12
 66
     7
 43
1.0
 76
     1
 77
     6
 78
     2
 67
     7
 79
     5
170
     0
171
     0
290
     0
174
     0
 93
        1
 44
0.0
173
     0
291
     1
 45
0.0
1001
ACAD
1000
AcDbSavedByObjectVersion
1070
     0
  0
DICTIONARYVAR
  5
11E9
102
{ACAD_REACTORS
330
2D8
102
}
330
2D8
100
DictionaryVariables
280
     0
  1
1:1
  0
DICTIONARYVAR
  5
11E8
102
{ACAD_REACTORS
330
2D8
102
}
330
2D8
100
DictionaryVariables
280
     0
  1
STANDARD
  0
DICTIONARYVAR
  5
11E7
102
{ACAD_REACTORS
330
2D8
102
}
330
2D8
100
DictionaryVariables
280
     0
  1
STANDARD
  0
DICTIONARYVAR
  5
11F9
102
{ACAD_REACTORS
330
2D8
102
}
330
2D8
100
DictionaryVariables
280
     0
  1
0
  0
DICTIONARYVAR
  5
11F8
102
{ACAD_REACTORS
330
2D8
102
}
330
2D8
100
DictionaryVariables
280
     0
  1
0
  0
DICTIONARYVAR
  5
2D9
102
{ACAD_REACTORS
330
2D8
102
}
330
2D8
100
DictionaryVariables
280
     0
  1
96
  0
DICTIONARY
  5
1193
330
1192
100
AcDbDictionary
280
     1
281
     1
  3
ACAD_XREC_ROUNDTRIP
360
14BB
  3
BUMPTILE
360
1195
  3
DIFFUSETILE
360
1194
  3
OPACITYTILE
360
1198
  3
REFLECTIONTILE
360
1197
  3
REFRACTIONTILE
360
1199
  3
SPECULARTILE
360
1196
  0
DICTIONARY
  5
118B
330
118A
100
AcDbDictionary
280
     1
281
     1
  3
ACAD_XREC_ROUNDTRIP
360
14BA
  3
BUMPTILE
360
118D
  3
DIFFUSETILE
360
118C
  3
OPACITYTILE
360
1190
  3
REFLECTIONTILE
360
118F
  3
REFRACTIONTILE
360
1191
  3
SPECULARTILE
360
118E
  0
DICTIONARY
  5
119B
330
119A
100
AcDbDictionary
280
     1
281
     1
  3
ACAD_XREC_ROUNDTRIP
360
14BC
  3
BUMPTILE
360
119D
  3
DIFFUSETILE
360
119C
  3
OPACITYTILE
360
11A0
  3
REFLECTIONTILE
360
119F
  3
REFRACTIONTILE
360
11A1
  3
SPECULARTILE
360
119E
  0
DICTIONARY
  5
11F5
330
11B5
100
AcDbDictionary
280
     1
281
     1
  3
ACAD_ROUNDTRIP_2008_TABLESTYLE_CELLSTYLEMAP
360
14B7
  3
ACAD_XREC_ROUNDTRIP
360
14BD
  0
XRECORD
  5
14BB
102
{ACAD_REACTORS
330
1193
102
}
330
1193
100
AcDbXrecord
280
     1
102
MATERIAL
148
0.0
149
0.0
149
0.0
 93
        0
 94
      127
282
     0
 72
     0
 77
     0
171
     0
175
     0
179
     0
273
     0
  0
XRECORD
  5
1195
102
{ACAD_REACTORS
330
1193
102
}
330
1193
100
AcDbXrecord
280
     1
270
     1
271
     1
  0
XRECORD
  5
1194
102
{ACAD_REACTORS
330
1193
102
}
330
1193
100
AcDbXrecord
280
     1
270
     1
271
     1
  0
XRECORD
  5
1198
102
{ACAD_REACTORS
330
1193
102
}
330
1193
100
AcDbXrecord
280
     1
270
     1
271
     1
  0
XRECORD
  5
1197
102
{ACAD_REACTORS
330
1193
102
}
330
1193
100
AcDbXrecord
280
     1
270
     1
271
     1
  0
XRECORD
  5
1199
102
{ACAD_REACTORS
330
1193
102
}
330
1193
100
AcDbXrecord
280
     1
270
     1
271
     1
  0
XRECORD
  5
1196
102
{ACAD_REACTORS
330
1193
102
}
330
1193
100
AcDbXrecord
280
     1
270
     1
271
     1
  0
XRECORD
  5
14BA
102
{ACAD_REACTORS
330
118B
102
}
330
118B
100
AcDbXrecord
280
     1
102
MATERIAL
148
0.0
149
0.0
149
0.0
 93
        0
 94
      127
282
     0
 72
     0
 77
     0
171
     0
175
     0
179
     0
273
     0
  0
XRECORD
  5
118D
102
{ACAD_REACTORS
330
118B
102
}
330
118B
100
AcDbXrecord
280
     1
270
     1
271
     1
  0
XRECORD
  5
118C
102
{ACAD_REACTORS
330
118B
102
}
330
118B
100
AcDbXrecord
280
     1
270
     1
271
     1
  0
XRECORD
  5
1190
102
{ACAD_REACTORS
330
118B
102
}
330
118B
100
AcDbXrecord
280
     1
270
     1
271
     1
  0
XRECORD
  5
118F
102
{ACAD_REACTORS
330
118B
102
}
330
118B
100
AcDbXrecord
280
     1
270
     1
271
     1
  0
XRECORD
  5
1191
102
{ACAD_REACTORS
330
118B
102
}
330
118B
100
AcDbXrecord
280
     1
270
     1
271
     1
  0
XRECORD
  5
118E
102
{ACAD_REACTORS
330
118B
102
}
330
118B
100
AcDbXrecord
280
     1
270
     1
271
     1
  0
XRECORD
  5
14BC
102
{ACAD_REACTORS
330
119B
102
}
330
119B
100
AcDbXrecord
280
     1
102
MATERIAL
148
0.0
149
0.0
149
0.0
 93
        0
 94
      127
282
     0
 72
     0
 77
     0
171
     0
175
     0
179
     0
273
     0
  0
XRECORD
  5
119D
102
{ACAD_REACTORS
330
119B
102
}
330
119B
100
AcDbXrecord
280
     1
270
     1
271
     1
  0
XRECORD
  5
119C
102
{ACAD_REACTORS
330
119B
102
}
330
119B
100
AcDbXrecord
280
     1
270
     1
271
     1
  0
XRECORD
  5
11A0
102
{ACAD_REACTORS
330
119B
102
}
330
119B
100
AcDbXrecord
280
     1
270
     1
271
     1
  0
XRECORD
  5
119F
102
{ACAD_REACTORS
330
119B
102
}
330
119B
100
AcDbXrecord
280
     1
270
     1
271
     1
  0
XRECORD
  5
11A1
102
{ACAD_REACTORS
330
119B
102
}
330
119B
100
AcDbXrecord
280
     1
270
     1
271
     1
  0
XRECORD
  5
119E
102
{ACAD_REACTORS
330
119B
102
}
330
119B
100
AcDbXrecord
280
     1
270
     1
271
     1
  0
CELLSTYLEMAP
  5
14B7
102
{ACAD_REACTORS
330
11F5
102
}
330
11F5
100
AcDbCellStyleMap
 90
        3
300
CELLSTYLE
  1
TABLEFORMAT_BEGIN
 90
        5
170
     1
 91
        0
 92
    32768
 62
   257
 93
        1
300
CONTENTFORMAT
  1
CONTENTFORMAT_BEGIN
 90
        0
 91
        0
 92
      512
 93
        0
300

 40
0.0
140
1.0
 94
        5
 62
     0
340
10
144
0.25
309
CONTENTFORMAT_END
171
     0
 94
        0
309
TABLEFORMAT_END
  1
CELLSTYLE_BEGIN
 90
        1
 91
        1
300
_TITLE
309
CELLSTYLE_END
300
CELLSTYLE
  1
TABLEFORMAT_BEGIN
 90
        5
170
     1
 91
        0
 92
        0
 62
   257
 93
        1
300
CONTENTFORMAT
  1
CONTENTFORMAT_BEGIN
 90
        0
 91
        0
 92
      512
 93
        0
300

 40
0.0
140
1.0
 94
        5
 62
     0
340
10
144
0.18
309
CONTENTFORMAT_END
171
     0
 94
        0
309
TABLEFORMAT_END
  1
CELLSTYLE_BEGIN
 90
        2
 91
        1
300
_HEADER
309
CELLSTYLE_END
300
CELLSTYLE
  1
TABLEFORMAT_BEGIN
 90
        5
170
     1
 91
        0
 92
        0
 62
   257
 93
        1
300
CONTENTFORMAT
  1
CONTENTFORMAT_BEGIN
 90
        0
 91
        0
 92
      512
 93
        0
300

 40
0.0
140
1.0
 94
        2
 62
     0
340
10
144
0.18
309
CONTENTFORMAT_END
171
     0
 94
        0
309
TABLEFORMAT_END
  1
CELLSTYLE_BEGIN
 90
        3
 91
        2
300
_DATA
309
CELLSTYLE_END
  0
XRECORD
  5
14BD
102
{ACAD_REACTORS
330
11F5
102
}
330
11F5
100
AcDbXrecord
280
     1
102
ACAD_ROUNDTRIP_PRE2007_TABLESTYLE
 90
      512
 91
        0
  1

 92
      512
 93
        0
  2

 94
      512
 95
        0
  3

  0
ENDSEC
  0
EOF
