  0
SECTION
  2
HEADER
  9
$ACADVER
  1
AC1018
  9
$ACADMAINTVER
 70
   104
  9
$DWGCODEPAGE
  3
ANSI_932
  9
$LASTSAVEDBY
  1
porakon
  9
$INSBASE
 10
0.0
 20
0.0
 30
0.0
  9
$EXTMIN
 10
222.4731741301812
 20
-302.6356006354429
 30
0.0
  9
$EXTMAX
 10
3997.19651876937
 20
1965.163369120438
 30
0.0
  9
$LIMMIN
 10
0.0
 20
0.0
  9
$LIMMAX
 10
12.0
 20
9.0
  9
$ORTHOMODE
 70
     0
  9
$REGENMODE
 70
     1
  9
$FILLMODE
 70
     1
  9
$QTEXTMODE
 70
     0
  9
$MIRRTEXT
 70
     1
  9
$LTSCALE
 40
100.0
  9
$ATTMODE
 70
     1
  9
$TEXTSIZE
 40
163.3571023374541
  9
$TRACEWID
 40
0.05
  9
$TEXTSTYLE
  7
BIGFONT
  9
$CLAYER
  8
MOJI
  9
$CELTYPE
  6
BYLAYER
  9
$CECOLOR
 62
   256
  9
$CELTSCALE
 40
1.0
  9
$DISPSILH
 70
     0
  9
$DIMSCALE
 40
10.0
  9
$DIMASZ
 40
2.0
  9
$DIMEXO
 40
1.0
  9
$DIMDLI
 40
2.0
  9
$DIMRND
 40
0.0
  9
$DIMDLE
 40
0.0
  9
$DIMEXE
 40
0.0
  9
$DIMTP
 40
0.0
  9
$DIMTM
 40
0.0
  9
$DIMTXT
 40
2.5
  9
$DIMCEN
 40
0.0
  9
$DIMTSZ
 40
0.0
  9
$DIMTOL
 70
     0
  9
$DIMLIM
 70
     0
  9
$DIMTIH
 70
     0
  9
$DIMTOH
 70
     0
  9
$DIMSE1
 70
     0
  9
$DIMSE2
 70
     0
  9
$DIMTAD
 70
     1
  9
$DIMZIN
 70
     0
  9
$DIMBLK
  1

  9
$DIMASO
 70
     1
  9
$DIMSHO
 70
     1
  9
$DIMPOST
  1

  9
$DIMAPOST
  1

  9
$DIMALT
 70
     0
  9
$DIMALTD
 70
     2
  9
$DIMALTF
 40
25.4
  9
$DIMLFAC
 40
1.0
  9
$DIMTOFL
 70
     1
  9
$DIMTVP
 40
0.0
  9
$DIMTIX
 70
     0
  9
$DIMSOXD
 70
     0
  9
$DIMSAH
 70
     0
  9
$DIMBLK1
  1

  9
$DIMBLK2
  1

  9
$DIMSTYLE
  2
DIM1
  9
$DIMCLRD
 70
     0
  9
$DIMCLRE
 70
     0
  9
$DIMCLRT
 70
     0
  9
$DIMTFAC
 40
1.0
  9
$DIMGAP
 40
1.0
  9
$DIMJUST
 70
     0
  9
$DIMSD1
 70
     0
  9
$DIMSD2
 70
     0
  9
$DIMTOLJ
 70
     1
  9
$DIMTZIN
 70
     0
  9
$DIMALTZ
 70
     0
  9
$DIMALTTZ
 70
     0
  9
$DIMUPT
 70
     1
  9
$DIMDEC
 70
     0
  9
$DIMTDEC
 70
     4
  9
$DIMALTU
 70
     2
  9
$DIMALTTD
 70
     2
  9
$DIMTXSTY
  7
BIGFONT
  9
$DIMAUNIT
 70
     0
  9
$DIMADEC
 70
     0
  9
$DIMALTRND
 40
0.0
  9
$DIMAZIN
 70
     0
  9
$DIMDSEP
 70
    46
  9
$DIMATFIT
 70
     3
  9
$DIMFRAC
 70
     0
  9
$DIMLDRBLK
  1

  9
$DIMLUNIT
 70
     2
  9
$DIMLWD
 70
    -2
  9
$DIMLWE
 70
    -2
  9
$DIMTMOVE
 70
     2
  9
$LUNITS
 70
     2
  9
$LUPREC
 70
     0
  9
$SKETCHINC
 40
0.1
  9
$FILLETRAD
 40
0.0
  9
$AUNITS
 70
     1
  9
$AUPREC
 70
     2
  9
$MENU
  1
BCAD
  9
$ELEVATION
 40
0.0
  9
$PELEVATION
 40
0.0
  9
$THICKNESS
 40
0.0
  9
$LIMCHECK
 70
     0
  9
$CHAMFERA
 40
0.0
  9
$CHAMFERB
 40
0.0
  9
$CHAMFERC
 40
0.0
  9
$CHAMFERD
 40
0.0
  9
$SKPOLY
 70
     0
  9
$TDCREATE
 40
2449540.465300926
  9
$TDUCREATE
 40
2449540.090300926
  9
$TDUPDATE
 40
2454207.389543415
  9
$TDUUPDATE
 40
2454207.014543415
  9
$TDINDWG
 40
0.0761810995
  9
$TDUSRTIMER
 40
0.0761810995
  9
$USRTIMER
 70
     1
  9
$ANGBASE
 50
0.0
  9
$ANGDIR
 70
     0
  9
$PDMODE
 70
    33
  9
$PDSIZE
 40
-0.2
  9
$PLINEWID
 40
0.0
  9
$SPLFRAME
 70
     0
  9
$SPLINETYPE
 70
     6
  9
$SPLINESEGS
 70
     8
  9
$HANDSEED
  5
1813
  9
$SURFTAB1
 70
     6
  9
$SURFTAB2
 70
     6
  9
$SURFTYPE
 70
     6
  9
$SURFU
 70
     6
  9
$SURFV
 70
     6
  9
$UCSBASE
  2

  9
$UCSNAME
  2

  9
$UCSORG
 10
0.0
 20
0.0
 30
0.0
  9
$UCSXDIR
 10
1.0
 20
0.0
 30
0.0
  9
$UCSYDIR
 10
0.0
 20
1.0
 30
0.0
  9
$UCSORTHOREF
  2

  9
$UCSORTHOVIEW
 70
     0
  9
$UCSORGTOP
 10
0.0
 20
0.0
 30
0.0
  9
$UCSORGBOTTOM
 10
0.0
 20
0.0
 30
0.0
  9
$UCSORGLEFT
 10
0.0
 20
0.0
 30
0.0
  9
$UCSORGRIGHT
 10
0.0
 20
0.0
 30
0.0
  9
$UCSORGFRONT
 10
0.0
 20
0.0
 30
0.0
  9
$UCSORGBACK
 10
0.0
 20
0.0
 30
0.0
  9
$PUCSBASE
  2

  9
$PUCSNAME
  2

  9
$PUCSORG
 10
0.0
 20
0.0
 30
0.0
  9
$PUCSXDIR
 10
1.0
 20
0.0
 30
0.0
  9
$PUCSYDIR
 10
0.0
 20
1.0
 30
0.0
  9
$PUCSORTHOREF
  2

  9
$PUCSORTHOVIEW
 70
     0
  9
$PUCSORGTOP
 10
0.0
 20
0.0
 30
0.0
  9
$PUCSORGBOTTOM
 10
0.0
 20
0.0
 30
0.0
  9
$PUCSORGLEFT
 10
0.0
 20
0.0
 30
0.0
  9
$PUCSORGRIGHT
 10
0.0
 20
0.0
 30
0.0
  9
$PUCSORGFRONT
 10
0.0
 20
0.0
 30
0.0
  9
$PUCSORGBACK
 10
0.0
 20
0.0
 30
0.0
  9
$USERI1
 70
     0
  9
$USERI2
 70
     0
  9
$USERI3
 70
     0
  9
$USERI4
 70
     0
  9
$USERI5
 70
     0
  9
$USERR1
 40
0.0
  9
$USERR2
 40
0.0
  9
$USERR3
 40
0.0
  9
$USERR4
 40
0.0
  9
$USERR5
 40
0.0
  9
$WORLDVIEW
 70
     1
  9
$SHADEDGE
 70
     3
  9
$SHADEDIF
 70
    70
  9
$TILEMODE
 70
     1
  9
$MAXACTVP
 70
    16
  9
$PINSBASE
 10
0.0
 20
0.0
 30
0.0
  9
$PLIMCHECK
 70
     0
  9
$PEXTMIN
 10
1.000000000000000E+20
 20
1.000000000000000E+20
 30
1.000000000000000E+20
  9
$PEXTMAX
 10
-1.000000000000000E+20
 20
-1.000000000000000E+20
 30
-1.000000000000000E+20
  9
$PLIMMIN
 10
0.0
 20
0.0
  9
$PLIMMAX
 10
12.0
 20
9.0
  9
$UNITMODE
 70
     0
  9
$VISRETAIN
 70
     0
  9
$PLINEGEN
 70
     0
  9
$PSLTSCALE
 70
     1
  9
$TREEDEPTH
 70
  3020
  9
$CMLSTYLE
  2
STANDARD
  9
$CMLJUST
 70
     0
  9
$CMLSCALE
 40
1.0
  9
$PROXYGRAPHICS
 70
     1
  9
$MEASUREMENT
 70
     0
  9
$CELWEIGHT
370
    -1
  9
$ENDCAPS
280
     0
  9
$JOINSTYLE
280
     0
  9
$LWDISPLAY
290
     0
  9
$INSUNITS
 70
     0
  9
$HYPERLINKBASE
  1

  9
$STYLESHEET
  1

  9
$XEDIT
290
     1
  9
$CEPSNTYPE
380
     0
  9
$PSTYLEMODE
290
     1
  9
$FINGERPRINTGUID
  2
{F12E2480-383A-11D6-BA8D-E1826005C94B}
  9
$VERSIONGUID
  2
{31991062-DD35-4371-8F12-579428515E9B}
  9
$EXTNAMES
290
     1
  9
$PSVPSCALE
 40
0.0
  9
$OLESTARTUP
290
     0
  9
$SORTENTS
280
    96
  9
$INDEXCTL
280
     0
  9
$HIDETEXT
280
     0
  9
$XCLIPFRAME
290
     0
  9
$HALOGAP
280
     0
  9
$OBSCOLOR
 70
   257
  9
$OBSLTYPE
280
     0
  9
$INTERSECTIONDISPLAY
280
     0
  9
$INTERSECTIONCOLOR
 70
   257
  9
$DIMASSOC
280
     1
  9
$PROJECTNAME
  1

  0
ENDSEC
  0
SECTION
  2
CLASSES
  0
CLASS
  1
DICTIONARYVAR
  2
AcDbDictionaryVar
  3
ObjectDBX Classes
 90
        0
 91
        4
280
     0
281
     0
  0
CLASS
  1
ACDBDICTIONARYWDFLT
  2
AcDbDictionaryWithDefault
  3
ObjectDBX Classes
 90
        0
 91
        1
280
     0
281
     0
  0
CLASS
  1
MATERIAL
  2
AcDbMaterial
  3
ObjectDBX Classes
 90
     1153
 91
        3
280
     0
281
     0
  0
CLASS
  1
VISUALSTYLE
  2
AcDbVisualStyle
  3
ObjectDBX Classes
 90
     4095
 91
       16
280
     0
281
     0
  0
CLASS
  1
TABLESTYLE
  2
AcDbTableStyle
  3
ObjectDBX Classes
 90
     4095
 91
        1
280
     0
281
     0
  0
CLASS
  1
SCALE
  2
AcDbScale
  3
ObjectDBX Classes
 90
     1153
 91
       33
280
     0
281
     0
  0
CLASS
  1
MLEADERSTYLE
  2
AcDbMLeaderStyle
  3
ACDB_MLEADERSTYLE_CLASS
 90
     4095
 91
        1
280
     0
281
     0
  0
CLASS
  1
CELLSTYLEMAP
  2
AcDbCellStyleMap
  3
ObjectDBX Classes
 90
     1152
 91
        1
280
     0
281
     0
  0
ENDSEC
  0
SECTION
  2
TABLES
  0
TABLE
  2
VPORT
  5
8
330
0
100
AcDbSymbolTable
 70
     1
  0
VPORT
  5
17A6
330
8
100
AcDbSymbolTableRecord
100
AcDbViewportTableRecord
  2
*Active
 70
     0
 10
0.0
 20
0.0
 11
1.0
 21
1.0
 12
1460.577706678271
 22
867.1125831174872
 13
0.0
 23
0.0
 14
1.0
 24
1.0
 15
0.0
 25
0.0
 16
0.0
 26
0.0
 36
1.0
 17
0.0
 27
0.0
 37
0.0
 40
2734.203149113183
 41
1.637566137566137
 42
50.0
 43
0.0
 44
0.0
 50
0.0
 51
0.0
 71
     0
 72
   100
 73
     1
 74
     1
 75
     0
 76
     0
 77
     0
 78
     0
281
     0
 65
     1
110
0.0
120
0.0
130
0.0
111
1.0
121
0.0
131
0.0
112
0.0
122
1.0
132
0.0
 79
     0
146
0.0
  0
ENDTAB
  0
TABLE
  2
LTYPE
  5
5
330
0
100
AcDbSymbolTable
 70
    25
  0
LTYPE
  5
12
330
5
100
AcDbSymbolTableRecord
100
AcDbLinetypeTableRecord
  2
BYBLOCK
 70
     0
  3

 72
    65
 73
     0
 40
0.0
  0
LTYPE
  5
13
330
5
100
AcDbSymbolTableRecord
100
AcDbLinetypeTableRecord
  2
BYLAYER
 70
     0
  3

 72
    65
 73
     0
 40
0.0
  0
LTYPE
  5
14
330
5
100
AcDbSymbolTableRecord
100
AcDbLinetypeTableRecord
  2
CONTINUOUS
 70
     0
  3
Solid line
 72
    65
 73
     0
 40
0.0
  0
LTYPE
  5
4B
330
5
100
AcDbSymbolTableRecord
100
AcDbLinetypeTableRecord
  2
BORDER
 70
     0
  3
__ __ . __ __ . __ __ . __ __ . __ __ . __ __ .
 72
    65
 73
     6
 40
1.75
 49
0.5
 74
     0
 49
-0.25
 74
     0
 49
0.5
 74
     0
 49
-0.25
 74
     0
 49
0.0
 74
     0
 49
-0.25
 74
     0
  0
LTYPE
  5
4C
330
5
100
AcDbSymbolTableRecord
100
AcDbLinetypeTableRecord
  2
BORDER2
 70
     0
  3
__.__.__.__.__.__.__.__.__.__.__.__.__.__.__.__
 72
    65
 73
     6
 40
0.875
 49
0.25
 74
     0
 49
-0.125
 74
     0
 49
0.25
 74
     0
 49
-0.125
 74
     0
 49
0.0
 74
     0
 49
-0.125
 74
     0
  0
LTYPE
  5
4D
330
5
100
AcDbSymbolTableRecord
100
AcDbLinetypeTableRecord
  2
BORDERX2
 70
     0
  3
____  ____  .  ____  ____  .  ____  ____  .  __
 72
    65
 73
     6
 40
3.5
 49
1.0
 74
     0
 49
-0.5
 74
     0
 49
1.0
 74
     0
 49
-0.5
 74
     0
 49
0.0
 74
     0
 49
-0.5
 74
     0
  0
LTYPE
  5
4E
330
5
100
AcDbSymbolTableRecord
100
AcDbLinetypeTableRecord
  2
CENTER
 70
     0
  3
____ _ ____ _ ____ _ ____ _ ____ _ ____ _ ____ 
 72
    65
 73
     4
 40
2.0
 49
1.25
 74
     0
 49
-0.25
 74
     0
 49
0.25
 74
     0
 49
-0.25
 74
     0
  0
LTYPE
  5
4F
330
5
100
AcDbSymbolTableRecord
100
AcDbLinetypeTableRecord
  2
CENTER2
 70
     0
  3
___ _ ___ _ ___ _ ___ _ ___ _ ___ _ ___ _ ___ _
 72
    65
 73
     4
 40
1.125
 49
0.75
 74
     0
 49
-0.125
 74
     0
 49
0.125
 74
     0
 49
-0.125
 74
     0
  0
LTYPE
  5
50
330
5
100
AcDbSymbolTableRecord
100
AcDbLinetypeTableRecord
  2
CENTERX2
 70
     0
  3
________  __  ________  __  ________  __  _____
 72
    65
 73
     4
 40
4.0
 49
2.5
 74
     0
 49
-0.5
 74
     0
 49
0.5
 74
     0
 49
-0.5
 74
     0
  0
LTYPE
  5
51
330
5
100
AcDbSymbolTableRecord
100
AcDbLinetypeTableRecord
  2
DASHDOT
 70
     0
  3
__ . __ . __ . __ . __ . __ . __ . __ . __ . __
 72
    65
 73
     4
 40
1.0
 49
0.5
 74
     0
 49
-0.25
 74
     0
 49
0.0
 74
     0
 49
-0.25
 74
     0
  0
LTYPE
  5
52
330
5
100
AcDbSymbolTableRecord
100
AcDbLinetypeTableRecord
  2
DASHDOT2
 70
     0
  3
_._._._._._._._._._._._._._._._._._._._._._._._
 72
    65
 73
     4
 40
0.5
 49
0.25
 74
     0
 49
-0.125
 74
     0
 49
0.0
 74
     0
 49
-0.125
 74
     0
  0
LTYPE
  5
53
330
5
100
AcDbSymbolTableRecord
100
AcDbLinetypeTableRecord
  2
DASHDOTX2
 70
     0
  3
____  .  ____  .  ____  .  ____  .  ____  .  __
 72
    65
 73
     4
 40
2.0
 49
1.0
 74
     0
 49
-0.5
 74
     0
 49
0.0
 74
     0
 49
-0.5
 74
     0
  0
LTYPE
  5
54
330
5
100
AcDbSymbolTableRecord
100
AcDbLinetypeTableRecord
  2
DASHED
 70
     0
  3
__ __ __ __ __ __ __ __ __ __ __ __ __ __ __ __
 72
    65
 73
     2
 40
0.75
 49
0.5
 74
     0
 49
-0.25
 74
     0
  0
LTYPE
  5
55
330
5
100
AcDbSymbolTableRecord
100
AcDbLinetypeTableRecord
  2
DASHED2
 70
     0
  3
_ _ _ _ _ _ _ _ _ _ _ _ _ _ _ _ _ _ _ _ _ _ _ _
 72
    65
 73
     2
 40
0.375
 49
0.25
 74
     0
 49
-0.125
 74
     0
  0
LTYPE
  5
56
330
5
100
AcDbSymbolTableRecord
100
AcDbLinetypeTableRecord
  2
DASHEDX2
 70
     0
  3
____  ____  ____  ____  ____  ____  ____  ____ 
 72
    65
 73
     2
 40
1.5
 49
1.0
 74
     0
 49
-0.5
 74
     0
  0
LTYPE
  5
57
330
5
100
AcDbSymbolTableRecord
100
AcDbLinetypeTableRecord
  2
DIVIDE
 70
     0
  3
____ . . ____ . . ____ . . ____ . . ____ . . __
 72
    65
 73
     6
 40
1.25
 49
0.5
 74
     0
 49
-0.25
 74
     0
 49
0.0
 74
     0
 49
-0.25
 74
     0
 49
0.0
 74
     0
 49
-0.25
 74
     0
  0
LTYPE
  5
58
330
5
100
AcDbSymbolTableRecord
100
AcDbLinetypeTableRecord
  2
DIVIDE2
 70
     0
  3
__..__..__..__..__..__..__..__..__..__..__..__.
 72
    65
 73
     6
 40
0.625
 49
0.25
 74
     0
 49
-0.125
 74
     0
 49
0.0
 74
     0
 49
-0.125
 74
     0
 49
0.0
 74
     0
 49
-0.125
 74
     0
  0
LTYPE
  5
59
330
5
100
AcDbSymbolTableRecord
100
AcDbLinetypeTableRecord
  2
DIVIDEX2
 70
     0
  3
________  .  .  ________  .  .  ________  .  . 
 72
    65
 73
     6
 40
2.5
 49
1.0
 74
     0
 49
-0.5
 74
     0
 49
0.0
 74
     0
 49
-0.5
 74
     0
 49
0.0
 74
     0
 49
-0.5
 74
     0
  0
LTYPE
  5
5A
330
5
100
AcDbSymbolTableRecord
100
AcDbLinetypeTableRecord
  2
DOT
 70
     0
  3
. . . . . . . . . . . . . . . . . . . . . . . .
 72
    65
 73
     2
 40
0.25
 49
0.0
 74
     0
 49
-0.25
 74
     0
  0
LTYPE
  5
5B
330
5
100
AcDbSymbolTableRecord
100
AcDbLinetypeTableRecord
  2
DOT2
 70
     0
  3
...............................................
 72
    65
 73
     2
 40
0.125
 49
0.0
 74
     0
 49
-0.125
 74
     0
  0
LTYPE
  5
5C
330
5
100
AcDbSymbolTableRecord
100
AcDbLinetypeTableRecord
  2
DOTX2
 70
     0
  3
.  .  .  .  .  .  .  .  .  .  .  .  .  .  .  . 
 72
    65
 73
     2
 40
0.5
 49
0.0
 74
     0
 49
-0.5
 74
     0
  0
LTYPE
  5
5D
330
5
100
AcDbSymbolTableRecord
100
AcDbLinetypeTableRecord
  2
HIDDEN
 70
     0
  3
__ __ __ __ __ __ __ __ __ __ __ __ __ __ __ __
 72
    65
 73
     2
 40
0.375
 49
0.25
 74
     0
 49
-0.125
 74
     0
  0
LTYPE
  5
5E
330
5
100
AcDbSymbolTableRecord
100
AcDbLinetypeTableRecord
  2
HIDDEN2
 70
     0
  3
_ _ _ _ _ _ _ _ _ _ _ _ _ _ _ _ _ _ _ _ _ _ _ _
 72
    65
 73
     2
 40
0.1875
 49
0.125
 74
     0
 49
-0.0625
 74
     0
  0
LTYPE
  5
5F
330
5
100
AcDbSymbolTableRecord
100
AcDbLinetypeTableRecord
  2
HIDDENX2
 70
     0
  3
____ ____ ____ ____ ____ ____ ____ ____ ____ __
 72
    65
 73
     2
 40
0.75
 49
0.5
 74
     0
 49
-0.25
 74
     0
  0
LTYPE
  5
60
330
5
100
AcDbSymbolTableRecord
100
AcDbLinetypeTableRecord
  2
PHANTOM
 70
     0
  3
______  __  __  ______  __  __  ______  __  __ 
 72
    65
 73
     6
 40
2.5
 49
1.25
 74
     0
 49
-0.25
 74
     0
 49
0.25
 74
     0
 49
-0.25
 74
     0
 49
0.25
 74
     0
 49
-0.25
 74
     0
  0
LTYPE
  5
61
330
5
100
AcDbSymbolTableRecord
100
AcDbLinetypeTableRecord
  2
PHANTOM2
 70
     0
  3
___ _ _ ___ _ _ ___ _ _ ___ _ _ ___ _ _ ___ _ _
 72
    65
 73
     6
 40
1.25
 49
0.625
 74
     0
 49
-0.125
 74
     0
 49
0.125
 74
     0
 49
-0.125
 74
     0
 49
0.125
 74
     0
 49
-0.125
 74
     0
  0
LTYPE
  5
62
330
5
100
AcDbSymbolTableRecord
100
AcDbLinetypeTableRecord
  2
PHANTOMX2
 70
     0
  3
____________    ____    ____    ____________   
 72
    65
 73
     6
 40
5.0
 49
2.5
 74
     0
 49
-0.5
 74
     0
 49
0.5
 74
     0
 49
-0.5
 74
     0
 49
0.5
 74
     0
 49
-0.5
 74
     0
  0
ENDTAB
  0
TABLE
  2
LAYER
  5
2
330
0
100
AcDbSymbolTable
 70
     7
  0
LAYER
  5
F
102
{ACAD_XDICTIONARY
360
17FD
102
}
330
2
100
AcDbSymbolTableRecord
100
AcDbLayerTableRecord
  2
0
 70
     0
 62
   250
  6
CONTINUOUS
370
    -3
390
AFE
  0
LAYER
  5
66
102
{ACAD_XDICTIONARY
360
17FF
102
}
330
2
100
AcDbSymbolTableRecord
100
AcDbLayerTableRecord
  2
HL
 70
     0
 62
     6
  6
CONTINUOUS
370
    -3
390
AFE
  0
LAYER
  5
67
102
{ACAD_XDICTIONARY
360
1801
102
}
330
2
100
AcDbSymbolTableRecord
100
AcDbLayerTableRecord
  2
SUNPOU
 70
     0
 62
     3
  6
CONTINUOUS
370
    -3
390
AFE
  0
LAYER
  5
6A
102
{ACAD_XDICTIONARY
360
1803
102
}
330
2
100
AcDbSymbolTableRecord
100
AcDbLayerTableRecord
  2
MOJI
 70
     0
 62
     4
  6
CONTINUOUS
370
    -3
390
AFE
  0
LAYER
  5
6B
102
{ACAD_XDICTIONARY
360
1805
102
}
330
2
100
AcDbSymbolTableRecord
100
AcDbLayerTableRecord
  2
CT2
 70
     0
 62
     1
  6
CENTER2
370
    -3
390
AFE
  0
LAYER
  5
6C
102
{ACAD_XDICTIONARY
360
1807
102
}
330
2
100
AcDbSymbolTableRecord
100
AcDbLayerTableRecord
  2
KL
 70
     0
 62
     5
  6
HIDDEN
370
    -3
390
AFE
  0
LAYER
  5
6E
330
2
100
AcDbSymbolTableRecord
100
AcDbLayerTableRecord
  2
DEFPOINTS
 70
     0
 62
     7
  6
CONTINUOUS
290
     0
370
    -3
390
AFE
  0
ENDTAB
  0
TABLE
  2
STYLE
  5
3
330
0
100
AcDbSymbolTable
 70
     2
  0
STYLE
  5
10
330
3
100
AcDbSymbolTableRecord
100
AcDbTextStyleTableRecord
  2
STANDARD
 70
     0
 40
0.0
 41
1.0
 50
0.0
 71
     0
 42
0.2
  3
txt
  4

  0
STYLE
  5
4A
330
3
100
AcDbSymbolTableRecord
100
AcDbTextStyleTableRecord
  2
BIGFONT
 70
     0
 40
0.0
 41
1.0
 50
0.0
 71
     0
 42
163.3571023374541
  3
simplex
  4
bigfont
  0
ENDTAB
  0
TABLE
  2
VIEW
  5
6
330
0
100
AcDbSymbolTable
 70
     0
  0
ENDTAB
  0
TABLE
  2
UCS
  5
7
330
0
100
AcDbSymbolTable
 70
     0
  0
ENDTAB
  0
TABLE
  2
APPID
  5
9
330
0
100
AcDbSymbolTable
 70
     2
  0
APPID
  5
11
330
9
100
AcDbSymbolTableRecord
100
AcDbRegAppTableRecord
  2
ACAD
 70
     0
  0
APPID
  5
17F9
330
9
100
AcDbSymbolTableRecord
100
AcDbRegAppTableRecord
  2
ACAD_MLEADERVER
 70
     0
  0
ENDTAB
  0
TABLE
  2
DIMSTYLE
  5
A
330
0
100
AcDbSymbolTable
 70
     1
100
AcDbDimStyleTable
 71
     1
340
65
  0
DIMSTYLE
105
65
102
{ACAD_REACTORS
330
6B7
330
6C3
330
6CF
330
6DE
330
6EA
330
6F7
330
93B
330
4FE
330
516
330
536
330
5C9
330
5E1
330
5FB
330
60A
330
60B
330
B2D
330
B2C
330
B45
330
B32
330
B4B
330
B51
330
B31
330
B5C
330
B4F
330
B56
330
B55
330
B54
330
B4E
330
B27
330
E6B
330
E61
330
E62
330
E5F
330
E6A
330
E5B
330
E60
330
E7A
330
E72
330
E75
330
E74
330
E76
330
E73
330
E46
330
E86
330
EA4
330
EB2
330
E8D
330
EAA
330
EAC
330
EB3
330
E82
330
EBC
330
EA7
330
EBF
330
EBD
330
EBE
330
E80
330
1376
330
1419
330
1418
330
1446
330
1445
330
1487
330
1486
102
}
330
A
100
AcDbSymbolTableRecord
100
AcDbDimStyleTableRecord
  2
DIM1
 70
     0
 40
10.0
 41
2.0
 42
1.0
 43
2.0
 44
0.0
 73
     0
 74
     0
 77
     1
140
2.5
141
0.0
147
1.0
172
     1
271
     0
279
     2
288
     1
340
4A
  0
ENDTAB
  0
TABLE
  2
BLOCK_RECORD
  5
1
330
0
100
AcDbSymbolTable
 70
    81
  0
BLOCK_RECORD
  5
18
330
1
100
AcDbSymbolTableRecord
100
AcDbBlockTableRecord
  2
*MODEL_SPACE
340
B01
  0
BLOCK_RECORD
  5
15
330
1
100
AcDbSymbolTableRecord
100
AcDbBlockTableRecord
  2
*PAPER_SPACE
340
B02
  0
BLOCK_RECORD
  5
1C
330
1
100
AcDbSymbolTableRecord
100
AcDbBlockTableRecord
  2
MASTERS
340
0
102
{BLKREFS
331
4DB
102
}
  0
BLOCK_RECORD
  5
1D
330
1
100
AcDbSymbolTableRecord
100
AcDbBlockTableRecord
  2
SYASEN
340
0
  0
BLOCK_RECORD
  5
1E
330
1
100
AcDbSymbolTableRecord
100
AcDbBlockTableRecord
  2
YA2
340
0
  0
BLOCK_RECORD
  5
1F
330
1
100
AcDbSymbolTableRecord
100
AcDbBlockTableRecord
  2
YA_N
340
0
102
{BLKREFS
331
74
102
}
  0
BLOCK_RECORD
  5
20
330
1
100
AcDbSymbolTableRecord
100
AcDbBlockTableRecord
  2
DOT
340
0
  0
BLOCK_RECORD
  5
21
330
1
100
AcDbSymbolTableRecord
100
AcDbBlockTableRecord
  2
ARROW
340
0
  0
BLOCK_RECORD
  5
22
330
1
100
AcDbSymbolTableRecord
100
AcDbBlockTableRecord
  2
YA3
340
0
  0
BLOCK_RECORD
  5
23
330
1
100
AcDbSymbolTableRecord
100
AcDbBlockTableRecord
  2
BORDER
340
0
  0
BLOCK_RECORD
  5
597
330
1
100
AcDbSymbolTableRecord
100
AcDbBlockTableRecord
  2
*D8
340
0
  0
BLOCK_RECORD
  5
5A3
330
1
100
AcDbSymbolTableRecord
100
AcDbBlockTableRecord
  2
*D9
340
0
  0
BLOCK_RECORD
  5
5AF
330
1
100
AcDbSymbolTableRecord
100
AcDbBlockTableRecord
  2
*D10
340
0
  0
BLOCK_RECORD
  5
5BD
330
1
100
AcDbSymbolTableRecord
100
AcDbBlockTableRecord
  2
*D11
340
0
  0
BLOCK_RECORD
  5
5D5
330
1
100
AcDbSymbolTableRecord
100
AcDbBlockTableRecord
  2
*D12
340
0
  0
BLOCK_RECORD
  5
5ED
330
1
100
AcDbSymbolTableRecord
100
AcDbBlockTableRecord
  2
*D13
340
0
  0
BLOCK_RECORD
  5
5FC
330
1
100
AcDbSymbolTableRecord
100
AcDbBlockTableRecord
  2
*D14
340
0
  0
BLOCK_RECORD
  5
60C
330
1
100
AcDbSymbolTableRecord
100
AcDbBlockTableRecord
  2
*D15
340
0
  0
BLOCK_RECORD
  5
6AB
330
1
100
AcDbSymbolTableRecord
100
AcDbBlockTableRecord
  2
*D16
340
0
  0
BLOCK_RECORD
  5
6B8
330
1
100
AcDbSymbolTableRecord
100
AcDbBlockTableRecord
  2
*D17
340
0
  0
BLOCK_RECORD
  5
6C4
330
1
100
AcDbSymbolTableRecord
100
AcDbBlockTableRecord
  2
*D18
340
0
  0
BLOCK_RECORD
  5
6D0
330
1
100
AcDbSymbolTableRecord
100
AcDbBlockTableRecord
  2
*D19
340
0
  0
BLOCK_RECORD
  5
6DF
330
1
100
AcDbSymbolTableRecord
100
AcDbBlockTableRecord
  2
*D20
340
0
  0
BLOCK_RECORD
  5
6EB
330
1
100
AcDbSymbolTableRecord
100
AcDbBlockTableRecord
  2
*D21
340
0
  0
BLOCK_RECORD
  5
92F
330
1
100
AcDbSymbolTableRecord
100
AcDbBlockTableRecord
  2
*D22
340
0
  0
BLOCK_RECORD
  5
948
330
1
100
AcDbSymbolTableRecord
100
AcDbBlockTableRecord
  2
A$C72BA1FAD
340
0
102
{BLKREFS
331
95B
102
}
  0
BLOCK_RECORD
  5
95A
330
1
100
AcDbSymbolTableRecord
100
AcDbBlockTableRecord
  2
A$C25B74F18
340
0
102
{BLKREFS
331
961
102
}
  0
BLOCK_RECORD
  5
960
330
1
100
AcDbSymbolTableRecord
100
AcDbBlockTableRecord
  2
A$C105B5721
340
0
102
{BLKREFS
331
965
102
}
  0
BLOCK_RECORD
  5
964
330
1
100
AcDbSymbolTableRecord
100
AcDbBlockTableRecord
  2
A$C0E9223DF
340
0
102
{BLKREFS
331
969
102
}
  0
BLOCK_RECORD
  5
968
330
1
100
AcDbSymbolTableRecord
100
AcDbBlockTableRecord
  2
A$C38392A7F
340
0
102
{BLKREFS
331
96D
102
}
  0
BLOCK_RECORD
  5
96C
330
1
100
AcDbSymbolTableRecord
100
AcDbBlockTableRecord
  2
A$C67384017
340
0
102
{BLKREFS
331
970
331
E47
102
}
  0
BLOCK_RECORD
  5
B07
330
1
100
AcDbSymbolTableRecord
100
AcDbBlockTableRecord
  2
A$C0FE41E00
340
0
102
{BLKREFS
331
B15
102
}
  0
BLOCK_RECORD
  5
B14
330
1
100
AcDbSymbolTableRecord
100
AcDbBlockTableRecord
  2
A$C371162DB
340
0
102
{BLKREFS
331
B19
102
}
  0
BLOCK_RECORD
  5
B18
330
1
100
AcDbSymbolTableRecord
100
AcDbBlockTableRecord
  2
A$C57A3340D
340
0
102
{BLKREFS
331
B23
331
E8A
102
}
  0
BLOCK_RECORD
  5
B72
330
1
100
AcDbSymbolTableRecord
100
AcDbBlockTableRecord
  2
*D32
340
0
  0
BLOCK_RECORD
  5
B7E
330
1
100
AcDbSymbolTableRecord
100
AcDbBlockTableRecord
  2
*D33
340
0
  0
BLOCK_RECORD
  5
B8A
330
1
100
AcDbSymbolTableRecord
100
AcDbBlockTableRecord
  2
*D34
340
0
  0
BLOCK_RECORD
  5
B96
330
1
100
AcDbSymbolTableRecord
100
AcDbBlockTableRecord
  2
*D35
340
0
  0
BLOCK_RECORD
  5
BA2
330
1
100
AcDbSymbolTableRecord
100
AcDbBlockTableRecord
  2
*D36
340
0
  0
BLOCK_RECORD
  5
BB0
330
1
100
AcDbSymbolTableRecord
100
AcDbBlockTableRecord
  2
*D37
340
0
  0
BLOCK_RECORD
  5
BBC
330
1
100
AcDbSymbolTableRecord
100
AcDbBlockTableRecord
  2
*D38
340
0
  0
BLOCK_RECORD
  5
BC8
330
1
100
AcDbSymbolTableRecord
100
AcDbBlockTableRecord
  2
*D39
340
0
  0
BLOCK_RECORD
  5
BD4
330
1
100
AcDbSymbolTableRecord
100
AcDbBlockTableRecord
  2
*D40
340
0
  0
BLOCK_RECORD
  5
BDF
330
1
100
AcDbSymbolTableRecord
100
AcDbBlockTableRecord
  2
*D41
340
0
  0
BLOCK_RECORD
  5
BEA
330
1
100
AcDbSymbolTableRecord
100
AcDbBlockTableRecord
  2
*D42
340
0
  0
BLOCK_RECORD
  5
BF7
330
1
100
AcDbSymbolTableRecord
100
AcDbBlockTableRecord
  2
*D43
340
0
  0
BLOCK_RECORD
  5
C02
330
1
100
AcDbSymbolTableRecord
100
AcDbBlockTableRecord
  2
*D44
340
0
  0
BLOCK_RECORD
  5
C0E
330
1
100
AcDbSymbolTableRecord
100
AcDbBlockTableRecord
  2
*D45
340
0
  0
BLOCK_RECORD
  5
ECC
330
1
100
AcDbSymbolTableRecord
100
AcDbBlockTableRecord
  2
*D46
340
0
  0
BLOCK_RECORD
  5
ED8
330
1
100
AcDbSymbolTableRecord
100
AcDbBlockTableRecord
  2
*D47
340
0
  0
BLOCK_RECORD
  5
EE4
330
1
100
AcDbSymbolTableRecord
100
AcDbBlockTableRecord
  2
*D48
340
0
  0
BLOCK_RECORD
  5
EF0
330
1
100
AcDbSymbolTableRecord
100
AcDbBlockTableRecord
  2
*D49
340
0
  0
BLOCK_RECORD
  5
EFC
330
1
100
AcDbSymbolTableRecord
100
AcDbBlockTableRecord
  2
*D50
340
0
  0
BLOCK_RECORD
  5
F0A
330
1
100
AcDbSymbolTableRecord
100
AcDbBlockTableRecord
  2
*D51
340
0
  0
BLOCK_RECORD
  5
F16
330
1
100
AcDbSymbolTableRecord
100
AcDbBlockTableRecord
  2
*D52
340
0
  0
BLOCK_RECORD
  5
F22
330
1
100
AcDbSymbolTableRecord
100
AcDbBlockTableRecord
  2
*D53
340
0
  0
BLOCK_RECORD
  5
F2E
330
1
100
AcDbSymbolTableRecord
100
AcDbBlockTableRecord
  2
*D54
340
0
  0
BLOCK_RECORD
  5
F39
330
1
100
AcDbSymbolTableRecord
100
AcDbBlockTableRecord
  2
*D55
340
0
  0
BLOCK_RECORD
  5
F44
330
1
100
AcDbSymbolTableRecord
100
AcDbBlockTableRecord
  2
*D56
340
0
  0
BLOCK_RECORD
  5
F51
330
1
100
AcDbSymbolTableRecord
100
AcDbBlockTableRecord
  2
*D57
340
0
  0
BLOCK_RECORD
  5
F5C
330
1
100
AcDbSymbolTableRecord
100
AcDbBlockTableRecord
  2
*D58
340
0
  0
BLOCK_RECORD
  5
F68
330
1
100
AcDbSymbolTableRecord
100
AcDbBlockTableRecord
  2
*D59
340
0
  0
BLOCK_RECORD
  5
F74
330
1
100
AcDbSymbolTableRecord
100
AcDbBlockTableRecord
  2
*D60
340
0
  0
BLOCK_RECORD
  5
F80
330
1
100
AcDbSymbolTableRecord
100
AcDbBlockTableRecord
  2
*D61
340
0
  0
BLOCK_RECORD
  5
F8C
330
1
100
AcDbSymbolTableRecord
100
AcDbBlockTableRecord
  2
*D62
340
0
  0
BLOCK_RECORD
  5
FA4
330
1
100
AcDbSymbolTableRecord
100
AcDbBlockTableRecord
  2
*D63
340
0
  0
BLOCK_RECORD
  5
FB0
330
1
100
AcDbSymbolTableRecord
100
AcDbBlockTableRecord
  2
*D64
340
0
  0
BLOCK_RECORD
  5
FBC
330
1
100
AcDbSymbolTableRecord
100
AcDbBlockTableRecord
  2
*D65
340
0
  0
BLOCK_RECORD
  5
FC8
330
1
100
AcDbSymbolTableRecord
100
AcDbBlockTableRecord
  2
*D66
340
0
  0
BLOCK_RECORD
  5
FD6
330
1
100
AcDbSymbolTableRecord
100
AcDbBlockTableRecord
  2
*D67
340
0
  0
BLOCK_RECORD
  5
FE2
330
1
100
AcDbSymbolTableRecord
100
AcDbBlockTableRecord
  2
*D68
340
0
  0
BLOCK_RECORD
  5
FED
330
1
100
AcDbSymbolTableRecord
100
AcDbBlockTableRecord
  2
*D69
340
0
  0
BLOCK_RECORD
  5
FF9
330
1
100
AcDbSymbolTableRecord
100
AcDbBlockTableRecord
  2
*D70
340
0
  0
BLOCK_RECORD
  5
1004
330
1
100
AcDbSymbolTableRecord
100
AcDbBlockTableRecord
  2
*D71
340
0
  0
BLOCK_RECORD
  5
1011
330
1
100
AcDbSymbolTableRecord
100
AcDbBlockTableRecord
  2
*D72
340
0
  0
BLOCK_RECORD
  5
101C
330
1
100
AcDbSymbolTableRecord
100
AcDbBlockTableRecord
  2
*D73
340
0
  0
BLOCK_RECORD
  5
1377
330
1
100
AcDbSymbolTableRecord
100
AcDbBlockTableRecord
  2
*D74
340
0
  0
BLOCK_RECORD
  5
141A
330
1
100
AcDbSymbolTableRecord
100
AcDbBlockTableRecord
  2
*D75
340
0
  0
BLOCK_RECORD
  5
1426
330
1
100
AcDbSymbolTableRecord
100
AcDbBlockTableRecord
  2
*D76
340
0
  0
BLOCK_RECORD
  5
1452
330
1
100
AcDbSymbolTableRecord
100
AcDbBlockTableRecord
  2
*D77
340
0
  0
BLOCK_RECORD
  5
145E
330
1
100
AcDbSymbolTableRecord
100
AcDbBlockTableRecord
  2
*D78
340
0
  0
BLOCK_RECORD
  5
1489
330
1
100
AcDbSymbolTableRecord
100
AcDbBlockTableRecord
  2
*D79
340
0
  0
BLOCK_RECORD
  5
1495
330
1
100
AcDbSymbolTableRecord
100
AcDbBlockTableRecord
  2
*D80
340
0
  0
ENDTAB
  0
ENDSEC
  0
SECTION
  2
BLOCKS
  0
BLOCK
  5
71
330
18
100
AcDbEntity
  8
0
100
AcDbBlockBegin
  2
*MODEL_SPACE
 70
     0
 10
0.0
 20
0.0
 30
0.0
  3
*MODEL_SPACE
  1

  0
ENDBLK
  5
72
330
18
100
AcDbEntity
  8
0
100
AcDbBlockEnd
  0
BLOCK
  5
6F
330
15
100
AcDbEntity
 67
     1
  8
0
100
AcDbBlockBegin
  2
*PAPER_SPACE
 70
     0
 10
0.0
 20
0.0
 30
0.0
  3
*PAPER_SPACE
  1

  0
ENDBLK
  5
70
330
15
100
AcDbEntity
 67
     1
  8
0
100
AcDbBlockEnd
  0
BLOCK
  5
73
330
1C
100
AcDbEntity
  8
0
100
AcDbBlockBegin
  2
MASTERS
 70
     0
 10
0.0
 20
0.0
 30
0.0
  3
MASTERS
  1

  0
INSERT
  5
74
330
1C
100
AcDbEntity
  8
0
100
AcDbBlockReference
  2
YA_N
 10
6.0
 20
5.0
 30
0.0
  0
ENDBLK
  5
75
330
1C
100
AcDbEntity
  8
0
100
AcDbBlockEnd
  0
BLOCK
  5
76
330
1D
100
AcDbEntity
  8
0
100
AcDbBlockBegin
  2
SYASEN
 70
     0
 10
0.0
 20
0.0
 30
0.0
  3
SYASEN
  1

  0
LINE
  5
77
330
1D
100
AcDbEntity
  8
0
100
AcDbLine
 10
0.0
 20
0.0
 30
0.0
 11
-1.0
 21
0.0
 31
0.0
  0
LINE
  5
78
330
1D
100
AcDbEntity
  8
0
100
AcDbLine
 10
0.5
 20
0.5
 30
0.0
 11
-0.5
 21
-0.5
 31
0.0
  0
ENDBLK
  5
79
330
1D
100
AcDbEntity
  8
0
100
AcDbBlockEnd
  0
BLOCK
  5
7A
330
1E
100
AcDbEntity
  8
0
100
AcDbBlockBegin
  2
YA2
 70
     0
 10
0.0
 20
0.0
 30
0.0
  3
YA2
  1

  0
LINE
  5
7B
330
1E
100
AcDbEntity
  8
0
100
AcDbLine
 10
-1.0
 20
0.0
 30
0.0
 11
0.0
 21
0.0
 31
0.0
  0
ENDBLK
  5
7C
330
1E
100
AcDbEntity
  8
0
100
AcDbBlockEnd
  0
BLOCK
  5
7D
330
1F
100
AcDbEntity
  8
0
100
AcDbBlockBegin
  2
YA_N
 70
     0
 10
0.0
 20
0.0
 30
0.0
  3
YA_N
  1

  0
ENDBLK
  5
7E
330
1F
100
AcDbEntity
  8
0
100
AcDbBlockEnd
  0
BLOCK
  5
7F
330
20
100
AcDbEntity
  8
0
100
AcDbBlockBegin
  2
DOT
 70
     0
 10
0.0
 20
0.0
 30
0.0
  3
DOT
  1

  0
LWPOLYLINE
  5
80
330
20
100
AcDbEntity
  8
0
100
AcDbPolyline
 90
        2
 70
     1
 43
0.25
 10
-0.125
 20
0.0
 42
1.0
 10
0.125
 20
0.0
 42
1.0
  0
LINE
  5
84
330
20
100
AcDbEntity
  8
0
100
AcDbLine
 10
-1.0
 20
0.0
 30
0.0
 11
-0.25
 21
0.0
 31
0.0
  0
ENDBLK
  5
85
330
20
100
AcDbEntity
  8
0
100
AcDbBlockEnd
  0
BLOCK
  5
86
330
21
100
AcDbEntity
  8
0
100
AcDbBlockBegin
  2
ARROW
 70
     0
 10
0.0
 20
0.0
 30
0.0
  3
ARROW
  1

  0
LINE
  5
87
330
21
100
AcDbEntity
  8
0
100
AcDbLine
 10
-0.9999999999999991
 20
0.1666666667000003
 30
0.0
 11
0.0
 21
0.0
 31
0.0
  0
LINE
  5
88
330
21
100
AcDbEntity
  8
0
100
AcDbLine
 10
-0.9999999999999991
 20
0.0
 30
0.0
 11
0.0
 21
0.0
 31
0.0
  0
LINE
  5
89
330
21
100
AcDbEntity
  8
0
100
AcDbLine
 10
-0.9999999999999991
 20
-0.1666666667000003
 30
0.0
 11
0.0
 21
0.0
 31
0.0
  0
ENDBLK
  5
8A
330
21
100
AcDbEntity
  8
0
100
AcDbBlockEnd
  0
BLOCK
  5
8B
330
22
100
AcDbEntity
  8
0
100
AcDbBlockBegin
  2
YA3
 70
     0
 10
0.0
 20
0.0
 30
0.0
  3
YA3
  1

  0
SOLID
  5
8C
330
22
100
AcDbEntity
  8
0
100
AcDbTrace
 10
1.0
 20
-0.1666666666666665
 30
0.0
 11
1.0
 21
0.166666666666667
 31
0.0
 12
0.0
 22
0.0
 32
0.0
 13
0.0
 23
0.0
 33
0.0
  0
ENDBLK
  5
8D
330
22
100
AcDbEntity
  8
0
100
AcDbBlockEnd
  0
BLOCK
  5
8E
330
23
100
AcDbEntity
  8
0
100
AcDbBlockBegin
  2
BORDER
 70
     0
 10
0.0
 20
0.0
 30
0.0
  3
BORDER
  1

  0
LINE
  5
8F
330
23
100
AcDbEntity
  8
0
100
AcDbLine
 10
0.0
 20
0.0
 30
0.0
 11
1.00000000000004
 21
0.0
 31
0.0
  0
LINE
  5
90
330
23
100
AcDbEntity
  8
0
100
AcDbLine
 10
1.00000000000004
 20
0.0
 30
0.0
 11
1.00000000000004
 21
1.00000000000004
 31
0.0
  0
LINE
  5
91
330
23
100
AcDbEntity
  8
0
100
AcDbLine
 10
1.00000000000004
 20
1.00000000000004
 30
0.0
 11
0.0
 21
1.00000000000004
 31
0.0
  0
LINE
  5
92
330
23
100
AcDbEntity
  8
0
100
AcDbLine
 10
0.0
 20
1.00000000000004
 30
0.0
 11
0.0
 21
0.0
 31
0.0
  0
ENDBLK
  5
93
330
23
100
AcDbEntity
  8
0
100
AcDbBlockEnd
  0
BLOCK
  5
A5C
330
597
100
AcDbEntity
  8
0
100
AcDbBlockBegin
  2
*D8
 70
     1
 10
0.0
 20
0.0
 30
0.0
  3
*D8
  1

  0
LINE
  5
15F1
330
597
100
AcDbEntity
  8
SUNPOU
 62
     0
370
    -2
100
AcDbLine
 10
521.4495744750792
 20
1046.397909909505
 30
0.0
 11
521.4495744750792
 21
912.8304726945071
 31
0.0
  0
LINE
  5
15F2
330
597
100
AcDbEntity
  8
SUNPOU
 62
     0
370
    -2
100
AcDbLine
 10
1061.449574475079
 20
1046.397909909505
 30
0.0
 11
1061.449574475079
 21
912.8304726945071
 31
0.0
  0
LINE
  5
15F3
330
597
100
AcDbEntity
  8
SUNPOU
 62
     0
370
    -2
100
AcDbLine
 10
541.4495744750793
 20
912.8304726945071
 30
0.0
 11
1041.449574475079
 21
912.8304726945071
 31
0.0
  0
SOLID
  5
15F4
330
597
100
AcDbEntity
  8
SUNPOU
 62
     0
100
AcDbTrace
 10
541.4495744750793
 20
916.1638060278404
 30
0.0
 11
541.4495744750793
 21
909.4971393611738
 31
0.0
 12
521.4495744750792
 22
912.8304726945071
 32
0.0
 13
521.4495744750792
 23
912.8304726945071
 33
0.0
  0
SOLID
  5
15F5
330
597
100
AcDbEntity
  8
SUNPOU
 62
     0
100
AcDbTrace
 10
1041.449574475079
 20
916.1638060278404
 30
0.0
 11
1041.449574475079
 21
909.4971393611738
 31
0.0
 12
1061.449574475079
 22
912.8304726945071
 32
0.0
 13
1061.449574475079
 23
912.8304726945071
 33
0.0
  0
MTEXT
  5
15F6
330
597
100
AcDbEntity
  8
SUNPOU
 62
     0
100
AcDbMText
 10
791.4495744750792
 20
935.330472694507
 30
0.0
 40
25.0
 41
0.0
 71
     5
 72
     1
  1
\A1;540
  7
BIGFONT
 73
     1
 44
1.0
  0
POINT
  5
15F7
330
597
100
AcDbEntity
  8
DEFPOINTS
 62
     0
100
AcDbPoint
 10
521.4495744750792
 20
1056.397909909505
 30
0.0
  0
POINT
  5
15F8
330
597
100
AcDbEntity
  8
DEFPOINTS
 62
     0
100
AcDbPoint
 10
1061.449574475079
 20
1056.397909909505
 30
0.0
  0
POINT
  5
15F9
330
597
100
AcDbEntity
  8
DEFPOINTS
 62
     0
100
AcDbPoint
 10
1061.449574475079
 20
912.8304726945071
 30
0.0
  0
ENDBLK
  5
A66
330
597
100
AcDbEntity
  8
0
100
AcDbBlockEnd
  0
BLOCK
  5
AAC
330
5A3
100
AcDbEntity
  8
0
100
AcDbBlockBegin
  2
*D9
 70
     1
 10
0.0
 20
0.0
 30
0.0
  3
*D9
  1

  0
LINE
  5
1666
330
5A3
100
AcDbEntity
  8
SUNPOU
 62
     0
370
    -2
100
AcDbLine
 10
641.4495744750793
 20
1617.133318450695
 30
0.0
 11
641.4495744750793
 21
1657.133318450696
 31
0.0
  0
LINE
  5
1667
330
5A3
100
AcDbEntity
  8
SUNPOU
 62
     0
370
    -2
100
AcDbLine
 10
941.4495744750793
 20
1617.133318450695
 30
0.0
 11
941.4495744750793
 21
1657.133318450696
 31
0.0
  0
LINE
  5
1668
330
5A3
100
AcDbEntity
  8
SUNPOU
 62
     0
370
    -2
100
AcDbLine
 10
661.4495744750793
 20
1657.133318450696
 30
0.0
 11
921.4495744750793
 21
1657.133318450696
 31
0.0
  0
SOLID
  5
1669
330
5A3
100
AcDbEntity
  8
SUNPOU
 62
     0
100
AcDbTrace
 10
661.4495744750793
 20
1660.466651784029
 30
0.0
 11
661.4495744750793
 21
1653.799985117362
 31
0.0
 12
641.4495744750793
 22
1657.133318450696
 32
0.0
 13
641.4495744750793
 23
1657.133318450696
 33
0.0
  0
SOLID
  5
166A
330
5A3
100
AcDbEntity
  8
SUNPOU
 62
     0
100
AcDbTrace
 10
921.4495744750793
 20
1660.466651784029
 30
0.0
 11
921.4495744750793
 21
1653.799985117362
 31
0.0
 12
941.4495744750793
 22
1657.133318450696
 32
0.0
 13
941.4495744750793
 23
1657.133318450696
 33
0.0
  0
MTEXT
  5
166B
330
5A3
100
AcDbEntity
  8
SUNPOU
 62
     0
100
AcDbMText
 10
791.4495744750793
 20
1679.633318450695
 30
0.0
 40
25.0
 41
0.0
 71
     5
 72
     1
  1
\A1;300
  7
BIGFONT
 73
     1
 44
1.0
  0
POINT
  5
166C
330
5A3
100
AcDbEntity
  8
DEFPOINTS
 62
     0
100
AcDbPoint
 10
641.4495744750793
 20
1607.133318450695
 30
0.0
  0
POINT
  5
166D
330
5A3
100
AcDbEntity
  8
DEFPOINTS
 62
     0
100
AcDbPoint
 10
941.4495744750793
 20
1607.133318450696
 30
0.0
  0
POINT
  5
166E
330
5A3
100
AcDbEntity
  8
DEFPOINTS
 62
     0
100
AcDbPoint
 10
941.4495744750793
 20
1657.133318450696
 30
0.0
  0
ENDBLK
  5
AB6
330
5A3
100
AcDbEntity
  8
0
100
AcDbBlockEnd
  0
BLOCK
  5
A72
330
5AF
100
AcDbEntity
  8
0
100
AcDbBlockBegin
  2
*D10
 70
     1
 10
0.0
 20
0.0
 30
0.0
  3
*D10
  1

  0
LINE
  5
1642
330
5AF
100
AcDbEntity
  8
SUNPOU
 62
     0
370
    -2
100
AcDbLine
 10
661.4495744750793
 20
1267.133318450696
 30
0.0
 11
661.4495744750793
 21
1357.133318450695
 31
0.0
  0
LINE
  5
1643
330
5AF
100
AcDbEntity
  8
SUNPOU
 62
     0
370
    -2
100
AcDbLine
 10
921.4495744750793
 20
1267.133318450696
 30
0.0
 11
921.4495744750793
 21
1357.133318450695
 31
0.0
  0
LINE
  5
1644
330
5AF
100
AcDbEntity
  8
SUNPOU
 62
     0
370
    -2
100
AcDbLine
 10
681.4495744750793
 20
1357.133318450695
 30
0.0
 11
901.4495744750792
 21
1357.133318450695
 31
0.0
  0
SOLID
  5
1645
330
5AF
100
AcDbEntity
  8
SUNPOU
 62
     0
100
AcDbTrace
 10
681.4495744750793
 20
1360.466651784029
 30
0.0
 11
681.4495744750793
 21
1353.799985117362
 31
0.0
 12
661.4495744750793
 22
1357.133318450695
 32
0.0
 13
661.4495744750793
 23
1357.133318450695
 33
0.0
  0
SOLID
  5
1646
330
5AF
100
AcDbEntity
  8
SUNPOU
 62
     0
100
AcDbTrace
 10
901.4495744750792
 20
1360.466651784029
 30
0.0
 11
901.4495744750792
 21
1353.799985117362
 31
0.0
 12
921.4495744750793
 22
1357.133318450695
 32
0.0
 13
921.4495744750793
 23
1357.133318450695
 33
0.0
  0
MTEXT
  5
1647
330
5AF
100
AcDbEntity
  8
SUNPOU
 62
     0
100
AcDbMText
 10
791.4495744750793
 20
1379.633318450696
 30
0.0
 40
25.0
 41
0.0
 71
     5
 72
     1
  1
\A1;260
  7
BIGFONT
 73
     1
 44
1.0
  0
POINT
  5
1648
330
5AF
100
AcDbEntity
  8
DEFPOINTS
 62
     0
100
AcDbPoint
 10
661.4495744750793
 20
1257.133318450695
 30
0.0
  0
POINT
  5
1649
330
5AF
100
AcDbEntity
  8
DEFPOINTS
 62
     0
100
AcDbPoint
 10
921.4495744750793
 20
1257.133318450695
 30
0.0
  0
POINT
  5
164A
330
5AF
100
AcDbEntity
  8
DEFPOINTS
 62
     0
100
AcDbPoint
 10
921.4495744750793
 20
1357.133318450695
 30
0.0
  0
ENDBLK
  5
A7C
330
5AF
100
AcDbEntity
  8
0
100
AcDbBlockEnd
  0
BLOCK
  5
A93
330
5BD
100
AcDbEntity
  8
0
100
AcDbBlockBegin
  2
*D11
 70
     1
 10
0.0
 20
0.0
 30
0.0
  3
*D11
  1

  0
LINE
  5
1654
330
5BD
100
AcDbEntity
  8
SUNPOU
 62
     0
370
    -2
100
AcDbLine
 10
813.7276950947917
 20
1257.133318450695
 30
0.0
 11
823.7276950947917
 21
1257.133318450695
 31
0.0
  0
LINE
  5
1655
330
5BD
100
AcDbEntity
  8
SUNPOU
 62
     0
370
    -2
100
AcDbLine
 10
813.7276950947917
 20
1197.133318450695
 30
0.0
 11
823.7276950947917
 21
1197.133318450695
 31
0.0
  0
LINE
  5
1656
330
5BD
100
AcDbEntity
  8
SUNPOU
 62
     0
370
    -2
100
AcDbLine
 10
823.7276950947917
 20
1237.133318450696
 30
0.0
 11
823.7276950947917
 21
1217.133318450695
 31
0.0
  0
MTEXT
  5
1657
330
5BD
100
AcDbEntity
  8
SUNPOU
 62
     0
100
AcDbMText
 10
771.2276950947916
 20
1227.133318450696
 30
0.0
 40
25.0
 41
0.0
 71
     5
 72
     1
  1
\A1;60
  7
BIGFONT
 11
0.0000000000000001
 21
1.0
 31
0.0
 73
     1
 44
1.0
  0
SOLID
  5
1658
330
5BD
100
AcDbEntity
  8
SUNPOU
 62
     0
100
AcDbTrace
 10
820.3943617614582
 20
1237.133318450696
 30
0.0
 11
827.061028428125
 21
1237.133318450696
 31
0.0
 12
823.7276950947917
 22
1257.133318450695
 32
0.0
 13
823.7276950947917
 23
1257.133318450695
 33
0.0
  0
SOLID
  5
1659
330
5BD
100
AcDbEntity
  8
SUNPOU
 62
     0
100
AcDbTrace
 10
820.3943617614582
 20
1217.133318450695
 30
0.0
 11
827.061028428125
 21
1217.133318450695
 31
0.0
 12
823.7276950947917
 22
1197.133318450695
 32
0.0
 13
823.7276950947917
 23
1197.133318450695
 33
0.0
  0
POINT
  5
165A
330
5BD
100
AcDbEntity
  8
DEFPOINTS
 62
     0
100
AcDbPoint
 10
823.7276950947917
 20
1257.133318450695
 30
0.0
  0
POINT
  5
165B
330
5BD
100
AcDbEntity
  8
DEFPOINTS
 62
     0
100
AcDbPoint
 10
823.7276950947917
 20
1197.133318450695
 30
0.0
  0
POINT
  5
165C
330
5BD
100
AcDbEntity
  8
DEFPOINTS
 62
     0
100
AcDbPoint
 10
823.7276950947917
 20
1197.133318450695
 30
0.0
  0
ENDBLK
  5
A9D
330
5BD
100
AcDbEntity
  8
0
100
AcDbBlockEnd
  0
BLOCK
  5
A7D
330
5D5
100
AcDbEntity
  8
0
100
AcDbBlockBegin
  2
*D12
 70
     1
 10
0.0
 20
0.0
 30
0.0
  3
*D12
  1

  0
LINE
  5
1617
330
5D5
100
AcDbEntity
  8
SUNPOU
 62
     0
370
    -2
100
AcDbLine
 10
813.7276950947917
 20
1257.133318450695
 30
0.0
 11
823.7276950947915
 21
1257.133318450695
 31
0.0
  0
LINE
  5
1618
330
5D5
100
AcDbEntity
  8
SUNPOU
 62
     0
370
    -2
100
AcDbLine
 10
813.7276950947917
 20
1557.133318450695
 30
0.0
 11
823.7276950947917
 21
1557.133318450695
 31
0.0
  0
LINE
  5
1619
330
5D5
100
AcDbEntity
  8
SUNPOU
 62
     0
370
    -2
100
AcDbLine
 10
823.7276950947915
 20
1277.133318450696
 30
0.0
 11
823.7276950947917
 21
1537.133318450695
 31
0.0
  0
MTEXT
  5
161A
330
5D5
100
AcDbEntity
  8
SUNPOU
 62
     0
100
AcDbMText
 10
801.2276950947917
 20
1432.7907979734
 30
0.0
 40
25.0
 41
0.0
 71
     5
 72
     1
  1
\A1;300
  7
BIGFONT
 11
0.0000000000000001
 21
1.0
 31
0.0
 73
     1
 44
1.0
  0
SOLID
  5
161B
330
5D5
100
AcDbEntity
  8
SUNPOU
 62
     0
100
AcDbTrace
 10
820.3943617614582
 20
1277.133318450696
 30
0.0
 11
827.0610284281248
 21
1277.133318450696
 31
0.0
 12
823.7276950947915
 22
1257.133318450695
 32
0.0
 13
823.7276950947915
 23
1257.133318450695
 33
0.0
  0
SOLID
  5
161C
330
5D5
100
AcDbEntity
  8
SUNPOU
 62
     0
100
AcDbTrace
 10
820.3943617614582
 20
1537.133318450695
 30
0.0
 11
827.061028428125
 21
1537.133318450695
 31
0.0
 12
823.7276950947917
 22
1557.133318450695
 32
0.0
 13
823.7276950947917
 23
1557.133318450695
 33
0.0
  0
POINT
  5
161D
330
5D5
100
AcDbEntity
  8
DEFPOINTS
 62
     0
100
AcDbPoint
 10
823.7276950947917
 20
1257.133318450695
 30
0.0
  0
POINT
  5
161E
330
5D5
100
AcDbEntity
  8
DEFPOINTS
 62
     0
100
AcDbPoint
 10
823.7276950947917
 20
1557.133318450695
 30
0.0
  0
POINT
  5
161F
330
5D5
100
AcDbEntity
  8
DEFPOINTS
 62
     0
100
AcDbPoint
 10
823.7276950947917
 20
1557.133318450695
 30
0.0
  0
ENDBLK
  5
A87
330
5D5
100
AcDbEntity
  8
0
100
AcDbBlockEnd
  0
BLOCK
  5
A9E
330
5ED
100
AcDbEntity
  8
0
100
AcDbBlockBegin
  2
*D13
 70
     1
 10
0.0
 20
0.0
 30
0.0
  3
*D13
  1

  0
LINE
  5
160C
330
5ED
100
AcDbEntity
  8
SUNPOU
 62
     0
370
    -2
100
AcDbLine
 10
813.7276950947917
 20
1557.133318450695
 30
0.0
 11
823.7276950947917
 21
1557.133318450695
 31
0.0
  0
LINE
  5
160D
330
5ED
100
AcDbEntity
  8
SUNPOU
 62
     0
370
    -2
100
AcDbLine
 10
813.7276950947917
 20
1607.133318450696
 30
0.0
 11
823.7276950947917
 21
1607.133318450696
 31
0.0
  0
LINE
  5
160E
330
5ED
100
AcDbEntity
  8
SUNPOU
 62
     0
370
    -2
100
AcDbLine
 10
823.7276950947917
 20
1537.133318450695
 30
0.0
 11
823.7276950947917
 21
1517.133318450695
 31
0.0
  0
LINE
  5
160F
330
5ED
100
AcDbEntity
  8
SUNPOU
 62
     0
370
    -2
100
AcDbLine
 10
823.7276950947917
 20
1627.133318450695
 30
0.0
 11
823.7276950947917
 21
1647.133318450696
 31
0.0
  0
MTEXT
  5
1610
330
5ED
100
AcDbEntity
  8
SUNPOU
 62
     0
100
AcDbMText
 10
771.2276950947914
 20
1582.133318450696
 30
0.0
 40
25.0
 41
0.0
 71
     5
 72
     1
  1
\A1;50
  7
BIGFONT
 11
0.0000000000000001
 21
1.0
 31
0.0
 73
     1
 44
1.0
  0
LINE
  5
1611
330
5ED
100
AcDbEntity
  8
SUNPOU
 62
     0
370
    -2
100
AcDbLine
 10
823.7276950947917
 20
1557.133318450695
 30
0.0
 11
823.7276950947917
 21
1607.133318450696
 31
0.0
  0
SOLID
  5
1612
330
5ED
100
AcDbEntity
  8
SUNPOU
 62
     0
100
AcDbTrace
 10
820.3943617614582
 20
1537.133318450695
 30
0.0
 11
827.061028428125
 21
1537.133318450695
 31
0.0
 12
823.7276950947917
 22
1557.133318450695
 32
0.0
 13
823.7276950947917
 23
1557.133318450695
 33
0.0
  0
SOLID
  5
1613
330
5ED
100
AcDbEntity
  8
SUNPOU
 62
     0
100
AcDbTrace
 10
820.3943617614582
 20
1627.133318450695
 30
0.0
 11
827.061028428125
 21
1627.133318450695
 31
0.0
 12
823.7276950947917
 22
1607.133318450696
 32
0.0
 13
823.7276950947917
 23
1607.133318450696
 33
0.0
  0
POINT
  5
1614
330
5ED
100
AcDbEntity
  8
DEFPOINTS
 62
     0
100
AcDbPoint
 10
823.7276950947917
 20
1557.133318450695
 30
0.0
  0
POINT
  5
1615
330
5ED
100
AcDbEntity
  8
DEFPOINTS
 62
     0
100
AcDbPoint
 10
823.7276950947917
 20
1607.133318450696
 30
0.0
  0
POINT
  5
1616
330
5ED
100
AcDbEntity
  8
DEFPOINTS
 62
     0
100
AcDbPoint
 10
823.7276950947917
 20
1607.133318450696
 30
0.0
  0
ENDBLK
  5
AAB
330
5ED
100
AcDbEntity
  8
0
100
AcDbBlockEnd
  0
BLOCK
  5
A88
330
5FC
100
AcDbEntity
  8
0
100
AcDbBlockBegin
  2
*D14
 70
     1
 10
0.0
 20
0.0
 30
0.0
  3
*D14
  1

  0
LINE
  5
165D
330
5FC
100
AcDbEntity
  8
SUNPOU
 62
     0
370
    -2
100
AcDbLine
 10
921.4495744750793
 20
1267.133318450696
 30
0.0
 11
921.4495744750793
 21
1357.133318450695
 31
0.0
  0
LINE
  5
165E
330
5FC
100
AcDbEntity
  8
SUNPOU
 62
     0
370
    -2
100
AcDbLine
 10
981.4495744750793
 20
1267.133318450696
 30
0.0
 11
981.4495744750793
 21
1357.133318450695
 31
0.0
  0
LINE
  5
165F
330
5FC
100
AcDbEntity
  8
SUNPOU
 62
     0
370
    -2
100
AcDbLine
 10
941.4495744750793
 20
1357.133318450695
 30
0.0
 11
961.4495744750794
 21
1357.133318450695
 31
0.0
  0
MTEXT
  5
1660
330
5FC
100
AcDbEntity
  8
SUNPOU
 62
     0
100
AcDbMText
 10
951.4495744750792
 20
1384.633318450696
 30
0.0
 40
25.0
 41
0.0
 71
     5
 72
     1
  1
\A1;60
  7
BIGFONT
 73
     1
 44
1.0
  0
SOLID
  5
1661
330
5FC
100
AcDbEntity
  8
SUNPOU
 62
     0
100
AcDbTrace
 10
941.4495744750793
 20
1360.466651784029
 30
0.0
 11
941.4495744750793
 21
1353.799985117362
 31
0.0
 12
921.4495744750793
 22
1357.133318450695
 32
0.0
 13
921.4495744750793
 23
1357.133318450695
 33
0.0
  0
SOLID
  5
1662
330
5FC
100
AcDbEntity
  8
SUNPOU
 62
     0
100
AcDbTrace
 10
961.4495744750794
 20
1360.466651784029
 30
0.0
 11
961.4495744750794
 21
1353.799985117362
 31
0.0
 12
981.4495744750793
 22
1357.133318450695
 32
0.0
 13
981.4495744750793
 23
1357.133318450695
 33
0.0
  0
POINT
  5
1663
330
5FC
100
AcDbEntity
  8
DEFPOINTS
 62
     0
100
AcDbPoint
 10
921.4495744750793
 20
1257.133318450695
 30
0.0
  0
POINT
  5
1664
330
5FC
100
AcDbEntity
  8
DEFPOINTS
 62
     0
100
AcDbPoint
 10
981.4495744750793
 20
1257.133318450695
 30
0.0
  0
POINT
  5
1665
330
5FC
100
AcDbEntity
  8
DEFPOINTS
 62
     0
100
AcDbPoint
 10
981.4495744750793
 20
1357.133318450695
 30
0.0
  0
ENDBLK
  5
A92
330
5FC
100
AcDbEntity
  8
0
100
AcDbBlockEnd
  0
BLOCK
  5
A67
330
60C
100
AcDbEntity
  8
0
100
AcDbBlockBegin
  2
*D15
 70
     1
 10
0.0
 20
0.0
 30
0.0
  3
*D15
  1

  0
LINE
  5
164B
330
60C
100
AcDbEntity
  8
SUNPOU
 62
     0
370
    -2
100
AcDbLine
 10
661.4495744750793
 20
1267.133318450696
 30
0.0
 11
661.4495744750793
 21
1357.133318450695
 31
0.0
  0
LINE
  5
164C
330
60C
100
AcDbEntity
  8
SUNPOU
 62
     0
370
    -2
100
AcDbLine
 10
601.4495744750793
 20
1267.133318450696
 30
0.0
 11
601.4495744750793
 21
1357.133318450695
 31
0.0
  0
LINE
  5
164D
330
60C
100
AcDbEntity
  8
SUNPOU
 62
     0
370
    -2
100
AcDbLine
 10
641.4495744750793
 20
1357.133318450695
 30
0.0
 11
621.4495744750792
 21
1357.133318450695
 31
0.0
  0
MTEXT
  5
164E
330
60C
100
AcDbEntity
  8
SUNPOU
 62
     0
100
AcDbMText
 10
631.4495744750793
 20
1384.633318450696
 30
0.0
 40
25.0
 41
0.0
 71
     5
 72
     1
  1
\A1;60
  7
BIGFONT
 73
     1
 44
1.0
  0
SOLID
  5
164F
330
60C
100
AcDbEntity
  8
SUNPOU
 62
     0
100
AcDbTrace
 10
641.4495744750793
 20
1360.466651784029
 30
0.0
 11
641.4495744750793
 21
1353.799985117362
 31
0.0
 12
661.4495744750793
 22
1357.133318450695
 32
0.0
 13
661.4495744750793
 23
1357.133318450695
 33
0.0
  0
SOLID
  5
1650
330
60C
100
AcDbEntity
  8
SUNPOU
 62
     0
100
AcDbTrace
 10
621.4495744750792
 20
1360.466651784029
 30
0.0
 11
621.4495744750792
 21
1353.799985117362
 31
0.0
 12
601.4495744750793
 22
1357.133318450695
 32
0.0
 13
601.4495744750793
 23
1357.133318450695
 33
0.0
  0
POINT
  5
1651
330
60C
100
AcDbEntity
  8
DEFPOINTS
 62
     0
100
AcDbPoint
 10
661.4495744750793
 20
1257.133318450695
 30
0.0
  0
POINT
  5
1652
330
60C
100
AcDbEntity
  8
DEFPOINTS
 62
     0
100
AcDbPoint
 10
601.4495744750793
 20
1257.133318450695
 30
0.0
  0
POINT
  5
1653
330
60C
100
AcDbEntity
  8
DEFPOINTS
 62
     0
100
AcDbPoint
 10
601.4495744750793
 20
1357.133318450695
 30
0.0
  0
ENDBLK
  5
A71
330
60C
100
AcDbEntity
  8
0
100
AcDbBlockEnd
  0
BLOCK
  5
A1B
330
6AB
100
AcDbEntity
  8
0
100
AcDbBlockBegin
  2
*D16
 70
     1
 10
0.0
 20
0.0
 30
0.0
  3
*D16
  1

  0
LINE
  5
1603
330
6AB
100
AcDbEntity
  8
SUNPOU
 62
     0
370
    -2
100
AcDbLine
 10
1078.254063916892
 20
1607.133318450696
 30
0.0
 11
1246.642103097971
 21
1607.133318450696
 31
0.0
  0
LINE
  5
1604
330
6AB
100
AcDbEntity
  8
SUNPOU
 62
     0
370
    -2
100
AcDbLine
 10
1128.254063916892
 20
1457.133318450696
 30
0.0
 11
1246.642103097971
 21
1457.133318450696
 31
0.0
  0
LINE
  5
1605
330
6AB
100
AcDbEntity
  8
SUNPOU
 62
     0
370
    -2
100
AcDbLine
 10
1246.642103097971
 20
1587.133318450695
 30
0.0
 11
1246.642103097971
 21
1477.133318450696
 31
0.0
  0
SOLID
  5
1606
330
6AB
100
AcDbEntity
  8
SUNPOU
 62
     0
100
AcDbTrace
 10
1243.308769764638
 20
1587.133318450695
 30
0.0
 11
1249.975436431304
 21
1587.133318450695
 31
0.0
 12
1246.642103097971
 22
1607.133318450696
 32
0.0
 13
1246.642103097971
 23
1607.133318450696
 33
0.0
  0
SOLID
  5
1607
330
6AB
100
AcDbEntity
  8
SUNPOU
 62
     0
100
AcDbTrace
 10
1243.308769764637
 20
1477.133318450696
 30
0.0
 11
1249.975436431304
 21
1477.133318450696
 31
0.0
 12
1246.642103097971
 22
1457.133318450696
 32
0.0
 13
1246.642103097971
 23
1457.133318450696
 33
0.0
  0
MTEXT
  5
1608
330
6AB
100
AcDbEntity
  8
SUNPOU
 62
     0
100
AcDbMText
 10
1224.14210309797
 20
1532.133318450696
 30
0.0
 40
25.0
 41
0.0
 71
     5
 72
     1
  1
\A1;150
  7
BIGFONT
 11
0.0000000000000001
 21
1.0
 31
0.0
 73
     1
 44
1.0
  0
POINT
  5
1609
330
6AB
100
AcDbEntity
  8
DEFPOINTS
 62
     0
100
AcDbPoint
 10
1068.254063916892
 20
1607.133318450696
 30
0.0
  0
POINT
  5
160A
330
6AB
100
AcDbEntity
  8
DEFPOINTS
 62
     0
100
AcDbPoint
 10
1118.254063916892
 20
1457.133318450696
 30
0.0
  0
POINT
  5
160B
330
6AB
100
AcDbEntity
  8
DEFPOINTS
 62
     0
100
AcDbPoint
 10
1246.642103097971
 20
1457.133318450696
 30
0.0
  0
ENDBLK
  5
A25
330
6AB
100
AcDbEntity
  8
0
100
AcDbBlockEnd
  0
BLOCK
  5
A26
330
6B8
100
AcDbEntity
  8
0
100
AcDbBlockBegin
  2
*D17
 70
     1
 10
0.0
 20
0.0
 30
0.0
  3
*D17
  1

  0
LINE
  5
163A
330
6B8
100
AcDbEntity
  8
SUNPOU
 62
     0
370
    -2
100
AcDbLine
 10
1128.254063916892
 20
1297.133318450695
 30
0.0
 11
1246.642103097971
 21
1297.133318450695
 31
0.0
  0
LINE
  5
163B
330
6B8
100
AcDbEntity
  8
SUNPOU
 62
     0
370
    -2
100
AcDbLine
 10
1246.642103097971
 20
1437.133318450696
 30
0.0
 11
1246.642103097971
 21
1317.133318450695
 31
0.0
  0
SOLID
  5
163C
330
6B8
100
AcDbEntity
  8
SUNPOU
 62
     0
100
AcDbTrace
 10
1243.308769764637
 20
1437.133318450696
 30
0.0
 11
1249.975436431304
 21
1437.133318450696
 31
0.0
 12
1246.642103097971
 22
1457.133318450696
 32
0.0
 13
1246.642103097971
 23
1457.133318450696
 33
0.0
  0
SOLID
  5
163D
330
6B8
100
AcDbEntity
  8
SUNPOU
 62
     0
100
AcDbTrace
 10
1243.308769764637
 20
1317.133318450695
 30
0.0
 11
1249.975436431304
 21
1317.133318450695
 31
0.0
 12
1246.642103097971
 22
1297.133318450695
 32
0.0
 13
1246.642103097971
 23
1297.133318450695
 33
0.0
  0
MTEXT
  5
163E
330
6B8
100
AcDbEntity
  8
SUNPOU
 62
     0
100
AcDbMText
 10
1224.14210309797
 20
1377.133318450695
 30
0.0
 40
25.0
 41
0.0
 71
     5
 72
     1
  1
\A1;160
  7
BIGFONT
 11
0.0000000000000001
 21
1.0
 31
0.0
 73
     1
 44
1.0
  0
POINT
  5
163F
330
6B8
100
AcDbEntity
  8
DEFPOINTS
 62
     0
100
AcDbPoint
 10
1118.254063916892
 20
1457.133318450696
 30
0.0
  0
POINT
  5
1640
330
6B8
100
AcDbEntity
  8
DEFPOINTS
 62
     0
100
AcDbPoint
 10
1118.254063916892
 20
1297.133318450695
 30
0.0
  0
POINT
  5
1641
330
6B8
100
AcDbEntity
  8
DEFPOINTS
 62
     0
100
AcDbPoint
 10
1246.642103097971
 20
1297.133318450695
 30
0.0
  0
ENDBLK
  5
A2F
330
6B8
100
AcDbEntity
  8
0
100
AcDbBlockEnd
  0
BLOCK
  5
A48
330
6C4
100
AcDbEntity
  8
0
100
AcDbBlockBegin
  2
*D18
 70
     1
 10
0.0
 20
0.0
 30
0.0
  3
*D18
  1

  0
LINE
  5
1632
330
6C4
100
AcDbEntity
  8
SUNPOU
 62
     0
370
    -2
100
AcDbLine
 10
1095.254063916891
 20
1197.133318450696
 30
0.0
 11
1246.642103097971
 21
1197.133318450696
 31
0.0
  0
LINE
  5
1633
330
6C4
100
AcDbEntity
  8
SUNPOU
 62
     0
370
    -2
100
AcDbLine
 10
1246.642103097971
 20
1277.133318450695
 30
0.0
 11
1246.642103097971
 21
1217.133318450696
 31
0.0
  0
SOLID
  5
1634
330
6C4
100
AcDbEntity
  8
SUNPOU
 62
     0
100
AcDbTrace
 10
1243.308769764637
 20
1277.133318450695
 30
0.0
 11
1249.975436431304
 21
1277.133318450695
 31
0.0
 12
1246.642103097971
 22
1297.133318450695
 32
0.0
 13
1246.642103097971
 23
1297.133318450695
 33
0.0
  0
SOLID
  5
1635
330
6C4
100
AcDbEntity
  8
SUNPOU
 62
     0
100
AcDbTrace
 10
1243.308769764637
 20
1217.133318450696
 30
0.0
 11
1249.975436431304
 21
1217.133318450696
 31
0.0
 12
1246.642103097971
 22
1197.133318450696
 32
0.0
 13
1246.642103097971
 23
1197.133318450696
 33
0.0
  0
MTEXT
  5
1636
330
6C4
100
AcDbEntity
  8
SUNPOU
 62
     0
100
AcDbMText
 10
1224.14210309797
 20
1247.133318450696
 30
0.0
 40
25.0
 41
0.0
 71
     5
 72
     1
  1
\A1;100
  7
BIGFONT
 11
0.0000000000000001
 21
1.0
 31
0.0
 73
     1
 44
1.0
  0
POINT
  5
1637
330
6C4
100
AcDbEntity
  8
DEFPOINTS
 62
     0
100
AcDbPoint
 10
1118.254063916892
 20
1297.133318450695
 30
0.0
  0
POINT
  5
1638
330
6C4
100
AcDbEntity
  8
DEFPOINTS
 62
     0
100
AcDbPoint
 10
1085.254063916892
 20
1197.133318450696
 30
0.0
  0
POINT
  5
1639
330
6C4
100
AcDbEntity
  8
DEFPOINTS
 62
     0
100
AcDbPoint
 10
1246.642103097971
 20
1197.133318450696
 30
0.0
  0
ENDBLK
  5
A51
330
6C4
100
AcDbEntity
  8
0
100
AcDbBlockEnd
  0
BLOCK
  5
A3B
330
6D0
100
AcDbEntity
  8
0
100
AcDbBlockBegin
  2
*D19
 70
     1
 10
0.0
 20
0.0
 30
0.0
  3
*D19
  1

  0
LINE
  5
1628
330
6D0
100
AcDbEntity
  8
SUNPOU
 62
     0
370
    -2
100
AcDbLine
 10
1095.254063916891
 20
1167.133318450696
 30
0.0
 11
1246.642103097971
 21
1167.133318450696
 31
0.0
  0
LINE
  5
1629
330
6D0
100
AcDbEntity
  8
SUNPOU
 62
     0
370
    -2
100
AcDbLine
 10
1246.642103097971
 20
1217.133318450696
 30
0.0
 11
1246.642103097971
 21
1237.133318450696
 31
0.0
  0
LINE
  5
162A
330
6D0
100
AcDbEntity
  8
SUNPOU
 62
     0
370
    -2
100
AcDbLine
 10
1246.642103097971
 20
1147.133318450695
 30
0.0
 11
1246.642103097971
 21
1127.133318450695
 31
0.0
  0
MTEXT
  5
162B
330
6D0
100
AcDbEntity
  8
SUNPOU
 62
     0
100
AcDbMText
 10
1299.142103097971
 20
1182.133318450696
 30
0.0
 40
25.0
 41
0.0
 71
     5
 72
     1
  1
\A1;30
  7
BIGFONT
 11
0.0000000000000001
 21
1.0
 31
0.0
 73
     1
 44
1.0
  0
LINE
  5
162C
330
6D0
100
AcDbEntity
  8
SUNPOU
 62
     0
370
    -2
100
AcDbLine
 10
1246.642103097971
 20
1197.133318450696
 30
0.0
 11
1246.642103097971
 21
1167.133318450696
 31
0.0
  0
SOLID
  5
162D
330
6D0
100
AcDbEntity
  8
SUNPOU
 62
     0
100
AcDbTrace
 10
1243.308769764637
 20
1217.133318450696
 30
0.0
 11
1249.975436431304
 21
1217.133318450696
 31
0.0
 12
1246.642103097971
 22
1197.133318450696
 32
0.0
 13
1246.642103097971
 23
1197.133318450696
 33
0.0
  0
SOLID
  5
162E
330
6D0
100
AcDbEntity
  8
SUNPOU
 62
     0
100
AcDbTrace
 10
1243.308769764637
 20
1147.133318450695
 30
0.0
 11
1249.975436431304
 21
1147.133318450695
 31
0.0
 12
1246.642103097971
 22
1167.133318450696
 32
0.0
 13
1246.642103097971
 23
1167.133318450696
 33
0.0
  0
POINT
  5
162F
330
6D0
100
AcDbEntity
  8
DEFPOINTS
 62
     0
100
AcDbPoint
 10
1085.254063916892
 20
1197.133318450696
 30
0.0
  0
POINT
  5
1630
330
6D0
100
AcDbEntity
  8
DEFPOINTS
 62
     0
100
AcDbPoint
 10
1085.254063916892
 20
1167.133318450696
 30
0.0
  0
POINT
  5
1631
330
6D0
100
AcDbEntity
  8
DEFPOINTS
 62
     0
100
AcDbPoint
 10
1246.642103097971
 20
1167.133318450696
 30
0.0
  0
ENDBLK
  5
A47
330
6D0
100
AcDbEntity
  8
0
100
AcDbBlockEnd
  0
BLOCK
  5
A52
330
6DF
100
AcDbEntity
  8
0
100
AcDbBlockBegin
  2
*D20
 70
     1
 10
0.0
 20
0.0
 30
0.0
  3
*D20
  1

  0
LINE
  5
1620
330
6DF
100
AcDbEntity
  8
SUNPOU
 62
     0
370
    -2
100
AcDbLine
 10
1095.254063916891
 20
1067.133318450696
 30
0.0
 11
1246.642103097971
 21
1067.133318450696
 31
0.0
  0
LINE
  5
1621
330
6DF
100
AcDbEntity
  8
SUNPOU
 62
     0
370
    -2
100
AcDbLine
 10
1246.642103097971
 20
1147.133318450695
 30
0.0
 11
1246.642103097971
 21
1087.133318450695
 31
0.0
  0
SOLID
  5
1622
330
6DF
100
AcDbEntity
  8
SUNPOU
 62
     0
100
AcDbTrace
 10
1243.308769764637
 20
1147.133318450695
 30
0.0
 11
1249.975436431304
 21
1147.133318450695
 31
0.0
 12
1246.642103097971
 22
1167.133318450696
 32
0.0
 13
1246.642103097971
 23
1167.133318450696
 33
0.0
  0
SOLID
  5
1623
330
6DF
100
AcDbEntity
  8
SUNPOU
 62
     0
100
AcDbTrace
 10
1243.308769764637
 20
1087.133318450695
 30
0.0
 11
1249.975436431304
 21
1087.133318450695
 31
0.0
 12
1246.642103097971
 22
1067.133318450696
 32
0.0
 13
1246.642103097971
 23
1067.133318450696
 33
0.0
  0
MTEXT
  5
1624
330
6DF
100
AcDbEntity
  8
SUNPOU
 62
     0
100
AcDbMText
 10
1224.14210309797
 20
1117.133318450696
 30
0.0
 40
25.0
 41
0.0
 71
     5
 72
     1
  1
\A1;100
  7
BIGFONT
 11
0.0000000000000001
 21
1.0
 31
0.0
 73
     1
 44
1.0
  0
POINT
  5
1625
330
6DF
100
AcDbEntity
  8
DEFPOINTS
 62
     0
100
AcDbPoint
 10
1085.254063916892
 20
1167.133318450696
 30
0.0
  0
POINT
  5
1626
330
6DF
100
AcDbEntity
  8
DEFPOINTS
 62
     0
100
AcDbPoint
 10
1085.254063916892
 20
1067.133318450696
 30
0.0
  0
POINT
  5
1627
330
6DF
100
AcDbEntity
  8
DEFPOINTS
 62
     0
100
AcDbPoint
 10
1246.642103097971
 20
1067.133318450696
 30
0.0
  0
ENDBLK
  5
A5B
330
6DF
100
AcDbEntity
  8
0
100
AcDbBlockEnd
  0
BLOCK
  5
A30
330
6EB
100
AcDbEntity
  8
0
100
AcDbBlockBegin
  2
*D21
 70
     1
 10
0.0
 20
0.0
 30
0.0
  3
*D21
  1

  0
LINE
  5
15FA
330
6EB
100
AcDbEntity
  8
SUNPOU
 62
     0
370
    -2
100
AcDbLine
 10
1078.254063916892
 20
1607.133318450696
 30
0.0
 11
1300.743222418832
 21
1607.133318450696
 31
0.0
  0
LINE
  5
15FB
330
6EB
100
AcDbEntity
  8
SUNPOU
 62
     0
370
    -2
100
AcDbLine
 10
1095.254063916891
 20
1197.133318450696
 30
0.0
 11
1300.743222418832
 21
1197.133318450696
 31
0.0
  0
LINE
  5
15FC
330
6EB
100
AcDbEntity
  8
SUNPOU
 62
     0
370
    -2
100
AcDbLine
 10
1300.743222418832
 20
1587.133318450695
 30
0.0
 11
1300.743222418832
 21
1217.133318450696
 31
0.0
  0
SOLID
  5
15FD
330
6EB
100
AcDbEntity
  8
SUNPOU
 62
     0
100
AcDbTrace
 10
1297.409889085499
 20
1587.133318450695
 30
0.0
 11
1304.076555752166
 21
1587.133318450695
 31
0.0
 12
1300.743222418832
 22
1607.133318450696
 32
0.0
 13
1300.743222418832
 23
1607.133318450696
 33
0.0
  0
SOLID
  5
15FE
330
6EB
100
AcDbEntity
  8
SUNPOU
 62
     0
100
AcDbTrace
 10
1297.409889085499
 20
1217.133318450696
 30
0.0
 11
1304.076555752165
 21
1217.133318450696
 31
0.0
 12
1300.743222418832
 22
1197.133318450696
 32
0.0
 13
1300.743222418832
 23
1197.133318450696
 33
0.0
  0
MTEXT
  5
15FF
330
6EB
100
AcDbEntity
  8
SUNPOU
 62
     0
100
AcDbMText
 10
1278.243222418832
 20
1402.133318450696
 30
0.0
 40
25.0
 41
0.0
 71
     5
 72
     1
  1
\A1;410
  7
BIGFONT
 11
0.0000000000000001
 21
1.0
 31
0.0
 73
     1
 44
1.0
  0
POINT
  5
1600
330
6EB
100
AcDbEntity
  8
DEFPOINTS
 62
     0
100
AcDbPoint
 10
1068.254063916892
 20
1607.133318450696
 30
0.0
  0
POINT
  5
1601
330
6EB
100
AcDbEntity
  8
DEFPOINTS
 62
     0
100
AcDbPoint
 10
1085.254063916892
 20
1197.133318450696
 30
0.0
  0
POINT
  5
1602
330
6EB
100
AcDbEntity
  8
DEFPOINTS
 62
     0
100
AcDbPoint
 10
1300.743222418832
 20
1197.133318450696
 30
0.0
  0
ENDBLK
  5
A3A
330
6EB
100
AcDbEntity
  8
0
100
AcDbBlockEnd
  0
BLOCK
  5
AED
330
92F
100
AcDbEntity
  8
0
100
AcDbBlockBegin
  2
*D22
 70
     1
 10
0.0
 20
0.0
 30
0.0
  3
*D22
  1

  0
LINE
  5
15E8
330
92F
100
AcDbEntity
  8
SUNPOU
 62
     0
370
    -2
100
AcDbLine
 10
541.4495744750793
 20
1617.133318450695
 30
0.0
 11
541.4495744750793
 21
1759.315466922784
 31
0.0
  0
LINE
  5
15E9
330
92F
100
AcDbEntity
  8
SUNPOU
 62
     0
370
    -2
100
AcDbLine
 10
1041.449574475079
 20
1617.133318450695
 30
0.0
 11
1041.449574475079
 21
1759.315466922784
 31
0.0
  0
LINE
  5
15EA
330
92F
100
AcDbEntity
  8
SUNPOU
 62
     0
370
    -2
100
AcDbLine
 10
561.4495744750793
 20
1759.315466922784
 30
0.0
 11
1021.449574475079
 21
1759.315466922784
 31
0.0
  0
SOLID
  5
15EB
330
92F
100
AcDbEntity
  8
SUNPOU
 62
     0
100
AcDbTrace
 10
561.4495744750793
 20
1762.648800256117
 30
0.0
 11
561.4495744750793
 21
1755.982133589451
 31
0.0
 12
541.4495744750793
 22
1759.315466922784
 32
0.0
 13
541.4495744750793
 23
1759.315466922784
 33
0.0
  0
SOLID
  5
15EC
330
92F
100
AcDbEntity
  8
SUNPOU
 62
     0
100
AcDbTrace
 10
1021.449574475079
 20
1762.648800256117
 30
0.0
 11
1021.449574475079
 21
1755.982133589451
 31
0.0
 12
1041.449574475079
 22
1759.315466922784
 32
0.0
 13
1041.449574475079
 23
1759.315466922784
 33
0.0
  0
MTEXT
  5
15ED
330
92F
100
AcDbEntity
  8
SUNPOU
 62
     0
100
AcDbMText
 10
791.4495744750793
 20
1781.815466922784
 30
0.0
 40
25.0
 41
0.0
 71
     5
 72
     1
  1
\A1;500
  7
BIGFONT
 73
     1
 44
1.0
  0
POINT
  5
15EE
330
92F
100
AcDbEntity
  8
DEFPOINTS
 62
     0
100
AcDbPoint
 10
541.4495744750793
 20
1607.133318450696
 30
0.0
  0
POINT
  5
15EF
330
92F
100
AcDbEntity
  8
DEFPOINTS
 62
     0
100
AcDbPoint
 10
1041.449574475079
 20
1607.133318450696
 30
0.0
  0
POINT
  5
15F0
330
92F
100
AcDbEntity
  8
DEFPOINTS
 62
     0
100
AcDbPoint
 10
1041.449574475079
 20
1759.315466922784
 30
0.0
  0
ENDBLK
  5
AF7
330
92F
100
AcDbEntity
  8
0
100
AcDbBlockEnd
  0
BLOCK
  5
958
330
948
100
AcDbEntity
  8
0
 62
     5
100
AcDbBlockBegin
  2
A$C72BA1FAD
 70
     0
 10
0.0
 20
0.0
 30
0.0
  3
A$C72BA1FAD
  1

  0
LINE
  5
949
330
948
100
AcDbEntity
  8
HL
100
AcDbLine
 10
200.0000000000057
 20
69.99999677296727
 30
0.0
 11
345.0000000000057
 21
89.99999677296727
 31
0.0
  0
LINE
  5
94A
330
948
100
AcDbEntity
  8
HL
100
AcDbLine
 10
75.00000000000182
 20
-0.0000032270331758
 30
0.0
 11
325.0000000000018
 21
-0.000003227032721
 31
0.0
  0
LINE
  5
94B
330
948
100
AcDbEntity
  8
KL
100
AcDbLine
 10
117.5000000000018
 20
81.37930711779473
 30
0.0
 11
115.0000000000023
 21
-0.0000032270331758
 31
0.0
  0
LINE
  5
94C
330
948
100
AcDbEntity
  8
KL
100
AcDbLine
 10
132.5000000000018
 20
79.31034160055332
 30
0.0
 11
135.0000000000022
 21
-0.0000032270331758
 31
0.0
  0
LINE
  5
94D
330
948
100
AcDbEntity
  8
HL
100
AcDbLine
 10
55.00000000000182
 20
39.99999677296728
 30
0.0
 11
75.00000000000182
 21
-0.000003227032721
 31
0.0
  0
LINE
  5
94E
330
948
100
AcDbEntity
  8
HL
100
AcDbLine
 10
55.0
 20
89.99999677296727
 30
0.0
 11
200.0
 21
69.99999677296727
 31
0.0
  0
LINE
  5
94F
330
948
100
AcDbEntity
  8
HL
100
AcDbLine
 10
0.000000000001819
 20
89.99999677296727
 30
0.0
 11
55.0000000000033
 21
89.99999677296683
 31
0.0
  0
LINE
  5
950
330
948
100
AcDbEntity
  8
HL
100
AcDbLine
 10
0.0000000000017053
 20
39.99999677296728
 30
0.0
 11
55.00000000000182
 21
39.99999677296683
 31
0.0
  0
LINE
  5
951
330
948
100
AcDbEntity
  8
HL
100
AcDbLine
 10
0.0000000000019327
 20
89.99999677296727
 30
0.0
 11
0.0000000000020464
 21
39.99999677296728
 31
0.0
  0
LINE
  5
952
330
948
100
AcDbEntity
  8
KL
100
AcDbLine
 10
282.5000000000018
 20
81.37930711779427
 30
0.0
 11
285.0000000000018
 21
-0.000003227032721
 31
0.0
  0
LINE
  5
953
330
948
100
AcDbEntity
  8
KL
100
AcDbLine
 10
267.5000000000018
 20
79.31034160055287
 30
0.0
 11
265.0000000000018
 21
-0.000003227032721
 31
0.0
  0
LINE
  5
954
330
948
100
AcDbEntity
  8
HL
100
AcDbLine
 10
345.0000000000018
 20
39.99999677296728
 30
0.0
 11
325.0000000000018
 21
-0.000003227032721
 31
0.0
  0
LINE
  5
955
330
948
100
AcDbEntity
  8
HL
100
AcDbLine
 10
400.0000000000018
 20
89.99999677296727
 30
0.0
 11
400.0000000000018
 21
39.99999677296728
 31
0.0
  0
LINE
  5
956
330
948
100
AcDbEntity
  8
HL
100
AcDbLine
 10
345.0000000000018
 20
39.99999677296683
 30
0.0
 11
400.000000000002
 21
39.99999677296728
 31
0.0
  0
LINE
  5
957
330
948
100
AcDbEntity
  8
HL
100
AcDbLine
 10
345.0000000000011
 20
89.99999677296683
 30
0.0
 11
400.000000000002
 21
89.99999677296727
 31
0.0
  0
ENDBLK
  5
959
330
948
100
AcDbEntity
  8
0
 62
     5
100
AcDbBlockEnd
  0
BLOCK
  5
95E
330
95A
100
AcDbEntity
  8
0
 62
     5
100
AcDbBlockBegin
  2
A$C25B74F18
 70
     0
 10
0.0
 20
0.0
 30
0.0
  3
A$C25B74F18
  1

  0
INSERT
  5
95B
330
95A
100
AcDbEntity
  8
0
 62
     5
100
AcDbBlockReference
  2
A$C72BA1FAD
 10
271.3604739058892
 20
0.0000021283044589
 30
0.0
  0
MTEXT
  5
95C
102
{ACAD_REACTORS
330
95D
102
}
330
95A
100
AcDbEntity
  8
SUNPOU
100
AcDbMText
 10
169.0476140476039
 20
163.911205151966
 30
0.0
 40
25.0
 41
0.0
 71
     6
 72
     1
  1
\A1;GSB-300
  7
BIGFONT
 73
     1
 44
1.0
  0
LEADER
  5
95D
330
95A
100
AcDbEntity
  8
SUNPOU
100
AcDbLeader
  3
DIM1
 73
     0
 75
     1
 40
25.0
 41
169.047619047619
 76
     3
 10
347.2161405900824
 20
67.24519142158715
 30
0.0
 10
199.0476140476039
 20
141.411205151966
 30
0.0
 10
179.0476140476039
 20
141.411205151966
 30
0.0
340
95C
  0
ENDBLK
  5
95F
330
95A
100
AcDbEntity
  8
0
 62
     5
100
AcDbBlockEnd
  0
BLOCK
  5
962
330
960
100
AcDbEntity
  8
0
 62
     5
100
AcDbBlockBegin
  2
A$C105B5721
 70
     0
 10
0.0
 20
0.0
 30
0.0
  3
A$C105B5721
  1

  0
INSERT
  5
961
330
960
100
AcDbEntity
  8
0
 62
     5
100
AcDbBlockReference
  2
A$C25B74F18
 10
0.0000075804819062
 20
-0.0000000000004547
 30
0.0
  0
ENDBLK
  5
963
330
960
100
AcDbEntity
  8
0
 62
     5
100
AcDbBlockEnd
  0
BLOCK
  5
966
330
964
100
AcDbEntity
  8
0
 62
     5
100
AcDbBlockBegin
  2
A$C0E9223DF
 70
     0
 10
0.0
 20
0.0
 30
0.0
  3
A$C0E9223DF
  1

  0
INSERT
  5
965
330
964
100
AcDbEntity
  8
0
 62
     5
100
AcDbBlockReference
  2
A$C105B5721
 10
-0.0000076851840731
 20
0.0000000000004547
 30
0.0
  0
ENDBLK
  5
967
330
964
100
AcDbEntity
  8
0
 62
     5
100
AcDbBlockEnd
  0
BLOCK
  5
96A
330
968
100
AcDbEntity
  8
0
 62
     5
100
AcDbBlockBegin
  2
A$C38392A7F
 70
     0
 10
0.0
 20
0.0
 30
0.0
  3
A$C38392A7F
  1

  0
INSERT
  5
969
330
968
100
AcDbEntity
  8
0
 62
     5
100
AcDbBlockReference
  2
A$C0E9223DF
 10
0.000004156733894
 20
0.0000013989094896
 30
0.0
  0
ENDBLK
  5
96B
330
968
100
AcDbEntity
  8
0
 62
     5
100
AcDbBlockEnd
  0
BLOCK
  5
96E
330
96C
100
AcDbEntity
  8
0
100
AcDbBlockBegin
  2
A$C67384017
 70
     0
 10
0.0
 20
0.0
 30
0.0
  3
A$C67384017
  1

  0
INSERT
  5
96D
330
96C
100
AcDbEntity
  8
0
 62
     5
100
AcDbBlockReference
  2
A$C38392A7F
 10
0.0000000000002274
 20
-0.000001398909717
 30
0.0
  0
ENDBLK
  5
96F
330
96C
100
AcDbEntity
  8
0
100
AcDbBlockEnd
  0
BLOCK
  5
B12
330
B07
100
AcDbEntity
  8
0
100
AcDbBlockBegin
  2
A$C0FE41E00
 70
     0
 10
0.0
 20
0.0
 30
0.0
  3
A$C0FE41E00
  1

  0
LINE
  5
B08
330
B07
100
AcDbEntity
  8
HL
100
AcDbLine
 10
345.0
 20
10.000003
 30
0.0
 11
400.0
 21
10.000003
 31
0.0
  0
LINE
  5
B09
330
B07
100
AcDbEntity
  8
HL
100
AcDbLine
 10
0.0
 20
60.00000299999999
 30
0.0
 11
400.0
 21
60.00000299999999
 31
0.0
  0
LINE
  5
B0A
330
B07
100
AcDbEntity
  8
HL
100
AcDbLine
 10
55.0
 20
10.000003
 30
0.0
 11
65.0
 21
0.000003
 31
0.0
  0
LINE
  5
B0B
330
B07
100
AcDbEntity
  8
KL
100
AcDbLine
 10
25.0
 20
60.00000299999999
 30
0.0
 11
25.0
 21
10.000003
 31
0.0
  0
LINE
  5
B0C
330
B07
100
AcDbEntity
  8
HL
100
AcDbLine
 10
0.0
 20
60.00000299999999
 30
0.0
 11
0.0
 21
10.000003
 31
0.0
  0
LINE
  5
B0D
330
B07
100
AcDbEntity
  8
HL
100
AcDbLine
 10
0.0
 20
10.000003
 30
0.0
 11
55.0
 21
10.000003
 31
0.0
  0
LINE
  5
B0E
330
B07
100
AcDbEntity
  8
HL
100
AcDbLine
 10
65.0
 20
0.000003
 30
0.0
 11
335.0
 21
0.000003
 31
0.0
  0
LINE
  5
B0F
330
B07
100
AcDbEntity
  8
KL
100
AcDbLine
 10
375.0
 20
60.00000299999999
 30
0.0
 11
375.0
 21
10.000003
 31
0.0
  0
LINE
  5
B10
330
B07
100
AcDbEntity
  8
HL
100
AcDbLine
 10
345.0
 20
10.000003
 30
0.0
 11
335.0
 21
0.000003
 31
0.0
  0
LINE
  5
B11
330
B07
100
AcDbEntity
  8
HL
100
AcDbLine
 10
400.0
 20
60.00000299999999
 30
0.0
 11
400.0
 21
10.000003
 31
0.0
  0
ENDBLK
  5
B13
330
B07
100
AcDbEntity
  8
0
100
AcDbBlockEnd
  0
BLOCK
  5
B16
330
B14
100
AcDbEntity
  8
0
100
AcDbBlockBegin
  2
A$C371162DB
 70
     0
 10
0.0
 20
0.0
 30
0.0
  3
A$C371162DB
  1

  0
INSERT
  5
B15
330
B14
100
AcDbEntity
  8
HL
100
AcDbBlockReference
  2
A$C0FE41E00
 10
0.0
 20
-0.000005
 30
0.0
  0
ENDBLK
  5
B17
330
B14
100
AcDbEntity
  8
0
100
AcDbBlockEnd
  0
BLOCK
  5
B1A
330
B18
100
AcDbEntity
  8
0
100
AcDbBlockBegin
  2
A$C57A3340D
 70
     0
 10
0.0
 20
0.0
 30
0.0
  3
A$C57A3340D
  1

  0
INSERT
  5
B19
330
B18
100
AcDbEntity
  8
HL
100
AcDbBlockReference
  2
A$C371162DB
 10
-0.000004
 20
0.000003
 30
0.0
  0
ENDBLK
  5
B1B
330
B18
100
AcDbEntity
  8
0
100
AcDbBlockEnd
  0
BLOCK
  5
B7C
330
B72
100
AcDbEntity
  8
0
100
AcDbBlockBegin
  2
*D32
 70
     1
 10
0.0
 20
0.0
 30
0.0
  3
*D32
  1

  0
LINE
  5
16BA
330
B72
100
AcDbEntity
  8
SUNPOU
 62
     0
370
    -2
100
AcDbLine
 10
641.4495744750793
 20
405.0005784540787
 30
0.0
 11
641.4495744750793
 21
445.000578454079
 31
0.0
  0
LINE
  5
16BB
330
B72
100
AcDbEntity
  8
SUNPOU
 62
     0
370
    -2
100
AcDbLine
 10
941.4495744750793
 20
405.000578454079
 30
0.0
 11
941.4495744750793
 21
445.000578454079
 31
0.0
  0
LINE
  5
16BC
330
B72
100
AcDbEntity
  8
SUNPOU
 62
     0
370
    -2
100
AcDbLine
 10
661.4495744750793
 20
445.000578454079
 30
0.0
 11
921.4495744750793
 21
445.000578454079
 31
0.0
  0
SOLID
  5
16BD
330
B72
100
AcDbEntity
  8
SUNPOU
 62
     0
100
AcDbTrace
 10
661.4495744750793
 20
448.3339117874122
 30
0.0
 11
661.4495744750793
 21
441.6672451207457
 31
0.0
 12
641.4495744750793
 22
445.000578454079
 32
0.0
 13
641.4495744750793
 23
445.000578454079
 33
0.0
  0
SOLID
  5
16BE
330
B72
100
AcDbEntity
  8
SUNPOU
 62
     0
100
AcDbTrace
 10
921.4495744750793
 20
448.3339117874122
 30
0.0
 11
921.4495744750793
 21
441.6672451207457
 31
0.0
 12
941.4495744750793
 22
445.000578454079
 32
0.0
 13
941.4495744750793
 23
445.000578454079
 33
0.0
  0
MTEXT
  5
16BF
330
B72
100
AcDbEntity
  8
SUNPOU
 62
     0
100
AcDbMText
 10
791.4495744750793
 20
467.500578454079
 30
0.0
 40
25.0
 41
0.0
 71
     5
 72
     1
  1
\A1;300
  7
BIGFONT
 73
     1
 44
1.0
  0
POINT
  5
16C0
330
B72
100
AcDbEntity
  8
DEFPOINTS
 62
     0
100
AcDbPoint
 10
641.4495744750793
 20
395.0005784540788
 30
0.0
  0
POINT
  5
16C1
330
B72
100
AcDbEntity
  8
DEFPOINTS
 62
     0
100
AcDbPoint
 10
941.4495744750793
 20
395.000578454079
 30
0.0
  0
POINT
  5
16C2
330
B72
100
AcDbEntity
  8
DEFPOINTS
 62
     0
100
AcDbPoint
 10
941.4495744750793
 20
445.000578454079
 30
0.0
  0
ENDBLK
  5
B7D
330
B72
100
AcDbEntity
  8
0
100
AcDbBlockEnd
  0
BLOCK
  5
B88
330
B7E
100
AcDbEntity
  8
0
100
AcDbBlockBegin
  2
*D33
 70
     1
 10
0.0
 20
0.0
 30
0.0
  3
*D33
  1

  0
LINE
  5
16C3
330
B7E
100
AcDbEntity
  8
SUNPOU
 62
     0
370
    -2
100
AcDbLine
 10
661.4495744750793
 20
55.000578454079
 30
0.0
 11
661.4495744750793
 21
145.000578454079
 31
0.0
  0
LINE
  5
16C4
330
B7E
100
AcDbEntity
  8
SUNPOU
 62
     0
370
    -2
100
AcDbLine
 10
921.4495744750793
 20
55.000578454079
 30
0.0
 11
921.4495744750793
 21
145.000578454079
 31
0.0
  0
LINE
  5
16C5
330
B7E
100
AcDbEntity
  8
SUNPOU
 62
     0
370
    -2
100
AcDbLine
 10
681.4495744750793
 20
145.000578454079
 30
0.0
 11
901.4495744750792
 21
145.000578454079
 31
0.0
  0
SOLID
  5
16C6
330
B7E
100
AcDbEntity
  8
SUNPOU
 62
     0
100
AcDbTrace
 10
681.4495744750793
 20
148.3339117874123
 30
0.0
 11
681.4495744750793
 21
141.6672451207456
 31
0.0
 12
661.4495744750793
 22
145.000578454079
 32
0.0
 13
661.4495744750793
 23
145.000578454079
 33
0.0
  0
SOLID
  5
16C7
330
B7E
100
AcDbEntity
  8
SUNPOU
 62
     0
100
AcDbTrace
 10
901.4495744750792
 20
148.3339117874123
 30
0.0
 11
901.4495744750792
 21
141.6672451207456
 31
0.0
 12
921.4495744750793
 22
145.000578454079
 32
0.0
 13
921.4495744750793
 23
145.000578454079
 33
0.0
  0
MTEXT
  5
16C8
330
B7E
100
AcDbEntity
  8
SUNPOU
 62
     0
100
AcDbMText
 10
791.4495744750793
 20
167.500578454079
 30
0.0
 40
25.0
 41
0.0
 71
     5
 72
     1
  1
\A1;260
  7
BIGFONT
 73
     1
 44
1.0
  0
POINT
  5
16C9
330
B7E
100
AcDbEntity
  8
DEFPOINTS
 62
     0
100
AcDbPoint
 10
661.4495744750793
 20
45.000578454079
 30
0.0
  0
POINT
  5
16CA
330
B7E
100
AcDbEntity
  8
DEFPOINTS
 62
     0
100
AcDbPoint
 10
921.4495744750793
 20
45.000578454079
 30
0.0
  0
POINT
  5
16CB
330
B7E
100
AcDbEntity
  8
DEFPOINTS
 62
     0
100
AcDbPoint
 10
921.4495744750793
 20
145.000578454079
 30
0.0
  0
ENDBLK
  5
B89
330
B7E
100
AcDbEntity
  8
0
100
AcDbBlockEnd
  0
BLOCK
  5
B94
330
B8A
100
AcDbEntity
  8
0
100
AcDbBlockBegin
  2
*D34
 70
     1
 10
0.0
 20
0.0
 30
0.0
  3
*D34
  1

  0
LINE
  5
170A
330
B8A
100
AcDbEntity
  8
SUNPOU
 62
     0
370
    -2
100
AcDbLine
 10
813.7276950947917
 20
45.000578454079
 30
0.0
 11
823.7276950947917
 21
45.000578454079
 31
0.0
  0
LINE
  5
170B
330
B8A
100
AcDbEntity
  8
SUNPOU
 62
     0
370
    -2
100
AcDbLine
 10
813.7276950947917
 20
-14.99942154592122
 30
0.0
 11
823.7276950947917
 21
-14.99942154592122
 31
0.0
  0
LINE
  5
170C
330
B8A
100
AcDbEntity
  8
SUNPOU
 62
     0
370
    -2
100
AcDbLine
 10
823.7276950947917
 20
25.00057845407901
 30
0.0
 11
823.7276950947917
 21
5.000578454078777
 31
0.0
  0
MTEXT
  5
170D
330
B8A
100
AcDbEntity
  8
SUNPOU
 62
     0
100
AcDbMText
 10
771.2276950947916
 20
15.00057845407902
 30
0.0
 40
25.0
 41
0.0
 71
     5
 72
     1
  1
\A1;60
  7
BIGFONT
 11
0.0000000000000001
 21
1.0
 31
0.0
 73
     1
 44
1.0
  0
SOLID
  5
170E
330
B8A
100
AcDbEntity
  8
SUNPOU
 62
     0
100
AcDbTrace
 10
820.3943617614582
 20
25.00057845407901
 30
0.0
 11
827.061028428125
 21
25.000578454079
 31
0.0
 12
823.7276950947917
 22
45.000578454079
 32
0.0
 13
823.7276950947917
 23
45.000578454079
 33
0.0
  0
SOLID
  5
170F
330
B8A
100
AcDbEntity
  8
SUNPOU
 62
     0
100
AcDbTrace
 10
820.3943617614582
 20
5.000578454078778
 30
0.0
 11
827.061028428125
 21
5.000578454078776
 31
0.0
 12
823.7276950947917
 22
-14.99942154592122
 32
0.0
 13
823.7276950947917
 23
-14.99942154592122
 33
0.0
  0
POINT
  5
1710
330
B8A
100
AcDbEntity
  8
DEFPOINTS
 62
     0
100
AcDbPoint
 10
823.7276950947917
 20
45.000578454079
 30
0.0
  0
POINT
  5
1711
330
B8A
100
AcDbEntity
  8
DEFPOINTS
 62
     0
100
AcDbPoint
 10
823.7276950947917
 20
-14.99942154592122
 30
0.0
  0
POINT
  5
1712
330
B8A
100
AcDbEntity
  8
DEFPOINTS
 62
     0
100
AcDbPoint
 10
823.7276950947917
 20
-14.99942154592122
 30
0.0
  0
ENDBLK
  5
B95
330
B8A
100
AcDbEntity
  8
0
100
AcDbBlockEnd
  0
BLOCK
  5
BA0
330
B96
100
AcDbEntity
  8
0
100
AcDbBlockBegin
  2
*D35
 70
     1
 10
0.0
 20
0.0
 30
0.0
  3
*D35
  1

  0
LINE
  5
1701
330
B96
100
AcDbEntity
  8
SUNPOU
 62
     0
370
    -2
100
AcDbLine
 10
813.7276950947917
 20
45.000578454079
 30
0.0
 11
823.7276950947915
 21
45.000578454079
 31
0.0
  0
LINE
  5
1702
330
B96
100
AcDbEntity
  8
SUNPOU
 62
     0
370
    -2
100
AcDbLine
 10
813.7276950947917
 20
345.0005784540788
 30
0.0
 11
823.7276950947917
 21
345.0005784540788
 31
0.0
  0
LINE
  5
1703
330
B96
100
AcDbEntity
  8
SUNPOU
 62
     0
370
    -2
100
AcDbLine
 10
823.7276950947915
 20
65.000578454079
 30
0.0
 11
823.7276950947917
 21
325.0005784540788
 31
0.0
  0
MTEXT
  5
1704
330
B96
100
AcDbEntity
  8
SUNPOU
 62
     0
100
AcDbMText
 10
801.2276950947917
 20
220.6580579767833
 30
0.0
 40
25.0
 41
0.0
 71
     5
 72
     1
  1
\A1;300
  7
BIGFONT
 11
0.0000000000000001
 21
1.0
 31
0.0
 73
     1
 44
1.0
  0
SOLID
  5
1705
330
B96
100
AcDbEntity
  8
SUNPOU
 62
     0
100
AcDbTrace
 10
820.3943617614582
 20
65.000578454079
 30
0.0
 11
827.0610284281248
 21
65.000578454079
 31
0.0
 12
823.7276950947915
 22
45.000578454079
 32
0.0
 13
823.7276950947915
 23
45.000578454079
 33
0.0
  0
SOLID
  5
1706
330
B96
100
AcDbEntity
  8
SUNPOU
 62
     0
100
AcDbTrace
 10
820.3943617614582
 20
325.0005784540788
 30
0.0
 11
827.061028428125
 21
325.0005784540788
 31
0.0
 12
823.7276950947917
 22
345.0005784540788
 32
0.0
 13
823.7276950947917
 23
345.0005784540788
 33
0.0
  0
POINT
  5
1707
330
B96
100
AcDbEntity
  8
DEFPOINTS
 62
     0
100
AcDbPoint
 10
823.7276950947917
 20
45.000578454079
 30
0.0
  0
POINT
  5
1708
330
B96
100
AcDbEntity
  8
DEFPOINTS
 62
     0
100
AcDbPoint
 10
823.7276950947917
 20
345.0005784540788
 30
0.0
  0
POINT
  5
1709
330
B96
100
AcDbEntity
  8
DEFPOINTS
 62
     0
100
AcDbPoint
 10
823.7276950947917
 20
345.0005784540788
 30
0.0
  0
ENDBLK
  5
BA1
330
B96
100
AcDbEntity
  8
0
100
AcDbBlockEnd
  0
BLOCK
  5
BAE
330
BA2
100
AcDbEntity
  8
0
100
AcDbBlockBegin
  2
*D36
 70
     1
 10
0.0
 20
0.0
 30
0.0
  3
*D36
  1

  0
LINE
  5
172D
330
BA2
100
AcDbEntity
  8
SUNPOU
 62
     0
370
    -2
100
AcDbLine
 10
813.7276950947917
 20
345.0005784540788
 30
0.0
 11
823.7276950947917
 21
345.0005784540788
 31
0.0
  0
LINE
  5
172E
330
BA2
100
AcDbEntity
  8
SUNPOU
 62
     0
370
    -2
100
AcDbLine
 10
813.7276950947917
 20
395.000578454079
 30
0.0
 11
823.7276950947917
 21
395.000578454079
 31
0.0
  0
LINE
  5
172F
330
BA2
100
AcDbEntity
  8
SUNPOU
 62
     0
370
    -2
100
AcDbLine
 10
823.7276950947917
 20
325.0005784540788
 30
0.0
 11
823.7276950947917
 21
305.0005784540788
 31
0.0
  0
LINE
  5
1730
330
BA2
100
AcDbEntity
  8
SUNPOU
 62
     0
370
    -2
100
AcDbLine
 10
823.7276950947917
 20
415.0005784540789
 30
0.0
 11
823.7276950947917
 21
435.000578454079
 31
0.0
  0
MTEXT
  5
1731
330
BA2
100
AcDbEntity
  8
SUNPOU
 62
     0
100
AcDbMText
 10
771.2276950947916
 20
370.000578454079
 30
0.0
 40
25.0
 41
0.0
 71
     5
 72
     1
  1
\A1;50
  7
BIGFONT
 11
0.0000000000000001
 21
1.0
 31
0.0
 73
     1
 44
1.0
  0
LINE
  5
1732
330
BA2
100
AcDbEntity
  8
SUNPOU
 62
     0
370
    -2
100
AcDbLine
 10
823.7276950947917
 20
345.0005784540788
 30
0.0
 11
823.7276950947917
 21
395.000578454079
 31
0.0
  0
SOLID
  5
1733
330
BA2
100
AcDbEntity
  8
SUNPOU
 62
     0
100
AcDbTrace
 10
820.3943617614582
 20
325.0005784540788
 30
0.0
 11
827.061028428125
 21
325.0005784540788
 31
0.0
 12
823.7276950947917
 22
345.0005784540788
 32
0.0
 13
823.7276950947917
 23
345.0005784540788
 33
0.0
  0
SOLID
  5
1734
330
BA2
100
AcDbEntity
  8
SUNPOU
 62
     0
100
AcDbTrace
 10
820.3943617614582
 20
415.0005784540789
 30
0.0
 11
827.061028428125
 21
415.0005784540789
 31
0.0
 12
823.7276950947917
 22
395.000578454079
 32
0.0
 13
823.7276950947917
 23
395.000578454079
 33
0.0
  0
POINT
  5
1735
330
BA2
100
AcDbEntity
  8
DEFPOINTS
 62
     0
100
AcDbPoint
 10
823.7276950947917
 20
345.0005784540788
 30
0.0
  0
POINT
  5
1736
330
BA2
100
AcDbEntity
  8
DEFPOINTS
 62
     0
100
AcDbPoint
 10
823.7276950947917
 20
395.000578454079
 30
0.0
  0
POINT
  5
1737
330
BA2
100
AcDbEntity
  8
DEFPOINTS
 62
     0
100
AcDbPoint
 10
823.7276950947917
 20
395.000578454079
 30
0.0
  0
ENDBLK
  5
BAF
330
BA2
100
AcDbEntity
  8
0
100
AcDbBlockEnd
  0
BLOCK
  5
BBA
330
BB0
100
AcDbEntity
  8
0
100
AcDbBlockBegin
  2
*D37
 70
     1
 10
0.0
 20
0.0
 30
0.0
  3
*D37
  1

  0
LINE
  5
16E7
330
BB0
100
AcDbEntity
  8
SUNPOU
 62
     0
370
    -2
100
AcDbLine
 10
921.4495744750793
 20
55.000578454079
 30
0.0
 11
921.4495744750793
 21
145.000578454079
 31
0.0
  0
LINE
  5
16E8
330
BB0
100
AcDbEntity
  8
SUNPOU
 62
     0
370
    -2
100
AcDbLine
 10
981.4495744750793
 20
55.000578454079
 30
0.0
 11
981.4495744750793
 21
145.000578454079
 31
0.0
  0
LINE
  5
16E9
330
BB0
100
AcDbEntity
  8
SUNPOU
 62
     0
370
    -2
100
AcDbLine
 10
941.4495744750793
 20
145.000578454079
 30
0.0
 11
961.4495744750794
 21
145.000578454079
 31
0.0
  0
MTEXT
  5
16EA
330
BB0
100
AcDbEntity
  8
SUNPOU
 62
     0
100
AcDbMText
 10
951.4495744750792
 20
172.500578454079
 30
0.0
 40
25.0
 41
0.0
 71
     5
 72
     1
  1
\A1;60
  7
BIGFONT
 73
     1
 44
1.0
  0
SOLID
  5
16EB
330
BB0
100
AcDbEntity
  8
SUNPOU
 62
     0
100
AcDbTrace
 10
941.4495744750793
 20
148.3339117874123
 30
0.0
 11
941.4495744750793
 21
141.6672451207456
 31
0.0
 12
921.4495744750793
 22
145.000578454079
 32
0.0
 13
921.4495744750793
 23
145.000578454079
 33
0.0
  0
SOLID
  5
16EC
330
BB0
100
AcDbEntity
  8
SUNPOU
 62
     0
100
AcDbTrace
 10
961.4495744750794
 20
148.3339117874123
 30
0.0
 11
961.4495744750794
 21
141.6672451207456
 31
0.0
 12
981.4495744750793
 22
145.000578454079
 32
0.0
 13
981.4495744750793
 23
145.000578454079
 33
0.0
  0
POINT
  5
16ED
330
BB0
100
AcDbEntity
  8
DEFPOINTS
 62
     0
100
AcDbPoint
 10
921.4495744750793
 20
45.000578454079
 30
0.0
  0
POINT
  5
16EE
330
BB0
100
AcDbEntity
  8
DEFPOINTS
 62
     0
100
AcDbPoint
 10
981.4495744750793
 20
45.000578454079
 30
0.0
  0
POINT
  5
16EF
330
BB0
100
AcDbEntity
  8
DEFPOINTS
 62
     0
100
AcDbPoint
 10
981.4495744750793
 20
145.000578454079
 30
0.0
  0
ENDBLK
  5
BBB
330
BB0
100
AcDbEntity
  8
0
100
AcDbBlockEnd
  0
BLOCK
  5
BC6
330
BBC
100
AcDbEntity
  8
0
100
AcDbBlockBegin
  2
*D38
 70
     1
 10
0.0
 20
0.0
 30
0.0
  3
*D38
  1

  0
LINE
  5
16D5
330
BBC
100
AcDbEntity
  8
SUNPOU
 62
     0
370
    -2
100
AcDbLine
 10
661.4495744750793
 20
55.000578454079
 30
0.0
 11
661.4495744750793
 21
145.000578454079
 31
0.0
  0
LINE
  5
16D6
330
BBC
100
AcDbEntity
  8
SUNPOU
 62
     0
370
    -2
100
AcDbLine
 10
601.4495744750793
 20
55.000578454079
 30
0.0
 11
601.4495744750793
 21
145.000578454079
 31
0.0
  0
LINE
  5
16D7
330
BBC
100
AcDbEntity
  8
SUNPOU
 62
     0
370
    -2
100
AcDbLine
 10
641.4495744750793
 20
145.000578454079
 30
0.0
 11
621.4495744750792
 21
145.000578454079
 31
0.0
  0
MTEXT
  5
16D8
330
BBC
100
AcDbEntity
  8
SUNPOU
 62
     0
100
AcDbMText
 10
631.4495744750793
 20
172.500578454079
 30
0.0
 40
25.0
 41
0.0
 71
     5
 72
     1
  1
\A1;60
  7
BIGFONT
 73
     1
 44
1.0
  0
SOLID
  5
16D9
330
BBC
100
AcDbEntity
  8
SUNPOU
 62
     0
100
AcDbTrace
 10
641.4495744750793
 20
148.3339117874123
 30
0.0
 11
641.4495744750793
 21
141.6672451207456
 31
0.0
 12
661.4495744750793
 22
145.000578454079
 32
0.0
 13
661.4495744750793
 23
145.000578454079
 33
0.0
  0
SOLID
  5
16DA
330
BBC
100
AcDbEntity
  8
SUNPOU
 62
     0
100
AcDbTrace
 10
621.4495744750792
 20
148.3339117874123
 30
0.0
 11
621.4495744750792
 21
141.6672451207456
 31
0.0
 12
601.4495744750793
 22
145.000578454079
 32
0.0
 13
601.4495744750793
 23
145.000578454079
 33
0.0
  0
POINT
  5
16DB
330
BBC
100
AcDbEntity
  8
DEFPOINTS
 62
     0
100
AcDbPoint
 10
661.4495744750793
 20
45.000578454079
 30
0.0
  0
POINT
  5
16DC
330
BBC
100
AcDbEntity
  8
DEFPOINTS
 62
     0
100
AcDbPoint
 10
601.4495744750793
 20
45.000578454079
 30
0.0
  0
POINT
  5
16DD
330
BBC
100
AcDbEntity
  8
DEFPOINTS
 62
     0
100
AcDbPoint
 10
601.4495744750793
 20
145.000578454079
 30
0.0
  0
ENDBLK
  5
BC7
330
BBC
100
AcDbEntity
  8
0
100
AcDbBlockEnd
  0
BLOCK
  5
BD2
330
BC8
100
AcDbEntity
  8
0
100
AcDbBlockBegin
  2
*D39
 70
     1
 10
0.0
 20
0.0
 30
0.0
  3
*D39
  1

  0
LINE
  5
1738
330
BC8
100
AcDbEntity
  8
SUNPOU
 62
     0
370
    -2
100
AcDbLine
 10
1078.254063916892
 20
395.000578454079
 30
0.0
 11
1246.642103097971
 21
395.000578454079
 31
0.0
  0
LINE
  5
1739
330
BC8
100
AcDbEntity
  8
SUNPOU
 62
     0
370
    -2
100
AcDbLine
 10
1128.254063916892
 20
245.000578454079
 30
0.0
 11
1246.642103097971
 21
245.000578454079
 31
0.0
  0
LINE
  5
173A
330
BC8
100
AcDbEntity
  8
SUNPOU
 62
     0
370
    -2
100
AcDbLine
 10
1246.642103097971
 20
375.0005784540789
 30
0.0
 11
1246.642103097971
 21
265.0005784540789
 31
0.0
  0
SOLID
  5
173B
330
BC8
100
AcDbEntity
  8
SUNPOU
 62
     0
100
AcDbTrace
 10
1243.308769764637
 20
375.0005784540789
 30
0.0
 11
1249.975436431304
 21
375.0005784540789
 31
0.0
 12
1246.642103097971
 22
395.000578454079
 32
0.0
 13
1246.642103097971
 23
395.000578454079
 33
0.0
  0
SOLID
  5
173C
330
BC8
100
AcDbEntity
  8
SUNPOU
 62
     0
100
AcDbTrace
 10
1243.308769764637
 20
265.0005784540789
 30
0.0
 11
1249.975436431304
 21
265.0005784540789
 31
0.0
 12
1246.642103097971
 22
245.000578454079
 32
0.0
 13
1246.642103097971
 23
245.000578454079
 33
0.0
  0
MTEXT
  5
173D
330
BC8
100
AcDbEntity
  8
SUNPOU
 62
     0
100
AcDbMText
 10
1224.142103097971
 20
320.0005784540792
 30
0.0
 40
25.0
 41
0.0
 71
     5
 72
     1
  1
\A1;150
  7
BIGFONT
 11
0.0000000000000001
 21
1.0
 31
0.0
 73
     1
 44
1.0
  0
POINT
  5
173E
330
BC8
100
AcDbEntity
  8
DEFPOINTS
 62
     0
100
AcDbPoint
 10
1068.254063916892
 20
395.000578454079
 30
0.0
  0
POINT
  5
173F
330
BC8
100
AcDbEntity
  8
DEFPOINTS
 62
     0
100
AcDbPoint
 10
1118.254063916892
 20
245.000578454079
 30
0.0
  0
POINT
  5
1740
330
BC8
100
AcDbEntity
  8
DEFPOINTS
 62
     0
100
AcDbPoint
 10
1246.642103097971
 20
245.000578454079
 30
0.0
  0
ENDBLK
  5
BD3
330
BC8
100
AcDbEntity
  8
0
100
AcDbBlockEnd
  0
BLOCK
  5
BDD
330
BD4
100
AcDbEntity
  8
0
100
AcDbBlockBegin
  2
*D40
 70
     1
 10
0.0
 20
0.0
 30
0.0
  3
*D40
  1

  0
LINE
  5
16F0
330
BD4
100
AcDbEntity
  8
SUNPOU
 62
     0
370
    -2
100
AcDbLine
 10
1128.254063916892
 20
85.00057845407877
 30
0.0
 11
1246.642103097971
 21
85.00057845407873
 31
0.0
  0
LINE
  5
16F1
330
BD4
100
AcDbEntity
  8
SUNPOU
 62
     0
370
    -2
100
AcDbLine
 10
1246.642103097971
 20
225.000578454079
 30
0.0
 11
1246.642103097971
 21
105.0005784540787
 31
0.0
  0
SOLID
  5
16F2
330
BD4
100
AcDbEntity
  8
SUNPOU
 62
     0
100
AcDbTrace
 10
1243.308769764637
 20
225.000578454079
 30
0.0
 11
1249.975436431304
 21
225.000578454079
 31
0.0
 12
1246.642103097971
 22
245.000578454079
 32
0.0
 13
1246.642103097971
 23
245.000578454079
 33
0.0
  0
SOLID
  5
16F3
330
BD4
100
AcDbEntity
  8
SUNPOU
 62
     0
100
AcDbTrace
 10
1243.308769764637
 20
105.0005784540787
 30
0.0
 11
1249.975436431304
 21
105.0005784540787
 31
0.0
 12
1246.642103097971
 22
85.00057845407873
 32
0.0
 13
1246.642103097971
 23
85.00057845407873
 33
0.0
  0
MTEXT
  5
16F4
330
BD4
100
AcDbEntity
  8
SUNPOU
 62
     0
100
AcDbMText
 10
1224.142103097971
 20
165.000578454079
 30
0.0
 40
25.0
 41
0.0
 71
     5
 72
     1
  1
\A1;160
  7
BIGFONT
 11
0.0000000000000001
 21
1.0
 31
0.0
 73
     1
 44
1.0
  0
POINT
  5
16F5
330
BD4
100
AcDbEntity
  8
DEFPOINTS
 62
     0
100
AcDbPoint
 10
1118.254063916892
 20
245.000578454079
 30
0.0
  0
POINT
  5
16F6
330
BD4
100
AcDbEntity
  8
DEFPOINTS
 62
     0
100
AcDbPoint
 10
1118.254063916892
 20
85.00057845407878
 30
0.0
  0
POINT
  5
16F7
330
BD4
100
AcDbEntity
  8
DEFPOINTS
 62
     0
100
AcDbPoint
 10
1246.642103097971
 20
85.00057845407873
 30
0.0
  0
ENDBLK
  5
BDE
330
BD4
100
AcDbEntity
  8
0
100
AcDbBlockEnd
  0
BLOCK
  5
BE8
330
BDF
100
AcDbEntity
  8
0
100
AcDbBlockBegin
  2
*D41
 70
     1
 10
0.0
 20
0.0
 30
0.0
  3
*D41
  1

  0
LINE
  5
1725
330
BDF
100
AcDbEntity
  8
SUNPOU
 62
     0
370
    -2
100
AcDbLine
 10
1095.254063916892
 20
-14.999421545921
 30
0.0
 11
1246.642103097971
 21
-14.99942154592104
 31
0.0
  0
LINE
  5
1726
330
BDF
100
AcDbEntity
  8
SUNPOU
 62
     0
370
    -2
100
AcDbLine
 10
1246.642103097971
 20
65.00057845407873
 30
0.0
 11
1246.642103097971
 21
5.000578454078958
 31
0.0
  0
SOLID
  5
1727
330
BDF
100
AcDbEntity
  8
SUNPOU
 62
     0
100
AcDbTrace
 10
1243.308769764637
 20
65.00057845407873
 30
0.0
 11
1249.975436431304
 21
65.00057845407872
 31
0.0
 12
1246.642103097971
 22
85.00057845407873
 32
0.0
 13
1246.642103097971
 23
85.00057845407873
 33
0.0
  0
SOLID
  5
1728
330
BDF
100
AcDbEntity
  8
SUNPOU
 62
     0
100
AcDbTrace
 10
1243.308769764637
 20
5.000578454078959
 30
0.0
 11
1249.975436431304
 21
5.000578454078958
 31
0.0
 12
1246.642103097971
 22
-14.99942154592104
 32
0.0
 13
1246.642103097971
 23
-14.99942154592104
 33
0.0
  0
MTEXT
  5
1729
330
BDF
100
AcDbEntity
  8
SUNPOU
 62
     0
100
AcDbMText
 10
1224.142103097971
 20
35.00057845407904
 30
0.0
 40
25.0
 41
0.0
 71
     5
 72
     1
  1
\A1;100
  7
BIGFONT
 11
0.0000000000000001
 21
1.0
 31
0.0
 73
     1
 44
1.0
  0
POINT
  5
172A
330
BDF
100
AcDbEntity
  8
DEFPOINTS
 62
     0
100
AcDbPoint
 10
1118.254063916892
 20
85.00057845407878
 30
0.0
  0
POINT
  5
172B
330
BDF
100
AcDbEntity
  8
DEFPOINTS
 62
     0
100
AcDbPoint
 10
1085.254063916892
 20
-14.99942154592099
 30
0.0
  0
POINT
  5
172C
330
BDF
100
AcDbEntity
  8
DEFPOINTS
 62
     0
100
AcDbPoint
 10
1246.642103097971
 20
-14.99942154592104
 30
0.0
  0
ENDBLK
  5
BE9
330
BDF
100
AcDbEntity
  8
0
100
AcDbBlockEnd
  0
BLOCK
  5
BF5
330
BEA
100
AcDbEntity
  8
0
100
AcDbBlockBegin
  2
*D42
 70
     1
 10
0.0
 20
0.0
 30
0.0
  3
*D42
  1

  0
LINE
  5
1713
330
BEA
100
AcDbEntity
  8
SUNPOU
 62
     0
370
    -2
100
AcDbLine
 10
1095.254063916892
 20
-44.99942154592099
 30
0.0
 11
1246.642103097971
 21
-44.99942154592104
 31
0.0
  0
LINE
  5
1714
330
BEA
100
AcDbEntity
  8
SUNPOU
 62
     0
370
    -2
100
AcDbLine
 10
1246.642103097971
 20
5.000578454078958
 30
0.0
 11
1246.642103097971
 21
25.00057845407896
 31
0.0
  0
LINE
  5
1715
330
BEA
100
AcDbEntity
  8
SUNPOU
 62
     0
370
    -2
100
AcDbLine
 10
1246.642103097971
 20
-64.99942154592104
 30
0.0
 11
1246.642103097971
 21
-84.99942154592103
 31
0.0
  0
MTEXT
  5
1716
330
BEA
100
AcDbEntity
  8
SUNPOU
 62
     0
100
AcDbMText
 10
1299.142103097971
 20
-29.99942154592084
 30
0.0
 40
25.0
 41
0.0
 71
     5
 72
     1
  1
\A1;30
  7
BIGFONT
 11
0.0000000000000001
 21
1.0
 31
0.0
 73
     1
 44
1.0
  0
LINE
  5
1717
330
BEA
100
AcDbEntity
  8
SUNPOU
 62
     0
370
    -2
100
AcDbLine
 10
1246.642103097971
 20
-14.99942154592104
 30
0.0
 11
1246.642103097971
 21
-44.99942154592104
 31
0.0
  0
SOLID
  5
1718
330
BEA
100
AcDbEntity
  8
SUNPOU
 62
     0
100
AcDbTrace
 10
1243.308769764637
 20
5.000578454078959
 30
0.0
 11
1249.975436431304
 21
5.000578454078958
 31
0.0
 12
1246.642103097971
 22
-14.99942154592104
 32
0.0
 13
1246.642103097971
 23
-14.99942154592104
 33
0.0
  0
SOLID
  5
1719
330
BEA
100
AcDbEntity
  8
SUNPOU
 62
     0
100
AcDbTrace
 10
1243.308769764637
 20
-64.99942154592104
 30
0.0
 11
1249.975436431304
 21
-64.99942154592105
 31
0.0
 12
1246.642103097971
 22
-44.99942154592104
 32
0.0
 13
1246.642103097971
 23
-44.99942154592104
 33
0.0
  0
POINT
  5
171A
330
BEA
100
AcDbEntity
  8
DEFPOINTS
 62
     0
100
AcDbPoint
 10
1085.254063916892
 20
-14.99942154592099
 30
0.0
  0
POINT
  5
171B
330
BEA
100
AcDbEntity
  8
DEFPOINTS
 62
     0
100
AcDbPoint
 10
1085.254063916892
 20
-44.99942154592099
 30
0.0
  0
POINT
  5
171C
330
BEA
100
AcDbEntity
  8
DEFPOINTS
 62
     0
100
AcDbPoint
 10
1246.642103097971
 20
-44.99942154592104
 30
0.0
  0
ENDBLK
  5
BF6
330
BEA
100
AcDbEntity
  8
0
100
AcDbBlockEnd
  0
BLOCK
  5
C00
330
BF7
100
AcDbEntity
  8
0
100
AcDbBlockBegin
  2
*D43
 70
     1
 10
0.0
 20
0.0
 30
0.0
  3
*D43
  1

  0
LINE
  5
171D
330
BF7
100
AcDbEntity
  8
SUNPOU
 62
     0
370
    -2
100
AcDbLine
 10
1095.254063916892
 20
-144.999421545921
 30
0.0
 11
1246.642103097971
 21
-144.999421545921
 31
0.0
  0
LINE
  5
171E
330
BF7
100
AcDbEntity
  8
SUNPOU
 62
     0
370
    -2
100
AcDbLine
 10
1246.642103097971
 20
-64.99942154592104
 30
0.0
 11
1246.642103097971
 21
-124.999421545921
 31
0.0
  0
SOLID
  5
171F
330
BF7
100
AcDbEntity
  8
SUNPOU
 62
     0
100
AcDbTrace
 10
1243.308769764637
 20
-64.99942154592104
 30
0.0
 11
1249.975436431304
 21
-64.99942154592105
 31
0.0
 12
1246.642103097971
 22
-44.99942154592104
 32
0.0
 13
1246.642103097971
 23
-44.99942154592104
 33
0.0
  0
SOLID
  5
1720
330
BF7
100
AcDbEntity
  8
SUNPOU
 62
     0
100
AcDbTrace
 10
1243.308769764637
 20
-124.999421545921
 30
0.0
 11
1249.975436431304
 21
-124.999421545921
 31
0.0
 12
1246.642103097971
 22
-144.999421545921
 32
0.0
 13
1246.642103097971
 23
-144.999421545921
 33
0.0
  0
MTEXT
  5
1721
330
BF7
100
AcDbEntity
  8
SUNPOU
 62
     0
100
AcDbMText
 10
1224.142103097971
 20
-94.99942154592083
 30
0.0
 40
25.0
 41
0.0
 71
     5
 72
     1
  1
\A1;100
  7
BIGFONT
 11
0.0000000000000001
 21
1.0
 31
0.0
 73
     1
 44
1.0
  0
POINT
  5
1722
330
BF7
100
AcDbEntity
  8
DEFPOINTS
 62
     0
100
AcDbPoint
 10
1085.254063916892
 20
-44.99942154592099
 30
0.0
  0
POINT
  5
1723
330
BF7
100
AcDbEntity
  8
DEFPOINTS
 62
     0
100
AcDbPoint
 10
1085.254063916892
 20
-144.999421545921
 30
0.0
  0
POINT
  5
1724
330
BF7
100
AcDbEntity
  8
DEFPOINTS
 62
     0
100
AcDbPoint
 10
1246.642103097971
 20
-144.999421545921
 30
0.0
  0
ENDBLK
  5
C01
330
BF7
100
AcDbEntity
  8
0
100
AcDbBlockEnd
  0
BLOCK
  5
C0C
330
C02
100
AcDbEntity
  8
0
100
AcDbBlockBegin
  2
*D44
 70
     1
 10
0.0
 20
0.0
 30
0.0
  3
*D44
  1

  0
LINE
  5
16F8
330
C02
100
AcDbEntity
  8
SUNPOU
 62
     0
370
    -2
100
AcDbLine
 10
1078.254063916892
 20
395.000578454079
 30
0.0
 11
1300.743222418832
 21
395.000578454079
 31
0.0
  0
LINE
  5
16F9
330
C02
100
AcDbEntity
  8
SUNPOU
 62
     0
370
    -2
100
AcDbLine
 10
1095.254063916892
 20
-14.999421545921
 30
0.0
 11
1300.743222418832
 21
-14.99942154592105
 31
0.0
  0
LINE
  5
16FA
330
C02
100
AcDbEntity
  8
SUNPOU
 62
     0
370
    -2
100
AcDbLine
 10
1300.743222418832
 20
375.0005784540789
 30
0.0
 11
1300.743222418832
 21
5.000578454078945
 31
0.0
  0
SOLID
  5
16FB
330
C02
100
AcDbEntity
  8
SUNPOU
 62
     0
100
AcDbTrace
 10
1297.409889085499
 20
375.0005784540789
 30
0.0
 11
1304.076555752165
 21
375.0005784540789
 31
0.0
 12
1300.743222418832
 22
395.000578454079
 32
0.0
 13
1300.743222418832
 23
395.000578454079
 33
0.0
  0
SOLID
  5
16FC
330
C02
100
AcDbEntity
  8
SUNPOU
 62
     0
100
AcDbTrace
 10
1297.409889085499
 20
5.000578454078945
 30
0.0
 11
1304.076555752165
 21
5.000578454078944
 31
0.0
 12
1300.743222418832
 22
-14.99942154592105
 32
0.0
 13
1300.743222418832
 23
-14.99942154592105
 33
0.0
  0
MTEXT
  5
16FD
330
C02
100
AcDbEntity
  8
SUNPOU
 62
     0
100
AcDbMText
 10
1278.243222418832
 20
190.0005784540791
 30
0.0
 40
25.0
 41
0.0
 71
     5
 72
     1
  1
\A1;410
  7
BIGFONT
 11
0.0000000000000001
 21
1.0
 31
0.0
 73
     1
 44
1.0
  0
POINT
  5
16FE
330
C02
100
AcDbEntity
  8
DEFPOINTS
 62
     0
100
AcDbPoint
 10
1068.254063916892
 20
395.000578454079
 30
0.0
  0
POINT
  5
16FF
330
C02
100
AcDbEntity
  8
DEFPOINTS
 62
     0
100
AcDbPoint
 10
1085.254063916892
 20
-14.99942154592099
 30
0.0
  0
POINT
  5
1700
330
C02
100
AcDbEntity
  8
DEFPOINTS
 62
     0
100
AcDbPoint
 10
1300.743222418832
 20
-14.99942154592105
 30
0.0
  0
ENDBLK
  5
C0D
330
C02
100
AcDbEntity
  8
0
100
AcDbBlockEnd
  0
BLOCK
  5
C18
330
C0E
100
AcDbEntity
  8
0
100
AcDbBlockBegin
  2
*D45
 70
     1
 10
0.0
 20
0.0
 30
0.0
  3
*D45
  1

  0
LINE
  5
16CC
330
C0E
100
AcDbEntity
  8
SUNPOU
 62
     0
370
    -2
100
AcDbLine
 10
541.4495744750793
 20
405.000578454079
 30
0.0
 11
541.4495744750793
 21
547.1827269261675
 31
0.0
  0
LINE
  5
16CD
330
C0E
100
AcDbEntity
  8
SUNPOU
 62
     0
370
    -2
100
AcDbLine
 10
1041.449574475079
 20
405.000578454079
 30
0.0
 11
1041.449574475079
 21
547.1827269261675
 31
0.0
  0
LINE
  5
16CE
330
C0E
100
AcDbEntity
  8
SUNPOU
 62
     0
370
    -2
100
AcDbLine
 10
561.4495744750793
 20
547.1827269261675
 30
0.0
 11
1021.449574475079
 21
547.1827269261675
 31
0.0
  0
SOLID
  5
16CF
330
C0E
100
AcDbEntity
  8
SUNPOU
 62
     0
100
AcDbTrace
 10
561.4495744750793
 20
550.5160602595009
 30
0.0
 11
561.4495744750793
 21
543.8493935928342
 31
0.0
 12
541.4495744750793
 22
547.1827269261675
 32
0.0
 13
541.4495744750793
 23
547.1827269261675
 33
0.0
  0
SOLID
  5
16D0
330
C0E
100
AcDbEntity
  8
SUNPOU
 62
     0
100
AcDbTrace
 10
1021.449574475079
 20
550.5160602595009
 30
0.0
 11
1021.449574475079
 21
543.8493935928342
 31
0.0
 12
1041.449574475079
 22
547.1827269261675
 32
0.0
 13
1041.449574475079
 23
547.1827269261675
 33
0.0
  0
MTEXT
  5
16D1
330
C0E
100
AcDbEntity
  8
SUNPOU
 62
     0
100
AcDbMText
 10
791.4495744750793
 20
569.6827269261675
 30
0.0
 40
25.0
 41
0.0
 71
     5
 72
     1
  1
\A1;500
  7
BIGFONT
 73
     1
 44
1.0
  0
POINT
  5
16D2
330
C0E
100
AcDbEntity
  8
DEFPOINTS
 62
     0
100
AcDbPoint
 10
541.4495744750793
 20
395.000578454079
 30
0.0
  0
POINT
  5
16D3
330
C0E
100
AcDbEntity
  8
DEFPOINTS
 62
     0
100
AcDbPoint
 10
1041.449574475079
 20
395.000578454079
 30
0.0
  0
POINT
  5
16D4
330
C0E
100
AcDbEntity
  8
DEFPOINTS
 62
     0
100
AcDbPoint
 10
1041.449574475079
 20
547.1827269261675
 30
0.0
  0
ENDBLK
  5
C19
330
C0E
100
AcDbEntity
  8
0
100
AcDbBlockEnd
  0
BLOCK
  5
ED6
330
ECC
100
AcDbEntity
  8
0
100
AcDbBlockBegin
  2
*D46
 70
     1
 10
0.0
 20
0.0
 30
0.0
  3
*D46
  1

  0
LINE
  5
1276
330
ECC
100
AcDbEntity
  8
SUNPOU
 62
     0
370
    -2
100
AcDbLine
 10
1973.434811012593
 20
1617.133318450695
 30
0.0
 11
1973.434811012593
 21
1657.133318450696
 31
0.0
  0
LINE
  5
1277
330
ECC
100
AcDbEntity
  8
SUNPOU
 62
     0
370
    -2
100
AcDbLine
 10
2273.434811012593
 20
1617.133318450695
 30
0.0
 11
2273.434811012593
 21
1657.133318450696
 31
0.0
  0
LINE
  5
1278
330
ECC
100
AcDbEntity
  8
SUNPOU
 62
     0
370
    -2
100
AcDbLine
 10
1993.434811012593
 20
1657.133318450696
 30
0.0
 11
2253.434811012593
 21
1657.133318450696
 31
0.0
  0
SOLID
  5
1279
330
ECC
100
AcDbEntity
  8
SUNPOU
 62
     0
100
AcDbTrace
 10
1993.434811012593
 20
1660.466651784029
 30
0.0
 11
1993.434811012593
 21
1653.799985117362
 31
0.0
 12
1973.434811012593
 22
1657.133318450696
 32
0.0
 13
1973.434811012593
 23
1657.133318450696
 33
0.0
  0
SOLID
  5
127A
330
ECC
100
AcDbEntity
  8
SUNPOU
 62
     0
100
AcDbTrace
 10
2253.434811012593
 20
1660.466651784029
 30
0.0
 11
2253.434811012593
 21
1653.799985117362
 31
0.0
 12
2273.434811012593
 22
1657.133318450696
 32
0.0
 13
2273.434811012593
 23
1657.133318450696
 33
0.0
  0
MTEXT
  5
127B
330
ECC
100
AcDbEntity
  8
SUNPOU
 62
     0
100
AcDbMText
 10
2123.434811012593
 20
1679.633318450695
 30
0.0
 40
25.0
 41
0.0
 71
     5
 72
     1
  1
\A1;300
  7
BIGFONT
 73
     1
 44
1.0
  0
POINT
  5
127C
330
ECC
100
AcDbEntity
  8
DEFPOINTS
 62
     0
100
AcDbPoint
 10
1973.434811012593
 20
1607.133318450695
 30
0.0
  0
POINT
  5
127D
330
ECC
100
AcDbEntity
  8
DEFPOINTS
 62
     0
100
AcDbPoint
 10
2273.434811012593
 20
1607.133318450696
 30
0.0
  0
POINT
  5
127E
330
ECC
100
AcDbEntity
  8
DEFPOINTS
 62
     0
100
AcDbPoint
 10
2273.434811012593
 20
1657.133318450696
 30
0.0
  0
ENDBLK
  5
ED7
330
ECC
100
AcDbEntity
  8
0
100
AcDbBlockEnd
  0
BLOCK
  5
EE2
330
ED8
100
AcDbEntity
  8
0
100
AcDbBlockBegin
  2
*D47
 70
     1
 10
0.0
 20
0.0
 30
0.0
  3
*D47
  1

  0
LINE
  5
126D
330
ED8
100
AcDbEntity
  8
SUNPOU
 62
     0
370
    -2
100
AcDbLine
 10
1993.434811012593
 20
1267.133318450696
 30
0.0
 11
1993.434811012593
 21
1357.133318450695
 31
0.0
  0
LINE
  5
126E
330
ED8
100
AcDbEntity
  8
SUNPOU
 62
     0
370
    -2
100
AcDbLine
 10
2253.434811012593
 20
1267.133318450696
 30
0.0
 11
2253.434811012593
 21
1357.133318450695
 31
0.0
  0
LINE
  5
126F
330
ED8
100
AcDbEntity
  8
SUNPOU
 62
     0
370
    -2
100
AcDbLine
 10
2013.434811012593
 20
1357.133318450695
 30
0.0
 11
2233.434811012593
 21
1357.133318450695
 31
0.0
  0
SOLID
  5
1270
330
ED8
100
AcDbEntity
  8
SUNPOU
 62
     0
100
AcDbTrace
 10
2013.434811012593
 20
1360.466651784029
 30
0.0
 11
2013.434811012593
 21
1353.799985117362
 31
0.0
 12
1993.434811012593
 22
1357.133318450695
 32
0.0
 13
1993.434811012593
 23
1357.133318450695
 33
0.0
  0
SOLID
  5
1271
330
ED8
100
AcDbEntity
  8
SUNPOU
 62
     0
100
AcDbTrace
 10
2233.434811012593
 20
1360.466651784029
 30
0.0
 11
2233.434811012593
 21
1353.799985117362
 31
0.0
 12
2253.434811012593
 22
1357.133318450695
 32
0.0
 13
2253.434811012593
 23
1357.133318450695
 33
0.0
  0
MTEXT
  5
1272
330
ED8
100
AcDbEntity
  8
SUNPOU
 62
     0
100
AcDbMText
 10
2123.434811012593
 20
1379.633318450696
 30
0.0
 40
25.0
 41
0.0
 71
     5
 72
     1
  1
\A1;260
  7
BIGFONT
 73
     1
 44
1.0
  0
POINT
  5
1273
330
ED8
100
AcDbEntity
  8
DEFPOINTS
 62
     0
100
AcDbPoint
 10
1993.434811012593
 20
1257.133318450695
 30
0.0
  0
POINT
  5
1274
330
ED8
100
AcDbEntity
  8
DEFPOINTS
 62
     0
100
AcDbPoint
 10
2253.434811012593
 20
1257.133318450695
 30
0.0
  0
POINT
  5
1275
330
ED8
100
AcDbEntity
  8
DEFPOINTS
 62
     0
100
AcDbPoint
 10
2253.434811012593
 20
1357.133318450695
 30
0.0
  0
ENDBLK
  5
EE3
330
ED8
100
AcDbEntity
  8
0
100
AcDbBlockEnd
  0
BLOCK
  5
EEE
330
EE4
100
AcDbEntity
  8
0
100
AcDbBlockBegin
  2
*D48
 70
     1
 10
0.0
 20
0.0
 30
0.0
  3
*D48
  1

  0
LINE
  5
1291
330
EE4
100
AcDbEntity
  8
SUNPOU
 62
     0
370
    -2
100
AcDbLine
 10
2145.712931632306
 20
1257.133318450695
 30
0.0
 11
2155.712931632305
 21
1257.133318450695
 31
0.0
  0
LINE
  5
1292
330
EE4
100
AcDbEntity
  8
SUNPOU
 62
     0
370
    -2
100
AcDbLine
 10
2145.712931632306
 20
1197.133318450695
 30
0.0
 11
2155.712931632305
 21
1197.133318450695
 31
0.0
  0
LINE
  5
1293
330
EE4
100
AcDbEntity
  8
SUNPOU
 62
     0
370
    -2
100
AcDbLine
 10
2155.712931632305
 20
1237.133318450696
 30
0.0
 11
2155.712931632305
 21
1217.133318450695
 31
0.0
  0
MTEXT
  5
1294
330
EE4
100
AcDbEntity
  8
SUNPOU
 62
     0
100
AcDbMText
 10
2103.212931632305
 20
1227.133318450696
 30
0.0
 40
25.0
 41
0.0
 71
     5
 72
     1
  1
\A1;60
  7
BIGFONT
 11
0.0000000000000001
 21
1.0
 31
0.0
 73
     1
 44
1.0
  0
SOLID
  5
1295
330
EE4
100
AcDbEntity
  8
SUNPOU
 62
     0
100
AcDbTrace
 10
2152.379598298972
 20
1237.133318450696
 30
0.0
 11
2159.046264965639
 21
1237.133318450696
 31
0.0
 12
2155.712931632305
 22
1257.133318450695
 32
0.0
 13
2155.712931632305
 23
1257.133318450695
 33
0.0
  0
SOLID
  5
1296
330
EE4
100
AcDbEntity
  8
SUNPOU
 62
     0
100
AcDbTrace
 10
2152.379598298972
 20
1217.133318450695
 30
0.0
 11
2159.046264965639
 21
1217.133318450695
 31
0.0
 12
2155.712931632305
 22
1197.133318450695
 32
0.0
 13
2155.712931632305
 23
1197.133318450695
 33
0.0
  0
POINT
  5
1297
330
EE4
100
AcDbEntity
  8
DEFPOINTS
 62
     0
100
AcDbPoint
 10
2155.712931632305
 20
1257.133318450695
 30
0.0
  0
POINT
  5
1298
330
EE4
100
AcDbEntity
  8
DEFPOINTS
 62
     0
100
AcDbPoint
 10
2155.712931632305
 20
1197.133318450695
 30
0.0
  0
POINT
  5
1299
330
EE4
100
AcDbEntity
  8
DEFPOINTS
 62
     0
100
AcDbPoint
 10
2155.712931632305
 20
1197.133318450695
 30
0.0
  0
ENDBLK
  5
EEF
330
EE4
100
AcDbEntity
  8
0
100
AcDbBlockEnd
  0
BLOCK
  5
EFA
330
EF0
100
AcDbEntity
  8
0
100
AcDbBlockBegin
  2
*D49
 70
     1
 10
0.0
 20
0.0
 30
0.0
  3
*D49
  1

  0
LINE
  5
127F
330
EF0
100
AcDbEntity
  8
SUNPOU
 62
     0
370
    -2
100
AcDbLine
 10
2145.712931632306
 20
1257.133318450695
 30
0.0
 11
2155.712931632305
 21
1257.133318450695
 31
0.0
  0
LINE
  5
1280
330
EF0
100
AcDbEntity
  8
SUNPOU
 62
     0
370
    -2
100
AcDbLine
 10
2145.712931632306
 20
1557.133318450695
 30
0.0
 11
2155.712931632305
 21
1557.133318450695
 31
0.0
  0
LINE
  5
1281
330
EF0
100
AcDbEntity
  8
SUNPOU
 62
     0
370
    -2
100
AcDbLine
 10
2155.712931632305
 20
1277.133318450696
 30
0.0
 11
2155.712931632305
 21
1537.133318450695
 31
0.0
  0
MTEXT
  5
1282
330
EF0
100
AcDbEntity
  8
SUNPOU
 62
     0
100
AcDbMText
 10
2133.212931632305
 20
1432.7907979734
 30
0.0
 40
25.0
 41
0.0
 71
     5
 72
     1
  1
\A1;300
  7
BIGFONT
 11
0.0000000000000001
 21
1.0
 31
0.0
 73
     1
 44
1.0
  0
SOLID
  5
1283
330
EF0
100
AcDbEntity
  8
SUNPOU
 62
     0
100
AcDbTrace
 10
2152.379598298972
 20
1277.133318450696
 30
0.0
 11
2159.046264965639
 21
1277.133318450696
 31
0.0
 12
2155.712931632305
 22
1257.133318450695
 32
0.0
 13
2155.712931632305
 23
1257.133318450695
 33
0.0
  0
SOLID
  5
1284
330
EF0
100
AcDbEntity
  8
SUNPOU
 62
     0
100
AcDbTrace
 10
2152.379598298972
 20
1537.133318450695
 30
0.0
 11
2159.046264965639
 21
1537.133318450695
 31
0.0
 12
2155.712931632305
 22
1557.133318450695
 32
0.0
 13
2155.712931632305
 23
1557.133318450695
 33
0.0
  0
POINT
  5
1285
330
EF0
100
AcDbEntity
  8
DEFPOINTS
 62
     0
100
AcDbPoint
 10
2155.712931632305
 20
1257.133318450695
 30
0.0
  0
POINT
  5
1286
330
EF0
100
AcDbEntity
  8
DEFPOINTS
 62
     0
100
AcDbPoint
 10
2155.712931632305
 20
1557.133318450695
 30
0.0
  0
POINT
  5
1287
330
EF0
100
AcDbEntity
  8
DEFPOINTS
 62
     0
100
AcDbPoint
 10
2155.712931632305
 20
1557.133318450695
 30
0.0
  0
ENDBLK
  5
EFB
330
EF0
100
AcDbEntity
  8
0
100
AcDbBlockEnd
  0
BLOCK
  5
F08
330
EFC
100
AcDbEntity
  8
0
100
AcDbBlockBegin
  2
*D50
 70
     1
 10
0.0
 20
0.0
 30
0.0
  3
*D50
  1

  0
LINE
  5
129A
330
EFC
100
AcDbEntity
  8
SUNPOU
 62
     0
370
    -2
100
AcDbLine
 10
2145.712931632306
 20
1557.133318450695
 30
0.0
 11
2155.712931632305
 21
1557.133318450695
 31
0.0
  0
LINE
  5
129B
330
EFC
100
AcDbEntity
  8
SUNPOU
 62
     0
370
    -2
100
AcDbLine
 10
2145.712931632306
 20
1607.133318450696
 30
0.0
 11
2155.712931632305
 21
1607.133318450696
 31
0.0
  0
LINE
  5
129C
330
EFC
100
AcDbEntity
  8
SUNPOU
 62
     0
370
    -2
100
AcDbLine
 10
2155.712931632305
 20
1537.133318450695
 30
0.0
 11
2155.712931632305
 21
1517.133318450695
 31
0.0
  0
LINE
  5
129D
330
EFC
100
AcDbEntity
  8
SUNPOU
 62
     0
370
    -2
100
AcDbLine
 10
2155.712931632305
 20
1627.133318450695
 30
0.0
 11
2155.712931632305
 21
1647.133318450696
 31
0.0
  0
MTEXT
  5
129E
330
EFC
100
AcDbEntity
  8
SUNPOU
 62
     0
100
AcDbMText
 10
2103.212931632305
 20
1582.133318450696
 30
0.0
 40
25.0
 41
0.0
 71
     5
 72
     1
  1
\A1;50
  7
BIGFONT
 11
0.0000000000000001
 21
1.0
 31
0.0
 73
     1
 44
1.0
  0
LINE
  5
129F
330
EFC
100
AcDbEntity
  8
SUNPOU
 62
     0
370
    -2
100
AcDbLine
 10
2155.712931632305
 20
1557.133318450695
 30
0.0
 11
2155.712931632305
 21
1607.133318450696
 31
0.0
  0
SOLID
  5
12A0
330
EFC
100
AcDbEntity
  8
SUNPOU
 62
     0
100
AcDbTrace
 10
2152.379598298972
 20
1537.133318450695
 30
0.0
 11
2159.046264965639
 21
1537.133318450695
 31
0.0
 12
2155.712931632305
 22
1557.133318450695
 32
0.0
 13
2155.712931632305
 23
1557.133318450695
 33
0.0
  0
SOLID
  5
12A1
330
EFC
100
AcDbEntity
  8
SUNPOU
 62
     0
100
AcDbTrace
 10
2152.379598298972
 20
1627.133318450695
 30
0.0
 11
2159.046264965639
 21
1627.133318450695
 31
0.0
 12
2155.712931632305
 22
1607.133318450696
 32
0.0
 13
2155.712931632305
 23
1607.133318450696
 33
0.0
  0
POINT
  5
12A2
330
EFC
100
AcDbEntity
  8
DEFPOINTS
 62
     0
100
AcDbPoint
 10
2155.712931632305
 20
1557.133318450695
 30
0.0
  0
POINT
  5
12A3
330
EFC
100
AcDbEntity
  8
DEFPOINTS
 62
     0
100
AcDbPoint
 10
2155.712931632305
 20
1607.133318450696
 30
0.0
  0
POINT
  5
12A4
330
EFC
100
AcDbEntity
  8
DEFPOINTS
 62
     0
100
AcDbPoint
 10
2155.712931632305
 20
1607.133318450696
 30
0.0
  0
ENDBLK
  5
F09
330
EFC
100
AcDbEntity
  8
0
100
AcDbBlockEnd
  0
BLOCK
  5
F14
330
F0A
100
AcDbEntity
  8
0
100
AcDbBlockBegin
  2
*D51
 70
     1
 10
0.0
 20
0.0
 30
0.0
  3
*D51
  1

  0
LINE
  5
12A5
330
F0A
100
AcDbEntity
  8
SUNPOU
 62
     0
370
    -2
100
AcDbLine
 10
2253.434811012593
 20
1267.133318450696
 30
0.0
 11
2253.434811012593
 21
1357.133318450695
 31
0.0
  0
LINE
  5
12A6
330
F0A
100
AcDbEntity
  8
SUNPOU
 62
     0
370
    -2
100
AcDbLine
 10
2313.434811012593
 20
1267.133318450696
 30
0.0
 11
2313.434811012593
 21
1357.133318450695
 31
0.0
  0
LINE
  5
12A7
330
F0A
100
AcDbEntity
  8
SUNPOU
 62
     0
370
    -2
100
AcDbLine
 10
2273.434811012593
 20
1357.133318450695
 30
0.0
 11
2293.434811012593
 21
1357.133318450695
 31
0.0
  0
MTEXT
  5
12A8
330
F0A
100
AcDbEntity
  8
SUNPOU
 62
     0
100
AcDbMText
 10
2283.434811012593
 20
1384.633318450696
 30
0.0
 40
25.0
 41
0.0
 71
     5
 72
     1
  1
\A1;60
  7
BIGFONT
 73
     1
 44
1.0
  0
SOLID
  5
12A9
330
F0A
100
AcDbEntity
  8
SUNPOU
 62
     0
100
AcDbTrace
 10
2273.434811012593
 20
1360.466651784029
 30
0.0
 11
2273.434811012593
 21
1353.799985117362
 31
0.0
 12
2253.434811012593
 22
1357.133318450695
 32
0.0
 13
2253.434811012593
 23
1357.133318450695
 33
0.0
  0
SOLID
  5
12AA
330
F0A
100
AcDbEntity
  8
SUNPOU
 62
     0
100
AcDbTrace
 10
2293.434811012593
 20
1360.466651784029
 30
0.0
 11
2293.434811012593
 21
1353.799985117362
 31
0.0
 12
2313.434811012593
 22
1357.133318450695
 32
0.0
 13
2313.434811012593
 23
1357.133318450695
 33
0.0
  0
POINT
  5
12AB
330
F0A
100
AcDbEntity
  8
DEFPOINTS
 62
     0
100
AcDbPoint
 10
2253.434811012593
 20
1257.133318450695
 30
0.0
  0
POINT
  5
12AC
330
F0A
100
AcDbEntity
  8
DEFPOINTS
 62
     0
100
AcDbPoint
 10
2313.434811012593
 20
1257.133318450695
 30
0.0
  0
POINT
  5
12AD
330
F0A
100
AcDbEntity
  8
DEFPOINTS
 62
     0
100
AcDbPoint
 10
2313.434811012593
 20
1357.133318450695
 30
0.0
  0
ENDBLK
  5
F15
330
F0A
100
AcDbEntity
  8
0
100
AcDbBlockEnd
  0
BLOCK
  5
F20
330
F16
100
AcDbEntity
  8
0
100
AcDbBlockBegin
  2
*D52
 70
     1
 10
0.0
 20
0.0
 30
0.0
  3
*D52
  1

  0
LINE
  5
1288
330
F16
100
AcDbEntity
  8
SUNPOU
 62
     0
370
    -2
100
AcDbLine
 10
1993.434811012593
 20
1267.133318450696
 30
0.0
 11
1993.434811012593
 21
1357.133318450695
 31
0.0
  0
LINE
  5
1289
330
F16
100
AcDbEntity
  8
SUNPOU
 62
     0
370
    -2
100
AcDbLine
 10
1933.434811012593
 20
1267.133318450696
 30
0.0
 11
1933.434811012593
 21
1357.133318450695
 31
0.0
  0
LINE
  5
128A
330
F16
100
AcDbEntity
  8
SUNPOU
 62
     0
370
    -2
100
AcDbLine
 10
1973.434811012593
 20
1357.133318450695
 30
0.0
 11
1953.434811012593
 21
1357.133318450695
 31
0.0
  0
MTEXT
  5
128B
330
F16
100
AcDbEntity
  8
SUNPOU
 62
     0
100
AcDbMText
 10
1963.434811012593
 20
1384.633318450696
 30
0.0
 40
25.0
 41
0.0
 71
     5
 72
     1
  1
\A1;60
  7
BIGFONT
 73
     1
 44
1.0
  0
SOLID
  5
128C
330
F16
100
AcDbEntity
  8
SUNPOU
 62
     0
100
AcDbTrace
 10
1973.434811012593
 20
1360.466651784029
 30
0.0
 11
1973.434811012593
 21
1353.799985117362
 31
0.0
 12
1993.434811012593
 22
1357.133318450695
 32
0.0
 13
1993.434811012593
 23
1357.133318450695
 33
0.0
  0
SOLID
  5
128D
330
F16
100
AcDbEntity
  8
SUNPOU
 62
     0
100
AcDbTrace
 10
1953.434811012593
 20
1360.466651784029
 30
0.0
 11
1953.434811012593
 21
1353.799985117362
 31
0.0
 12
1933.434811012593
 22
1357.133318450695
 32
0.0
 13
1933.434811012593
 23
1357.133318450695
 33
0.0
  0
POINT
  5
128E
330
F16
100
AcDbEntity
  8
DEFPOINTS
 62
     0
100
AcDbPoint
 10
1993.434811012593
 20
1257.133318450695
 30
0.0
  0
POINT
  5
128F
330
F16
100
AcDbEntity
  8
DEFPOINTS
 62
     0
100
AcDbPoint
 10
1933.434811012593
 20
1257.133318450695
 30
0.0
  0
POINT
  5
1290
330
F16
100
AcDbEntity
  8
DEFPOINTS
 62
     0
100
AcDbPoint
 10
1933.434811012593
 20
1357.133318450695
 30
0.0
  0
ENDBLK
  5
F21
330
F16
100
AcDbEntity
  8
0
100
AcDbBlockEnd
  0
BLOCK
  5
F2C
330
F22
100
AcDbEntity
  8
0
100
AcDbBlockBegin
  2
*D53
 70
     1
 10
0.0
 20
0.0
 30
0.0
  3
*D53
  1

  0
LINE
  5
12D9
330
F22
100
AcDbEntity
  8
SUNPOU
 62
     0
370
    -2
100
AcDbLine
 10
2410.239300454406
 20
1607.133318450696
 30
0.0
 11
2578.627339635485
 21
1607.133318450695
 31
0.0
  0
LINE
  5
12DA
330
F22
100
AcDbEntity
  8
SUNPOU
 62
     0
370
    -2
100
AcDbLine
 10
2460.239300454406
 20
1457.133318450696
 30
0.0
 11
2578.627339635485
 21
1457.133318450695
 31
0.0
  0
LINE
  5
12DB
330
F22
100
AcDbEntity
  8
SUNPOU
 62
     0
370
    -2
100
AcDbLine
 10
2578.627339635485
 20
1587.133318450695
 30
0.0
 11
2578.627339635485
 21
1477.133318450695
 31
0.0
  0
SOLID
  5
12DC
330
F22
100
AcDbEntity
  8
SUNPOU
 62
     0
100
AcDbTrace
 10
2575.294006302151
 20
1587.133318450695
 30
0.0
 11
2581.960672968818
 21
1587.133318450695
 31
0.0
 12
2578.627339635485
 22
1607.133318450695
 32
0.0
 13
2578.627339635485
 23
1607.133318450695
 33
0.0
  0
SOLID
  5
12DD
330
F22
100
AcDbEntity
  8
SUNPOU
 62
     0
100
AcDbTrace
 10
2575.294006302151
 20
1477.133318450695
 30
0.0
 11
2581.960672968818
 21
1477.133318450695
 31
0.0
 12
2578.627339635485
 22
1457.133318450695
 32
0.0
 13
2578.627339635485
 23
1457.133318450695
 33
0.0
  0
MTEXT
  5
12DE
330
F22
100
AcDbEntity
  8
SUNPOU
 62
     0
100
AcDbMText
 10
2556.127339635484
 20
1532.133318450696
 30
0.0
 40
25.0
 41
0.0
 71
     5
 72
     1
  1
\A1;150
  7
BIGFONT
 11
0.0000000000000001
 21
1.0
 31
0.0
 73
     1
 44
1.0
  0
POINT
  5
12DF
330
F22
100
AcDbEntity
  8
DEFPOINTS
 62
     0
100
AcDbPoint
 10
2400.239300454406
 20
1607.133318450696
 30
0.0
  0
POINT
  5
12E0
330
F22
100
AcDbEntity
  8
DEFPOINTS
 62
     0
100
AcDbPoint
 10
2450.239300454406
 20
1457.133318450696
 30
0.0
  0
POINT
  5
12E1
330
F22
100
AcDbEntity
  8
DEFPOINTS
 62
     0
100
AcDbPoint
 10
2578.627339635485
 20
1457.133318450695
 30
0.0
  0
ENDBLK
  5
F2D
330
F22
100
AcDbEntity
  8
0
100
AcDbBlockEnd
  0
BLOCK
  5
F37
330
F2E
100
AcDbEntity
  8
0
100
AcDbBlockBegin
  2
*D54
 70
     1
 10
0.0
 20
0.0
 30
0.0
  3
*D54
  1

  0
LINE
  5
12AE
330
F2E
100
AcDbEntity
  8
SUNPOU
 62
     0
370
    -2
100
AcDbLine
 10
2460.239300454406
 20
1297.133318450695
 30
0.0
 11
2578.627339635485
 21
1297.133318450695
 31
0.0
  0
LINE
  5
12AF
330
F2E
100
AcDbEntity
  8
SUNPOU
 62
     0
370
    -2
100
AcDbLine
 10
2578.627339635485
 20
1437.133318450695
 30
0.0
 11
2578.627339635485
 21
1317.133318450695
 31
0.0
  0
SOLID
  5
12B0
330
F2E
100
AcDbEntity
  8
SUNPOU
 62
     0
100
AcDbTrace
 10
2575.294006302151
 20
1437.133318450695
 30
0.0
 11
2581.960672968818
 21
1437.133318450695
 31
0.0
 12
2578.627339635485
 22
1457.133318450695
 32
0.0
 13
2578.627339635485
 23
1457.133318450695
 33
0.0
  0
SOLID
  5
12B1
330
F2E
100
AcDbEntity
  8
SUNPOU
 62
     0
100
AcDbTrace
 10
2575.294006302151
 20
1317.133318450695
 30
0.0
 11
2581.960672968818
 21
1317.133318450695
 31
0.0
 12
2578.627339635485
 22
1297.133318450695
 32
0.0
 13
2578.627339635485
 23
1297.133318450695
 33
0.0
  0
MTEXT
  5
12B2
330
F2E
100
AcDbEntity
  8
SUNPOU
 62
     0
100
AcDbMText
 10
2556.127339635484
 20
1377.133318450696
 30
0.0
 40
25.0
 41
0.0
 71
     5
 72
     1
  1
\A1;160
  7
BIGFONT
 11
0.0000000000000001
 21
1.0
 31
0.0
 73
     1
 44
1.0
  0
POINT
  5
12B3
330
F2E
100
AcDbEntity
  8
DEFPOINTS
 62
     0
100
AcDbPoint
 10
2450.239300454406
 20
1457.133318450696
 30
0.0
  0
POINT
  5
12B4
330
F2E
100
AcDbEntity
  8
DEFPOINTS
 62
     0
100
AcDbPoint
 10
2450.239300454406
 20
1297.133318450695
 30
0.0
  0
POINT
  5
12B5
330
F2E
100
AcDbEntity
  8
DEFPOINTS
 62
     0
100
AcDbPoint
 10
2578.627339635485
 20
1297.133318450695
 30
0.0
  0
ENDBLK
  5
F38
330
F2E
100
AcDbEntity
  8
0
100
AcDbBlockEnd
  0
BLOCK
  5
F42
330
F39
100
AcDbEntity
  8
0
100
AcDbBlockBegin
  2
*D55
 70
     1
 10
0.0
 20
0.0
 30
0.0
  3
*D55
  1

  0
LINE
  5
12C9
330
F39
100
AcDbEntity
  8
SUNPOU
 62
     0
370
    -2
100
AcDbLine
 10
2427.239300454406
 20
1197.133318450696
 30
0.0
 11
2578.627339635485
 21
1197.133318450695
 31
0.0
  0
LINE
  5
12CA
330
F39
100
AcDbEntity
  8
SUNPOU
 62
     0
370
    -2
100
AcDbLine
 10
2578.627339635485
 20
1277.133318450695
 30
0.0
 11
2578.627339635485
 21
1217.133318450695
 31
0.0
  0
SOLID
  5
12CB
330
F39
100
AcDbEntity
  8
SUNPOU
 62
     0
100
AcDbTrace
 10
2575.294006302151
 20
1277.133318450695
 30
0.0
 11
2581.960672968818
 21
1277.133318450695
 31
0.0
 12
2578.627339635485
 22
1297.133318450695
 32
0.0
 13
2578.627339635485
 23
1297.133318450695
 33
0.0
  0
SOLID
  5
12CC
330
F39
100
AcDbEntity
  8
SUNPOU
 62
     0
100
AcDbTrace
 10
2575.294006302151
 20
1217.133318450695
 30
0.0
 11
2581.960672968818
 21
1217.133318450695
 31
0.0
 12
2578.627339635485
 22
1197.133318450695
 32
0.0
 13
2578.627339635485
 23
1197.133318450695
 33
0.0
  0
MTEXT
  5
12CD
330
F39
100
AcDbEntity
  8
SUNPOU
 62
     0
100
AcDbMText
 10
2556.127339635484
 20
1247.133318450696
 30
0.0
 40
25.0
 41
0.0
 71
     5
 72
     1
  1
\A1;100
  7
BIGFONT
 11
0.0000000000000001
 21
1.0
 31
0.0
 73
     1
 44
1.0
  0
POINT
  5
12CE
330
F39
100
AcDbEntity
  8
DEFPOINTS
 62
     0
100
AcDbPoint
 10
2450.239300454406
 20
1297.133318450695
 30
0.0
  0
POINT
  5
12CF
330
F39
100
AcDbEntity
  8
DEFPOINTS
 62
     0
100
AcDbPoint
 10
2417.239300454406
 20
1197.133318450696
 30
0.0
  0
POINT
  5
12D0
330
F39
100
AcDbEntity
  8
DEFPOINTS
 62
     0
100
AcDbPoint
 10
2578.627339635485
 20
1197.133318450695
 30
0.0
  0
ENDBLK
  5
F43
330
F39
100
AcDbEntity
  8
0
100
AcDbBlockEnd
  0
BLOCK
  5
F4F
330
F44
100
AcDbEntity
  8
0
100
AcDbBlockBegin
  2
*D56
 70
     1
 10
0.0
 20
0.0
 30
0.0
  3
*D56
  1

  0
LINE
  5
12BF
330
F44
100
AcDbEntity
  8
SUNPOU
 62
     0
370
    -2
100
AcDbLine
 10
2427.239300454406
 20
1167.133318450696
 30
0.0
 11
2578.627339635485
 21
1167.133318450695
 31
0.0
  0
LINE
  5
12C0
330
F44
100
AcDbEntity
  8
SUNPOU
 62
     0
370
    -2
100
AcDbLine
 10
2578.627339635485
 20
1217.133318450695
 30
0.0
 11
2578.627339635485
 21
1237.133318450695
 31
0.0
  0
LINE
  5
12C1
330
F44
100
AcDbEntity
  8
SUNPOU
 62
     0
370
    -2
100
AcDbLine
 10
2578.627339635485
 20
1147.133318450695
 30
0.0
 11
2578.627339635485
 21
1127.133318450695
 31
0.0
  0
MTEXT
  5
12C2
330
F44
100
AcDbEntity
  8
SUNPOU
 62
     0
100
AcDbMText
 10
2631.127339635484
 20
1182.133318450696
 30
0.0
 40
25.0
 41
0.0
 71
     5
 72
     1
  1
\A1;30
  7
BIGFONT
 11
0.0000000000000001
 21
1.0
 31
0.0
 73
     1
 44
1.0
  0
LINE
  5
12C3
330
F44
100
AcDbEntity
  8
SUNPOU
 62
     0
370
    -2
100
AcDbLine
 10
2578.627339635485
 20
1197.133318450695
 30
0.0
 11
2578.627339635485
 21
1167.133318450695
 31
0.0
  0
SOLID
  5
12C4
330
F44
100
AcDbEntity
  8
SUNPOU
 62
     0
100
AcDbTrace
 10
2575.294006302151
 20
1217.133318450695
 30
0.0
 11
2581.960672968818
 21
1217.133318450695
 31
0.0
 12
2578.627339635485
 22
1197.133318450695
 32
0.0
 13
2578.627339635485
 23
1197.133318450695
 33
0.0
  0
SOLID
  5
12C5
330
F44
100
AcDbEntity
  8
SUNPOU
 62
     0
100
AcDbTrace
 10
2575.294006302151
 20
1147.133318450695
 30
0.0
 11
2581.960672968818
 21
1147.133318450695
 31
0.0
 12
2578.627339635485
 22
1167.133318450695
 32
0.0
 13
2578.627339635485
 23
1167.133318450695
 33
0.0
  0
POINT
  5
12C6
330
F44
100
AcDbEntity
  8
DEFPOINTS
 62
     0
100
AcDbPoint
 10
2417.239300454406
 20
1197.133318450696
 30
0.0
  0
POINT
  5
12C7
330
F44
100
AcDbEntity
  8
DEFPOINTS
 62
     0
100
AcDbPoint
 10
2417.239300454406
 20
1167.133318450696
 30
0.0
  0
POINT
  5
12C8
330
F44
100
AcDbEntity
  8
DEFPOINTS
 62
     0
100
AcDbPoint
 10
2578.627339635485
 20
1167.133318450695
 30
0.0
  0
ENDBLK
  5
F50
330
F44
100
AcDbEntity
  8
0
100
AcDbBlockEnd
  0
BLOCK
  5
F5A
330
F51
100
AcDbEntity
  8
0
100
AcDbBlockBegin
  2
*D57
 70
     1
 10
0.0
 20
0.0
 30
0.0
  3
*D57
  1

  0
LINE
  5
12D1
330
F51
100
AcDbEntity
  8
SUNPOU
 62
     0
370
    -2
100
AcDbLine
 10
2427.239300454406
 20
1067.133318450696
 30
0.0
 11
2578.627339635485
 21
1067.133318450695
 31
0.0
  0
LINE
  5
12D2
330
F51
100
AcDbEntity
  8
SUNPOU
 62
     0
370
    -2
100
AcDbLine
 10
2578.627339635485
 20
1147.133318450695
 30
0.0
 11
2578.627339635485
 21
1087.133318450695
 31
0.0
  0
SOLID
  5
12D3
330
F51
100
AcDbEntity
  8
SUNPOU
 62
     0
100
AcDbTrace
 10
2575.294006302151
 20
1147.133318450695
 30
0.0
 11
2581.960672968818
 21
1147.133318450695
 31
0.0
 12
2578.627339635485
 22
1167.133318450695
 32
0.0
 13
2578.627339635485
 23
1167.133318450695
 33
0.0
  0
SOLID
  5
12D4
330
F51
100
AcDbEntity
  8
SUNPOU
 62
     0
100
AcDbTrace
 10
2575.294006302151
 20
1087.133318450695
 30
0.0
 11
2581.960672968818
 21
1087.133318450695
 31
0.0
 12
2578.627339635485
 22
1067.133318450695
 32
0.0
 13
2578.627339635485
 23
1067.133318450695
 33
0.0
  0
MTEXT
  5
12D5
330
F51
100
AcDbEntity
  8
SUNPOU
 62
     0
100
AcDbMText
 10
2556.127339635484
 20
1117.133318450696
 30
0.0
 40
25.0
 41
0.0
 71
     5
 72
     1
  1
\A1;100
  7
BIGFONT
 11
0.0000000000000001
 21
1.0
 31
0.0
 73
     1
 44
1.0
  0
POINT
  5
12D6
330
F51
100
AcDbEntity
  8
DEFPOINTS
 62
     0
100
AcDbPoint
 10
2417.239300454406
 20
1167.133318450696
 30
0.0
  0
POINT
  5
12D7
330
F51
100
AcDbEntity
  8
DEFPOINTS
 62
     0
100
AcDbPoint
 10
2417.239300454406
 20
1067.133318450696
 30
0.0
  0
POINT
  5
12D8
330
F51
100
AcDbEntity
  8
DEFPOINTS
 62
     0
100
AcDbPoint
 10
2578.627339635485
 20
1067.133318450695
 30
0.0
  0
ENDBLK
  5
F5B
330
F51
100
AcDbEntity
  8
0
100
AcDbBlockEnd
  0
BLOCK
  5
F66
330
F5C
100
AcDbEntity
  8
0
100
AcDbBlockBegin
  2
*D58
 70
     1
 10
0.0
 20
0.0
 30
0.0
  3
*D58
  1

  0
LINE
  5
12B6
330
F5C
100
AcDbEntity
  8
SUNPOU
 62
     0
370
    -2
100
AcDbLine
 10
2410.239300454406
 20
1607.133318450696
 30
0.0
 11
2632.728458956346
 21
1607.133318450695
 31
0.0
  0
LINE
  5
12B7
330
F5C
100
AcDbEntity
  8
SUNPOU
 62
     0
370
    -2
100
AcDbLine
 10
2427.239300454406
 20
1197.133318450696
 30
0.0
 11
2632.728458956346
 21
1197.133318450695
 31
0.0
  0
LINE
  5
12B8
330
F5C
100
AcDbEntity
  8
SUNPOU
 62
     0
370
    -2
100
AcDbLine
 10
2632.728458956346
 20
1587.133318450695
 30
0.0
 11
2632.728458956346
 21
1217.133318450695
 31
0.0
  0
SOLID
  5
12B9
330
F5C
100
AcDbEntity
  8
SUNPOU
 62
     0
100
AcDbTrace
 10
2629.395125623013
 20
1587.133318450695
 30
0.0
 11
2636.06179228968
 21
1587.133318450695
 31
0.0
 12
2632.728458956346
 22
1607.133318450695
 32
0.0
 13
2632.728458956346
 23
1607.133318450695
 33
0.0
  0
SOLID
  5
12BA
330
F5C
100
AcDbEntity
  8
SUNPOU
 62
     0
100
AcDbTrace
 10
2629.395125623013
 20
1217.133318450695
 30
0.0
 11
2636.06179228968
 21
1217.133318450695
 31
0.0
 12
2632.728458956346
 22
1197.133318450695
 32
0.0
 13
2632.728458956346
 23
1197.133318450695
 33
0.0
  0
MTEXT
  5
12BB
330
F5C
100
AcDbEntity
  8
SUNPOU
 62
     0
100
AcDbMText
 10
2610.228458956346
 20
1402.133318450696
 30
0.0
 40
25.0
 41
0.0
 71
     5
 72
     1
  1
\A1;410
  7
BIGFONT
 11
0.0000000000000001
 21
1.0
 31
0.0
 73
     1
 44
1.0
  0
POINT
  5
12BC
330
F5C
100
AcDbEntity
  8
DEFPOINTS
 62
     0
100
AcDbPoint
 10
2400.239300454406
 20
1607.133318450696
 30
0.0
  0
POINT
  5
12BD
330
F5C
100
AcDbEntity
  8
DEFPOINTS
 62
     0
100
AcDbPoint
 10
2417.239300454406
 20
1197.133318450696
 30
0.0
  0
POINT
  5
12BE
330
F5C
100
AcDbEntity
  8
DEFPOINTS
 62
     0
100
AcDbPoint
 10
2632.728458956346
 20
1197.133318450695
 30
0.0
  0
ENDBLK
  5
F67
330
F5C
100
AcDbEntity
  8
0
100
AcDbBlockEnd
  0
BLOCK
  5
F72
330
F68
100
AcDbEntity
  8
0
100
AcDbBlockBegin
  2
*D59
 70
     1
 10
0.0
 20
0.0
 30
0.0
  3
*D59
  1

  0
LINE
  5
1264
330
F68
100
AcDbEntity
  8
SUNPOU
 62
     0
370
    -2
100
AcDbLine
 10
1873.434811012593
 20
1617.133318450695
 30
0.0
 11
1873.434811012593
 21
1759.315466922784
 31
0.0
  0
LINE
  5
1265
330
F68
100
AcDbEntity
  8
SUNPOU
 62
     0
370
    -2
100
AcDbLine
 10
2373.434811012593
 20
1617.133318450695
 30
0.0
 11
2373.434811012593
 21
1759.315466922784
 31
0.0
  0
LINE
  5
1266
330
F68
100
AcDbEntity
  8
SUNPOU
 62
     0
370
    -2
100
AcDbLine
 10
1893.434811012593
 20
1759.315466922784
 30
0.0
 11
2353.434811012593
 21
1759.315466922784
 31
0.0
  0
SOLID
  5
1267
330
F68
100
AcDbEntity
  8
SUNPOU
 62
     0
100
AcDbTrace
 10
1893.434811012593
 20
1762.648800256117
 30
0.0
 11
1893.434811012593
 21
1755.982133589451
 31
0.0
 12
1873.434811012593
 22
1759.315466922784
 32
0.0
 13
1873.434811012593
 23
1759.315466922784
 33
0.0
  0
SOLID
  5
1268
330
F68
100
AcDbEntity
  8
SUNPOU
 62
     0
100
AcDbTrace
 10
2353.434811012593
 20
1762.648800256117
 30
0.0
 11
2353.434811012593
 21
1755.982133589451
 31
0.0
 12
2373.434811012593
 22
1759.315466922784
 32
0.0
 13
2373.434811012593
 23
1759.315466922784
 33
0.0
  0
MTEXT
  5
1269
330
F68
100
AcDbEntity
  8
SUNPOU
 62
     0
100
AcDbMText
 10
2123.434811012593
 20
1781.815466922784
 30
0.0
 40
25.0
 41
0.0
 71
     5
 72
     1
  1
\A1;500
  7
BIGFONT
 73
     1
 44
1.0
  0
POINT
  5
126A
330
F68
100
AcDbEntity
  8
DEFPOINTS
 62
     0
100
AcDbPoint
 10
1873.434811012593
 20
1607.133318450696
 30
0.0
  0
POINT
  5
126B
330
F68
100
AcDbEntity
  8
DEFPOINTS
 62
     0
100
AcDbPoint
 10
2373.434811012593
 20
1607.133318450696
 30
0.0
  0
POINT
  5
126C
330
F68
100
AcDbEntity
  8
DEFPOINTS
 62
     0
100
AcDbPoint
 10
2373.434811012593
 20
1759.315466922784
 30
0.0
  0
ENDBLK
  5
F73
330
F68
100
AcDbEntity
  8
0
100
AcDbBlockEnd
  0
BLOCK
  5
F7E
330
F74
100
AcDbEntity
  8
0
100
AcDbBlockBegin
  2
*D60
 70
     1
 10
0.0
 20
0.0
 30
0.0
  3
*D60
  1

  0
LINE
  5
169F
330
F74
100
AcDbEntity
  8
SUNPOU
 62
     0
370
    -2
100
AcDbLine
 10
1875.807494493249
 20
405.2057609803596
 30
0.0
 11
1875.807494493249
 21
547.3879094524481
 31
0.0
  0
LINE
  5
16A0
330
F74
100
AcDbEntity
  8
SUNPOU
 62
     0
370
    -2
100
AcDbLine
 10
2375.807494493249
 20
405.2057609803596
 30
0.0
 11
2375.807494493249
 21
547.3879094524481
 31
0.0
  0
LINE
  5
16A1
330
F74
100
AcDbEntity
  8
SUNPOU
 62
     0
370
    -2
100
AcDbLine
 10
1895.807494493249
 20
547.3879094524481
 30
0.0
 11
2355.807494493248
 21
547.3879094524481
 31
0.0
  0
SOLID
  5
16A2
330
F74
100
AcDbEntity
  8
SUNPOU
 62
     0
100
AcDbTrace
 10
1895.807494493249
 20
550.7212427857815
 30
0.0
 11
1895.807494493249
 21
544.0545761191148
 31
0.0
 12
1875.807494493249
 22
547.3879094524481
 32
0.0
 13
1875.807494493249
 23
547.3879094524481
 33
0.0
  0
SOLID
  5
16A3
330
F74
100
AcDbEntity
  8
SUNPOU
 62
     0
100
AcDbTrace
 10
2355.807494493248
 20
550.7212427857815
 30
0.0
 11
2355.807494493248
 21
544.0545761191148
 31
0.0
 12
2375.807494493249
 22
547.3879094524481
 32
0.0
 13
2375.807494493249
 23
547.3879094524481
 33
0.0
  0
MTEXT
  5
16A4
330
F74
100
AcDbEntity
  8
SUNPOU
 62
     0
100
AcDbMText
 10
2125.807494493249
 20
569.8879094524482
 30
0.0
 40
25.0
 41
0.0
 71
     5
 72
     1
  1
\A1;500
  7
BIGFONT
 73
     1
 44
1.0
  0
POINT
  5
16A5
330
F74
100
AcDbEntity
  8
DEFPOINTS
 62
     0
100
AcDbPoint
 10
1875.807494493249
 20
395.2057609803596
 30
0.0
  0
POINT
  5
16A6
330
F74
100
AcDbEntity
  8
DEFPOINTS
 62
     0
100
AcDbPoint
 10
2375.807494493249
 20
395.2057609803596
 30
0.0
  0
POINT
  5
16A7
330
F74
100
AcDbEntity
  8
DEFPOINTS
 62
     0
100
AcDbPoint
 10
2375.807494493249
 20
547.3879094524481
 30
0.0
  0
ENDBLK
  5
F7F
330
F74
100
AcDbEntity
  8
0
100
AcDbBlockEnd
  0
BLOCK
  5
F8A
330
F80
100
AcDbEntity
  8
0
100
AcDbBlockBegin
  2
*D61
 70
     1
 10
0.0
 20
0.0
 30
0.0
  3
*D61
  1

  0
LINE
  5
1696
330
F80
100
AcDbEntity
  8
SUNPOU
 62
     0
370
    -2
100
AcDbLine
 10
1995.807494493249
 20
55.20576098035963
 30
0.0
 11
1995.807494493249
 21
145.2057609803596
 31
0.0
  0
LINE
  5
1697
330
F80
100
AcDbEntity
  8
SUNPOU
 62
     0
370
    -2
100
AcDbLine
 10
2255.807494493248
 20
55.20576098035963
 30
0.0
 11
2255.807494493248
 21
145.2057609803596
 31
0.0
  0
LINE
  5
1698
330
F80
100
AcDbEntity
  8
SUNPOU
 62
     0
370
    -2
100
AcDbLine
 10
2015.807494493249
 20
145.2057609803596
 30
0.0
 11
2235.807494493249
 21
145.2057609803596
 31
0.0
  0
SOLID
  5
1699
330
F80
100
AcDbEntity
  8
SUNPOU
 62
     0
100
AcDbTrace
 10
2015.807494493249
 20
148.5390943136929
 30
0.0
 11
2015.807494493249
 21
141.8724276470262
 31
0.0
 12
1995.807494493249
 22
145.2057609803596
 32
0.0
 13
1995.807494493249
 23
145.2057609803596
 33
0.0
  0
SOLID
  5
169A
330
F80
100
AcDbEntity
  8
SUNPOU
 62
     0
100
AcDbTrace
 10
2235.807494493249
 20
148.5390943136929
 30
0.0
 11
2235.807494493249
 21
141.8724276470262
 31
0.0
 12
2255.807494493248
 22
145.2057609803596
 32
0.0
 13
2255.807494493248
 23
145.2057609803596
 33
0.0
  0
MTEXT
  5
169B
330
F80
100
AcDbEntity
  8
SUNPOU
 62
     0
100
AcDbMText
 10
2125.807494493249
 20
167.7057609803596
 30
0.0
 40
25.0
 41
0.0
 71
     5
 72
     1
  1
\A1;260
  7
BIGFONT
 73
     1
 44
1.0
  0
POINT
  5
169C
330
F80
100
AcDbEntity
  8
DEFPOINTS
 62
     0
100
AcDbPoint
 10
1995.807494493249
 20
45.20576098035962
 30
0.0
  0
POINT
  5
169D
330
F80
100
AcDbEntity
  8
DEFPOINTS
 62
     0
100
AcDbPoint
 10
2255.807494493248
 20
45.20576098035962
 30
0.0
  0
POINT
  5
169E
330
F80
100
AcDbEntity
  8
DEFPOINTS
 62
     0
100
AcDbPoint
 10
2255.807494493248
 20
145.2057609803596
 30
0.0
  0
ENDBLK
  5
F8B
330
F80
100
AcDbEntity
  8
0
100
AcDbBlockEnd
  0
BLOCK
  5
F96
330
F8C
100
AcDbEntity
  8
0
100
AcDbBlockBegin
  2
*D62
 70
     1
 10
0.0
 20
0.0
 30
0.0
  3
*D62
  1

  0
LINE
  5
168D
330
F8C
100
AcDbEntity
  8
SUNPOU
 62
     0
370
    -2
100
AcDbLine
 10
1975.807494493249
 20
405.2057609803593
 30
0.0
 11
1975.807494493249
 21
445.2057609803595
 31
0.0
  0
LINE
  5
168E
330
F8C
100
AcDbEntity
  8
SUNPOU
 62
     0
370
    -2
100
AcDbLine
 10
2275.807494493249
 20
405.2057609803596
 30
0.0
 11
2275.807494493249
 21
445.2057609803595
 31
0.0
  0
LINE
  5
168F
330
F8C
100
AcDbEntity
  8
SUNPOU
 62
     0
370
    -2
100
AcDbLine
 10
1995.807494493249
 20
445.2057609803595
 30
0.0
 11
2255.807494493248
 21
445.2057609803595
 31
0.0
  0
SOLID
  5
1690
330
F8C
100
AcDbEntity
  8
SUNPOU
 62
     0
100
AcDbTrace
 10
1995.807494493249
 20
448.5390943136929
 30
0.0
 11
1995.807494493249
 21
441.8724276470263
 31
0.0
 12
1975.807494493249
 22
445.2057609803595
 32
0.0
 13
1975.807494493249
 23
445.2057609803595
 33
0.0
  0
SOLID
  5
1691
330
F8C
100
AcDbEntity
  8
SUNPOU
 62
     0
100
AcDbTrace
 10
2255.807494493248
 20
448.5390943136929
 30
0.0
 11
2255.807494493248
 21
441.8724276470263
 31
0.0
 12
2275.807494493249
 22
445.2057609803595
 32
0.0
 13
2275.807494493249
 23
445.2057609803595
 33
0.0
  0
MTEXT
  5
1692
330
F8C
100
AcDbEntity
  8
SUNPOU
 62
     0
100
AcDbMText
 10
2125.807494493249
 20
467.7057609803596
 30
0.0
 40
25.0
 41
0.0
 71
     5
 72
     1
  1
\A1;300
  7
BIGFONT
 73
     1
 44
1.0
  0
POINT
  5
1693
330
F8C
100
AcDbEntity
  8
DEFPOINTS
 62
     0
100
AcDbPoint
 10
1975.807494493249
 20
395.2057609803594
 30
0.0
  0
POINT
  5
1694
330
F8C
100
AcDbEntity
  8
DEFPOINTS
 62
     0
100
AcDbPoint
 10
2275.807494493249
 20
395.2057609803596
 30
0.0
  0
POINT
  5
1695
330
F8C
100
AcDbEntity
  8
DEFPOINTS
 62
     0
100
AcDbPoint
 10
2275.807494493249
 20
445.2057609803595
 30
0.0
  0
ENDBLK
  5
F97
330
F8C
100
AcDbEntity
  8
0
100
AcDbBlockEnd
  0
BLOCK
  5
FAE
330
FA4
100
AcDbEntity
  8
0
100
AcDbBlockBegin
  2
*D63
 70
     1
 10
0.0
 20
0.0
 30
0.0
  3
*D63
  1

  0
LINE
  5
16DE
330
FA4
100
AcDbEntity
  8
SUNPOU
 62
     0
370
    -2
100
AcDbLine
 10
1995.807494493249
 20
55.20576098035963
 30
0.0
 11
1995.807494493249
 21
145.2057609803596
 31
0.0
  0
LINE
  5
16DF
330
FA4
100
AcDbEntity
  8
SUNPOU
 62
     0
370
    -2
100
AcDbLine
 10
1935.807494493248
 20
55.20576098035963
 30
0.0
 11
1935.807494493248
 21
145.2057609803596
 31
0.0
  0
LINE
  5
16E0
330
FA4
100
AcDbEntity
  8
SUNPOU
 62
     0
370
    -2
100
AcDbLine
 10
1975.807494493249
 20
145.2057609803596
 30
0.0
 11
1955.807494493248
 21
145.2057609803596
 31
0.0
  0
MTEXT
  5
16E1
330
FA4
100
AcDbEntity
  8
SUNPOU
 62
     0
100
AcDbMText
 10
1965.807494493249
 20
172.7057609803596
 30
0.0
 40
25.0
 41
0.0
 71
     5
 72
     1
  1
\A1;60
  7
BIGFONT
 73
     1
 44
1.0
  0
SOLID
  5
16E2
330
FA4
100
AcDbEntity
  8
SUNPOU
 62
     0
100
AcDbTrace
 10
1975.807494493249
 20
148.5390943136929
 30
0.0
 11
1975.807494493249
 21
141.8724276470262
 31
0.0
 12
1995.807494493249
 22
145.2057609803596
 32
0.0
 13
1995.807494493249
 23
145.2057609803596
 33
0.0
  0
SOLID
  5
16E3
330
FA4
100
AcDbEntity
  8
SUNPOU
 62
     0
100
AcDbTrace
 10
1955.807494493248
 20
148.5390943136929
 30
0.0
 11
1955.807494493248
 21
141.8724276470262
 31
0.0
 12
1935.807494493248
 22
145.2057609803596
 32
0.0
 13
1935.807494493248
 23
145.2057609803596
 33
0.0
  0
POINT
  5
16E4
330
FA4
100
AcDbEntity
  8
DEFPOINTS
 62
     0
100
AcDbPoint
 10
1995.807494493249
 20
45.20576098035962
 30
0.0
  0
POINT
  5
16E5
330
FA4
100
AcDbEntity
  8
DEFPOINTS
 62
     0
100
AcDbPoint
 10
1935.807494493248
 20
45.20576098035962
 30
0.0
  0
POINT
  5
16E6
330
FA4
100
AcDbEntity
  8
DEFPOINTS
 62
     0
100
AcDbPoint
 10
1935.807494493248
 20
145.2057609803596
 30
0.0
  0
ENDBLK
  5
FAF
330
FA4
100
AcDbEntity
  8
0
100
AcDbBlockEnd
  0
BLOCK
  5
FBA
330
FB0
100
AcDbEntity
  8
0
100
AcDbBlockBegin
  2
*D64
 70
     1
 10
0.0
 20
0.0
 30
0.0
  3
*D64
  1

  0
LINE
  5
1749
330
FB0
100
AcDbEntity
  8
SUNPOU
 62
     0
370
    -2
100
AcDbLine
 10
2148.085615112961
 20
45.20576098035962
 30
0.0
 11
2158.085615112961
 21
45.20576098035962
 31
0.0
  0
LINE
  5
174A
330
FB0
100
AcDbEntity
  8
SUNPOU
 62
     0
370
    -2
100
AcDbLine
 10
2148.085615112961
 20
345.2057609803594
 30
0.0
 11
2158.085615112961
 21
345.2057609803594
 31
0.0
  0
LINE
  5
174B
330
FB0
100
AcDbEntity
  8
SUNPOU
 62
     0
370
    -2
100
AcDbLine
 10
2158.085615112961
 20
65.20576098035963
 30
0.0
 11
2158.085615112961
 21
325.2057609803594
 31
0.0
  0
MTEXT
  5
174C
330
FB0
100
AcDbEntity
  8
SUNPOU
 62
     0
100
AcDbMText
 10
2135.585615112961
 20
220.8632405030639
 30
0.0
 40
25.0
 41
0.0
 71
     5
 72
     1
  1
\A1;300
  7
BIGFONT
 11
0.0000000000000001
 21
1.0
 31
0.0
 73
     1
 44
1.0
  0
SOLID
  5
174D
330
FB0
100
AcDbEntity
  8
SUNPOU
 62
     0
100
AcDbTrace
 10
2154.752281779627
 20
65.20576098035963
 30
0.0
 11
2161.418948446295
 21
65.20576098035963
 31
0.0
 12
2158.085615112961
 22
45.20576098035962
 32
0.0
 13
2158.085615112961
 23
45.20576098035962
 33
0.0
  0
SOLID
  5
174E
330
FB0
100
AcDbEntity
  8
SUNPOU
 62
     0
100
AcDbTrace
 10
2154.752281779627
 20
325.2057609803594
 30
0.0
 11
2161.418948446295
 21
325.2057609803594
 31
0.0
 12
2158.085615112961
 22
345.2057609803594
 32
0.0
 13
2158.085615112961
 23
345.2057609803594
 33
0.0
  0
POINT
  5
174F
330
FB0
100
AcDbEntity
  8
DEFPOINTS
 62
     0
100
AcDbPoint
 10
2158.085615112961
 20
45.20576098035962
 30
0.0
  0
POINT
  5
1750
330
FB0
100
AcDbEntity
  8
DEFPOINTS
 62
     0
100
AcDbPoint
 10
2158.085615112961
 20
345.2057609803594
 30
0.0
  0
POINT
  5
1751
330
FB0
100
AcDbEntity
  8
DEFPOINTS
 62
     0
100
AcDbPoint
 10
2158.085615112961
 20
345.2057609803594
 30
0.0
  0
ENDBLK
  5
FBB
330
FB0
100
AcDbEntity
  8
0
100
AcDbBlockEnd
  0
BLOCK
  5
FC6
330
FBC
100
AcDbEntity
  8
0
100
AcDbBlockBegin
  2
*D65
 70
     1
 10
0.0
 20
0.0
 30
0.0
  3
*D65
  1

  0
LINE
  5
176E
330
FBC
100
AcDbEntity
  8
SUNPOU
 62
     0
370
    -2
100
AcDbLine
 10
2148.085615112961
 20
45.20576098035962
 30
0.0
 11
2158.085615112961
 21
45.20576098035962
 31
0.0
  0
LINE
  5
176F
330
FBC
100
AcDbEntity
  8
SUNPOU
 62
     0
370
    -2
100
AcDbLine
 10
2148.085615112961
 20
-14.7942390196406
 30
0.0
 11
2158.085615112961
 21
-14.7942390196406
 31
0.0
  0
LINE
  5
1770
330
FBC
100
AcDbEntity
  8
SUNPOU
 62
     0
370
    -2
100
AcDbLine
 10
2158.085615112961
 20
25.20576098035963
 30
0.0
 11
2158.085615112961
 21
5.2057609803594
 31
0.0
  0
MTEXT
  5
1771
330
FBC
100
AcDbEntity
  8
SUNPOU
 62
     0
100
AcDbMText
 10
2105.585615112961
 20
15.20576098035986
 30
0.0
 40
25.0
 41
0.0
 71
     5
 72
     1
  1
\A1;60
  7
BIGFONT
 11
0.0000000000000001
 21
1.0
 31
0.0
 73
     1
 44
1.0
  0
SOLID
  5
1772
330
FBC
100
AcDbEntity
  8
SUNPOU
 62
     0
100
AcDbTrace
 10
2154.752281779627
 20
25.20576098035963
 30
0.0
 11
2161.418948446295
 21
25.20576098035963
 31
0.0
 12
2158.085615112961
 22
45.20576098035962
 32
0.0
 13
2158.085615112961
 23
45.20576098035962
 33
0.0
  0
SOLID
  5
1773
330
FBC
100
AcDbEntity
  8
SUNPOU
 62
     0
100
AcDbTrace
 10
2154.752281779627
 20
5.205760980359401
 30
0.0
 11
2161.418948446295
 21
5.2057609803594
 31
0.0
 12
2158.085615112961
 22
-14.7942390196406
 32
0.0
 13
2158.085615112961
 23
-14.7942390196406
 33
0.0
  0
POINT
  5
1774
330
FBC
100
AcDbEntity
  8
DEFPOINTS
 62
     0
100
AcDbPoint
 10
2158.085615112961
 20
45.20576098035962
 30
0.0
  0
POINT
  5
1775
330
FBC
100
AcDbEntity
  8
DEFPOINTS
 62
     0
100
AcDbPoint
 10
2158.085615112961
 20
-14.7942390196406
 30
0.0
  0
POINT
  5
1776
330
FBC
100
AcDbEntity
  8
DEFPOINTS
 62
     0
100
AcDbPoint
 10
2158.085615112961
 20
-14.7942390196406
 30
0.0
  0
ENDBLK
  5
FC7
330
FBC
100
AcDbEntity
  8
0
100
AcDbBlockEnd
  0
BLOCK
  5
FD4
330
FC8
100
AcDbEntity
  8
0
100
AcDbBlockBegin
  2
*D66
 70
     1
 10
0.0
 20
0.0
 30
0.0
  3
*D66
  1

  0
LINE
  5
1787
330
FC8
100
AcDbEntity
  8
SUNPOU
 62
     0
370
    -2
100
AcDbLine
 10
2148.085615112961
 20
345.2057609803594
 30
0.0
 11
2158.085615112961
 21
345.2057609803594
 31
0.0
  0
LINE
  5
1788
330
FC8
100
AcDbEntity
  8
SUNPOU
 62
     0
370
    -2
100
AcDbLine
 10
2148.085615112961
 20
395.2057609803596
 30
0.0
 11
2158.085615112961
 21
395.2057609803596
 31
0.0
  0
LINE
  5
1789
330
FC8
100
AcDbEntity
  8
SUNPOU
 62
     0
370
    -2
100
AcDbLine
 10
2158.085615112961
 20
325.2057609803594
 30
0.0
 11
2158.085615112961
 21
305.2057609803594
 31
0.0
  0
LINE
  5
178A
330
FC8
100
AcDbEntity
  8
SUNPOU
 62
     0
370
    -2
100
AcDbLine
 10
2158.085615112961
 20
415.2057609803596
 30
0.0
 11
2158.085615112961
 21
435.2057609803596
 31
0.0
  0
MTEXT
  5
178B
330
FC8
100
AcDbEntity
  8
SUNPOU
 62
     0
100
AcDbMText
 10
2105.585615112961
 20
370.2057609803599
 30
0.0
 40
25.0
 41
0.0
 71
     5
 72
     1
  1
\A1;50
  7
BIGFONT
 11
0.0000000000000001
 21
1.0
 31
0.0
 73
     1
 44
1.0
  0
LINE
  5
178C
330
FC8
100
AcDbEntity
  8
SUNPOU
 62
     0
370
    -2
100
AcDbLine
 10
2158.085615112961
 20
345.2057609803594
 30
0.0
 11
2158.085615112961
 21
395.2057609803596
 31
0.0
  0
SOLID
  5
178D
330
FC8
100
AcDbEntity
  8
SUNPOU
 62
     0
100
AcDbTrace
 10
2154.752281779627
 20
325.2057609803594
 30
0.0
 11
2161.418948446295
 21
325.2057609803594
 31
0.0
 12
2158.085615112961
 22
345.2057609803594
 32
0.0
 13
2158.085615112961
 23
345.2057609803594
 33
0.0
  0
SOLID
  5
178E
330
FC8
100
AcDbEntity
  8
SUNPOU
 62
     0
100
AcDbTrace
 10
2154.752281779627
 20
415.2057609803596
 30
0.0
 11
2161.418948446295
 21
415.2057609803596
 31
0.0
 12
2158.085615112961
 22
395.2057609803596
 32
0.0
 13
2158.085615112961
 23
395.2057609803596
 33
0.0
  0
POINT
  5
178F
330
FC8
100
AcDbEntity
  8
DEFPOINTS
 62
     0
100
AcDbPoint
 10
2158.085615112961
 20
345.2057609803594
 30
0.0
  0
POINT
  5
1790
330
FC8
100
AcDbEntity
  8
DEFPOINTS
 62
     0
100
AcDbPoint
 10
2158.085615112961
 20
395.2057609803596
 30
0.0
  0
POINT
  5
1791
330
FC8
100
AcDbEntity
  8
DEFPOINTS
 62
     0
100
AcDbPoint
 10
2158.085615112961
 20
395.2057609803596
 30
0.0
  0
ENDBLK
  5
FD5
330
FC8
100
AcDbEntity
  8
0
100
AcDbBlockEnd
  0
BLOCK
  5
FE0
330
FD6
100
AcDbEntity
  8
0
100
AcDbBlockBegin
  2
*D67
 70
     1
 10
0.0
 20
0.0
 30
0.0
  3
*D67
  1

  0
LINE
  5
175B
330
FD6
100
AcDbEntity
  8
SUNPOU
 62
     0
370
    -2
100
AcDbLine
 10
2412.611983935061
 20
395.2057609803596
 30
0.0
 11
2635.101142437002
 21
395.2057609803596
 31
0.0
  0
LINE
  5
175C
330
FD6
100
AcDbEntity
  8
SUNPOU
 62
     0
370
    -2
100
AcDbLine
 10
2429.611983935061
 20
-14.79423901964037
 30
0.0
 11
2635.101142437002
 21
-14.79423901964043
 31
0.0
  0
LINE
  5
175D
330
FD6
100
AcDbEntity
  8
SUNPOU
 62
     0
370
    -2
100
AcDbLine
 10
2635.101142437002
 20
375.2057609803596
 30
0.0
 11
2635.101142437002
 21
5.205760980359566
 31
0.0
  0
SOLID
  5
175E
330
FD6
100
AcDbEntity
  8
SUNPOU
 62
     0
100
AcDbTrace
 10
2631.767809103668
 20
375.2057609803596
 30
0.0
 11
2638.434475770335
 21
375.2057609803596
 31
0.0
 12
2635.101142437002
 22
395.2057609803596
 32
0.0
 13
2635.101142437002
 23
395.2057609803596
 33
0.0
  0
SOLID
  5
175F
330
FD6
100
AcDbEntity
  8
SUNPOU
 62
     0
100
AcDbTrace
 10
2631.767809103668
 20
5.205760980359567
 30
0.0
 11
2638.434475770335
 21
5.205760980359565
 31
0.0
 12
2635.101142437002
 22
-14.79423901964043
 32
0.0
 13
2635.101142437002
 23
-14.79423901964043
 33
0.0
  0
MTEXT
  5
1760
330
FD6
100
AcDbEntity
  8
SUNPOU
 62
     0
100
AcDbMText
 10
2612.601142437002
 20
190.2057609803599
 30
0.0
 40
25.0
 41
0.0
 71
     5
 72
     1
  1
\A1;410
  7
BIGFONT
 11
0.0000000000000001
 21
1.0
 31
0.0
 73
     1
 44
1.0
  0
POINT
  5
1761
330
FD6
100
AcDbEntity
  8
DEFPOINTS
 62
     0
100
AcDbPoint
 10
2402.611983935062
 20
395.2057609803596
 30
0.0
  0
POINT
  5
1762
330
FD6
100
AcDbEntity
  8
DEFPOINTS
 62
     0
100
AcDbPoint
 10
2419.611983935062
 20
-14.79423901964037
 30
0.0
  0
POINT
  5
1763
330
FD6
100
AcDbEntity
  8
DEFPOINTS
 62
     0
100
AcDbPoint
 10
2635.101142437002
 20
-14.79423901964043
 30
0.0
  0
ENDBLK
  5
FE1
330
FD6
100
AcDbEntity
  8
0
100
AcDbBlockEnd
  0
BLOCK
  5
FEB
330
FE2
100
AcDbEntity
  8
0
100
AcDbBlockBegin
  2
*D68
 70
     1
 10
0.0
 20
0.0
 30
0.0
  3
*D68
  1

  0
LINE
  5
1741
330
FE2
100
AcDbEntity
  8
SUNPOU
 62
     0
370
    -2
100
AcDbLine
 10
2462.611983935062
 20
85.2057609803594
 30
0.0
 11
2581.00002311614
 21
85.20576098035936
 31
0.0
  0
LINE
  5
1742
330
FE2
100
AcDbEntity
  8
SUNPOU
 62
     0
370
    -2
100
AcDbLine
 10
2581.00002311614
 20
225.2057609803596
 30
0.0
 11
2581.00002311614
 21
105.2057609803593
 31
0.0
  0
SOLID
  5
1743
330
FE2
100
AcDbEntity
  8
SUNPOU
 62
     0
100
AcDbTrace
 10
2577.666689782807
 20
225.2057609803596
 30
0.0
 11
2584.333356449474
 21
225.2057609803596
 31
0.0
 12
2581.00002311614
 22
245.2057609803596
 32
0.0
 13
2581.00002311614
 23
245.2057609803596
 33
0.0
  0
SOLID
  5
1744
330
FE2
100
AcDbEntity
  8
SUNPOU
 62
     0
100
AcDbTrace
 10
2577.666689782807
 20
105.2057609803593
 30
0.0
 11
2584.333356449474
 21
105.2057609803593
 31
0.0
 12
2581.00002311614
 22
85.20576098035936
 32
0.0
 13
2581.00002311614
 23
85.20576098035936
 33
0.0
  0
MTEXT
  5
1745
330
FE2
100
AcDbEntity
  8
SUNPOU
 62
     0
100
AcDbMText
 10
2558.50002311614
 20
165.2057609803599
 30
0.0
 40
25.0
 41
0.0
 71
     5
 72
     1
  1
\A1;160
  7
BIGFONT
 11
0.0000000000000001
 21
1.0
 31
0.0
 73
     1
 44
1.0
  0
POINT
  5
1746
330
FE2
100
AcDbEntity
  8
DEFPOINTS
 62
     0
100
AcDbPoint
 10
2452.611983935061
 20
245.2057609803596
 30
0.0
  0
POINT
  5
1747
330
FE2
100
AcDbEntity
  8
DEFPOINTS
 62
     0
100
AcDbPoint
 10
2452.611983935061
 20
85.2057609803594
 30
0.0
  0
POINT
  5
1748
330
FE2
100
AcDbEntity
  8
DEFPOINTS
 62
     0
100
AcDbPoint
 10
2581.00002311614
 20
85.20576098035936
 30
0.0
  0
ENDBLK
  5
FEC
330
FE2
100
AcDbEntity
  8
0
100
AcDbBlockEnd
  0
BLOCK
  5
FF7
330
FED
100
AcDbEntity
  8
0
100
AcDbBlockBegin
  2
*D69
 70
     1
 10
0.0
 20
0.0
 30
0.0
  3
*D69
  1

  0
LINE
  5
1752
330
FED
100
AcDbEntity
  8
SUNPOU
 62
     0
370
    -2
100
AcDbLine
 10
2255.807494493248
 20
55.20576098035963
 30
0.0
 11
2255.807494493248
 21
145.2057609803596
 31
0.0
  0
LINE
  5
1753
330
FED
100
AcDbEntity
  8
SUNPOU
 62
     0
370
    -2
100
AcDbLine
 10
2315.807494493249
 20
55.20576098035963
 30
0.0
 11
2315.807494493249
 21
145.2057609803596
 31
0.0
  0
LINE
  5
1754
330
FED
100
AcDbEntity
  8
SUNPOU
 62
     0
370
    -2
100
AcDbLine
 10
2275.807494493249
 20
145.2057609803596
 30
0.0
 11
2295.807494493249
 21
145.2057609803596
 31
0.0
  0
MTEXT
  5
1755
330
FED
100
AcDbEntity
  8
SUNPOU
 62
     0
100
AcDbMText
 10
2285.807494493249
 20
172.7057609803596
 30
0.0
 40
25.0
 41
0.0
 71
     5
 72
     1
  1
\A1;60
  7
BIGFONT
 73
     1
 44
1.0
  0
SOLID
  5
1756
330
FED
100
AcDbEntity
  8
SUNPOU
 62
     0
100
AcDbTrace
 10
2275.807494493249
 20
148.5390943136929
 30
0.0
 11
2275.807494493249
 21
141.8724276470262
 31
0.0
 12
2255.807494493248
 22
145.2057609803596
 32
0.0
 13
2255.807494493248
 23
145.2057609803596
 33
0.0
  0
SOLID
  5
1757
330
FED
100
AcDbEntity
  8
SUNPOU
 62
     0
100
AcDbTrace
 10
2295.807494493249
 20
148.5390943136929
 30
0.0
 11
2295.807494493249
 21
141.8724276470262
 31
0.0
 12
2315.807494493249
 22
145.2057609803596
 32
0.0
 13
2315.807494493249
 23
145.2057609803596
 33
0.0
  0
POINT
  5
1758
330
FED
100
AcDbEntity
  8
DEFPOINTS
 62
     0
100
AcDbPoint
 10
2255.807494493248
 20
45.20576098035962
 30
0.0
  0
POINT
  5
1759
330
FED
100
AcDbEntity
  8
DEFPOINTS
 62
     0
100
AcDbPoint
 10
2315.807494493249
 20
45.20576098035962
 30
0.0
  0
POINT
  5
175A
330
FED
100
AcDbEntity
  8
DEFPOINTS
 62
     0
100
AcDbPoint
 10
2315.807494493249
 20
145.2057609803596
 30
0.0
  0
ENDBLK
  5
FF8
330
FED
100
AcDbEntity
  8
0
100
AcDbBlockEnd
  0
BLOCK
  5
1002
330
FF9
100
AcDbEntity
  8
0
100
AcDbBlockBegin
  2
*D70
 70
     1
 10
0.0
 20
0.0
 30
0.0
  3
*D70
  1

  0
LINE
  5
1777
330
FF9
100
AcDbEntity
  8
SUNPOU
 62
     0
370
    -2
100
AcDbLine
 10
2429.611983935061
 20
-144.7942390196403
 30
0.0
 11
2581.00002311614
 21
-144.7942390196404
 31
0.0
  0
LINE
  5
1778
330
FF9
100
AcDbEntity
  8
SUNPOU
 62
     0
370
    -2
100
AcDbLine
 10
2581.00002311614
 20
-64.7942390196404
 30
0.0
 11
2581.00002311614
 21
-124.7942390196404
 31
0.0
  0
SOLID
  5
1779
330
FF9
100
AcDbEntity
  8
SUNPOU
 62
     0
100
AcDbTrace
 10
2577.666689782807
 20
-64.7942390196404
 30
0.0
 11
2584.333356449474
 21
-64.7942390196404
 31
0.0
 12
2581.00002311614
 22
-44.79423901964041
 32
0.0
 13
2581.00002311614
 23
-44.79423901964041
 33
0.0
  0
SOLID
  5
177A
330
FF9
100
AcDbEntity
  8
SUNPOU
 62
     0
100
AcDbTrace
 10
2577.666689782807
 20
-124.7942390196404
 30
0.0
 11
2584.333356449474
 21
-124.7942390196404
 31
0.0
 12
2581.00002311614
 22
-144.7942390196404
 32
0.0
 13
2581.00002311614
 23
-144.7942390196404
 33
0.0
  0
MTEXT
  5
177B
330
FF9
100
AcDbEntity
  8
SUNPOU
 62
     0
100
AcDbMText
 10
2558.50002311614
 20
-94.79423901963999
 30
0.0
 40
25.0
 41
0.0
 71
     5
 72
     1
  1
\A1;100
  7
BIGFONT
 11
0.0000000000000001
 21
1.0
 31
0.0
 73
     1
 44
1.0
  0
POINT
  5
177C
330
FF9
100
AcDbEntity
  8
DEFPOINTS
 62
     0
100
AcDbPoint
 10
2419.611983935062
 20
-44.79423901964037
 30
0.0
  0
POINT
  5
177D
330
FF9
100
AcDbEntity
  8
DEFPOINTS
 62
     0
100
AcDbPoint
 10
2419.611983935062
 20
-144.7942390196403
 30
0.0
  0
POINT
  5
177E
330
FF9
100
AcDbEntity
  8
DEFPOINTS
 62
     0
100
AcDbPoint
 10
2581.00002311614
 20
-144.7942390196404
 30
0.0
  0
ENDBLK
  5
1003
330
FF9
100
AcDbEntity
  8
0
100
AcDbBlockEnd
  0
BLOCK
  5
100F
330
1004
100
AcDbEntity
  8
0
100
AcDbBlockBegin
  2
*D71
 70
     1
 10
0.0
 20
0.0
 30
0.0
  3
*D71
  1

  0
LINE
  5
1764
330
1004
100
AcDbEntity
  8
SUNPOU
 62
     0
370
    -2
100
AcDbLine
 10
2429.611983935061
 20
-44.79423901964037
 30
0.0
 11
2581.00002311614
 21
-44.79423901964041
 31
0.0
  0
LINE
  5
1765
330
1004
100
AcDbEntity
  8
SUNPOU
 62
     0
370
    -2
100
AcDbLine
 10
2581.00002311614
 20
5.20576098035958
 30
0.0
 11
2581.00002311614
 21
25.20576098035958
 31
0.0
  0
LINE
  5
1766
330
1004
100
AcDbEntity
  8
SUNPOU
 62
     0
370
    -2
100
AcDbLine
 10
2581.00002311614
 20
-64.7942390196404
 30
0.0
 11
2581.00002311614
 21
-84.7942390196404
 31
0.0
  0
MTEXT
  5
1767
330
1004
100
AcDbEntity
  8
SUNPOU
 62
     0
100
AcDbMText
 10
2633.50002311614
 20
-29.79423901964
 30
0.0
 40
25.0
 41
0.0
 71
     5
 72
     1
  1
\A1;30
  7
BIGFONT
 11
0.0000000000000001
 21
1.0
 31
0.0
 73
     1
 44
1.0
  0
LINE
  5
1768
330
1004
100
AcDbEntity
  8
SUNPOU
 62
     0
370
    -2
100
AcDbLine
 10
2581.00002311614
 20
-14.79423901964042
 30
0.0
 11
2581.00002311614
 21
-44.79423901964041
 31
0.0
  0
SOLID
  5
1769
330
1004
100
AcDbEntity
  8
SUNPOU
 62
     0
100
AcDbTrace
 10
2577.666689782807
 20
5.205760980359581
 30
0.0
 11
2584.333356449474
 21
5.205760980359579
 31
0.0
 12
2581.00002311614
 22
-14.79423901964042
 32
0.0
 13
2581.00002311614
 23
-14.79423901964042
 33
0.0
  0
SOLID
  5
176A
330
1004
100
AcDbEntity
  8
SUNPOU
 62
     0
100
AcDbTrace
 10
2577.666689782807
 20
-64.7942390196404
 30
0.0
 11
2584.333356449474
 21
-64.7942390196404
 31
0.0
 12
2581.00002311614
 22
-44.79423901964041
 32
0.0
 13
2581.00002311614
 23
-44.79423901964041
 33
0.0
  0
POINT
  5
176B
330
1004
100
AcDbEntity
  8
DEFPOINTS
 62
     0
100
AcDbPoint
 10
2419.611983935062
 20
-14.79423901964037
 30
0.0
  0
POINT
  5
176C
330
1004
100
AcDbEntity
  8
DEFPOINTS
 62
     0
100
AcDbPoint
 10
2419.611983935062
 20
-44.79423901964037
 30
0.0
  0
POINT
  5
176D
330
1004
100
AcDbEntity
  8
DEFPOINTS
 62
     0
100
AcDbPoint
 10
2581.00002311614
 20
-44.79423901964041
 30
0.0
  0
ENDBLK
  5
1010
330
1004
100
AcDbEntity
  8
0
100
AcDbBlockEnd
  0
BLOCK
  5
101A
330
1011
100
AcDbEntity
  8
0
100
AcDbBlockBegin
  2
*D72
 70
     1
 10
0.0
 20
0.0
 30
0.0
  3
*D72
  1

  0
LINE
  5
177F
330
1011
100
AcDbEntity
  8
SUNPOU
 62
     0
370
    -2
100
AcDbLine
 10
2429.611983935061
 20
-14.79423901964037
 30
0.0
 11
2581.00002311614
 21
-14.79423901964042
 31
0.0
  0
LINE
  5
1780
330
1011
100
AcDbEntity
  8
SUNPOU
 62
     0
370
    -2
100
AcDbLine
 10
2581.00002311614
 20
65.20576098035935
 30
0.0
 11
2581.00002311614
 21
5.20576098035958
 31
0.0
  0
SOLID
  5
1781
330
1011
100
AcDbEntity
  8
SUNPOU
 62
     0
100
AcDbTrace
 10
2577.666689782807
 20
65.20576098035935
 30
0.0
 11
2584.333356449474
 21
65.20576098035935
 31
0.0
 12
2581.00002311614
 22
85.20576098035936
 32
0.0
 13
2581.00002311614
 23
85.20576098035936
 33
0.0
  0
SOLID
  5
1782
330
1011
100
AcDbEntity
  8
SUNPOU
 62
     0
100
AcDbTrace
 10
2577.666689782807
 20
5.205760980359581
 30
0.0
 11
2584.333356449474
 21
5.205760980359579
 31
0.0
 12
2581.00002311614
 22
-14.79423901964042
 32
0.0
 13
2581.00002311614
 23
-14.79423901964042
 33
0.0
  0
MTEXT
  5
1783
330
1011
100
AcDbEntity
  8
SUNPOU
 62
     0
100
AcDbMText
 10
2558.50002311614
 20
35.20576098035988
 30
0.0
 40
25.0
 41
0.0
 71
     5
 72
     1
  1
\A1;100
  7
BIGFONT
 11
0.0000000000000001
 21
1.0
 31
0.0
 73
     1
 44
1.0
  0
POINT
  5
1784
330
1011
100
AcDbEntity
  8
DEFPOINTS
 62
     0
100
AcDbPoint
 10
2452.611983935061
 20
85.2057609803594
 30
0.0
  0
POINT
  5
1785
330
1011
100
AcDbEntity
  8
DEFPOINTS
 62
     0
100
AcDbPoint
 10
2419.611983935062
 20
-14.79423901964037
 30
0.0
  0
POINT
  5
1786
330
1011
100
AcDbEntity
  8
DEFPOINTS
 62
     0
100
AcDbPoint
 10
2581.00002311614
 20
-14.79423901964042
 30
0.0
  0
ENDBLK
  5
101B
330
1011
100
AcDbEntity
  8
0
100
AcDbBlockEnd
  0
BLOCK
  5
1026
330
101C
100
AcDbEntity
  8
0
100
AcDbBlockBegin
  2
*D73
 70
     1
 10
0.0
 20
0.0
 30
0.0
  3
*D73
  1

  0
LINE
  5
1792
330
101C
100
AcDbEntity
  8
SUNPOU
 62
     0
370
    -2
100
AcDbLine
 10
2412.611983935061
 20
395.2057609803596
 30
0.0
 11
2581.00002311614
 21
395.2057609803596
 31
0.0
  0
LINE
  5
1793
330
101C
100
AcDbEntity
  8
SUNPOU
 62
     0
370
    -2
100
AcDbLine
 10
2462.611983935062
 20
245.2057609803596
 30
0.0
 11
2581.00002311614
 21
245.2057609803596
 31
0.0
  0
LINE
  5
1794
330
101C
100
AcDbEntity
  8
SUNPOU
 62
     0
370
    -2
100
AcDbLine
 10
2581.00002311614
 20
375.2057609803596
 30
0.0
 11
2581.00002311614
 21
265.2057609803596
 31
0.0
  0
SOLID
  5
1795
330
101C
100
AcDbEntity
  8
SUNPOU
 62
     0
100
AcDbTrace
 10
2577.666689782807
 20
375.2057609803596
 30
0.0
 11
2584.333356449474
 21
375.2057609803596
 31
0.0
 12
2581.00002311614
 22
395.2057609803596
 32
0.0
 13
2581.00002311614
 23
395.2057609803596
 33
0.0
  0
SOLID
  5
1796
330
101C
100
AcDbEntity
  8
SUNPOU
 62
     0
100
AcDbTrace
 10
2577.666689782807
 20
265.2057609803596
 30
0.0
 11
2584.333356449474
 21
265.2057609803596
 31
0.0
 12
2581.00002311614
 22
245.2057609803596
 32
0.0
 13
2581.00002311614
 23
245.2057609803596
 33
0.0
  0
MTEXT
  5
1797
330
101C
100
AcDbEntity
  8
SUNPOU
 62
     0
100
AcDbMText
 10
2558.50002311614
 20
320.20576098036
 30
0.0
 40
25.0
 41
0.0
 71
     5
 72
     1
  1
\A1;150
  7
BIGFONT
 11
0.0000000000000001
 21
1.0
 31
0.0
 73
     1
 44
1.0
  0
POINT
  5
1798
330
101C
100
AcDbEntity
  8
DEFPOINTS
 62
     0
100
AcDbPoint
 10
2402.611983935062
 20
395.2057609803596
 30
0.0
  0
POINT
  5
1799
330
101C
100
AcDbEntity
  8
DEFPOINTS
 62
     0
100
AcDbPoint
 10
2452.611983935061
 20
245.2057609803596
 30
0.0
  0
POINT
  5
179A
330
101C
100
AcDbEntity
  8
DEFPOINTS
 62
     0
100
AcDbPoint
 10
2581.00002311614
 20
245.2057609803596
 30
0.0
  0
ENDBLK
  5
1027
330
101C
100
AcDbEntity
  8
0
100
AcDbBlockEnd
  0
BLOCK
  5
1382
330
1377
100
AcDbEntity
  8
0
100
AcDbBlockBegin
  2
*D74
 70
     1
 10
0.0
 20
0.0
 30
0.0
  3
*D74
  1

  0
LINE
  5
15DF
330
1377
100
AcDbEntity
  8
SUNPOU
 62
     0
370
    -2
100
AcDbLine
 10
571.4495744750791
 20
1061.055492357534
 30
0.0
 11
571.4495744750791
 21
968.1817127279146
 31
0.0
  0
LINE
  5
15E0
330
1377
100
AcDbEntity
  8
SUNPOU
 62
     0
370
    -2
100
AcDbLine
 10
1011.449574475079
 20
1061.055492357535
 30
0.0
 11
1011.449574475079
 21
968.1817127279146
 31
0.0
  0
LINE
  5
15E1
330
1377
100
AcDbEntity
  8
SUNPOU
 62
     0
370
    -2
100
AcDbLine
 10
591.4495744750791
 20
968.1817127279146
 30
0.0
 11
991.4495744750793
 21
968.1817127279146
 31
0.0
  0
MTEXT
  5
15E2
330
1377
100
AcDbEntity
  8
SUNPOU
 62
     0
100
AcDbMText
 10
791.4495744750791
 20
995.8573355753387
 30
0.0
 40
25.0
 41
0.0
 71
     5
 72
     1
  1
\A1;440
  7
BIGFONT
 73
     1
 44
1.0
  0
SOLID
  5
15E3
330
1377
100
AcDbEntity
  8
SUNPOU
 62
     0
100
AcDbTrace
 10
591.4495744750791
 20
971.5150460612479
 30
0.0
 11
591.4495744750791
 21
964.8483793945812
 31
0.0
 12
571.4495744750791
 22
968.1817127279146
 32
0.0
 13
571.4495744750791
 23
968.1817127279146
 33
0.0
  0
SOLID
  5
15E4
330
1377
100
AcDbEntity
  8
SUNPOU
 62
     0
100
AcDbTrace
 10
991.4495744750793
 20
971.5150460612479
 30
0.0
 11
991.4495744750793
 21
964.8483793945812
 31
0.0
 12
1011.449574475079
 22
968.1817127279146
 32
0.0
 13
1011.449574475079
 23
968.1817127279146
 33
0.0
  0
POINT
  5
15E5
330
1377
100
AcDbEntity
  8
DEFPOINTS
 62
     0
100
AcDbPoint
 10
571.4495744750791
 20
1071.055492357534
 30
0.0
  0
POINT
  5
15E6
330
1377
100
AcDbEntity
  8
DEFPOINTS
 62
     0
100
AcDbPoint
 10
1011.449574475079
 20
1071.055492357535
 30
0.0
  0
POINT
  5
15E7
330
1377
100
AcDbEntity
  8
DEFPOINTS
 62
     0
100
AcDbPoint
 10
1011.449574475079
 20
968.1817127279146
 30
0.0
  0
ENDBLK
  5
1383
330
1377
100
AcDbEntity
  8
0
100
AcDbBlockEnd
  0
BLOCK
  5
1424
330
141A
100
AcDbEntity
  8
0
100
AcDbBlockBegin
  2
*D75
 70
     1
 10
0.0
 20
0.0
 30
0.0
  3
*D75
  1

  0
LINE
  5
1432
330
141A
100
AcDbEntity
  8
SUNPOU
 62
     0
370
    -2
100
AcDbLine
 10
1853.434811012593
 20
1046.397909909505
 30
0.0
 11
1853.434811012593
 21
912.8304726945071
 31
0.0
  0
LINE
  5
1433
330
141A
100
AcDbEntity
  8
SUNPOU
 62
     0
370
    -2
100
AcDbLine
 10
2393.434811012593
 20
1046.397909909505
 30
0.0
 11
2393.434811012593
 21
912.8304726945071
 31
0.0
  0
LINE
  5
1434
330
141A
100
AcDbEntity
  8
SUNPOU
 62
     0
370
    -2
100
AcDbLine
 10
1873.434811012593
 20
912.8304726945071
 30
0.0
 11
2373.434811012593
 21
912.8304726945071
 31
0.0
  0
SOLID
  5
1435
330
141A
100
AcDbEntity
  8
SUNPOU
 62
     0
100
AcDbTrace
 10
1873.434811012593
 20
916.1638060278404
 30
0.0
 11
1873.434811012593
 21
909.4971393611738
 31
0.0
 12
1853.434811012593
 22
912.8304726945071
 32
0.0
 13
1853.434811012593
 23
912.8304726945071
 33
0.0
  0
SOLID
  5
1436
330
141A
100
AcDbEntity
  8
SUNPOU
 62
     0
100
AcDbTrace
 10
2373.434811012593
 20
916.1638060278404
 30
0.0
 11
2373.434811012593
 21
909.4971393611738
 31
0.0
 12
2393.434811012593
 22
912.8304726945071
 32
0.0
 13
2393.434811012593
 23
912.8304726945071
 33
0.0
  0
MTEXT
  5
1437
330
141A
100
AcDbEntity
  8
SUNPOU
 62
     0
100
AcDbMText
 10
2123.434811012593
 20
935.330472694507
 30
0.0
 40
25.0
 41
0.0
 71
     5
 72
     1
  1
\A1;540
  7
BIGFONT
 73
     1
 44
1.0
  0
POINT
  5
1438
330
141A
100
AcDbEntity
  8
DEFPOINTS
 62
     0
100
AcDbPoint
 10
1853.434811012593
 20
1056.397909909505
 30
0.0
  0
POINT
  5
1439
330
141A
100
AcDbEntity
  8
DEFPOINTS
 62
     0
100
AcDbPoint
 10
2393.434811012593
 20
1056.397909909505
 30
0.0
  0
POINT
  5
143A
330
141A
100
AcDbEntity
  8
DEFPOINTS
 62
     0
100
AcDbPoint
 10
2393.434811012593
 20
912.8304726945071
 30
0.0
  0
ENDBLK
  5
1425
330
141A
100
AcDbEntity
  8
0
100
AcDbBlockEnd
  0
BLOCK
  5
1430
330
1426
100
AcDbEntity
  8
0
100
AcDbBlockBegin
  2
*D76
 70
     1
 10
0.0
 20
0.0
 30
0.0
  3
*D76
  1

  0
LINE
  5
143B
330
1426
100
AcDbEntity
  8
SUNPOU
 62
     0
370
    -2
100
AcDbLine
 10
1903.434811012593
 20
1061.055492357534
 30
0.0
 11
1903.434811012593
 21
968.1817127279146
 31
0.0
  0
LINE
  5
143C
330
1426
100
AcDbEntity
  8
SUNPOU
 62
     0
370
    -2
100
AcDbLine
 10
2343.434811012593
 20
1061.055492357535
 30
0.0
 11
2343.434811012593
 21
968.1817127279146
 31
0.0
  0
LINE
  5
143D
330
1426
100
AcDbEntity
  8
SUNPOU
 62
     0
370
    -2
100
AcDbLine
 10
1923.434811012593
 20
968.1817127279146
 30
0.0
 11
2323.434811012593
 21
968.1817127279146
 31
0.0
  0
MTEXT
  5
143E
330
1426
100
AcDbEntity
  8
SUNPOU
 62
     0
100
AcDbMText
 10
2123.434811012593
 20
995.8573355753387
 30
0.0
 40
25.0
 41
0.0
 71
     5
 72
     1
  1
\A1;440
  7
BIGFONT
 73
     1
 44
1.0
  0
SOLID
  5
143F
330
1426
100
AcDbEntity
  8
SUNPOU
 62
     0
100
AcDbTrace
 10
1923.434811012593
 20
971.5150460612479
 30
0.0
 11
1923.434811012593
 21
964.8483793945812
 31
0.0
 12
1903.434811012593
 22
968.1817127279146
 32
0.0
 13
1903.434811012593
 23
968.1817127279146
 33
0.0
  0
SOLID
  5
1440
330
1426
100
AcDbEntity
  8
SUNPOU
 62
     0
100
AcDbTrace
 10
2323.434811012593
 20
971.5150460612479
 30
0.0
 11
2323.434811012593
 21
964.8483793945812
 31
0.0
 12
2343.434811012593
 22
968.1817127279146
 32
0.0
 13
2343.434811012593
 23
968.1817127279146
 33
0.0
  0
POINT
  5
1441
330
1426
100
AcDbEntity
  8
DEFPOINTS
 62
     0
100
AcDbPoint
 10
1903.434811012593
 20
1071.055492357534
 30
0.0
  0
POINT
  5
1442
330
1426
100
AcDbEntity
  8
DEFPOINTS
 62
     0
100
AcDbPoint
 10
2343.434811012593
 20
1071.055492357535
 30
0.0
  0
POINT
  5
1443
330
1426
100
AcDbEntity
  8
DEFPOINTS
 62
     0
100
AcDbPoint
 10
2343.434811012593
 20
968.1817127279146
 30
0.0
  0
ENDBLK
  5
1431
330
1426
100
AcDbEntity
  8
0
100
AcDbBlockEnd
  0
BLOCK
  5
145C
330
1452
100
AcDbEntity
  8
0
100
AcDbBlockBegin
  2
*D77
 70
     1
 10
0.0
 20
0.0
 30
0.0
  3
*D77
  1

  0
LINE
  5
16A8
330
1452
100
AcDbEntity
  8
SUNPOU
 62
     0
370
    -2
100
AcDbLine
 10
521.4495744750792
 20
-165.7348300871117
 30
0.0
 11
521.4495744750792
 21
-299.3022673021096
 31
0.0
  0
LINE
  5
16A9
330
1452
100
AcDbEntity
  8
SUNPOU
 62
     0
370
    -2
100
AcDbLine
 10
1061.449574475079
 20
-165.7348300871117
 30
0.0
 11
1061.449574475079
 21
-299.3022673021096
 31
0.0
  0
LINE
  5
16AA
330
1452
100
AcDbEntity
  8
SUNPOU
 62
     0
370
    -2
100
AcDbLine
 10
541.4495744750793
 20
-299.3022673021096
 30
0.0
 11
1041.449574475079
 21
-299.3022673021096
 31
0.0
  0
SOLID
  5
16AB
330
1452
100
AcDbEntity
  8
SUNPOU
 62
     0
100
AcDbTrace
 10
541.4495744750793
 20
-295.9689339687763
 30
0.0
 11
541.4495744750793
 21
-302.6356006354429
 31
0.0
 12
521.4495744750792
 22
-299.3022673021096
 32
0.0
 13
521.4495744750792
 23
-299.3022673021096
 33
0.0
  0
SOLID
  5
16AC
330
1452
100
AcDbEntity
  8
SUNPOU
 62
     0
100
AcDbTrace
 10
1041.449574475079
 20
-295.9689339687763
 30
0.0
 11
1041.449574475079
 21
-302.6356006354429
 31
0.0
 12
1061.449574475079
 22
-299.3022673021096
 32
0.0
 13
1061.449574475079
 23
-299.3022673021096
 33
0.0
  0
MTEXT
  5
16AD
330
1452
100
AcDbEntity
  8
SUNPOU
 62
     0
100
AcDbMText
 10
791.4495744750792
 20
-276.8022673021096
 30
0.0
 40
25.0
 41
0.0
 71
     5
 72
     1
  1
\A1;540
  7
BIGFONT
 73
     1
 44
1.0
  0
POINT
  5
16AE
330
1452
100
AcDbEntity
  8
DEFPOINTS
 62
     0
100
AcDbPoint
 10
521.4495744750792
 20
-155.7348300871117
 30
0.0
  0
POINT
  5
16AF
330
1452
100
AcDbEntity
  8
DEFPOINTS
 62
     0
100
AcDbPoint
 10
1061.449574475079
 20
-155.7348300871117
 30
0.0
  0
POINT
  5
16B0
330
1452
100
AcDbEntity
  8
DEFPOINTS
 62
     0
100
AcDbPoint
 10
1061.449574475079
 20
-299.3022673021096
 30
0.0
  0
ENDBLK
  5
145D
330
1452
100
AcDbEntity
  8
0
100
AcDbBlockEnd
  0
BLOCK
  5
1468
330
145E
100
AcDbEntity
  8
0
100
AcDbBlockBegin
  2
*D78
 70
     1
 10
0.0
 20
0.0
 30
0.0
  3
*D78
  1

  0
LINE
  5
16B1
330
145E
100
AcDbEntity
  8
SUNPOU
 62
     0
370
    -2
100
AcDbLine
 10
571.4495744750791
 20
-151.0772476390821
 30
0.0
 11
571.4495744750791
 21
-243.9510272687021
 31
0.0
  0
LINE
  5
16B2
330
145E
100
AcDbEntity
  8
SUNPOU
 62
     0
370
    -2
100
AcDbLine
 10
1011.449574475079
 20
-151.0772476390816
 30
0.0
 11
1011.449574475079
 21
-243.9510272687021
 31
0.0
  0
LINE
  5
16B3
330
145E
100
AcDbEntity
  8
SUNPOU
 62
     0
370
    -2
100
AcDbLine
 10
591.4495744750791
 20
-243.9510272687021
 30
0.0
 11
991.4495744750793
 21
-243.9510272687021
 31
0.0
  0
MTEXT
  5
16B4
330
145E
100
AcDbEntity
  8
SUNPOU
 62
     0
100
AcDbMText
 10
791.4495744750791
 20
-216.2754044212779
 30
0.0
 40
25.0
 41
0.0
 71
     5
 72
     1
  1
\A1;440
  7
BIGFONT
 73
     1
 44
1.0
  0
SOLID
  5
16B5
330
145E
100
AcDbEntity
  8
SUNPOU
 62
     0
100
AcDbTrace
 10
591.4495744750791
 20
-240.6176939353688
 30
0.0
 11
591.4495744750791
 21
-247.2843606020354
 31
0.0
 12
571.4495744750791
 22
-243.9510272687021
 32
0.0
 13
571.4495744750791
 23
-243.9510272687021
 33
0.0
  0
SOLID
  5
16B6
330
145E
100
AcDbEntity
  8
SUNPOU
 62
     0
100
AcDbTrace
 10
991.4495744750793
 20
-240.6176939353688
 30
0.0
 11
991.4495744750793
 21
-247.2843606020354
 31
0.0
 12
1011.449574475079
 22
-243.9510272687021
 32
0.0
 13
1011.449574475079
 23
-243.9510272687021
 33
0.0
  0
POINT
  5
16B7
330
145E
100
AcDbEntity
  8
DEFPOINTS
 62
     0
100
AcDbPoint
 10
571.4495744750791
 20
-141.0772476390821
 30
0.0
  0
POINT
  5
16B8
330
145E
100
AcDbEntity
  8
DEFPOINTS
 62
     0
100
AcDbPoint
 10
1011.449574475079
 20
-141.0772476390816
 30
0.0
  0
POINT
  5
16B9
330
145E
100
AcDbEntity
  8
DEFPOINTS
 62
     0
100
AcDbPoint
 10
1011.449574475079
 20
-243.9510272687021
 30
0.0
  0
ENDBLK
  5
1469
330
145E
100
AcDbEntity
  8
0
100
AcDbBlockEnd
  0
BLOCK
  5
1493
330
1489
100
AcDbEntity
  8
0
100
AcDbBlockBegin
  2
*D79
 70
     1
 10
0.0
 20
0.0
 30
0.0
  3
*D79
  1

  0
LINE
  5
167B
330
1489
100
AcDbEntity
  8
SUNPOU
 62
     0
370
    -2
100
AcDbLine
 10
1905.807494493248
 20
-150.8720651128014
 30
0.0
 11
1905.807494493248
 21
-243.7458447424215
 31
0.0
  0
LINE
  5
167C
330
1489
100
AcDbEntity
  8
SUNPOU
 62
     0
370
    -2
100
AcDbLine
 10
2345.807494493249
 20
-150.872065112801
 30
0.0
 11
2345.807494493249
 21
-243.7458447424215
 31
0.0
  0
LINE
  5
167D
330
1489
100
AcDbEntity
  8
SUNPOU
 62
     0
370
    -2
100
AcDbLine
 10
1925.807494493249
 20
-243.7458447424215
 30
0.0
 11
2325.807494493249
 21
-243.7458447424215
 31
0.0
  0
MTEXT
  5
167E
330
1489
100
AcDbEntity
  8
SUNPOU
 62
     0
100
AcDbMText
 10
2125.807494493249
 20
-216.0702218949973
 30
0.0
 40
25.0
 41
0.0
 71
     5
 72
     1
  1
\A1;440
  7
BIGFONT
 73
     1
 44
1.0
  0
SOLID
  5
167F
330
1489
100
AcDbEntity
  8
SUNPOU
 62
     0
100
AcDbTrace
 10
1925.807494493249
 20
-240.4125114090881
 30
0.0
 11
1925.807494493249
 21
-247.0791780757548
 31
0.0
 12
1905.807494493248
 22
-243.7458447424215
 32
0.0
 13
1905.807494493248
 23
-243.7458447424215
 33
0.0
  0
SOLID
  5
1680
330
1489
100
AcDbEntity
  8
SUNPOU
 62
     0
100
AcDbTrace
 10
2325.807494493249
 20
-240.4125114090881
 30
0.0
 11
2325.807494493249
 21
-247.0791780757548
 31
0.0
 12
2345.807494493249
 22
-243.7458447424215
 32
0.0
 13
2345.807494493249
 23
-243.7458447424215
 33
0.0
  0
POINT
  5
1681
330
1489
100
AcDbEntity
  8
DEFPOINTS
 62
     0
100
AcDbPoint
 10
1905.807494493248
 20
-140.8720651128014
 30
0.0
  0
POINT
  5
1682
330
1489
100
AcDbEntity
  8
DEFPOINTS
 62
     0
100
AcDbPoint
 10
2345.807494493249
 20
-140.872065112801
 30
0.0
  0
POINT
  5
1683
330
1489
100
AcDbEntity
  8
DEFPOINTS
 62
     0
100
AcDbPoint
 10
2345.807494493249
 20
-243.7458447424215
 30
0.0
  0
ENDBLK
  5
1494
330
1489
100
AcDbEntity
  8
0
100
AcDbBlockEnd
  0
BLOCK
  5
149F
330
1495
100
AcDbEntity
  8
0
100
AcDbBlockBegin
  2
*D80
 70
     1
 10
0.0
 20
0.0
 30
0.0
  3
*D80
  1

  0
LINE
  5
1684
330
1495
100
AcDbEntity
  8
SUNPOU
 62
     0
370
    -2
100
AcDbLine
 10
1855.807494493249
 20
-165.5296475608311
 30
0.0
 11
1855.807494493249
 21
-299.097084775829
 31
0.0
  0
LINE
  5
1685
330
1495
100
AcDbEntity
  8
SUNPOU
 62
     0
370
    -2
100
AcDbLine
 10
2395.807494493249
 20
-165.5296475608311
 30
0.0
 11
2395.807494493249
 21
-299.097084775829
 31
0.0
  0
LINE
  5
1686
330
1495
100
AcDbEntity
  8
SUNPOU
 62
     0
370
    -2
100
AcDbLine
 10
1875.807494493249
 20
-299.097084775829
 30
0.0
 11
2375.807494493249
 21
-299.097084775829
 31
0.0
  0
SOLID
  5
1687
330
1495
100
AcDbEntity
  8
SUNPOU
 62
     0
100
AcDbTrace
 10
1875.807494493249
 20
-295.7637514424957
 30
0.0
 11
1875.807494493249
 21
-302.4304181091623
 31
0.0
 12
1855.807494493249
 22
-299.097084775829
 32
0.0
 13
1855.807494493249
 23
-299.097084775829
 33
0.0
  0
SOLID
  5
1688
330
1495
100
AcDbEntity
  8
SUNPOU
 62
     0
100
AcDbTrace
 10
2375.807494493249
 20
-295.7637514424957
 30
0.0
 11
2375.807494493249
 21
-302.4304181091623
 31
0.0
 12
2395.807494493249
 22
-299.097084775829
 32
0.0
 13
2395.807494493249
 23
-299.097084775829
 33
0.0
  0
MTEXT
  5
1689
330
1495
100
AcDbEntity
  8
SUNPOU
 62
     0
100
AcDbMText
 10
2125.807494493249
 20
-276.597084775829
 30
0.0
 40
25.0
 41
0.0
 71
     5
 72
     1
  1
\A1;540
  7
BIGFONT
 73
     1
 44
1.0
  0
POINT
  5
168A
330
1495
100
AcDbEntity
  8
DEFPOINTS
 62
     0
100
AcDbPoint
 10
1855.807494493249
 20
-155.5296475608311
 30
0.0
  0
POINT
  5
168B
330
1495
100
AcDbEntity
  8
DEFPOINTS
 62
     0
100
AcDbPoint
 10
2395.807494493249
 20
-155.5296475608311
 30
0.0
  0
POINT
  5
168C
330
1495
100
AcDbEntity
  8
DEFPOINTS
 62
     0
100
AcDbPoint
 10
2395.807494493249
 20
-299.097084775829
 30
0.0
  0
ENDBLK
  5
14A0
330
1495
100
AcDbEntity
  8
0
100
AcDbBlockEnd
  0
ENDSEC
  0
SECTION
  2
ENTITIES
  0
INSERT
  5
4DB
330
18
100
AcDbEntity
  8
0
100
AcDbBlockReference
  2
MASTERS
 10
0.0
 20
0.0
 30
0.0
  0
TEXT
  5
4DC
330
18
100
AcDbEntity
  8
0
100
AcDbText
 10
277.0359649276016
 20
1895.163369120438
 30
0.0
 40
70.0
  1
透水側溝GPUs-300構造図
  7
BIGFONT
 72
     4
 11
837.7026315942678
 21
1930.163369120438
 31
0.0
100
AcDbText
  0
TEXT
  5
4DD
330
18
100
AcDbEntity
  8
0
100
AcDbText
 10
1081.491755204313
 20
1812.430651505926
 30
0.0
 40
50.0
  1
Ｓ＝１／１０
  7
BIGFONT
 72
     4
 11
1253.15842187098
 21
1835.76398483926
 31
0.0
100
AcDbText
  0
POINT
  5
4DE
330
18
100
AcDbEntity
  8
DEFPOINTS
100
AcDbPoint
 10
999.4495744750793
 20
1607.133318450696
 30
0.0
  0
LINE
  5
4E4
330
18
100
AcDbEntity
  8
0
100
AcDbLine
 10
994.4495744750794
 20
1557.133318450696
 30
0.0
 11
941.4495744750793
 21
1557.133318450696
 31
0.0
  0
LINE
  5
4E5
330
18
100
AcDbEntity
  8
0
100
AcDbLine
 10
874.6719198805031
 20
1257.133318450695
 30
0.0
 11
708.2272290696555
 21
1257.133318450695
 31
0.0
  0
LINE
  5
4E6
102
{ACAD_REACTORS
330
140A
102
}
330
18
100
AcDbEntity
  8
0
100
AcDbLine
 10
1011.449574475079
 20
1197.133318450696
 30
0.0
 11
571.4495744750792
 21
1197.133318450696
 31
0.0
  0
LINE
  5
4E9
330
18
100
AcDbEntity
  8
0
100
AcDbLine
 10
588.4495744750792
 20
1557.133318450695
 30
0.0
 11
586.4495744750793
 21
1607.133318450695
 31
0.0
  0
LINE
  5
4EA
330
18
100
AcDbEntity
  8
0
100
AcDbLine
 10
994.4495744750794
 20
1557.133318450695
 30
0.0
 11
996.4495744750793
 21
1607.133318450696
 31
0.0
  0
LINE
  5
4EB
330
18
100
AcDbEntity
  8
0
100
AcDbLine
 10
658.337971176825
 20
1303.807367924507
 30
0.0
 11
641.4495744750793
 21
1557.133318450695
 31
0.0
  0
LINE
  5
4EC
330
18
100
AcDbEntity
  8
0
100
AcDbLine
 10
941.4495744750793
 20
1557.133318450695
 30
0.0
 11
924.5611777733335
 21
1303.807367924507
 31
0.0
  0
LINE
  5
4ED
330
18
100
AcDbEntity
  8
0
100
AcDbLine
 10
641.4495744750795
 20
1557.133318450696
 30
0.0
 11
588.4495744750791
 21
1557.133318450696
 31
0.0
  0
LINE
  5
4EE
330
18
100
AcDbEntity
  8
0
100
AcDbLine
 10
621.4495744750792
 20
1197.133318450696
 30
0.0
 11
601.4495744750793
 21
1217.133318450696
 31
0.0
  0
LINE
  5
4EF
330
18
100
AcDbEntity
  8
0
100
AcDbLine
 10
961.4495744750794
 20
1197.133318450696
 30
0.0
 11
981.4495744750793
 21
1217.133318450696
 31
0.0
  0
LINE
  5
4F0
330
18
100
AcDbEntity
  8
0
100
AcDbLine
 10
994.4495744750794
 20
1457.133318450696
 30
0.0
 11
1041.449574475079
 21
1507.133318450695
 31
0.0
  0
LINE
  5
4F1
330
18
100
AcDbEntity
  8
0
100
AcDbLine
 10
588.4495744750792
 20
1457.133318450696
 30
0.0
 11
541.4495744750793
 21
1507.133318450695
 31
0.0
  0
LINE
  5
4F2
330
18
100
AcDbEntity
  8
0
100
AcDbLine
 10
601.4495744750793
 20
1217.133318450696
 30
0.0
 11
588.4495744750792
 21
1457.133318450696
 31
0.0
  0
LINE
  5
4F3
102
{ACAD_REACTORS
330
785
102
}
330
18
100
AcDbEntity
  8
0
100
AcDbLine
 10
994.4495744750794
 20
1457.133318450696
 30
0.0
 11
981.4495744750793
 21
1217.133318450696
 31
0.0
  0
ARC
  5
4F4
330
18
100
AcDbEntity
  8
0
100
AcDbCircle
 10
874.6719198805031
 20
1307.133318450695
 30
0.0
 40
50.0
100
AcDbArc
 50
270.0
 51
356.1859251657097
  0
ARC
  5
4F5
330
18
100
AcDbEntity
  8
0
100
AcDbCircle
 10
708.2272290696555
 20
1307.133318450695
 30
0.0
 40
50.0
100
AcDbArc
 50
183.8140748342904
 51
270.0
  0
LINE
  5
4F6
330
18
100
AcDbEntity
  8
0
100
AcDbLine
 10
1126.449574475079
 20
1607.133318450696
 30
0.0
 11
996.4495744750793
 21
1607.133318450695
 31
0.0
  0
DIMENSION
  5
4FE
330
18
100
AcDbEntity
  8
SUNPOU
100
AcDbDimension
  2
*D8
 10
1061.449574475079
 20
912.8304726945071
 30
0.0
 11
791.4495744750792
 21
935.330472694507
 31
0.0
 70
    32
 71
     5
 42
539.9999999999997
  3
DIM1
100
AcDbAlignedDimension
 13
521.4495744750792
 23
1056.397909909505
 33
0.0
 14
1061.449574475079
 24
1056.397909909505
 34
0.0
100
AcDbRotatedDimension
  0
LINE
  5
50A
330
18
100
AcDbEntity
  8
0
100
AcDbLine
 10
1059.449574475079
 20
1607.133318450696
 30
0.0
 11
1416.449574475079
 21
1607.133318450696
 31
0.0
  0
POINT
  5
512
330
18
100
AcDbEntity
  8
DEFPOINTS
100
AcDbPoint
 10
1044.449574475079
 20
1607.133318450696
 30
0.0
  0
POINT
  5
513
330
18
100
AcDbEntity
  8
DEFPOINTS
100
AcDbPoint
 10
1044.449574475079
 20
1507.133318450695
 30
0.0
  0
DIMENSION
  5
516
330
18
100
AcDbEntity
  8
SUNPOU
100
AcDbDimension
  2
*D9
 10
941.4495744750793
 20
1657.133318450696
 30
0.0
 11
791.4495744750793
 21
1679.633318450695
 31
0.0
 70
    32
 71
     5
 42
300.0
  3
DIM1
100
AcDbAlignedDimension
 13
641.4495744750793
 23
1607.133318450695
 33
0.0
 14
941.4495744750793
 24
1607.133318450696
 34
0.0
100
AcDbRotatedDimension
  0
DIMENSION
  5
536
330
18
100
AcDbEntity
  8
SUNPOU
100
AcDbDimension
  2
*D10
 10
921.4495744750793
 20
1357.133318450695
 30
0.0
 11
791.4495744750793
 21
1379.633318450696
 31
0.0
 70
    32
 71
     5
 42
260.0
  3
DIM1
100
AcDbAlignedDimension
 13
661.4495744750793
 23
1257.133318450695
 33
0.0
 14
921.4495744750793
 24
1257.133318450695
 34
0.0
100
AcDbRotatedDimension
  0
POINT
  5
54A
330
18
100
AcDbEntity
  8
DEFPOINTS
100
AcDbPoint
 10
981.4495744750793
 20
1257.133318450695
 30
0.0
  0
SOLID
  5
565
330
18
100
AcDbEntity
  8
SUNPOU
100
AcDbTrace
 10
526.1636039064324
 20
1104.517891332045
 30
0.0
 11
526.1636039064324
 21
1099.517891332045
 31
0.0
 12
541.1636039064323
 22
1102.017891332045
 32
0.0
 13
541.1636039064323
 23
1102.017891332045
 33
0.0
  0
LINE
  5
566
330
18
100
AcDbEntity
  8
SUNPOU
100
AcDbLine
 10
526.1636039064324
 20
1102.017891332045
 30
0.0
 11
455.7735822630466
 21
1102.017891332045
 31
0.0
  0
LINE
  5
567
330
18
100
AcDbEntity
  8
SUNPOU
100
AcDbLine
 10
455.7735822630466
 20
1102.017891332045
 30
0.0
 11
307.4402489297131
 21
1102.017891332045
 31
0.0
  0
TEXT
  5
568
330
18
100
AcDbEntity
  8
SUNPOU
100
AcDbText
 10
323.4849821950883
 20
1115.463851487625
 30
0.0
 40
25.0
  1
ｸﾗｯｼｬﾗﾝ
  7
BIGFONT
 72
     2
 11
413.4849821950884
 21
1127.963851487625
 31
0.0
100
AcDbText
 73
     2
  0
SOLID
  5
569
330
18
100
AcDbEntity
  8
SUNPOU
100
AcDbTrace
 10
585.9266165874944
 20
1181.457513577193
 30
0.0
 11
585.9266165874944
 21
1176.457513577193
 31
0.0
 12
600.9266165874944
 22
1178.957513577193
 32
0.0
 13
600.9266165874944
 23
1178.957513577193
 33
0.0
  0
LINE
  5
56A
330
18
100
AcDbEntity
  8
SUNPOU
100
AcDbLine
 10
585.9266165874944
 20
1178.957513577193
 30
0.0
 11
487.9565629032859
 21
1178.957513577193
 31
0.0
  0
LINE
  5
56B
330
18
100
AcDbEntity
  8
SUNPOU
100
AcDbLine
 10
487.9565629032859
 20
1178.957513577193
 30
0.0
 11
274.6232295699524
 21
1178.957513577193
 31
0.0
  0
TEXT
  5
56C
330
18
100
AcDbEntity
  8
SUNPOU
100
AcDbText
 10
263.0854951093552
 20
1186.81523282107
 30
0.0
 40
25.0
  1
ﾍﾞｰｽｺﾝｸﾘｰﾄ
  7
BIGFONT
 72
     2
 11
403.0854951093552
 21
1199.31523282107
 31
0.0
100
AcDbText
 73
     2
  0
SOLID
  5
56D
330
18
100
AcDbEntity
  8
SUNPOU
100
AcDbTrace
 10
609.960005223121
 20
1305.044044491121
 30
0.0
 11
609.960005223121
 21
1300.044044491121
 31
0.0
 12
624.960005223121
 22
1302.544044491121
 32
0.0
 13
624.960005223121
 23
1302.544044491121
 33
0.0
  0
LINE
  5
56E
330
18
100
AcDbEntity
  8
SUNPOU
100
AcDbLine
 10
609.960005223121
 20
1302.544044491121
 30
0.0
 11
374.1131222380409
 21
1302.544044491121
 31
0.0
  0
LINE
  5
56F
330
18
100
AcDbEntity
  8
SUNPOU
100
AcDbLine
 10
374.1131222380409
 20
1302.544044491121
 30
0.0
 11
239.239971519688
 21
1302.544044491121
 31
0.0
  0
TEXT
  5
570
330
18
100
AcDbEntity
  8
SUNPOU
100
AcDbText
 10
235.6389570852354
 20
1314.382853363071
 30
0.0
 40
25.0
  1
GPUｓ-30A0
  7
BIGFONT
 72
     2
 11
463.2580047042829
 21
1326.882853363071
 31
0.0
100
AcDbText
 73
     2
  0
DIMENSION
  5
5C9
330
18
100
AcDbEntity
  8
SUNPOU
100
AcDbDimension
  2
*D11
 10
823.7276950947917
 20
1197.133318450695
 30
0.0
 11
771.2276950947916
 21
1227.133318450696
 31
0.0
 70
    32
 71
     5
 42
60.00000000000023
  3
DIM1
100
AcDbAlignedDimension
 13
823.7276950947917
 23
1257.133318450695
 33
0.0
 14
823.7276950947917
 24
1197.133318450695
 34
0.0
 50
90.0
100
AcDbRotatedDimension
  0
DIMENSION
  5
5E1
330
18
100
AcDbEntity
  8
SUNPOU
100
AcDbDimension
  2
*D12
 10
823.7276950947917
 20
1557.133318450695
 30
0.0
 11
801.2276950947917
 21
1432.7907979734
 31
0.0
 70
   160
 71
     5
 42
299.9999999999998
  3
DIM1
100
AcDbAlignedDimension
 13
823.7276950947917
 23
1257.133318450695
 33
0.0
 14
823.7276950947917
 24
1557.133318450695
 34
0.0
 50
90.0
100
AcDbRotatedDimension
  0
DIMENSION
  5
5FB
330
18
100
AcDbEntity
  8
SUNPOU
100
AcDbDimension
  2
*D13
 10
823.7276950947917
 20
1607.133318450696
 30
0.0
 11
771.2276950947914
 21
1582.133318450696
 31
0.0
 70
    32
 71
     5
 42
50.00000000000023
  3
DIM1
100
AcDbAlignedDimension
 13
823.7276950947917
 23
1557.133318450695
 33
0.0
 14
823.7276950947917
 24
1607.133318450696
 34
0.0
 50
90.0
100
AcDbRotatedDimension
  0
DIMENSION
  5
60A
330
18
100
AcDbEntity
  8
SUNPOU
100
AcDbDimension
  2
*D14
 10
981.4495744750793
 20
1357.133318450695
 30
0.0
 11
951.4495744750792
 21
1384.633318450696
 31
0.0
 70
    32
 71
     5
 42
60.0
  3
DIM1
100
AcDbAlignedDimension
 13
921.4495744750793
 23
1257.133318450695
 33
0.0
 14
981.4495744750793
 24
1257.133318450695
 34
0.0
100
AcDbRotatedDimension
  0
DIMENSION
  5
60B
330
18
100
AcDbEntity
  8
SUNPOU
100
AcDbDimension
  2
*D15
 10
601.4495744750793
 20
1357.133318450695
 30
0.0
 11
631.4495744750793
 21
1384.633318450696
 31
0.0
 70
    32
 71
     5
 42
60.0
  3
DIM1
100
AcDbAlignedDimension
 13
661.4495744750793
 23
1257.133318450695
 33
0.0
 14
601.4495744750793
 24
1257.133318450695
 34
0.0
100
AcDbRotatedDimension
  0
LINE
  5
658
102
{ACAD_REACTORS
330
785
102
}
330
18
100
AcDbEntity
  8
0
100
AcDbLine
 10
1094.449574475079
 20
1457.133318450696
 30
0.0
 11
1094.449574475079
 21
1297.133318450695
 31
0.0
  0
LINE
  5
65A
102
{ACAD_REACTORS
330
785
102
}
330
18
100
AcDbEntity
  8
0
100
AcDbLine
 10
994.4495744750794
 20
1457.133318450696
 30
0.0
 11
1094.449574475079
 21
1457.133318450696
 31
0.0
  0
LINE
  5
65B
102
{ACAD_REACTORS
330
785
102
}
330
18
100
AcDbEntity
  8
0
100
AcDbLine
 10
985.782907808413
 20
1297.133318450695
 30
0.0
 11
1094.449574475079
 21
1297.133318450695
 31
0.0
  0
LINE
  5
65E
102
{ACAD_REACTORS
330
140A
102
}
330
18
100
AcDbEntity
  8
0
100
AcDbLine
 10
1061.449574475079
 20
1167.133318450696
 30
0.0
 11
521.4495744750792
 21
1167.133318450696
 31
0.0
  0
LINE
  5
65F
330
18
100
AcDbEntity
  8
0
100
AcDbLine
 10
1061.449574475079
 20
1067.133318450696
 30
0.0
 11
521.4495744750792
 21
1067.133318450696
 31
0.0
  0
LINE
  5
662
330
18
100
AcDbEntity
  8
0
100
AcDbLine
 10
1061.449574475079
 20
1167.133318450695
 30
0.0
 11
1061.449574475079
 21
1067.133318450696
 31
0.0
  0
LINE
  5
663
330
18
100
AcDbEntity
  8
0
100
AcDbLine
 10
521.4495744750794
 20
1167.133318450696
 30
0.0
 11
521.4495744750792
 21
1067.133318450696
 31
0.0
  0
DIMENSION
  5
6B7
330
18
100
AcDbEntity
  8
SUNPOU
100
AcDbDimension
  2
*D16
 10
1246.642103097971
 20
1457.133318450696
 30
0.0
 11
1224.14210309797
 21
1532.133318450696
 31
0.0
 70
    32
 71
     5
 42
150.0
  3
DIM1
100
AcDbAlignedDimension
 13
1068.254063916892
 23
1607.133318450696
 33
0.0
 14
1118.254063916892
 24
1457.133318450696
 34
0.0
 50
90.0
100
AcDbRotatedDimension
  0
DIMENSION
  5
6C3
330
18
100
AcDbEntity
  8
SUNPOU
100
AcDbDimension
  2
*D17
 10
1246.642103097971
 20
1297.133318450695
 30
0.0
 11
1224.14210309797
 21
1377.133318450695
 31
0.0
 70
    32
 71
     5
 42
160.0000000000002
  3
DIM1
100
AcDbAlignedDimension
 13
1118.254063916892
 23
1457.133318450696
 33
0.0
 14
1118.254063916892
 24
1297.133318450695
 34
0.0
 50
90.0
100
AcDbRotatedDimension
1001
ACAD
1000
DSTYLE
1002
{
1070
    75
1070
     1
1002
}
  0
DIMENSION
  5
6CF
330
18
100
AcDbEntity
  8
SUNPOU
100
AcDbDimension
  2
*D18
 10
1246.642103097971
 20
1197.133318450696
 30
0.0
 11
1224.14210309797
 21
1247.133318450696
 31
0.0
 70
    32
 71
     5
 42
99.99999999999978
  3
DIM1
100
AcDbAlignedDimension
 13
1118.254063916892
 23
1297.133318450695
 33
0.0
 14
1085.254063916892
 24
1197.133318450696
 34
0.0
 50
90.0
100
AcDbRotatedDimension
1001
ACAD
1000
DSTYLE
1002
{
1070
    75
1070
     1
1002
}
  0
DIMENSION
  5
6DE
330
18
100
AcDbEntity
  8
SUNPOU
100
AcDbDimension
  2
*D19
 10
1246.642103097971
 20
1167.133318450696
 30
0.0
 11
1299.142103097971
 21
1182.133318450696
 31
0.0
 70
    32
 71
     5
 42
30.0
  3
DIM1
100
AcDbAlignedDimension
 13
1085.254063916892
 23
1197.133318450696
 33
0.0
 14
1085.254063916892
 24
1167.133318450696
 34
0.0
 50
90.0
100
AcDbRotatedDimension
1001
ACAD
1000
DSTYLE
1002
{
1070
    75
1070
     1
1002
}
  0
DIMENSION
  5
6EA
330
18
100
AcDbEntity
  8
SUNPOU
100
AcDbDimension
  2
*D20
 10
1246.642103097971
 20
1067.133318450696
 30
0.0
 11
1224.14210309797
 21
1117.133318450696
 31
0.0
 70
    32
 71
     5
 42
100.0
  3
DIM1
100
AcDbAlignedDimension
 13
1085.254063916892
 23
1167.133318450696
 33
0.0
 14
1085.254063916892
 24
1067.133318450696
 34
0.0
 50
90.0
100
AcDbRotatedDimension
1001
ACAD
1000
DSTYLE
1002
{
1070
    75
1070
     1
1002
}
  0
DIMENSION
  5
6F7
330
18
100
AcDbEntity
  8
SUNPOU
100
AcDbDimension
  2
*D21
 10
1300.743222418832
 20
1197.133318450696
 30
0.0
 11
1278.243222418832
 21
1402.133318450696
 31
0.0
 70
    32
 71
     5
 42
410.0
  3
DIM1
100
AcDbAlignedDimension
 13
1068.254063916892
 23
1607.133318450696
 33
0.0
 14
1085.254063916892
 24
1197.133318450696
 34
0.0
 50
90.0
100
AcDbRotatedDimension
  0
HATCH
  5
785
330
18
100
AcDbEntity
  8
MOJI
100
AcDbHatch
 10
0.0
 20
0.0
 30
0.0
210
0.0
220
0.0
230
1.0
  2
AR-SAND
 70
     0
 71
     1
 91
        1
 92
        7
 72
     0
 73
     1
 93
        4
 10
985.7829078084126
 20
1297.133318450695
 10
1094.449574475079
 20
1297.133318450695
 10
1094.449574475079
 20
1457.133318450696
 10
994.4495744750794
 20
1457.133318450695
 97
        4
330
65A
330
4F3
330
65B
330
658
 75
     0
 76
     1
 52
0.0
 41
10.0
 77
     0
 78
     4
 53
37.5
 43
-605.4395463853033
 44
299.95665939826
 45
-0.6299335810960816
 46
19.26823769013158
 79
     6
 49
0.0
 49
-15.2
 49
0.0
 49
-17.0
 49
0.0
 49
-16.25
 53
7.499999999999999
 43
-605.4395463853033
 44
299.95665939826
 45
17.69776705267727
 46
28.2214606522974
 79
     6
 49
0.0
 49
-8.199999999999999
 49
0.0
 49
-13.7
 49
0.0
 49
-5.25
 53
327.5
 43
-617.7395463853033
 44
299.95665939826
 45
31.14141861751495
 46
0.056590535369645
 79
     6
 49
0.0
 49
-5.0
 49
0.0
 49
-18.0
 49
0.0
 49
-23.5
 53
317.5
 43
-617.7395463853033
 44
299.95665939826
 45
30.06126604572293
 46
8.77675564934249
 79
     6
 49
0.0
 49
-2.5
 49
0.0
 49
-11.8
 49
0.0
 49
-13.5
 47
2.162163071610333
 98
        1
 10
1028.073610870522
 20
1344.180160133457
  0
HATCH
  5
8A1
330
18
100
AcDbEntity
  8
MOJI
100
AcDbHatch
 10
0.0
 20
0.0
 30
0.0
210
0.0
220
0.0
230
1.0
  2
HONEY
 70
     0
 71
     0
 91
        2
 92
        7
 72
     0
 73
     1
 93
        4
 10
608.6923283893682
 20
1167.133318450696
 10
521.4495744750795
 20
1167.133318450696
 10
521.4495744750792
 20
1067.133318450695
 10
662.0720700011884
 20
1067.133318450695
 97
        0
 92
        7
 72
     0
 73
     1
 93
        4
 10
1061.449574475079
 20
1167.133318450696
 10
957.3317334076897
 20
1167.133318450696
 10
903.3024578790564
 20
1067.133318450696
 10
1061.449574475079
 20
1067.133318450696
 97
        0
 75
     0
 76
     1
 52
10.0
 41
100.0
 77
     0
 78
     3
 53
10.0
 43
-605.4395463853033
 44
299.95665939826
 45
16.58534871243797
 46
13.91675993407367
 79
     2
 49
12.5
 49
-25.0
 53
130.0
 43
-605.4395463853033
 44
299.95665939826
 45
-20.34494199749623
 46
7.404953348557977
 79
     2
 49
12.5
 49
-25.0
 53
70.0
 43
-605.4395463853033
 44
299.95665939826
 45
-3.759593285058264
 46
21.32171328263165
 79
     2
 49
-25.0
 49
12.5
 47
2.162163071610333
 98
        2
 10
608.2489849807243
 20
1108.504385268539
 10
995.6129469264251
 20
1093.369243143651
  0
HATCH
  5
92D
330
18
100
AcDbEntity
  8
MOJI
100
AcDbHatch
 10
0.0
 20
0.0
 30
0.0
210
0.0
220
0.0
230
1.0
  2
HONEY
 70
     0
 71
     0
 91
        2
 92
        7
 72
     1
 73
     1
 93
        5
 10
994.4495744750794
 20
1457.133318450696
 42
0.0
 10
934.7829078084126
 20
1457.133318450696
 42
0.0
 10
924.5611777733335
 20
1303.807367924507
 42
-0.033710199725894
 10
923.6617147361666
 20
1297.133318450695
 42
0.0
 10
985.7829078084128
 20
1297.133318450695
 42
0.0
 97
        0
 92
      153
 93
        4
 72
     1
 10
924.9614792369841
 20
1403.383318450696
 11
977.9376697131745
 21
1403.383318450696
 72
     1
 10
977.9376697131745
 20
1403.383318450696
 11
977.9376697131745
 21
1365.883318450695
 72
     1
 10
977.9376697131745
 20
1365.883318450695
 11
924.9614792369841
 21
1365.883318450695
 72
     1
 10
924.9614792369841
 20
1365.883318450695
 11
924.9614792369841
 21
1403.383318450696
 97
        0
 75
     0
 76
     1
 52
10.0
 41
60.0
 77
     0
 78
     3
 53
10.0
 43
-605.4395463853033
 44
299.95665939826
 45
9.951209227462781
 46
8.350055960444205
 79
     2
 49
7.499999999999999
 49
-15.0
 53
130.0
 43
-605.4395463853033
 44
299.95665939826
 45
-12.20696519849774
 46
4.442972009134786
 79
     2
 49
7.5
 49
-15.0
 53
70.0
 43
-605.4395463853033
 44
299.95665939826
 45
-2.255755971034959
 46
12.79302796957899
 79
     2
 49
-15.0
 49
7.499999999999999
 47
2.162163071610333
 98
        1
 10
978.3005883613277
 20
1383.099092571628
  0
DIMENSION
  5
93B
330
18
100
AcDbEntity
  8
SUNPOU
100
AcDbDimension
  2
*D22
 10
1041.449574475079
 20
1759.315466922784
 30
0.0
 11
791.4495744750793
 21
1781.815466922784
 31
0.0
 70
    32
 71
     5
 42
500.0
  3
DIM1
100
AcDbAlignedDimension
 13
541.4495744750793
 23
1607.133318450696
 33
0.0
 14
1041.449574475079
 24
1607.133318450696
 34
0.0
100
AcDbRotatedDimension
  0
INSERT
  5
970
330
18
100
AcDbEntity
  8
0
100
AcDbBlockReference
  2
A$C67384017
 10
320.0890965171525
 20
1517.133319549425
 30
0.0
  0
LINE
  5
ADC
330
18
100
AcDbEntity
  8
0
100
AcDbLine
 10
1041.449574475079
 20
1507.133318450695
 30
0.0
 11
1041.449574475079
 21
1607.133318450696
 31
0.0
  0
LINE
  5
AEA
330
18
100
AcDbEntity
  8
0
100
AcDbLine
 10
541.4495744750793
 20
1607.133318450696
 30
0.0
 11
586.4495744750793
 21
1607.133318450695
 31
0.0
  0
LINE
  5
AEB
330
18
100
AcDbEntity
  8
0
100
AcDbLine
 10
541.4495744750793
 20
1507.133318450695
 30
0.0
 11
541.4495744750793
 21
1607.133318450696
 31
0.0
  0
INSERT
  5
B23
330
18
100
AcDbEntity
  8
SUNPOU
100
AcDbBlockReference
  2
A$C57A3340D
 10
591.4495784750792
 20
335.0005774540791
 30
0.0
  0
LEADER
  5
B24
330
18
100
AcDbEntity
  8
SUNPOU
100
AcDbLeader
  3
DIM1
 73
     0
 75
     1
 40
25.0
 41
167.8571428571428
 76
     3
 10
667.3052414750791
 20
372.2457714540792
 30
0.0
 10
519.1367154750796
 20
446.411784454079
 30
0.0
 10
499.1367154750796
 20
446.411784454079
 30
0.0
340
B25
  0
MTEXT
  5
B25
102
{ACAD_REACTORS
330
B24
102
}
330
18
100
AcDbEntity
  8
SUNPOU
100
AcDbMText
 10
489.1367154750796
 20
468.9117844540789
 30
0.0
 40
25.0
 41
0.0
 71
     6
 72
     1
  1
\A1;GUF-300
  7
BIGFONT
 73
     1
 44
1.0
  0
DIMENSION
  5
B27
330
18
100
AcDbEntity
  8
SUNPOU
100
AcDbDimension
  2
*D45
 10
1041.449574475079
 20
547.1827269261675
 30
0.0
 11
791.4495744750793
 21
569.6827269261675
 31
0.0
 70
    32
 71
     5
 42
500.0
  3
DIM1
100
AcDbAlignedDimension
 13
541.4495744750793
 23
395.000578454079
 33
0.0
 14
1041.449574475079
 24
395.000578454079
 34
0.0
100
AcDbRotatedDimension
  0
HATCH
  5
B28
330
18
100
AcDbEntity
  8
MOJI
100
AcDbHatch
 10
0.0
 20
0.0
 30
0.0
210
0.0
220
0.0
230
1.0
  2
HONEY
 70
     0
 71
     0
 91
        2
 92
        7
 72
     0
 73
     1
 93
        4
 10
608.6923283893684
 20
-44.99942154592099
 10
521.4495744750792
 20
-44.99942154592099
 10
521.4495744750792
 20
-144.9994215459212
 10
662.0720700011884
 20
-144.9994215459212
 97
        0
 92
        7
 72
     0
 73
     1
 93
        4
 10
1061.449574475079
 20
-44.99942154592099
 10
957.3317334076897
 20
-44.99942154592099
 10
903.3024578790564
 20
-144.999421545921
 10
1061.449574475079
 20
-144.999421545921
 97
        0
 75
     0
 76
     1
 52
10.0
 41
100.0
 77
     0
 78
     3
 53
10.0
 43
-605.4395463853033
 44
-912.1760805983567
 45
16.58534871243797
 46
13.91675993407367
 79
     2
 49
12.49999999999999
 49
-24.99999999999998
 53
130.0
 43
-605.4395463853033
 44
-912.1760805983567
 45
-20.34494199749623
 46
7.404953348557977
 79
     2
 49
12.5
 49
-25.0
 53
70.0
 43
-605.4395463853033
 44
-912.1760805983567
 45
-3.759593285058264
 46
21.32171328263165
 79
     2
 49
-24.99999999999998
 49
12.49999999999999
 47
2.162163071610333
 98
        2
 10
608.2489849807243
 20
-103.6283547280772
 10
995.6129469264251
 20
-118.7634968529655
  0
LINE
  5
B2A
330
18
100
AcDbEntity
  8
0
 62
   250
100
AcDbLine
 10
1061.449574475079
 20
-144.999421545921
 30
0.0
 11
521.4495744750792
 21
-144.999421545921
 31
0.0
  0
LINE
  5
B2B
330
18
100
AcDbEntity
  8
0
 62
   250
100
AcDbLine
 10
1061.449574475079
 20
-44.99942154592099
 30
0.0
 11
521.4495744750792
 21
-44.99942154592099
 31
0.0
  0
DIMENSION
  5
B2C
330
18
100
AcDbEntity
  8
SUNPOU
100
AcDbDimension
  2
*D33
 10
921.4495744750793
 20
145.000578454079
 30
0.0
 11
791.4495744750793
 21
167.500578454079
 31
0.0
 70
    32
 71
     5
 42
260.0
  3
DIM1
100
AcDbAlignedDimension
 13
661.4495744750793
 23
45.000578454079
 33
0.0
 14
921.4495744750793
 24
45.000578454079
 34
0.0
100
AcDbRotatedDimension
  0
DIMENSION
  5
B2D
330
18
100
AcDbEntity
  8
SUNPOU
100
AcDbDimension
  2
*D32
 10
941.4495744750793
 20
445.000578454079
 30
0.0
 11
791.4495744750793
 21
467.500578454079
 31
0.0
 70
    32
 71
     5
 42
300.0
  3
DIM1
100
AcDbAlignedDimension
 13
641.4495744750793
 23
395.0005784540788
 33
0.0
 14
941.4495744750793
 24
395.000578454079
 34
0.0
100
AcDbRotatedDimension
  0
ARC
  5
B2F
330
18
100
AcDbEntity
  8
0
 62
   250
100
AcDbCircle
 10
874.6719198805031
 20
95.000578454079
 30
0.0
 40
50.0
100
AcDbArc
 50
270.0
 51
356.1859251657097
  0
DIMENSION
  5
B31
330
18
100
AcDbEntity
  8
SUNPOU
100
AcDbDimension
  2
*D38
 10
601.4495744750793
 20
145.000578454079
 30
0.0
 11
631.4495744750793
 21
172.500578454079
 31
0.0
 70
    32
 71
     5
 42
60.0
  3
DIM1
100
AcDbAlignedDimension
 13
661.4495744750793
 23
45.000578454079
 33
0.0
 14
601.4495744750793
 24
45.000578454079
 34
0.0
100
AcDbRotatedDimension
  0
DIMENSION
  5
B32
330
18
100
AcDbEntity
  8
SUNPOU
100
AcDbDimension
  2
*D35
 10
823.7276950947917
 20
345.0005784540788
 30
0.0
 11
801.2276950947917
 21
220.6580579767833
 31
0.0
 70
   160
 71
     5
 42
299.9999999999998
  3
DIM1
100
AcDbAlignedDimension
 13
823.7276950947917
 23
45.000578454079
 33
0.0
 14
823.7276950947917
 24
345.0005784540788
 34
0.0
 50
90.0
100
AcDbRotatedDimension
  0
LINE
  5
B33
330
18
100
AcDbEntity
  8
0
 62
   250
100
AcDbLine
 10
601.4495744750793
 20
5.000578454079004
 30
0.0
 11
588.4495744750792
 21
245.000578454079
 31
0.0
  0
LINE
  5
B34
330
18
100
AcDbEntity
  8
0
 62
   250
100
AcDbLine
 10
658.3379711768247
 20
91.67462792789001
 30
0.0
 11
641.4495744750793
 21
345.000578454079
 31
0.0
  0
LINE
  5
B38
330
18
100
AcDbEntity
  8
SUNPOU
100
AcDbLine
 10
455.7735822630466
 20
-110.1148486645715
 30
0.0
 11
307.4402489297131
 21
-110.1148486645715
 31
0.0
  0
TEXT
  5
B39
330
18
100
AcDbEntity
  8
SUNPOU
100
AcDbText
 10
323.4849821950883
 20
-96.66888850899159
 30
0.0
 40
25.0
  1
ｸﾗｯｼｬﾗﾝ
  7
BIGFONT
 72
     2
 11
413.4849821950884
 21
-84.16888850899159
 31
0.0
100
AcDbText
 73
     2
  0
LINE
  5
B3C
330
18
100
AcDbEntity
  8
0
 62
   250
100
AcDbLine
 10
521.4495744750792
 20
-44.99942154592099
 30
0.0
 11
521.4495744750792
 21
-144.999421545921
 31
0.0
  0
SOLID
  5
B3E
330
18
100
AcDbEntity
  8
SUNPOU
100
AcDbTrace
 10
526.1636039064324
 20
-107.6148486645716
 30
0.0
 11
526.1636039064324
 21
-112.6148486645716
 31
0.0
 12
541.1636039064323
 22
-110.1148486645715
 32
0.0
 13
541.1636039064323
 23
-110.1148486645715
 33
0.0
  0
LINE
  5
B3F
330
18
100
AcDbEntity
  8
SUNPOU
100
AcDbLine
 10
526.1636039064324
 20
-110.1148486645715
 30
0.0
 11
455.7735822630466
 21
-110.1148486645715
 31
0.0
  0
LINE
  5
B41
330
18
100
AcDbEntity
  8
0
 62
   250
100
AcDbLine
 10
621.4495744750792
 20
-14.99942154592099
 30
0.0
 11
601.4495744750793
 21
5.000578454079004
 31
0.0
  0
LINE
  5
B43
330
18
100
AcDbEntity
  8
0
 62
   250
100
AcDbLine
 10
874.6719198805031
 20
45.000578454079
 30
0.0
 11
708.2272290696555
 21
45.00057845407877
 31
0.0
  0
ARC
  5
B44
330
18
100
AcDbEntity
  8
0
 62
   250
100
AcDbCircle
 10
708.2272290696555
 20
95.00057845407878
 30
0.0
 40
50.0
100
AcDbArc
 50
183.8140748342904
 51
270.0
  0
DIMENSION
  5
B45
330
18
100
AcDbEntity
  8
SUNPOU
100
AcDbDimension
  2
*D34
 10
823.7276950947917
 20
-14.99942154592122
 30
0.0
 11
771.2276950947916
 21
15.00057845407902
 31
0.0
 70
    32
 71
     5
 42
60.00000000000023
  3
DIM1
100
AcDbAlignedDimension
 13
823.7276950947917
 23
45.000578454079
 33
0.0
 14
823.7276950947917
 24
-14.99942154592122
 34
0.0
 50
90.0
100
AcDbRotatedDimension
  0
LINE
  5
B46
330
18
100
AcDbEntity
  8
0
 62
   250
100
AcDbLine
 10
541.4495744750793
 20
295.0005784540788
 30
0.0
 11
541.4495744750793
 21
395.000578454079
 31
0.0
  0
LINE
  5
B47
330
18
100
AcDbEntity
  8
0
 62
   250
100
AcDbLine
 10
588.4495744750792
 20
245.000578454079
 30
0.0
 11
541.4495744750793
 21
295.0005784540788
 31
0.0
  0
LINE
  5
B48
330
18
100
AcDbEntity
  8
0
 62
   250
100
AcDbLine
 10
588.4495744750792
 20
345.000578454079
 30
0.0
 11
586.4495744750793
 21
395.0005784540788
 31
0.0
  0
LINE
  5
B49
330
18
100
AcDbEntity
  8
0
 62
   250
100
AcDbLine
 10
641.4495744750793
 20
345.0005784540792
 30
0.0
 11
588.4495744750792
 21
345.0005784540792
 31
0.0
  0
LINE
  5
B4A
330
18
100
AcDbEntity
  8
0
100
AcDbLine
 10
541.4495744750793
 20
395.000578454079
 30
0.0
 11
586.4495744750793
 21
395.0005784540788
 31
0.0
  0
DIMENSION
  5
B4B
330
18
100
AcDbEntity
  8
SUNPOU
100
AcDbDimension
  2
*D36
 10
823.7276950947917
 20
395.000578454079
 30
0.0
 11
771.2276950947916
 21
370.000578454079
 31
0.0
 70
    32
 71
     5
 42
50.00000000000023
  3
DIM1
100
AcDbAlignedDimension
 13
823.7276950947917
 23
345.0005784540788
 33
0.0
 14
823.7276950947917
 24
395.000578454079
 34
0.0
 50
90.0
100
AcDbRotatedDimension
  0
HATCH
  5
B4C
330
18
100
AcDbEntity
  8
MOJI
100
AcDbHatch
 10
0.0
 20
0.0
 30
0.0
210
0.0
220
0.0
230
1.0
  2
HONEY
 70
     0
 71
     0
 91
        2
 92
        7
 72
     1
 73
     1
 93
        5
 10
994.4495744750794
 20
245.000578454079
 42
0.0
 10
934.7829078084123
 20
245.000578454079
 42
0.0
 10
924.5611777733339
 20
91.67462792789047
 42
-0.033710199725894
 10
923.6617147361666
 20
85.000578454079
 42
0.0
 10
985.7829078084128
 20
85.000578454079
 42
0.0
 97
        0
 92
      153
 93
        4
 72
     1
 10
924.9614792369838
 20
191.250578454079
 11
977.9376697131743
 21
191.250578454079
 72
     1
 10
977.9376697131747
 20
191.250578454079
 11
977.9376697131747
 21
153.750578454079
 72
     1
 10
977.9376697131747
 20
153.750578454079
 11
924.9614792369843
 21
153.750578454079
 72
     1
 10
924.9614792369838
 20
153.750578454079
 11
924.9614792369838
 21
191.250578454079
 97
        0
 75
     0
 76
     1
 52
10.0
 41
60.0
 77
     0
 78
     3
 53
10.0
 43
-605.4395463853033
 44
-912.1760805983567
 45
9.951209227462781
 46
8.350055960444205
 79
     2
 49
7.499999999999993
 49
-14.99999999999999
 53
130.0
 43
-605.4395463853033
 44
-912.1760805983567
 45
-12.20696519849774
 46
4.442972009134786
 79
     2
 49
7.5
 49
-15.0
 53
70.0
 43
-605.4395463853033
 44
-912.1760805983567
 45
-2.255755971034959
 46
12.79302796957899
 79
     2
 49
-14.99999999999999
 49
7.499999999999993
 47
2.162163071610333
 98
        1
 10
978.3005883613277
 20
170.9663525750111
  0
HATCH
  5
B4D
330
18
100
AcDbEntity
  8
MOJI
100
AcDbHatch
 10
0.0
 20
0.0
 30
0.0
210
0.0
220
0.0
230
1.0
  2
AR-SAND
 70
     0
 71
     1
 91
        1
 92
        7
 72
     0
 73
     1
 93
        4
 10
985.7829078084126
 20
85.000578454079
 10
1094.449574475079
 20
85.000578454079
 10
1094.449574475079
 20
245.000578454079
 10
994.4495744750794
 20
245.000578454079
 97
        4
330
B5F
330
B52
330
B58
330
B50
 75
     0
 76
     1
 52
0.0
 41
10.0
 77
     0
 78
     4
 53
37.5
 43
-605.4395463853033
 44
-912.1760805983567
 45
-0.6299335810960816
 46
19.26823769013158
 79
     6
 49
0.0
 49
-15.2
 49
0.0
 49
-17.0
 49
0.0
 49
-16.25
 53
7.499999999999999
 43
-605.4395463853033
 44
-912.1760805983567
 45
17.69776705267727
 46
28.2214606522974
 79
     6
 49
0.0
 49
-8.199999999999999
 49
0.0
 49
-13.7
 49
0.0
 49
-5.25
 53
327.5
 43
-617.7395463853035
 44
-912.1760805983567
 45
31.14141861751495
 46
0.056590535369645
 79
     6
 49
0.0
 49
-5.0
 49
0.0
 49
-18.0
 49
0.0
 49
-23.5
 53
317.5
 43
-617.7395463853035
 44
-912.1760805983567
 45
30.06126604572293
 46
8.77675564934249
 79
     6
 49
0.0
 49
-2.5
 49
0.0
 49
-11.8
 49
0.0
 49
-13.5
 47
2.162163071610333
 98
        1
 10
1028.073610870522
 20
132.0474201368406
  0
DIMENSION
  5
B4E
330
18
100
AcDbEntity
  8
SUNPOU
100
AcDbDimension
  2
*D44
 10
1300.743222418832
 20
-14.99942154592105
 30
0.0
 11
1278.243222418832
 21
190.0005784540791
 31
0.0
 70
    32
 71
     5
 42
410.0
  3
DIM1
100
AcDbAlignedDimension
 13
1068.254063916892
 23
395.000578454079
 33
0.0
 14
1085.254063916892
 24
-14.99942154592099
 34
0.0
 50
90.0
100
AcDbRotatedDimension
  0
DIMENSION
  5
B4F
330
18
100
AcDbEntity
  8
SUNPOU
100
AcDbDimension
  2
*D40
 10
1246.642103097971
 20
85.00057845407873
 30
0.0
 11
1224.142103097971
 21
165.000578454079
 31
0.0
 70
    32
 71
     5
 42
160.0000000000002
  3
DIM1
100
AcDbAlignedDimension
 13
1118.254063916892
 23
245.000578454079
 33
0.0
 14
1118.254063916892
 24
85.00057845407878
 34
0.0
 50
90.0
100
AcDbRotatedDimension
1001
ACAD
1000
DSTYLE
1002
{
1070
    75
1070
     1
1002
}
  0
LINE
  5
B50
102
{ACAD_REACTORS
330
B4D
102
}
330
18
100
AcDbEntity
  8
0
 62
   250
100
AcDbLine
 10
1094.449574475079
 20
245.000578454079
 30
0.0
 11
1094.449574475079
 21
85.000578454079
 31
0.0
  0
DIMENSION
  5
B51
330
18
100
AcDbEntity
  8
SUNPOU
100
AcDbDimension
  2
*D37
 10
981.4495744750793
 20
145.000578454079
 30
0.0
 11
951.4495744750792
 21
172.500578454079
 31
0.0
 70
    32
 71
     5
 42
60.0
  3
DIM1
100
AcDbAlignedDimension
 13
921.4495744750793
 23
45.000578454079
 33
0.0
 14
981.4495744750793
 24
45.000578454079
 34
0.0
100
AcDbRotatedDimension
  0
LINE
  5
B52
102
{ACAD_REACTORS
330
B4D
102
}
330
18
100
AcDbEntity
  8
0
 62
   250
100
AcDbLine
 10
994.4495744750794
 20
245.000578454079
 30
0.0
 11
981.4495744750793
 21
5.000578454079004
 31
0.0
  0
LINE
  5
B53
330
18
100
AcDbEntity
  8
0
 62
   250
100
AcDbLine
 10
941.4495744750793
 20
345.000578454079
 30
0.0
 11
924.5611777733339
 21
91.67462792789047
 31
0.0
  0
DIMENSION
  5
B54
330
18
100
AcDbEntity
  8
SUNPOU
100
AcDbDimension
  2
*D43
 10
1246.642103097971
 20
-144.999421545921
 30
0.0
 11
1224.142103097971
 21
-94.99942154592083
 31
0.0
 70
    32
 71
     5
 42
100.0
  3
DIM1
100
AcDbAlignedDimension
 13
1085.254063916892
 23
-44.99942154592099
 33
0.0
 14
1085.254063916892
 24
-144.999421545921
 34
0.0
 50
90.0
100
AcDbRotatedDimension
1001
ACAD
1000
DSTYLE
1002
{
1070
    75
1070
     1
1002
}
  0
DIMENSION
  5
B55
330
18
100
AcDbEntity
  8
SUNPOU
100
AcDbDimension
  2
*D42
 10
1246.642103097971
 20
-44.99942154592104
 30
0.0
 11
1299.142103097971
 21
-29.99942154592084
 31
0.0
 70
    32
 71
     5
 42
30.0
  3
DIM1
100
AcDbAlignedDimension
 13
1085.254063916892
 23
-14.99942154592099
 33
0.0
 14
1085.254063916892
 24
-44.99942154592099
 34
0.0
 50
90.0
100
AcDbRotatedDimension
1001
ACAD
1000
DSTYLE
1002
{
1070
    75
1070
     1
1002
}
  0
DIMENSION
  5
B56
330
18
100
AcDbEntity
  8
SUNPOU
100
AcDbDimension
  2
*D41
 10
1246.642103097971
 20
-14.99942154592104
 30
0.0
 11
1224.142103097971
 21
35.00057845407904
 31
0.0
 70
    32
 71
     5
 42
99.99999999999978
  3
DIM1
100
AcDbAlignedDimension
 13
1118.254063916892
 23
85.00057845407878
 33
0.0
 14
1085.254063916892
 24
-14.99942154592099
 34
0.0
 50
90.0
100
AcDbRotatedDimension
1001
ACAD
1000
DSTYLE
1002
{
1070
    75
1070
     1
1002
}
  0
LINE
  5
B57
330
18
100
AcDbEntity
  8
0
 62
   250
100
AcDbLine
 10
1061.449574475079
 20
-44.99942154592099
 30
0.0
 11
1061.449574475079
 21
-144.999421545921
 31
0.0
  0
LINE
  5
B58
102
{ACAD_REACTORS
330
B4D
102
}
330
18
100
AcDbEntity
  8
0
 62
   250
100
AcDbLine
 10
985.7829078084133
 20
85.000578454079
 30
0.0
 11
1094.449574475079
 21
85.000578454079
 31
0.0
  0
LINE
  5
B59
330
18
100
AcDbEntity
  8
0
 62
   250
100
AcDbLine
 10
961.4495744750794
 20
-14.99942154592099
 30
0.0
 11
981.4495744750793
 21
5.000578454079004
 31
0.0
  0
POINT
  5
B5A
330
18
100
AcDbEntity
  8
DEFPOINTS
  6
ByBlock
 62
   250
100
AcDbPoint
 10
981.4495744750793
 20
45.000578454079
 30
0.0
  0
LINE
  5
B5B
330
18
100
AcDbEntity
  8
0
  6
ByBlock
 62
   250
100
AcDbLine
 10
1059.449574475079
 20
395.000578454079
 30
0.0
 11
1416.449574475079
 21
395.000578454079
 31
0.0
  0
DIMENSION
  5
B5C
330
18
100
AcDbEntity
  8
SUNPOU
100
AcDbDimension
  2
*D39
 10
1246.642103097971
 20
245.000578454079
 30
0.0
 11
1224.142103097971
 21
320.0005784540792
 31
0.0
 70
    32
 71
     5
 42
150.0
  3
DIM1
100
AcDbAlignedDimension
 13
1068.254063916892
 23
395.000578454079
 33
0.0
 14
1118.254063916892
 24
245.000578454079
 34
0.0
 50
90.0
100
AcDbRotatedDimension
  0
LINE
  5
B5D
330
18
100
AcDbEntity
  8
0
 62
   250
100
AcDbLine
 10
1126.449574475079
 20
395.000578454079
 30
0.0
 11
996.4495744750793
 21
395.0005784540788
 31
0.0
  0
LINE
  5
B5E
330
18
100
AcDbEntity
  8
0
 62
   250
100
AcDbLine
 10
1041.449574475079
 20
295.000578454079
 30
0.0
 11
1041.449574475079
 21
395.000578454079
 31
0.0
  0
LINE
  5
B5F
102
{ACAD_REACTORS
330
B4D
102
}
330
18
100
AcDbEntity
  8
0
 62
   250
100
AcDbLine
 10
994.4495744750794
 20
245.000578454079
 30
0.0
 11
1094.449574475079
 21
245.000578454079
 31
0.0
  0
LINE
  5
B60
330
18
100
AcDbEntity
  8
0
 62
   250
100
AcDbLine
 10
994.4495744750794
 20
245.000578454079
 30
0.0
 11
1041.449574475079
 21
295.000578454079
 31
0.0
  0
POINT
  5
B61
330
18
100
AcDbEntity
  8
DEFPOINTS
  6
ByBlock
 62
   250
100
AcDbPoint
 10
1044.449574475079
 20
295.000578454079
 30
0.0
  0
LINE
  5
B62
330
18
100
AcDbEntity
  8
0
 62
   250
100
AcDbLine
 10
994.4495744750794
 20
345.000578454079
 30
0.0
 11
996.4495744750793
 21
395.000578454079
 31
0.0
  0
LINE
  5
B63
330
18
100
AcDbEntity
  8
0
 62
   250
100
AcDbLine
 10
994.4495744750794
 20
345.0005784540792
 30
0.0
 11
941.4495744750793
 21
345.0005784540792
 31
0.0
  0
POINT
  5
B64
330
18
100
AcDbEntity
  8
DEFPOINTS
  6
ByBlock
 62
   250
100
AcDbPoint
 10
999.4495744750793
 20
395.000578454079
 30
0.0
  0
POINT
  5
B65
330
18
100
AcDbEntity
  8
DEFPOINTS
  6
ByBlock
 62
   250
100
AcDbPoint
 10
1044.449574475079
 20
395.000578454079
 30
0.0
  0
LINE
  5
E3E
330
18
100
AcDbEntity
  8
0
100
AcDbLine
 10
1873.434811012593
 20
1607.133318450696
 30
0.0
 11
1918.434811012593
 21
1607.133318450695
 31
0.0
  0
LINE
  5
E3F
330
18
100
AcDbEntity
  8
0
 62
   250
100
AcDbLine
 10
1920.434811012593
 20
1457.133318450696
 30
0.0
 11
1873.434811012593
 21
1507.133318450695
 31
0.0
  0
LINE
  5
E40
330
18
100
AcDbEntity
  8
SUNPOU
100
AcDbLine
 10
1941.945241760635
 20
1280.444792186946
 30
0.0
 11
1706.098358775555
 21
1280.444792186946
 31
0.0
  0
LINE
  5
E43
330
18
100
AcDbEntity
  8
0
 62
   250
100
AcDbLine
 10
2393.434811012593
 20
1167.133318450696
 30
0.0
 11
1853.434811012593
 21
1167.133318450696
 31
0.0
  0
LINE
  5
E44
330
18
100
AcDbEntity
  8
0
 62
   250
100
AcDbLine
 10
2393.434811012593
 20
1067.133318450696
 30
0.0
 11
1853.434811012593
 21
1067.133318450696
 31
0.0
  0
HATCH
  5
E45
330
18
100
AcDbEntity
  8
MOJI
100
AcDbHatch
 10
0.0
 20
0.0
 30
0.0
210
0.0
220
0.0
230
1.0
  2
HONEY
 70
     0
 71
     0
 91
        2
 92
        7
 72
     0
 73
     1
 93
        4
 10
1940.677564926882
 20
1167.133318450696
 10
1853.434811012593
 20
1167.133318450696
 10
1853.434811012593
 20
1067.133318450695
 10
1994.057306538702
 20
1067.133318450695
 97
        0
 92
        7
 72
     0
 73
     1
 93
        4
 10
2393.434811012593
 20
1167.133318450696
 10
2289.316969945204
 20
1167.133318450696
 10
2235.28769441657
 20
1067.133318450696
 10
2393.434811012593
 20
1067.133318450696
 97
        0
 75
     0
 76
     1
 52
10.0
 41
100.0
 77
     0
 78
     3
 53
10.0
 43
726.5456901522104
 44
299.95665939826
 45
16.58534871243797
 46
13.91675993407367
 79
     2
 49
12.49999999999999
 49
-24.99999999999999
 53
130.0
 43
726.5456901522104
 44
299.95665939826
 45
-20.34494199749623
 46
7.404953348557977
 79
     2
 49
12.5
 49
-25.0
 53
70.0
 43
726.5456901522104
 44
299.95665939826
 45
-3.759593285058264
 46
21.32171328263165
 79
     2
 49
-24.99999999999999
 49
12.49999999999999
 47
2.162163071610333
 98
        2
 10
1940.234221518238
 20
1108.504385268539
 10
2327.598183463939
 20
1093.369243143651
  0
DIMENSION
  5
E46
330
18
100
AcDbEntity
  8
SUNPOU
100
AcDbDimension
  2
*D59
 10
2373.434811012593
 20
1759.315466922784
 30
0.0
 11
2123.434811012593
 21
1781.815466922784
 31
0.0
 70
    32
 71
     5
 42
499.9999999999998
  3
DIM1
100
AcDbAlignedDimension
 13
1873.434811012593
 23
1607.133318450696
 33
0.0
 14
2373.434811012593
 24
1607.133318450696
 34
0.0
100
AcDbRotatedDimension
  0
INSERT
  5
E47
330
18
100
AcDbEntity
  8
0
100
AcDbBlockReference
  2
A$C67384017
 10
1652.074333054666
 20
1517.133319549425
 30
0.0
  0
LINE
  5
E49
330
18
100
AcDbEntity
  8
SUNPOU
100
AcDbLine
 10
1706.098358775555
 20
1280.444792186946
 30
0.0
 11
1586.403706754642
 21
1280.444792186946
 31
0.0
  0
TEXT
  5
E4A
330
18
100
AcDbEntity
  8
SUNPOU
100
AcDbText
 10
1655.470218732602
 20
1115.463851487625
 30
0.0
 40
25.0
  1
ｸﾗｯｼｬﾗﾝ
  7
BIGFONT
 72
     2
 11
1745.470218732602
 21
1127.963851487625
 31
0.0
100
AcDbText
 73
     2
  0
LINE
  5
E4B
330
18
100
AcDbEntity
  8
SUNPOU
100
AcDbLine
 10
1787.75881880056
 20
1102.017891332045
 30
0.0
 11
1639.425485467227
 21
1102.017891332045
 31
0.0
  0
TEXT
  5
E4D
330
18
100
AcDbEntity
  8
SUNPOU
100
AcDbText
 10
1597.624193622749
 20
1292.283601058896
 30
0.0
 40
25.0
  1
GPU-300A
  7
BIGFONT
 72
     2
 11
1795.243241241797
 21
1304.783601058896
 31
0.0
100
AcDbText
 73
     2
  0
LINE
  5
E4F
330
18
100
AcDbEntity
  8
0
 62
   250
100
AcDbLine
 10
1853.434811012593
 20
1167.133318450696
 30
0.0
 11
1853.434811012593
 21
1067.133318450696
 31
0.0
  0
LINE
  5
E50
330
18
100
AcDbEntity
  8
SUNPOU
100
AcDbLine
 10
1858.148840443946
 20
1102.017891332045
 30
0.0
 11
1787.75881880056
 21
1102.017891332045
 31
0.0
  0
SOLID
  5
E51
330
18
100
AcDbEntity
  8
SUNPOU
100
AcDbTrace
 10
1858.148840443946
 20
1104.517891332045
 30
0.0
 11
1858.148840443946
 21
1099.517891332045
 31
0.0
 12
1873.148840443946
 22
1102.017891332045
 32
0.0
 13
1873.148840443946
 23
1102.017891332045
 33
0.0
  0
LINE
  5
E53
330
18
100
AcDbEntity
  8
0
 62
   250
100
AcDbLine
 10
1873.434811012593
 20
1507.133318450695
 30
0.0
 11
1873.434811012593
 21
1607.133318450696
 31
0.0
  0
HATCH
  5
E54
330
18
100
AcDbEntity
  8
MOJI
100
AcDbHatch
 10
0.0
 20
0.0
 30
0.0
210
0.0
220
0.0
230
1.0
  2
AR-SAND
 70
     0
 71
     1
 91
        1
 92
        7
 72
     0
 73
     1
 93
        4
 10
2317.768144345926
 20
1297.133318450695
 10
2426.434811012593
 20
1297.133318450695
 10
2426.434811012593
 20
1457.133318450696
 10
2326.434811012593
 20
1457.133318450695
 97
        4
330
E56
330
E5A
330
E58
330
E71
 75
     0
 76
     1
 52
0.0
 41
10.0
 77
     0
 78
     4
 53
37.5
 43
726.5456901522104
 44
299.95665939826
 45
-0.6299335810960816
 46
19.26823769013158
 79
     6
 49
0.0
 49
-15.2
 49
0.0
 49
-17.0
 49
0.0
 49
-16.25
 53
7.499999999999999
 43
726.5456901522104
 44
299.95665939826
 45
17.69776705267727
 46
28.2214606522974
 79
     6
 49
0.0
 49
-8.199999999999999
 49
0.0
 49
-13.7
 49
0.0
 49
-5.25
 53
327.5
 43
714.2456901522105
 44
299.95665939826
 45
31.14141861751495
 46
0.056590535369645
 79
     6
 49
0.0
 49
-5.0
 49
0.0
 49
-18.0
 49
0.0
 49
-23.5
 53
317.5
 43
714.2456901522105
 44
299.95665939826
 45
30.06126604572293
 46
8.77675564934249
 79
     6
 49
0.0
 49
-2.5
 49
0.0
 49
-11.8
 49
0.0
 49
-13.5
 47
2.162163071610333
 98
        1
 10
2360.058847408036
 20
1344.180160133457
  0
LINE
  5
E55
330
18
100
AcDbEntity
  8
0
 62
   250
100
AcDbLine
 10
2326.434811012593
 20
1457.133318450696
 30
0.0
 11
2373.434811012593
 21
1507.133318450695
 31
0.0
  0
LINE
  5
E56
102
{ACAD_REACTORS
330
E54
102
}
330
18
100
AcDbEntity
  8
0
 62
   250
100
AcDbLine
 10
2326.434811012593
 20
1457.133318450696
 30
0.0
 11
2426.434811012593
 21
1457.133318450696
 31
0.0
  0
LINE
  5
E57
330
18
100
AcDbEntity
  8
0
 62
   250
100
AcDbLine
 10
2458.434811012593
 20
1607.133318450696
 30
0.0
 11
2328.434811012593
 21
1607.133318450695
 31
0.0
  0
LINE
  5
E58
102
{ACAD_REACTORS
330
E54
102
}
330
18
100
AcDbEntity
  8
0
 62
   250
100
AcDbLine
 10
2317.768144345927
 20
1297.133318450695
 30
0.0
 11
2426.434811012593
 21
1297.133318450695
 31
0.0
  0
LINE
  5
E59
330
18
100
AcDbEntity
  8
0
 62
   250
100
AcDbLine
 10
2273.434811012593
 20
1557.133318450695
 30
0.0
 11
2256.546414310848
 21
1303.807367924507
 31
0.0
  0
LINE
  5
E5A
102
{ACAD_REACTORS
330
E54
102
}
330
18
100
AcDbEntity
  8
0
 62
   250
100
AcDbLine
 10
2326.434811012593
 20
1457.133318450696
 30
0.0
 11
2313.434811012593
 21
1217.133318450696
 31
0.0
  0
DIMENSION
  5
E5B
330
18
100
AcDbEntity
  8
SUNPOU
100
AcDbDimension
  2
*D51
 10
2313.434811012593
 20
1357.133318450695
 30
0.0
 11
2283.434811012593
 21
1384.633318450696
 31
0.0
 70
    32
 71
     5
 42
60.0
  3
DIM1
100
AcDbAlignedDimension
 13
2253.434811012593
 23
1257.133318450695
 33
0.0
 14
2313.434811012593
 24
1257.133318450695
 34
0.0
100
AcDbRotatedDimension
  0
LINE
  5
E5D
330
18
100
AcDbEntity
  8
0
 62
   250
100
AcDbLine
 10
1990.323207714338
 20
1303.807367924507
 30
0.0
 11
1973.434811012593
 21
1557.133318450695
 31
0.0
  0
LINE
  5
E5E
330
18
100
AcDbEntity
  8
0
 62
   250
100
AcDbLine
 10
1933.434811012593
 20
1217.133318450696
 30
0.0
 11
1920.434811012593
 21
1457.133318450696
 31
0.0
  0
DIMENSION
  5
E5F
330
18
100
AcDbEntity
  8
SUNPOU
100
AcDbDimension
  2
*D49
 10
2155.712931632305
 20
1557.133318450695
 30
0.0
 11
2133.212931632305
 21
1432.7907979734
 31
0.0
 70
   160
 71
     5
 42
299.9999999999998
  3
DIM1
100
AcDbAlignedDimension
 13
2155.712931632305
 23
1257.133318450695
 33
0.0
 14
2155.712931632305
 24
1557.133318450695
 34
0.0
 50
90.0
100
AcDbRotatedDimension
  0
DIMENSION
  5
E60
330
18
100
AcDbEntity
  8
SUNPOU
100
AcDbDimension
  2
*D52
 10
1933.434811012593
 20
1357.133318450695
 30
0.0
 11
1963.434811012593
 21
1384.633318450696
 31
0.0
 70
    32
 71
     5
 42
60.0
  3
DIM1
100
AcDbAlignedDimension
 13
1993.434811012593
 23
1257.133318450695
 33
0.0
 14
1933.434811012593
 24
1257.133318450695
 34
0.0
100
AcDbRotatedDimension
  0
DIMENSION
  5
E61
330
18
100
AcDbEntity
  8
SUNPOU
100
AcDbDimension
  2
*D47
 10
2253.434811012593
 20
1357.133318450695
 30
0.0
 11
2123.434811012593
 21
1379.633318450696
 31
0.0
 70
    32
 71
     5
 42
259.9999999999998
  3
DIM1
100
AcDbAlignedDimension
 13
1993.434811012593
 23
1257.133318450695
 33
0.0
 14
2253.434811012593
 24
1257.133318450695
 34
0.0
100
AcDbRotatedDimension
  0
DIMENSION
  5
E62
330
18
100
AcDbEntity
  8
SUNPOU
100
AcDbDimension
  2
*D48
 10
2155.712931632305
 20
1197.133318450695
 30
0.0
 11
2103.212931632305
 21
1227.133318450696
 31
0.0
 70
    32
 71
     5
 42
60.00000000000023
  3
DIM1
100
AcDbAlignedDimension
 13
2155.712931632305
 23
1257.133318450695
 33
0.0
 14
2155.712931632305
 24
1197.133318450695
 34
0.0
 50
90.0
100
AcDbRotatedDimension
  0
LINE
  5
E63
330
18
100
AcDbEntity
  8
0
 62
   250
100
AcDbLine
 10
2206.657156418017
 20
1257.133318450695
 30
0.0
 11
2040.21246560717
 21
1257.133318450695
 31
0.0
  0
LINE
  5
E64
330
18
100
AcDbEntity
  8
0
 62
   250
100
AcDbLine
 10
1953.434811012593
 20
1197.133318450696
 30
0.0
 11
1933.434811012593
 21
1217.133318450696
 31
0.0
  0
ARC
  5
E65
330
18
100
AcDbEntity
  8
0
 62
   250
100
AcDbCircle
 10
2040.21246560717
 20
1307.133318450695
 30
0.0
 40
50.0
100
AcDbArc
 50
183.8140748342904
 51
270.0
  0
SOLID
  5
E66
330
18
100
AcDbEntity
  8
SUNPOU
100
AcDbTrace
 10
1941.945241760635
 20
1282.944792186946
 30
0.0
 11
1941.945241760635
 21
1277.944792186946
 31
0.0
 12
1956.945241760634
 22
1280.444792186946
 32
0.0
 13
1956.945241760634
 23
1280.444792186946
 33
0.0
  0
LINE
  5
E67
330
18
100
AcDbEntity
  8
0
 62
   250
100
AcDbLine
 10
2293.434811012593
 20
1197.133318450696
 30
0.0
 11
2313.434811012593
 21
1217.133318450696
 31
0.0
  0
ARC
  5
E68
330
18
100
AcDbEntity
  8
0
 62
   250
100
AcDbCircle
 10
2206.657156418017
 20
1307.133318450695
 30
0.0
 40
50.0
100
AcDbArc
 50
270.0
 51
356.1859251657097
  0
POINT
  5
E69
330
18
100
AcDbEntity
  8
DEFPOINTS
  6
ByBlock
 62
   250
100
AcDbPoint
 10
2313.434811012593
 20
1257.133318450695
 30
0.0
  0
DIMENSION
  5
E6A
330
18
100
AcDbEntity
  8
SUNPOU
100
AcDbDimension
  2
*D50
 10
2155.712931632305
 20
1607.133318450696
 30
0.0
 11
2103.212931632305
 21
1582.133318450696
 31
0.0
 70
    32
 71
     5
 42
50.00000000000023
  3
DIM1
100
AcDbAlignedDimension
 13
2155.712931632305
 23
1557.133318450695
 33
0.0
 14
2155.712931632305
 24
1607.133318450696
 34
0.0
 50
90.0
100
AcDbRotatedDimension
  0
DIMENSION
  5
E6B
330
18
100
AcDbEntity
  8
SUNPOU
100
AcDbDimension
  2
*D46
 10
2273.434811012593
 20
1657.133318450696
 30
0.0
 11
2123.434811012593
 21
1679.633318450695
 31
0.0
 70
    32
 71
     5
 42
299.9999999999998
  3
DIM1
100
AcDbAlignedDimension
 13
1973.434811012593
 23
1607.133318450695
 33
0.0
 14
2273.434811012593
 24
1607.133318450696
 34
0.0
100
AcDbRotatedDimension
  0
LINE
  5
E6C
330
18
100
AcDbEntity
  8
0
 62
   250
100
AcDbLine
 10
1973.434811012593
 20
1557.133318450696
 30
0.0
 11
1920.434811012593
 21
1557.133318450696
 31
0.0
  0
LINE
  5
E6D
330
18
100
AcDbEntity
  8
0
 62
   250
100
AcDbLine
 10
1920.434811012593
 20
1557.133318450695
 30
0.0
 11
1918.434811012593
 21
1607.133318450695
 31
0.0
  0
LINE
  5
E6E
330
18
100
AcDbEntity
  8
0
 62
   250
100
AcDbLine
 10
2326.434811012593
 20
1557.133318450696
 30
0.0
 11
2273.434811012593
 21
1557.133318450696
 31
0.0
  0
LINE
  5
E6F
330
18
100
AcDbEntity
  8
0
 62
   250
100
AcDbLine
 10
2326.434811012593
 20
1557.133318450695
 30
0.0
 11
2328.434811012593
 21
1607.133318450696
 31
0.0
  0
POINT
  5
E70
330
18
100
AcDbEntity
  8
DEFPOINTS
  6
ByBlock
 62
   250
100
AcDbPoint
 10
2331.434811012593
 20
1607.133318450696
 30
0.0
  0
LINE
  5
E71
102
{ACAD_REACTORS
330
E54
102
}
330
18
100
AcDbEntity
  8
0
 62
   250
100
AcDbLine
 10
2426.434811012593
 20
1457.133318450696
 30
0.0
 11
2426.434811012593
 21
1297.133318450695
 31
0.0
  0
DIMENSION
  5
E72
330
18
100
AcDbEntity
  8
SUNPOU
100
AcDbDimension
  2
*D54
 10
2578.627339635485
 20
1297.133318450695
 30
0.0
 11
2556.127339635484
 21
1377.133318450696
 31
0.0
 70
    32
 71
     5
 42
160.0000000000002
  3
DIM1
100
AcDbAlignedDimension
 13
2450.239300454406
 23
1457.133318450696
 33
0.0
 14
2450.239300454406
 24
1297.133318450695
 34
0.0
 50
90.0
100
AcDbRotatedDimension
1001
ACAD
1000
DSTYLE
1002
{
1070
    75
1070
     1
1002
}
  0
DIMENSION
  5
E73
330
18
100
AcDbEntity
  8
SUNPOU
100
AcDbDimension
  2
*D58
 10
2632.728458956346
 20
1197.133318450695
 30
0.0
 11
2610.228458956346
 21
1402.133318450696
 31
0.0
 70
    32
 71
     5
 42
410.0
  3
DIM1
100
AcDbAlignedDimension
 13
2400.239300454406
 23
1607.133318450696
 33
0.0
 14
2417.239300454406
 24
1197.133318450696
 34
0.0
 50
90.0
100
AcDbRotatedDimension
  0
DIMENSION
  5
E74
330
18
100
AcDbEntity
  8
SUNPOU
100
AcDbDimension
  2
*D56
 10
2578.627339635485
 20
1167.133318450695
 30
0.0
 11
2631.127339635484
 21
1182.133318450696
 31
0.0
 70
    32
 71
     5
 42
30.0
  3
DIM1
100
AcDbAlignedDimension
 13
2417.239300454406
 23
1197.133318450696
 33
0.0
 14
2417.239300454406
 24
1167.133318450696
 34
0.0
 50
90.0
100
AcDbRotatedDimension
1001
ACAD
1000
DSTYLE
1002
{
1070
    75
1070
     1
1002
}
  0
DIMENSION
  5
E75
330
18
100
AcDbEntity
  8
SUNPOU
100
AcDbDimension
  2
*D55
 10
2578.627339635485
 20
1197.133318450695
 30
0.0
 11
2556.127339635484
 21
1247.133318450696
 31
0.0
 70
    32
 71
     5
 42
99.99999999999978
  3
DIM1
100
AcDbAlignedDimension
 13
2450.239300454406
 23
1297.133318450695
 33
0.0
 14
2417.239300454406
 24
1197.133318450696
 34
0.0
 50
90.0
100
AcDbRotatedDimension
1001
ACAD
1000
DSTYLE
1002
{
1070
    75
1070
     1
1002
}
  0
DIMENSION
  5
E76
330
18
100
AcDbEntity
  8
SUNPOU
100
AcDbDimension
  2
*D57
 10
2578.627339635485
 20
1067.133318450695
 30
0.0
 11
2556.127339635484
 21
1117.133318450696
 31
0.0
 70
    32
 71
     5
 42
100.0
  3
DIM1
100
AcDbAlignedDimension
 13
2417.239300454406
 23
1167.133318450696
 33
0.0
 14
2417.239300454406
 24
1067.133318450696
 34
0.0
 50
90.0
100
AcDbRotatedDimension
1001
ACAD
1000
DSTYLE
1002
{
1070
    75
1070
     1
1002
}
  0
LINE
  5
E77
330
18
100
AcDbEntity
  8
0
 62
   250
100
AcDbLine
 10
2393.434811012593
 20
1167.133318450695
 30
0.0
 11
2393.434811012593
 21
1067.133318450696
 31
0.0
  0
LINE
  5
E78
330
18
100
AcDbEntity
  8
0
  6
ByBlock
 62
   250
100
AcDbLine
 10
2391.434811012593
 20
1607.133318450696
 30
0.0
 11
2748.434811012594
 21
1607.133318450696
 31
0.0
  0
LINE
  5
E79
330
18
100
AcDbEntity
  8
0
 62
   250
100
AcDbLine
 10
2373.434811012593
 20
1507.133318450695
 30
0.0
 11
2373.434811012593
 21
1607.133318450696
 31
0.0
  0
DIMENSION
  5
E7A
330
18
100
AcDbEntity
  8
SUNPOU
100
AcDbDimension
  2
*D53
 10
2578.627339635485
 20
1457.133318450695
 30
0.0
 11
2556.127339635484
 21
1532.133318450696
 31
0.0
 70
    32
 71
     5
 42
150.0
  3
DIM1
100
AcDbAlignedDimension
 13
2400.239300454406
 23
1607.133318450696
 33
0.0
 14
2450.239300454406
 24
1457.133318450696
 34
0.0
 50
90.0
100
AcDbRotatedDimension
  0
POINT
  5
E7B
330
18
100
AcDbEntity
  8
DEFPOINTS
  6
ByBlock
 62
   250
100
AcDbPoint
 10
2376.434811012593
 20
1507.133318450695
 30
0.0
  0
POINT
  5
E7C
330
18
100
AcDbEntity
  8
DEFPOINTS
  6
ByBlock
 62
   250
100
AcDbPoint
 10
2376.434811012593
 20
1607.133318450696
 30
0.0
  0
TEXT
  5
E7D
330
18
100
AcDbEntity
  8
0
100
AcDbText
 10
1008.679514901775
 20
600.5030940355901
 30
0.0
 40
50.0
  1
Ｓ＝１／１０
  7
BIGFONT
 72
     4
 11
1180.346181568442
 21
623.8364273689235
 31
0.0
100
AcDbText
  0
HATCH
  5
E7F
330
18
100
AcDbEntity
  8
MOJI
100
AcDbHatch
 10
0.0
 20
0.0
 30
0.0
210
0.0
220
0.0
230
1.0
  2
AR-SAND
 70
     0
 71
     1
 91
        1
 92
        7
 72
     0
 73
     1
 93
        4
 10
2320.140827826583
 20
85.20576098035965
 10
2428.807494493249
 20
85.20576098035963
 10
2428.807494493249
 20
245.2057609803596
 10
2328.807494493249
 20
245.2057609803596
 97
        4
330
E84
330
EA6
330
E83
330
EBB
 75
     0
 76
     1
 52
0.0
 41
10.0
 77
     0
 78
     4
 53
37.5
 43
728.9183736328659
 44
-911.970898072076
 45
-0.6299335810960816
 46
19.26823769013158
 79
     6
 49
0.0
 49
-15.2
 49
0.0
 49
-17.0
 49
0.0
 49
-16.25
 53
7.499999999999999
 43
728.9183736328659
 44
-911.970898072076
 45
17.69776705267727
 46
28.2214606522974
 79
     6
 49
0.0
 49
-8.199999999999999
 49
0.0
 49
-13.7
 49
0.0
 49
-5.25
 53
327.5
 43
716.6183736328657
 44
-911.970898072076
 45
31.14141861751495
 46
0.056590535369645
 79
     6
 49
0.0
 49
-5.0
 49
0.0
 49
-18.0
 49
0.0
 49
-23.5
 53
317.5
 43
716.6183736328657
 44
-911.970898072076
 45
30.06126604572293
 46
8.77675564934249
 79
     6
 49
0.0
 49
-2.5
 49
0.0
 49
-11.8
 49
0.0
 49
-13.5
 47
2.162163071610333
 98
        1
 10
2362.431530888692
 20
132.2526026631212
  0
DIMENSION
  5
E80
330
18
100
AcDbEntity
  8
SUNPOU
100
AcDbDimension
  2
*D73
 10
2581.00002311614
 20
245.2057609803596
 30
0.0
 11
2558.50002311614
 21
320.20576098036
 31
0.0
 70
    32
 71
     5
 42
150.0
  3
DIM1
100
AcDbAlignedDimension
 13
2402.611983935062
 23
395.2057609803596
 33
0.0
 14
2452.611983935061
 24
245.2057609803596
 34
0.0
 50
90.0
100
AcDbRotatedDimension
  0
LINE
  5
E81
330
18
100
AcDbEntity
  8
0
  6
ByBlock
 62
   250
100
AcDbLine
 10
2393.807494493249
 20
395.2057609803596
 30
0.0
 11
2750.807494493249
 21
395.2057609803596
 31
0.0
  0
DIMENSION
  5
E82
330
18
100
AcDbEntity
  8
SUNPOU
100
AcDbDimension
  2
*D67
 10
2635.101142437002
 20
-14.79423901964043
 30
0.0
 11
2612.601142437002
 21
190.2057609803599
 31
0.0
 70
    32
 71
     5
 42
410.0
  3
DIM1
100
AcDbAlignedDimension
 13
2402.611983935062
 23
395.2057609803596
 33
0.0
 14
2419.611983935062
 24
-14.79423901964037
 34
0.0
 50
90.0
100
AcDbRotatedDimension
  0
LINE
  5
E83
102
{ACAD_REACTORS
330
E7F
102
}
330
18
100
AcDbEntity
  8
0
 62
   250
100
AcDbLine
 10
2320.140827826583
 20
85.20576098035963
 30
0.0
 11
2428.807494493249
 21
85.20576098035963
 31
0.0
  0
LINE
  5
E84
102
{ACAD_REACTORS
330
E7F
102
}
330
18
100
AcDbEntity
  8
0
 62
   250
100
AcDbLine
 10
2328.807494493249
 20
245.2057609803596
 30
0.0
 11
2428.807494493249
 21
245.2057609803596
 31
0.0
  0
LINE
  5
E85
330
18
100
AcDbEntity
  8
0
 62
   250
100
AcDbLine
 10
2460.807494493249
 20
395.2057609803596
 30
0.0
 11
2330.807494493249
 21
395.2057609803594
 31
0.0
  0
DIMENSION
  5
E86
330
18
100
AcDbEntity
  8
SUNPOU
100
AcDbDimension
  2
*D60
 10
2375.807494493249
 20
547.3879094524481
 30
0.0
 11
2125.807494493249
 21
569.8879094524482
 31
0.0
 70
    32
 71
     5
 42
500.0
  3
DIM1
100
AcDbAlignedDimension
 13
1875.807494493249
 23
395.2057609803596
 33
0.0
 14
2375.807494493249
 24
395.2057609803596
 34
0.0
100
AcDbRotatedDimension
  0
LEADER
  5
E88
330
18
100
AcDbEntity
  8
SUNPOU
100
AcDbLeader
  3
DIM1
 73
     0
 75
     1
 40
25.0
 41
167.8571428571428
 76
     3
 10
2001.663161493249
 20
372.4509539803599
 30
0.0
 10
1853.494635493249
 20
446.6169669803596
 30
0.0
 10
1833.494635493249
 20
446.6169669803596
 30
0.0
340
E9F
  0
LINE
  5
E89
330
18
100
AcDbEntity
  8
0
 62
   250
100
AcDbLine
 10
1975.807494493249
 20
345.2057609803599
 30
0.0
 11
1922.807494493248
 21
345.2057609803599
 31
0.0
  0
INSERT
  5
E8A
330
18
100
AcDbEntity
  8
SUNPOU
100
AcDbBlockReference
  2
A$C57A3340D
 10
1925.807498493249
 20
335.2057599803597
 30
0.0
  0
LINE
  5
E8C
330
18
100
AcDbEntity
  8
0
 62
   250
100
AcDbLine
 10
1955.807494493248
 20
-14.79423901964037
 30
0.0
 11
1935.807494493248
 21
5.205760980359627
 31
0.0
  0
DIMENSION
  5
E8D
330
18
100
AcDbEntity
  8
SUNPOU
100
AcDbDimension
  2
*D63
 10
1935.807494493248
 20
145.2057609803596
 30
0.0
 11
1965.807494493249
 21
172.7057609803596
 31
0.0
 70
    32
 71
     5
 42
60.0
  3
DIM1
100
AcDbAlignedDimension
 13
1995.807494493249
 23
45.20576098035962
 33
0.0
 14
1935.807494493248
 24
45.20576098035962
 34
0.0
100
AcDbRotatedDimension
  0
LINE
  5
E8F
330
18
100
AcDbEntity
  8
0
 62
   250
100
AcDbLine
 10
2395.807494493249
 20
-44.79423901964037
 30
0.0
 11
1855.807494493248
 21
-44.79423901964037
 31
0.0
  0
LINE
  5
E90
330
18
100
AcDbEntity
  8
0
 62
   250
100
AcDbLine
 10
2395.807494493249
 20
-144.7942390196403
 30
0.0
 11
1855.807494493248
 21
-144.7942390196403
 31
0.0
  0
HATCH
  5
E91
330
18
100
AcDbEntity
  8
MOJI
100
AcDbHatch
 10
0.0
 20
0.0
 30
0.0
210
0.0
220
0.0
230
1.0
  2
HONEY
 70
     0
 71
     0
 91
        2
 92
        7
 72
     0
 73
     1
 93
        4
 10
1943.050248407538
 20
-44.79423901964037
 10
1855.807494493248
 20
-44.79423901964037
 10
1855.807494493248
 20
-144.7942390196406
 10
1996.429990019358
 20
-144.7942390196406
 97
        0
 92
        7
 72
     0
 73
     1
 93
        4
 10
2395.807494493249
 20
-44.79423901964037
 10
2291.689653425859
 20
-44.79423901964037
 10
2237.660377897226
 20
-144.7942390196403
 10
2395.807494493249
 20
-144.7942390196403
 97
        0
 75
     0
 76
     1
 52
10.0
 41
100.0
 77
     0
 78
     3
 53
10.0
 43
728.9183736328659
 44
-911.970898072076
 45
16.58534871243797
 46
13.91675993407367
 79
     2
 49
12.49999999999999
 49
-24.99999999999998
 53
130.0
 43
728.9183736328659
 44
-911.970898072076
 45
-20.34494199749623
 46
7.404953348557977
 79
     2
 49
12.5
 49
-25.0
 53
70.0
 43
728.9183736328659
 44
-911.970898072076
 45
-3.759593285058264
 46
21.32171328263165
 79
     2
 49
-24.99999999999998
 49
12.49999999999999
 47
2.162163071610333
 98
        2
 10
1942.606904998893
 20
-103.4231722017966
 10
2329.970866944595
 20
-118.5583143266849
  0
LINE
  5
E92
330
18
100
AcDbEntity
  8
0
 62
   250
100
AcDbLine
 10
1935.807494493248
 20
5.205760980359627
 30
0.0
 11
1922.807494493248
 21
245.2057609803596
 31
0.0
  0
TEXT
  5
E93
330
18
100
AcDbEntity
  8
SUNPOU
100
AcDbText
 10
1657.842902213258
 20
-96.46370598271097
 30
0.0
 40
25.0
  1
ｸﾗｯｼｬﾗﾝ
  7
BIGFONT
 72
     2
 11
1747.842902213258
 21
-83.96370598271095
 31
0.0
100
AcDbText
 73
     2
  0
LINE
  5
E95
330
18
100
AcDbEntity
  8
SUNPOU
100
AcDbLine
 10
1790.131502281216
 20
-109.9096661382909
 30
0.0
 11
1641.798168947882
 21
-109.9096661382909
 31
0.0
  0
LINE
  5
E9A
330
18
100
AcDbEntity
  8
SUNPOU
100
AcDbLine
 10
1860.521523924601
 20
-109.9096661382909
 30
0.0
 11
1790.131502281216
 21
-109.9096661382909
 31
0.0
  0
LINE
  5
E9C
330
18
100
AcDbEntity
  8
0
 62
   250
100
AcDbLine
 10
1855.807494493248
 20
-44.79423901964037
 30
0.0
 11
1855.807494493248
 21
-144.7942390196403
 31
0.0
  0
SOLID
  5
E9D
330
18
100
AcDbEntity
  8
SUNPOU
100
AcDbTrace
 10
1860.521523924601
 20
-107.4096661382909
 30
0.0
 11
1860.521523924601
 21
-112.4096661382909
 31
0.0
 12
1875.521523924602
 22
-109.9096661382909
 32
0.0
 13
1875.521523924602
 23
-109.9096661382909
 33
0.0
  0
MTEXT
  5
E9F
102
{ACAD_REACTORS
330
E88
102
}
330
18
100
AcDbEntity
  8
SUNPOU
100
AcDbMText
 10
1823.494635493249
 20
469.1169669803596
 30
0.0
 40
25.0
 41
0.0
 71
     6
 72
     1
  1
\A1;GUF-300
  7
BIGFONT
 73
     1
 44
1.0
  0
LINE
  5
EA0
330
18
100
AcDbEntity
  8
0
 62
   250
100
AcDbLine
 10
1875.807494493249
 20
295.2057609803594
 30
0.0
 11
1875.807494493249
 21
395.2057609803596
 31
0.0
  0
LINE
  5
EA1
330
18
100
AcDbEntity
  8
0
 62
   250
100
AcDbLine
 10
1922.807494493248
 20
245.2057609803596
 30
0.0
 11
1875.807494493249
 21
295.2057609803594
 31
0.0
  0
LINE
  5
EA2
330
18
100
AcDbEntity
  8
0
100
AcDbLine
 10
1875.807494493249
 20
395.2057609803596
 30
0.0
 11
1920.807494493249
 21
395.2057609803594
 31
0.0
  0
LINE
  5
EA3
330
18
100
AcDbEntity
  8
0
 62
   250
100
AcDbLine
 10
1922.807494493248
 20
345.2057609803596
 30
0.0
 11
1920.807494493249
 21
395.2057609803594
 31
0.0
  0
DIMENSION
  5
EA4
330
18
100
AcDbEntity
  8
SUNPOU
100
AcDbDimension
  2
*D61
 10
2255.807494493248
 20
145.2057609803596
 30
0.0
 11
2125.807494493249
 21
167.7057609803596
 31
0.0
 70
    32
 71
     5
 42
260.0
  3
DIM1
100
AcDbAlignedDimension
 13
1995.807494493249
 23
45.20576098035962
 33
0.0
 14
2255.807494493248
 24
45.20576098035962
 34
0.0
100
AcDbRotatedDimension
  0
LINE
  5
EA5
330
18
100
AcDbEntity
  8
0
 62
   250
100
AcDbLine
 10
2275.807494493249
 20
345.2057609803596
 30
0.0
 11
2258.919097791503
 21
91.87981045417108
 31
0.0
  0
LINE
  5
EA6
102
{ACAD_REACTORS
330
E7F
102
}
330
18
100
AcDbEntity
  8
0
 62
   250
100
AcDbLine
 10
2328.807494493249
 20
245.2057609803596
 30
0.0
 11
2315.807494493249
 21
5.205760980359627
 31
0.0
  0
DIMENSION
  5
EA7
330
18
100
AcDbEntity
  8
SUNPOU
100
AcDbDimension
  2
*D69
 10
2315.807494493249
 20
145.2057609803596
 30
0.0
 11
2285.807494493249
 21
172.7057609803596
 31
0.0
 70
    32
 71
     5
 42
60.0
  3
DIM1
100
AcDbAlignedDimension
 13
2255.807494493248
 23
45.20576098035962
 33
0.0
 14
2315.807494493249
 24
45.20576098035962
 34
0.0
100
AcDbRotatedDimension
  0
HATCH
  5
EA8
330
18
100
AcDbEntity
  8
MOJI
100
AcDbHatch
 10
0.0
 20
0.0
 30
0.0
210
0.0
220
0.0
230
1.0
  2
HONEY
 70
     0
 71
     0
 91
        2
 92
        7
 72
     1
 73
     1
 93
        5
 10
2328.807494493249
 20
245.2057609803596
 42
0.0
 10
2269.140827826582
 20
245.2057609803596
 42
0.0
 10
2258.919097791503
 20
91.87981045417108
 42
-0.033710199725894
 10
2258.019634754336
 20
85.20576098035963
 42
0.0
 10
2320.140827826582
 20
85.20576098035963
 42
0.0
 97
        0
 92
      153
 93
        4
 72
     1
 10
2259.319399255153
 20
191.4557609803596
 11
2312.295589731343
 21
191.4557609803596
 72
     1
 10
2312.295589731344
 20
191.4557609803596
 11
2312.295589731344
 21
153.9557609803596
 72
     1
 10
2312.295589731344
 20
153.9557609803596
 11
2259.319399255154
 21
153.9557609803596
 72
     1
 10
2259.319399255153
 20
153.9557609803596
 11
2259.319399255153
 21
191.4557609803596
 97
        0
 75
     0
 76
     1
 52
10.0
 41
60.0
 77
     0
 78
     3
 53
10.0
 43
728.9183736328659
 44
-911.970898072076
 45
9.951209227462781
 46
8.350055960444205
 79
     2
 49
7.499999999999995
 49
-14.99999999999999
 53
130.0
 43
728.9183736328659
 44
-911.970898072076
 45
-12.20696519849774
 46
4.442972009134786
 79
     2
 49
7.5
 49
-15.0
 53
70.0
 43
728.9183736328659
 44
-911.970898072076
 45
-2.255755971034959
 46
12.79302796957899
 79
     2
 49
-14.99999999999999
 49
7.499999999999995
 47
2.162163071610333
 98
        1
 10
2312.658508379497
 20
171.1715351012917
  0
LINE
  5
EA9
330
18
100
AcDbEntity
  8
0
 62
   250
100
AcDbLine
 10
1992.695891194994
 20
91.87981045417064
 30
0.0
 11
1975.807494493249
 21
345.2057609803596
 31
0.0
  0
DIMENSION
  5
EAA
330
18
100
AcDbEntity
  8
SUNPOU
100
AcDbDimension
  2
*D64
 10
2158.085615112961
 20
345.2057609803594
 30
0.0
 11
2135.585615112961
 21
220.8632405030639
 31
0.0
 70
   160
 71
     5
 42
299.9999999999998
  3
DIM1
100
AcDbAlignedDimension
 13
2158.085615112961
 23
45.20576098035962
 33
0.0
 14
2158.085615112961
 24
345.2057609803594
 34
0.0
 50
90.0
100
AcDbRotatedDimension
  0
LINE
  5
EAB
330
18
100
AcDbEntity
  8
0
 62
   250
100
AcDbLine
 10
2209.029839898672
 20
45.20576098035962
 30
0.0
 11
2042.585149087825
 21
45.2057609803594
 31
0.0
  0
DIMENSION
  5
EAC
330
18
100
AcDbEntity
  8
SUNPOU
100
AcDbDimension
  2
*D65
 10
2158.085615112961
 20
-14.7942390196406
 30
0.0
 11
2105.585615112961
 21
15.20576098035986
 31
0.0
 70
    32
 71
     5
 42
60.00000000000023
  3
DIM1
100
AcDbAlignedDimension
 13
2158.085615112961
 23
45.20576098035962
 33
0.0
 14
2158.085615112961
 24
-14.7942390196406
 34
0.0
 50
90.0
100
AcDbRotatedDimension
  0
ARC
  5
EAD
330
18
100
AcDbEntity
  8
0
 62
   250
100
AcDbCircle
 10
2042.585149087825
 20
95.2057609803594
 30
0.0
 40
50.0
100
AcDbArc
 50
183.8140748342904
 51
270.0
  0
LINE
  5
EAE
330
18
100
AcDbEntity
  8
0
 62
   250
100
AcDbLine
 10
2295.807494493249
 20
-14.79423901964037
 30
0.0
 11
2315.807494493249
 21
5.205760980359627
 31
0.0
  0
LINE
  5
EAF
330
18
100
AcDbEntity
  8
0
 62
   250
100
AcDbLine
 10
2395.807494493249
 20
-44.79423901964037
 30
0.0
 11
2395.807494493249
 21
-144.7942390196403
 31
0.0
  0
ARC
  5
EB0
330
18
100
AcDbEntity
  8
0
 62
   250
100
AcDbCircle
 10
2209.029839898672
 20
95.20576098035963
 30
0.0
 40
50.0
100
AcDbArc
 50
270.0
 51
356.1859251657097
  0
POINT
  5
EB1
330
18
100
AcDbEntity
  8
DEFPOINTS
  6
ByBlock
 62
   250
100
AcDbPoint
 10
2315.807494493249
 20
45.20576098035962
 30
0.0
  0
DIMENSION
  5
EB2
330
18
100
AcDbEntity
  8
SUNPOU
100
AcDbDimension
  2
*D62
 10
2275.807494493249
 20
445.2057609803595
 30
0.0
 11
2125.807494493249
 21
467.7057609803596
 31
0.0
 70
    32
 71
     5
 42
300.0
  3
DIM1
100
AcDbAlignedDimension
 13
1975.807494493249
 23
395.2057609803594
 33
0.0
 14
2275.807494493249
 24
395.2057609803596
 34
0.0
100
AcDbRotatedDimension
  0
DIMENSION
  5
EB3
330
18
100
AcDbEntity
  8
SUNPOU
100
AcDbDimension
  2
*D66
 10
2158.085615112961
 20
395.2057609803596
 30
0.0
 11
2105.585615112961
 21
370.2057609803599
 31
0.0
 70
    32
 71
     5
 42
50.00000000000023
  3
DIM1
100
AcDbAlignedDimension
 13
2158.085615112961
 23
345.2057609803594
 33
0.0
 14
2158.085615112961
 24
395.2057609803596
 34
0.0
 50
90.0
100
AcDbRotatedDimension
  0
LINE
  5
EB4
330
18
100
AcDbEntity
  8
0
 62
   250
100
AcDbLine
 10
2375.807494493249
 20
295.2057609803596
 30
0.0
 11
2375.807494493249
 21
395.2057609803596
 31
0.0
  0
LINE
  5
EB5
330
18
100
AcDbEntity
  8
0
 62
   250
100
AcDbLine
 10
2328.807494493249
 20
245.2057609803596
 30
0.0
 11
2375.807494493249
 21
295.2057609803596
 31
0.0
  0
POINT
  5
EB6
330
18
100
AcDbEntity
  8
DEFPOINTS
  6
ByBlock
 62
   250
100
AcDbPoint
 10
2378.807494493249
 20
295.2057609803596
 30
0.0
  0
LINE
  5
EB7
330
18
100
AcDbEntity
  8
0
 62
   250
100
AcDbLine
 10
2328.807494493249
 20
345.2057609803599
 30
0.0
 11
2275.807494493249
 21
345.2057609803599
 31
0.0
  0
LINE
  5
EB8
330
18
100
AcDbEntity
  8
0
 62
   250
100
AcDbLine
 10
2328.807494493249
 20
345.2057609803596
 30
0.0
 11
2330.807494493249
 21
395.2057609803596
 31
0.0
  0
POINT
  5
EB9
330
18
100
AcDbEntity
  8
DEFPOINTS
  6
ByBlock
 62
   250
100
AcDbPoint
 10
2333.807494493249
 20
395.2057609803596
 30
0.0
  0
POINT
  5
EBA
330
18
100
AcDbEntity
  8
DEFPOINTS
  6
ByBlock
 62
   250
100
AcDbPoint
 10
2378.807494493249
 20
395.2057609803596
 30
0.0
  0
LINE
  5
EBB
102
{ACAD_REACTORS
330
E7F
102
}
330
18
100
AcDbEntity
  8
0
 62
   250
100
AcDbLine
 10
2428.807494493249
 20
245.2057609803596
 30
0.0
 11
2428.807494493249
 21
85.20576098035963
 31
0.0
  0
DIMENSION
  5
EBC
330
18
100
AcDbEntity
  8
SUNPOU
100
AcDbDimension
  2
*D68
 10
2581.00002311614
 20
85.20576098035936
 30
0.0
 11
2558.50002311614
 21
165.2057609803599
 31
0.0
 70
    32
 71
     5
 42
160.0000000000002
  3
DIM1
100
AcDbAlignedDimension
 13
2452.611983935061
 23
245.2057609803596
 33
0.0
 14
2452.611983935061
 24
85.2057609803594
 34
0.0
 50
90.0
100
AcDbRotatedDimension
1001
ACAD
1000
DSTYLE
1002
{
1070
    75
1070
     1
1002
}
  0
DIMENSION
  5
EBD
330
18
100
AcDbEntity
  8
SUNPOU
100
AcDbDimension
  2
*D71
 10
2581.00002311614
 20
-44.79423901964041
 30
0.0
 11
2633.50002311614
 21
-29.79423901964
 31
0.0
 70
    32
 71
     5
 42
30.0
  3
DIM1
100
AcDbAlignedDimension
 13
2419.611983935062
 23
-14.79423901964037
 33
0.0
 14
2419.611983935062
 24
-44.79423901964037
 34
0.0
 50
90.0
100
AcDbRotatedDimension
1001
ACAD
1000
DSTYLE
1002
{
1070
    75
1070
     1
1002
}
  0
DIMENSION
  5
EBE
330
18
100
AcDbEntity
  8
SUNPOU
100
AcDbDimension
  2
*D72
 10
2581.00002311614
 20
-14.79423901964042
 30
0.0
 11
2558.50002311614
 21
35.20576098035988
 31
0.0
 70
    32
 71
     5
 42
99.99999999999978
  3
DIM1
100
AcDbAlignedDimension
 13
2452.611983935061
 23
85.2057609803594
 33
0.0
 14
2419.611983935062
 24
-14.79423901964037
 34
0.0
 50
90.0
100
AcDbRotatedDimension
1001
ACAD
1000
DSTYLE
1002
{
1070
    75
1070
     1
1002
}
  0
DIMENSION
  5
EBF
330
18
100
AcDbEntity
  8
SUNPOU
100
AcDbDimension
  2
*D70
 10
2581.00002311614
 20
-144.7942390196404
 30
0.0
 11
2558.50002311614
 21
-94.79423901963999
 31
0.0
 70
    32
 71
     5
 42
100.0
  3
DIM1
100
AcDbAlignedDimension
 13
2419.611983935062
 23
-44.79423901964037
 33
0.0
 14
2419.611983935062
 24
-144.7942390196403
 34
0.0
 50
90.0
100
AcDbRotatedDimension
1001
ACAD
1000
DSTYLE
1002
{
1070
    75
1070
     1
1002
}
  0
LINE
  5
1137
330
18
100
AcDbEntity
  8
0
 62
   250
100
AcDbLine
 10
1929.101477679251
 20
1297.133318450695
 30
0.0
 11
1820.434811012585
 21
1297.133318450695
 31
0.0
  0
HATCH
  5
1138
330
18
100
AcDbEntity
  8
MOJI
100
AcDbHatch
 10
0.0
 20
0.0
 30
0.0
210
0.0
220
0.0
230
1.0
  2
AR-SAND
 70
     0
 71
     0
 91
        1
 92
        7
 72
     0
 73
     1
 93
        4
 10
1929.101477679252
 20
1297.133318450695
 10
1820.434811012585
 20
1297.133318450695
 10
1820.434811012585
 20
1457.133318450696
 10
1920.434811012585
 20
1457.133318450695
 97
        0
 75
     0
 76
     1
 52
0.0
 41
10.0
 77
     0
 78
     4
 53
142.5
 43
3520.323931872969
 44
299.95665939826
 45
0.6299335810960816
 46
19.26823769013158
 79
     6
 49
0.0
 49
-15.2
 49
0.0
 49
-17.0
 49
0.0
 49
-16.25
 53
172.5
 43
3520.323931872969
 44
299.95665939826
 45
-17.69776705267727
 46
28.2214606522974
 79
     6
 49
0.0
 49
-8.199999999999999
 49
0.0
 49
-13.7
 49
0.0
 49
-5.25
 53
212.5
 43
3532.623931872968
 44
299.95665939826
 45
-31.14141861751495
 46
0.056590535369645
 79
     6
 49
0.0
 49
-4.999999999999998
 49
0.0
 49
-17.99999999999999
 49
0.0
 49
-23.49999999999999
 53
222.5
 43
3532.623931872968
 44
299.95665939826
 45
-30.06126604572293
 46
8.77675564934249
 79
     6
 49
0.0
 49
-2.5
 49
0.0
 49
-11.8
 49
0.0
 49
-13.5
 47
2.162163071610333
 98
        1
 10
1886.810774617142
 20
1344.180160133457
  0
LINE
  5
1139
330
18
100
AcDbEntity
  8
0
 62
   250
100
AcDbLine
 10
1820.434811012585
 20
1457.133318450696
 30
0.0
 11
1820.434811012585
 21
1297.133318450695
 31
0.0
  0
LINE
  5
113A
330
18
100
AcDbEntity
  8
0
 62
   250
100
AcDbLine
 10
1920.434811012585
 20
1457.133318450696
 30
0.0
 11
1820.434811012585
 21
1457.133318450696
 31
0.0
  0
LINE
  5
113B
330
18
100
AcDbEntity
  8
SUNPOU
100
AcDbLine
 10
3877.501866748457
 20
154.7475515964042
 30
0.0
 11
3997.19651876937
 21
154.7475515964042
 31
0.0
  0
LINE
  5
113C
330
18
100
AcDbEntity
  8
0
 62
   250
100
AcDbLine
 10
1922.807494493248
 20
245.2057609803596
 30
0.0
 11
1822.807494493249
 21
245.2057609803596
 31
0.0
  0
LINE
  5
113D
330
18
100
AcDbEntity
  8
0
 62
   250
100
AcDbLine
 10
1931.474161159914
 20
85.20576098035963
 30
0.0
 11
1822.807494493249
 21
85.20576098035963
 31
0.0
  0
HATCH
  5
113E
330
18
100
AcDbEntity
  8
MOJI
100
AcDbHatch
 10
0.0
 20
0.0
 30
0.0
210
0.0
220
0.0
230
1.0
  2
AR-SAND
 70
     0
 71
     0
 91
        1
 92
        7
 72
     0
 73
     1
 93
        4
 10
1931.474161159915
 20
85.20576098035986
 10
1822.807494493249
 20
85.20576098035963
 10
1822.807494493249
 20
245.2057609803596
 10
1922.807494493248
 20
245.2057609803594
 97
        0
 75
     0
 76
     1
 52
0.0
 41
10.0
 77
     0
 78
     4
 53
142.5
 43
3522.696615353632
 44
-911.970898072076
 45
0.6299335810960816
 46
19.26823769013158
 79
     6
 49
0.0
 49
-15.2
 49
0.0
 49
-17.0
 49
0.0
 49
-16.25
 53
172.5
 43
3522.696615353632
 44
-911.970898072076
 45
-17.69776705267727
 46
28.2214606522974
 79
     6
 49
0.0
 49
-8.199999999999999
 49
0.0
 49
-13.7
 49
0.0
 49
-5.25
 53
212.5
 43
3534.996615353632
 44
-911.970898072076
 45
-31.14141861751495
 46
0.056590535369645
 79
     6
 49
0.0
 49
-4.999999999999999
 49
0.0
 49
-18.0
 49
0.0
 49
-23.5
 53
222.5
 43
3534.996615353632
 44
-911.970898072076
 45
-30.06126604572293
 46
8.77675564934249
 79
     6
 49
0.0
 49
-2.5
 49
0.0
 49
-11.8
 49
0.0
 49
-13.5
 47
2.162163071610333
 98
        1
 10
1889.183458097805
 20
132.2526026631212
  0
LINE
  5
113F
330
18
100
AcDbEntity
  8
0
 62
   250
100
AcDbLine
 10
1822.807494493249
 20
245.2057609803596
 30
0.0
 11
1822.807494493249
 21
85.20576098035963
 31
0.0
  0
HATCH
  5
1140
330
18
100
AcDbEntity
  8
MOJI
100
AcDbHatch
 10
0.0
 20
0.0
 30
0.0
210
0.0
220
0.0
230
1.0
  2
HONEY
 70
     0
 71
     0
 91
        2
 92
        7
 72
     1
 73
     1
 93
        5
 10
1922.807494493248
 20
245.2057609803596
 42
0.0
 10
1982.474161159916
 20
245.2057609803596
 42
0.0
 10
1992.695891194994
 20
91.87981045417108
 42
0.033710199725894
 10
1993.595354232161
 20
85.20576098035963
 42
0.0
 10
1931.474161159915
 20
85.20576098035963
 42
0.0
 97
        0
 92
      153
 93
        4
 72
     1
 10
1992.295589731344
 20
191.4557609803596
 11
1939.319399255154
 21
191.4557609803596
 72
     1
 10
1939.319399255153
 20
191.4557609803596
 11
1939.319399255153
 21
153.9557609803596
 72
     1
 10
1939.319399255153
 20
153.9557609803596
 11
1992.295589731343
 21
153.9557609803596
 72
     1
 10
1992.295589731344
 20
153.9557609803596
 11
1992.295589731344
 21
191.4557609803596
 97
        0
 75
     0
 76
     1
 52
10.0
 41
60.0
 77
     0
 78
     3
 53
170.0
 43
3522.696615353632
 44
-911.970898072076
 45
-9.951209227462781
 46
8.350055960444205
 79
     2
 49
7.499999999999994
 49
-14.99999999999999
 53
50.00000000000003
 43
3522.696615353632
 44
-911.970898072076
 45
12.20696519849774
 46
4.442972009134786
 79
     2
 49
7.5
 49
-15.0
 53
110.0
 43
3522.696615353632
 44
-911.970898072076
 45
2.255755971034959
 46
12.79302796957899
 79
     2
 49
-14.99999999999999
 49
7.499999999999995
 47
2.162163071610333
 98
        1
 10
1938.956480607
 20
171.1715351012917
  0
LINE
  5
1142
330
18
100
AcDbEntity
  8
0
100
AcDbLine
 10
1873.434811012593
 20
1607.133318450696
 30
0.0
 11
1554.458410667695
 21
1607.133318450696
 31
0.0
  0
LINE
  5
1143
330
18
100
AcDbEntity
  8
0
100
AcDbLine
 10
1875.807494493249
 20
395.2057609803596
 30
0.0
 11
1556.83109414835
 21
395.2057609803596
 31
0.0
  0
LINE
  5
1144
330
18
100
AcDbEntity
  8
0
100
AcDbLine
 10
541.4495744750793
 20
395.000578454079
 30
0.0
 11
222.4731741301812
 21
395.000578454079
 31
0.0
  0
LINE
  5
1145
330
18
100
AcDbEntity
  8
0
100
AcDbLine
 10
541.4495744750793
 20
1607.133318450696
 30
0.0
 11
222.4731741301812
 21
1607.133318450696
 31
0.0
  0
TEXT
  5
1369
330
18
100
AcDbEntity
  8
0
100
AcDbText
 10
1573.736302998316
 20
1895.163369120438
 30
0.0
 40
70.0
  1
透水側溝GPU-300構造図
  7
BIGFONT
 72
     4
 11
2106.069636331649
 21
1930.163369120438
 31
0.0
100
AcDbText
  0
TEXT
  5
136A
330
18
100
AcDbEntity
  8
0
100
AcDbText
 10
2349.858759941696
 20
1812.430651505926
 30
0.0
 40
50.0
  1
Ｓ＝１／１０
  7
BIGFONT
 72
     4
 11
2521.525426608362
 21
1835.76398483926
 31
0.0
100
AcDbText
  0
TEXT
  5
136B
330
18
100
AcDbEntity
  8
0
100
AcDbText
 10
1573.736302998316
 20
683.2358116501023
 30
0.0
 40
70.0
  1
透水側溝GPU-300構造図
  7
BIGFONT
 72
     4
 11
2106.069636331649
 21
718.2358116501022
 31
0.0
100
AcDbText
  0
TEXT
  5
136C
330
18
100
AcDbEntity
  8
0
100
AcDbText
 10
2349.858759941696
 20
600.5030940355901
 30
0.0
 40
50.0
  1
Ｓ＝１／１０
  7
BIGFONT
 72
     4
 11
2521.525426608362
 21
623.8364273689235
 31
0.0
100
AcDbText
  0
LINE
  5
136E
102
{ACAD_REACTORS
330
140A
102
}
330
18
100
AcDbEntity
  8
CT2
100
AcDbLine
 10
791.4495744750791
 20
1712.348405655316
 30
0.0
 11
791.4495744750791
 21
1011.263846342813
 31
0.0
  0
LINE
  5
1374
102
{ACAD_REACTORS
330
140A
102
}
330
18
100
AcDbEntity
  8
0
100
AcDbLine
 10
571.4495744750791
 20
1197.133318450696
 30
0.0
 11
571.4495744750791
 21
1167.133318450696
 31
0.0
  0
LINE
  5
1375
102
{ACAD_REACTORS
330
140A
102
}
330
18
100
AcDbEntity
  8
0
100
AcDbLine
 10
1011.449574475079
 20
1197.133318450696
 30
0.0
 11
1011.449574475079
 21
1167.133318450696
 31
0.0
  0
DIMENSION
  5
1376
330
18
100
AcDbEntity
  8
SUNPOU
100
AcDbDimension
  2
*D74
 10
1011.449574475079
 20
968.1817127279146
 30
0.0
 11
791.4495744750791
 21
995.8573355753387
 31
0.0
 70
   160
 71
     5
 42
440.0000000000002
  3
DIM1
100
AcDbAlignedDimension
 13
571.4495744750791
 23
1071.055492357534
 33
0.0
 14
1011.449574475079
 24
1071.055492357535
 34
0.0
100
AcDbRotatedDimension
  0
HATCH
  5
140A
330
18
100
AcDbEntity
  8
MOJI
100
AcDbHatch
 10
0.0
 20
0.0
 30
0.0
210
0.0
220
0.0
230
1.0
  2
AR-SAND
 70
     0
 71
     1
 91
        2
 92
        7
 72
     0
 73
     1
 93
        4
 10
1011.449574475079
 20
1197.133318450696
 10
791.4495744750791
 20
1197.133318450696
 10
791.4495744750791
 20
1167.133318450695
 10
1011.449574475079
 20
1167.133318450696
 97
        4
330
4E6
330
136E
330
65E
330
1375
 92
        7
 72
     0
 73
     1
 93
        4
 10
791.4495744750791
 20
1197.133318450696
 10
571.4495744750792
 20
1197.133318450696
 10
571.4495744750792
 20
1167.133318450696
 10
791.4495744750789
 20
1167.133318450695
 97
        4
330
4E6
330
1374
330
65E
330
136E
 75
     0
 76
     1
 52
0.0
 41
10.0
 77
     0
 78
     4
 53
37.5
 43
0.0
 44
0.0
 45
-0.6299335810960816
 46
19.26823769013158
 79
     6
 49
0.0
 49
-15.2
 49
0.0
 49
-17.0
 49
0.0
 49
-16.25
 53
7.499999999999999
 43
0.0
 44
0.0
 45
17.69776705267727
 46
28.2214606522974
 79
     6
 49
0.0
 49
-8.199999999999999
 49
0.0
 49
-13.7
 49
0.0
 49
-5.25
 53
327.5
 43
-12.3
 44
0.0
 45
31.14141861751495
 46
0.056590535369645
 79
     6
 49
0.0
 49
-5.0
 49
0.0
 49
-18.0
 49
0.0
 49
-23.5
 53
317.5
 43
-12.3
 44
0.0
 45
30.06126604572293
 46
8.77675564934249
 79
     6
 49
0.0
 49
-2.5
 49
0.0
 49
-11.8
 49
0.0
 49
-13.5
 47
3.075068949705451
 98
        2
 10
876.5036377446703
 20
1180.361470907177
 10
741.0466325599827
 20
1180.361470907177
  0
LINE
  5
140F
330
18
100
AcDbEntity
  8
CT2
100
AcDbLine
 10
2123.434811012593
 20
1712.348405655316
 30
0.0
 11
2123.434811012593
 21
1011.263846342813
 31
0.0
  0
HATCH
  5
1410
330
18
100
AcDbEntity
  8
MOJI
100
AcDbHatch
 10
0.0
 20
0.0
 30
0.0
210
0.0
220
0.0
230
1.0
  2
AR-SAND
 70
     0
 71
     0
 91
        2
 92
        7
 72
     0
 73
     1
 93
        4
 10
2343.434811012593
 20
1197.133318450696
 10
2123.434811012593
 20
1197.133318450696
 10
2123.434811012593
 20
1167.133318450695
 10
2343.434811012593
 20
1167.133318450696
 97
        0
 92
        7
 72
     0
 73
     1
 93
        4
 10
2123.434811012593
 20
1197.133318450696
 10
1903.434811012593
 20
1197.133318450696
 10
1903.434811012593
 20
1167.133318450696
 10
2123.434811012593
 20
1167.133318450695
 97
        0
 75
     0
 76
     1
 52
0.0
 41
10.0
 77
     0
 78
     4
 53
37.5
 43
1331.985236537514
 44
0.0
 45
-0.6299335810960816
 46
19.26823769013158
 79
     6
 49
0.0
 49
-15.2
 49
0.0
 49
-17.0
 49
0.0
 49
-16.25
 53
7.499999999999999
 43
1331.985236537514
 44
0.0
 45
17.69776705267727
 46
28.2214606522974
 79
     6
 49
0.0
 49
-8.199999999999999
 49
0.0
 49
-13.7
 49
0.0
 49
-5.25
 53
327.5
 43
1319.685236537514
 44
0.0
 45
31.14141861751495
 46
0.056590535369645
 79
     6
 49
0.0
 49
-5.0
 49
0.0
 49
-18.0
 49
0.0
 49
-23.5
 53
317.5
 43
1319.685236537514
 44
0.0
 45
30.06126604572293
 46
8.77675564934249
 79
     6
 49
0.0
 49
-2.5
 49
0.0
 49
-11.8
 49
0.0
 49
-13.5
 47
3.075068949705451
 98
        2
 10
2208.488874282184
 20
1180.361470907177
 10
2073.031869097496
 20
1180.361470907177
  0
LINE
  5
1411
330
18
100
AcDbEntity
  8
0
100
AcDbLine
 10
2343.434811012593
 20
1197.133318450696
 30
0.0
 11
2343.434811012593
 21
1167.133318450696
 31
0.0
  0
LINE
  5
1412
330
18
100
AcDbEntity
  8
0
100
AcDbLine
 10
1903.434811012593
 20
1197.133318450696
 30
0.0
 11
1903.434811012593
 21
1167.133318450696
 31
0.0
  0
LINE
  5
1413
330
18
100
AcDbEntity
  8
0
 62
   250
100
AcDbLine
 10
2343.434811012593
 20
1197.133318450696
 30
0.0
 11
1903.434811012593
 21
1197.133318450696
 31
0.0
  0
TEXT
  5
1414
330
18
100
AcDbEntity
  8
SUNPOU
100
AcDbText
 10
1609.972317655687
 20
1186.81523282107
 30
0.0
 40
25.0
  1
ﾍﾞｰｽｺﾝｸﾘｰﾄ
  7
BIGFONT
 72
     2
 11
1749.972317655687
 21
1199.31523282107
 31
0.0
100
AcDbText
 73
     2
  0
LINE
  5
1415
330
18
100
AcDbEntity
  8
SUNPOU
100
AcDbLine
 10
1819.941799440799
 20
1178.957513577193
 30
0.0
 11
1606.608466107466
 21
1178.957513577193
 31
0.0
  0
LINE
  5
1416
330
18
100
AcDbEntity
  8
SUNPOU
100
AcDbLine
 10
1917.911853125008
 20
1178.957513577193
 30
0.0
 11
1819.941799440799
 21
1178.957513577193
 31
0.0
  0
SOLID
  5
1417
330
18
100
AcDbEntity
  8
SUNPOU
100
AcDbTrace
 10
1917.911853125008
 20
1181.457513577193
 30
0.0
 11
1917.911853125008
 21
1176.457513577193
 31
0.0
 12
1932.911853125008
 22
1178.957513577193
 32
0.0
 13
1932.911853125008
 23
1178.957513577193
 33
0.0
  0
DIMENSION
  5
1418
330
18
100
AcDbEntity
  8
SUNPOU
100
AcDbDimension
  2
*D76
 10
2343.434811012593
 20
968.1817127279146
 30
0.0
 11
2123.434811012593
 21
995.8573355753387
 31
0.0
 70
   160
 71
     5
 42
440.0
  3
DIM1
100
AcDbAlignedDimension
 13
1903.434811012593
 23
1071.055492357534
 33
0.0
 14
2343.434811012593
 24
1071.055492357535
 34
0.0
100
AcDbRotatedDimension
  0
DIMENSION
  5
1419
330
18
100
AcDbEntity
  8
SUNPOU
100
AcDbDimension
  2
*D75
 10
2393.434811012593
 20
912.8304726945071
 30
0.0
 11
2123.434811012593
 21
935.330472694507
 31
0.0
 70
    32
 71
     5
 42
539.9999999999997
  3
DIM1
100
AcDbAlignedDimension
 13
1853.434811012593
 23
1056.397909909505
 33
0.0
 14
2393.434811012593
 24
1056.397909909505
 34
0.0
100
AcDbRotatedDimension
  0
DIMENSION
  5
1445
330
18
100
AcDbEntity
  8
SUNPOU
100
AcDbDimension
  2
*D78
 10
1011.449574475079
 20
-243.9510272687021
 30
0.0
 11
791.4495744750791
 21
-216.2754044212779
 31
0.0
 70
   160
 71
     5
 42
440.0000000000002
  3
DIM1
100
AcDbAlignedDimension
 13
571.4495744750791
 23
-141.0772476390821
 33
0.0
 14
1011.449574475079
 24
-141.0772476390816
 34
0.0
100
AcDbRotatedDimension
  0
DIMENSION
  5
1446
330
18
100
AcDbEntity
  8
SUNPOU
100
AcDbDimension
  2
*D77
 10
1061.449574475079
 20
-299.3022673021096
 30
0.0
 11
791.4495744750792
 21
-276.8022673021096
 31
0.0
 70
    32
 71
     5
 42
539.9999999999997
  3
DIM1
100
AcDbAlignedDimension
 13
521.4495744750792
 23
-155.7348300871117
 33
0.0
 14
1061.449574475079
 24
-155.7348300871117
 34
0.0
100
AcDbRotatedDimension
  0
LINE
  5
1447
330
18
100
AcDbEntity
  8
CT2
100
AcDbLine
 10
791.4495744750791
 20
500.2156656586994
 30
0.0
 11
791.4495744750791
 21
-200.8688936538038
 31
0.0
  0
LINE
  5
1448
330
18
100
AcDbEntity
  8
SUNPOU
100
AcDbLine
 10
585.9266165874944
 20
-33.17522641942332
 30
0.0
 11
487.9565629032859
 21
-33.17522641942332
 31
0.0
  0
TEXT
  5
1449
330
18
100
AcDbEntity
  8
SUNPOU
100
AcDbText
 10
313.7509013488016
 20
-25.31750717554678
 30
0.0
 40
25.0
  1
ﾍﾞｰｽｺﾝｸﾘｰﾄ
  7
BIGFONT
 72
     2
 11
453.7509013488016
 21
-12.81750717554678
 31
0.0
100
AcDbText
 73
     2
  0
LINE
  5
144A
330
18
100
AcDbEntity
  8
SUNPOU
100
AcDbLine
 10
487.9565629032859
 20
-33.17522641942332
 30
0.0
 11
274.6232295699524
 21
-33.17522641942332
 31
0.0
  0
LINE
  5
144B
330
18
100
AcDbEntity
  8
SUNPOU
100
AcDbLine
 10
609.960005223121
 20
90.41130449450429
 30
0.0
 11
233.2224651160641
 21
90.41130449450429
 31
0.0
  0
TEXT
  5
144C
330
18
100
AcDbEntity
  8
SUNPOU
100
AcDbText
 10
235.6389570852354
 20
102.2501133664545
 30
0.0
 40
25.0
  1
GPUｓ-300A
  7
BIGFONT
 72
     2
 11
463.2580047042829
 21
114.7501133664545
 31
0.0
100
AcDbText
 73
     2
  0
SOLID
  5
144D
330
18
100
AcDbEntity
  8
SUNPOU
100
AcDbTrace
 10
609.960005223121
 20
92.91130449450429
 30
0.0
 11
609.960005223121
 21
87.91130449450429
 31
0.0
 12
624.960005223121
 22
90.41130449450429
 32
0.0
 13
624.960005223121
 23
90.41130449450429
 33
0.0
  0
HATCH
  5
144E
330
18
100
AcDbEntity
  8
MOJI
100
AcDbHatch
 10
0.0
 20
0.0
 30
0.0
210
0.0
220
0.0
230
1.0
  2
AR-SAND
 70
     0
 71
     0
 91
        2
 92
        7
 72
     0
 73
     1
 93
        4
 10
1011.449574475079
 20
-14.99942154592076
 10
791.4495744750791
 20
-14.99942154592076
 10
791.4495744750791
 20
-44.99942154592122
 10
1011.449574475079
 20
-44.99942154592099
 97
        0
 92
        7
 72
     0
 73
     1
 93
        4
 10
791.4495744750791
 20
-14.99942154592099
 10
571.4495744750792
 20
-14.99942154592099
 10
571.4495744750792
 20
-44.99942154592099
 10
791.4495744750789
 20
-44.99942154592122
 97
        0
 75
     0
 76
     1
 52
0.0
 41
10.0
 77
     0
 78
     4
 53
37.5
 43
0.0
 44
-1212.132739996617
 45
-0.6299335810960816
 46
19.26823769013158
 79
     6
 49
0.0
 49
-15.2
 49
0.0
 49
-17.0
 49
0.0
 49
-16.25
 53
7.499999999999999
 43
0.0
 44
-1212.132739996617
 45
17.69776705267727
 46
28.2214606522974
 79
     6
 49
0.0
 49
-8.199999999999999
 49
0.0
 49
-13.7
 49
0.0
 49
-5.25
 53
327.5
 43
-12.29999999999999
 44
-1212.132739996617
 45
31.14141861751495
 46
0.056590535369645
 79
     6
 49
0.0
 49
-5.0
 49
0.0
 49
-18.0
 49
0.0
 49
-23.5
 53
317.5
 43
-12.29999999999999
 44
-1212.132739996617
 45
30.06126604572293
 46
8.77675564934249
 79
     6
 49
0.0
 49
-2.5
 49
0.0
 49
-11.8
 49
0.0
 49
-13.5
 47
3.075068949705451
 98
        2
 10
876.5036377446703
 20
-31.77126908943956
 10
741.0466325599827
 20
-31.77126908943956
  0
LINE
  5
144F
330
18
100
AcDbEntity
  8
0
 62
   250
100
AcDbLine
 10
1011.449574475079
 20
-14.99942154592054
 30
0.0
 11
571.4495744750792
 21
-14.99942154592099
 31
0.0
  0
LINE
  5
1450
330
18
100
AcDbEntity
  8
0
100
AcDbLine
 10
1011.449574475079
 20
-14.99942154592099
 30
0.0
 11
1011.449574475079
 21
-44.99942154592099
 31
0.0
  0
LINE
  5
1451
330
18
100
AcDbEntity
  8
0
100
AcDbLine
 10
571.4495744750791
 20
-14.99942154592099
 30
0.0
 11
571.4495744750791
 21
-44.99942154592099
 31
0.0
  0
LINE
  5
147C
330
18
100
AcDbEntity
  8
SUNPOU
100
AcDbLine
 10
1944.31792524129
 20
68.51723471660989
 30
0.0
 11
1708.47104225621
 21
68.51723471660989
 31
0.0
  0
TEXT
  5
147D
330
18
100
AcDbEntity
  8
SUNPOU
100
AcDbText
 10
1599.996877103405
 20
80.35604358856017
 30
0.0
 40
25.0
  1
GPU-300A
  7
BIGFONT
 72
     2
 11
1797.615924722452
 21
92.85604358856017
 31
0.0
100
AcDbText
 73
     2
  0
LINE
  5
147E
330
18
100
AcDbEntity
  8
SUNPOU
100
AcDbLine
 10
1708.47104225621
 20
68.51723471660989
 30
0.0
 11
1588.776390235297
 21
68.51723471660989
 31
0.0
  0
LINE
  5
147F
330
18
100
AcDbEntity
  8
SUNPOU
100
AcDbLine
 10
1822.314482921455
 20
-32.9700438931427
 30
0.0
 11
1608.981149588122
 21
-32.9700438931427
 31
0.0
  0
TEXT
  5
1480
330
18
100
AcDbEntity
  8
SUNPOU
100
AcDbText
 10
1648.108821366971
 20
-25.11232464926616
 30
0.0
 40
25.0
  1
ﾍﾞｰｽｺﾝｸﾘｰﾄ
  7
BIGFONT
 72
     2
 11
1788.108821366971
 21
-12.61232464926616
 31
0.0
100
AcDbText
 73
     2
  0
LINE
  5
1481
330
18
100
AcDbEntity
  8
SUNPOU
100
AcDbLine
 10
1920.284536605664
 20
-32.9700438931427
 30
0.0
 11
1822.314482921455
 21
-32.9700438931427
 31
0.0
  0
LINE
  5
1482
330
18
100
AcDbEntity
  8
0
100
AcDbLine
 10
1905.807494493248
 20
-14.79423901964037
 30
0.0
 11
1905.807494493248
 21
-44.79423901964037
 31
0.0
  0
SOLID
  5
1483
330
18
100
AcDbEntity
  8
SUNPOU
100
AcDbTrace
 10
1920.284536605664
 20
-30.4700438931427
 30
0.0
 11
1920.284536605664
 21
-35.4700438931427
 31
0.0
 12
1935.284536605664
 22
-32.9700438931427
 32
0.0
 13
1935.284536605664
 23
-32.9700438931427
 33
0.0
  0
HATCH
  5
1484
330
18
100
AcDbEntity
  8
MOJI
100
AcDbHatch
 10
0.0
 20
0.0
 30
0.0
210
0.0
220
0.0
230
1.0
  2
AR-SAND
 70
     0
 71
     0
 91
        2
 92
        7
 72
     0
 73
     1
 93
        4
 10
2345.807494493249
 20
-14.79423901964014
 10
2125.807494493249
 20
-14.79423901964014
 10
2125.807494493249
 20
-44.7942390196406
 10
2345.807494493249
 20
-44.79423901964037
 97
        0
 92
        7
 72
     0
 73
     1
 93
        4
 10
2125.807494493249
 20
-14.79423901964037
 10
1905.807494493248
 20
-14.79423901964037
 10
1905.807494493248
 20
-44.79423901964037
 10
2125.807494493249
 20
-44.7942390196406
 97
        0
 75
     0
 76
     1
 52
0.0
 41
10.0
 77
     0
 78
     4
 53
37.5
 43
1334.357920018169
 44
-1211.927557470336
 45
-0.6299335810960816
 46
19.26823769013158
 79
     6
 49
0.0
 49
-15.2
 49
0.0
 49
-17.0
 49
0.0
 49
-16.25
 53
7.499999999999999
 43
1334.357920018169
 44
-1211.927557470336
 45
17.69776705267727
 46
28.2214606522974
 79
     6
 49
0.0
 49
-8.199999999999999
 49
0.0
 49
-13.7
 49
0.0
 49
-5.25
 53
327.5
 43
1322.057920018169
 44
-1211.927557470336
 45
31.14141861751495
 46
0.056590535369645
 79
     6
 49
0.0
 49
-5.0
 49
0.0
 49
-18.0
 49
0.0
 49
-23.5
 53
317.5
 43
1322.057920018169
 44
-1211.927557470336
 45
30.06126604572293
 46
8.77675564934249
 79
     6
 49
0.0
 49
-2.5
 49
0.0
 49
-11.8
 49
0.0
 49
-13.5
 47
3.075068949705451
 98
        2
 10
2210.86155776284
 20
-31.56608656315893
 10
2075.404552578152
 20
-31.56608656315893
  0
LINE
  5
1485
330
18
100
AcDbEntity
  8
0
100
AcDbLine
 10
2345.807494493249
 20
-14.79423901964037
 30
0.0
 11
2345.807494493249
 21
-44.79423901964037
 31
0.0
  0
DIMENSION
  5
1486
330
18
100
AcDbEntity
  8
SUNPOU
100
AcDbDimension
  2
*D80
 10
2395.807494493249
 20
-299.097084775829
 30
0.0
 11
2125.807494493249
 21
-276.597084775829
 31
0.0
 70
    32
 71
     5
 42
539.9999999999997
  3
DIM1
100
AcDbAlignedDimension
 13
1855.807494493249
 23
-155.5296475608311
 33
0.0
 14
2395.807494493249
 24
-155.5296475608311
 34
0.0
100
AcDbRotatedDimension
  0
DIMENSION
  5
1487
330
18
100
AcDbEntity
  8
SUNPOU
100
AcDbDimension
  2
*D79
 10
2345.807494493249
 20
-243.7458447424215
 30
0.0
 11
2125.807494493249
 21
-216.0702218949973
 31
0.0
 70
   160
 71
     5
 42
440.0
  3
DIM1
100
AcDbAlignedDimension
 13
1905.807494493248
 23
-140.8720651128014
 33
0.0
 14
2345.807494493249
 24
-140.872065112801
 34
0.0
100
AcDbRotatedDimension
  0
LINE
  5
1488
330
18
100
AcDbEntity
  8
CT2
100
AcDbLine
 10
2125.807494493249
 20
500.42084818498
 30
0.0
 11
2125.807494493249
 21
-200.6637111275231
 31
0.0
  0
LINE
  5
14B3
330
18
100
AcDbEntity
  8
0
 62
   250
100
AcDbLine
 10
2345.807494493249
 20
-14.79423901963992
 30
0.0
 11
1905.807494493248
 21
-14.79423901964037
 31
0.0
  0
TEXT
  5
14B5
330
18
100
AcDbEntity
  8
0
100
AcDbText
 10
277.0359649276016
 20
683.0306291238216
 30
0.0
 40
70.0
  1
透水側溝GPUs-300構造図
  7
BIGFONT
 72
     4
 11
837.7026315942678
 21
718.0306291238216
 31
0.0
100
AcDbText
  0
MTEXT
  5
167A
330
18
100
AcDbEntity
  8
0
100
AcDbMText
 10
1074.057217786567
 20
1046.373221998356
 30
0.0
 40
30.0
 41
371.0
 71
     1
 72
     5
  1
{\C1;製品長 Ｌ＝1.000ｍ}
  7
BIGFONT
 73
     1
 44
1.0
  0
MTEXT
  5
179B
330
18
100
AcDbEntity
  8
0
100
AcDbMText
 10
2406.042454324081
 20
1046.373221998356
 30
0.0
 40
30.0
 41
371.0
 71
     1
 72
     5
  1
{\C1;製品長 Ｌ＝1.000ｍ}
  7
BIGFONT
 73
     1
 44
1.0
  0
MTEXT
  5
179C
330
18
100
AcDbEntity
  8
0
100
AcDbMText
 10
1074.057217786567
 20
-165.7595179982609
 30
0.0
 40
30.0
 41
371.0
 71
     1
 72
     5
  1
{\C1;製品長 Ｌ＝1.000ｍ}
  7
BIGFONT
 73
     1
 44
1.0
  0
MTEXT
  5
179D
330
18
100
AcDbEntity
  8
0
100
AcDbMText
 10
2408.415137804736
 20
-165.5543354719802
 30
0.0
 40
30.0
 41
371.0
 71
     1
 72
     5
  1
{\C1;製品長 Ｌ＝1.000ｍ}
  7
BIGFONT
 73
     1
 44
1.0
  0
HATCH
  5
17A4
330
18
100
AcDbEntity
  8
MOJI
100
AcDbHatch
 10
0.0
 20
0.0
 30
0.0
210
0.0
220
0.0
230
1.0
  2
HONEY
 70
     0
 71
     0
 91
        2
 92
        7
 72
     1
 73
     1
 93
        5
 10
2326.434811012593
 20
1457.133318450696
 42
0.0
 10
2266.768144345926
 20
1457.133318450696
 42
0.0
 10
2256.546414310848
 20
1303.807367924507
 42
-0.033710199725894
 10
2255.64695127368
 20
1297.133318450695
 42
0.0
 10
2317.768144345926
 20
1297.133318450695
 42
0.0
 97
        0
 92
      153
 93
        4
 72
     1
 10
2256.946715774498
 20
1403.383318450696
 11
2309.922906250688
 21
1403.383318450696
 72
     1
 10
2309.922906250688
 20
1403.383318450696
 11
2309.922906250688
 21
1365.883318450695
 72
     1
 10
2309.922906250688
 20
1365.883318450695
 11
2256.946715774498
 21
1365.883318450695
 72
     1
 10
2256.946715774498
 20
1365.883318450695
 11
2256.946715774498
 21
1403.383318450696
 97
        0
 75
     0
 76
     1
 52
10.0
 41
60.0
 77
     0
 78
     3
 53
10.0
 43
726.5456901522102
 44
299.95665939826
 45
9.951209227462781
 46
8.350055960444205
 79
     2
 49
7.499999999999994
 49
-14.99999999999999
 53
130.0
 43
726.5456901522102
 44
299.95665939826
 45
-12.20696519849774
 46
4.442972009134786
 79
     2
 49
7.5
 49
-15.0
 53
70.0
 43
726.5456901522102
 44
299.95665939826
 45
-2.255755971034959
 46
12.79302796957899
 79
     2
 49
-14.99999999999999
 49
7.499999999999994
 47
2.162163071610333
 98
        1
 10
2310.285824898842
 20
1383.099092571628
  0
HATCH
  5
17A5
330
18
100
AcDbEntity
  8
MOJI
100
AcDbHatch
 10
0.0
 20
0.0
 30
0.0
210
0.0
220
0.0
230
1.0
  2
HONEY
 70
     0
 71
     0
 91
        2
 92
        7
 72
     1
 73
     1
 93
        5
 10
1920.434811012593
 20
1457.133318450696
 42
0.0
 10
1980.10147767926
 20
1457.133318450696
 42
0.0
 10
1990.323207714338
 20
1303.807367924507
 42
0.033710199725894
 10
1991.222670751506
 20
1297.133318450695
 42
0.0
 10
1929.101477679259
 20
1297.133318450695
 42
0.0
 97
        0
 92
      153
 93
        4
 72
     1
 10
1989.922906250688
 20
1403.383318450696
 11
1936.946715774498
 21
1403.383318450696
 72
     1
 10
1936.946715774497
 20
1403.383318450696
 11
1936.946715774497
 21
1365.883318450695
 72
     1
 10
1936.946715774497
 20
1365.883318450695
 11
1989.922906250688
 21
1365.883318450695
 72
     1
 10
1989.922906250688
 20
1365.883318450695
 11
1989.922906250688
 21
1403.383318450696
 97
        0
 75
     0
 76
     1
 52
10.0
 41
60.0
 77
     0
 78
     3
 53
170.0
 43
3520.323931872976
 44
299.95665939826
 45
-9.951209227462781
 46
8.350055960444205
 79
     2
 49
7.499999999999993
 49
-14.99999999999999
 53
50.00000000000003
 43
3520.323931872976
 44
299.95665939826
 45
12.20696519849774
 46
4.442972009134786
 79
     2
 49
7.5
 49
-15.0
 53
109.9999999999999
 43
3520.323931872976
 44
299.95665939826
 45
2.255755971034959
 46
12.79302796957899
 79
     2
 49
-14.99999999999999
 49
7.499999999999994
 47
2.162163071610333
 98
        1
 10
1936.583797126344
 20
1383.099092571628
  0
ENDSEC
  0
SECTION
  2
OBJECTS
  0
DICTIONARY
  5
C
330
0
100
AcDbDictionary
281
     1
  3
ACAD_COLOR
350
17D2
  3
ACAD_GROUP
350
D
  3
ACAD_LAYOUT
350
AFF
  3
ACAD_MATERIAL
350
17A8
  3
ACAD_MLEADERSTYLE
350
17F7
  3
ACAD_MLINESTYLE
350
E
  3
ACAD_PLOTSETTINGS
350
B00
  3
ACAD_PLOTSTYLENAME
350
AFD
  3
ACAD_SCALELIST
350
17D5
  3
ACAD_TABLESTYLE
350
17D3
  3
ACAD_VISUALSTYLE
350
17C1
  3
ACDB_RECOMPOSE_DATA
350
180E
  3
ACDBVARIABLEDICTIONARY
350
6FB
  0
DICTIONARY
  5
17FD
330
F
100
AcDbDictionary
280
     1
281
     1
  3
ADSK_XREC_LAYER_RECONCILED
360
17FE
  0
DICTIONARY
  5
17FF
330
66
100
AcDbDictionary
280
     1
281
     1
  3
ADSK_XREC_LAYER_RECONCILED
360
1800
  0
DICTIONARY
  5
1801
330
67
100
AcDbDictionary
280
     1
281
     1
  3
ADSK_XREC_LAYER_RECONCILED
360
1802
  0
DICTIONARY
  5
1803
330
6A
100
AcDbDictionary
280
     1
281
     1
  3
ADSK_XREC_LAYER_RECONCILED
360
1804
  0
DICTIONARY
  5
1805
330
6B
100
AcDbDictionary
280
     1
281
     1
  3
ADSK_XREC_LAYER_RECONCILED
360
1806
  0
DICTIONARY
  5
1807
330
6C
100
AcDbDictionary
280
     1
281
     1
  3
ADSK_XREC_LAYER_RECONCILED
360
1808
  0
DICTIONARY
  5
17D2
102
{ACAD_REACTORS
330
C
102
}
330
C
100
AcDbDictionary
281
     1
  0
DICTIONARY
  5
D
102
{ACAD_REACTORS
330
C
102
}
330
C
100
AcDbDictionary
281
     1
  0
DICTIONARY
  5
AFF
102
{ACAD_REACTORS
330
C
102
}
330
C
100
AcDbDictionary
281
     1
  3
Model
350
B01
  3
ﾚｲｱｳﾄ1
350
B02
  0
DICTIONARY
  5
17A8
102
{ACAD_REACTORS
330
C
102
}
330
C
100
AcDbDictionary
281
     1
  3
ByBlock
350
17B1
  3
ByLayer
350
17A9
  3
Global
350
17B9
  0
DICTIONARY
  5
17F7
102
{ACAD_REACTORS
330
C
102
}
330
C
100
AcDbDictionary
281
     1
  3
Standard
350
17F8
  0
DICTIONARY
  5
E
102
{ACAD_REACTORS
330
C
102
}
330
C
100
AcDbDictionary
281
     1
  3
STANDARD
350
1B
  0
DICTIONARY
  5
B00
102
{ACAD_REACTORS
330
C
102
}
330
C
100
AcDbDictionary
281
     1
  0
ACDBDICTIONARYWDFLT
  5
AFD
102
{ACAD_REACTORS
330
C
102
}
330
C
100
AcDbDictionary
281
     1
  3
Normal
350
AFE
100
AcDbDictionaryWithDefault
340
AFE
  0
DICTIONARY
  5
17D5
102
{ACAD_REACTORS
330
C
102
}
330
C
100
AcDbDictionary
281
     1
  3
A0
350
17D6
  3
A1
350
17D7
  3
A2
350
17D8
  3
A3
350
17D9
  3
A4
350
17DA
  3
A5
350
17DB
  3
A6
350
17DC
  3
A7
350
17DD
  3
A8
350
17DE
  3
A9
350
17DF
  3
B0
350
17E0
  3
B1
350
17E1
  3
B2
350
17E2
  3
B3
350
17E3
  3
B4
350
17E4
  3
B5
350
17E5
  3
B6
350
17E6
  3
B7
350
17E7
  3
B8
350
17E8
  3
B9
350
17E9
  3
C0
350
17EA
  3
C1
350
17EB
  3
C2
350
17EC
  3
C3
350
17ED
  3
C4
350
17EE
  3
C5
350
17EF
  3
C6
350
17F0
  3
C7
350
17F1
  3
C8
350
17F2
  3
C9
350
17F3
  3
D0
350
17F4
  3
D1
350
17F5
  3
D2
350
17F6
  0
DICTIONARY
  5
17D3
102
{ACAD_REACTORS
330
C
102
}
330
C
100
AcDbDictionary
281
     1
  3
Standard
350
17D4
  0
DICTIONARY
  5
17C1
102
{ACAD_REACTORS
330
C
102
}
330
C
100
AcDbDictionary
281
     1
  3
2dWireframe
350
17C7
  3
3D Hidden
350
17C9
  3
3dWireframe
350
17C8
  3
Basic
350
17C6
  3
Brighten
350
17CD
  3
ColorChange
350
17D1
  3
Conceptual
350
17CA
  3
Dim
350
17CC
  3
Facepattern
350
17D0
  3
Flat
350
17C2
  3
FlatWithEdges
350
17C3
  3
Gouraud
350
17C4
  3
GouraudWithEdges
350
17C5
  3
Linepattern
350
17CF
  3
Realistic
350
17CB
  3
Thicken
350
17CE
  0
XRECORD
  5
180E
102
{ACAD_REACTORS
330
C
102
}
330
C
100
AcDbXrecord
280
     1
 90
        1
330
17D4
  0
DICTIONARY
  5
6FB
102
{ACAD_REACTORS
330
C
102
}
330
C
100
AcDbDictionary
281
     1
  3
CANNOSCALE
350
180B
  3
CMLEADERSTYLE
350
180A
  3
CTABLESTYLE
350
1809
  3
SORTENTS
350
6FC
  0
XRECORD
  5
17FE
102
{ACAD_REACTORS
330
17FD
102
}
330
17FD
100
AcDbXrecord
280
     1
290
     1
  0
XRECORD
  5
1800
102
{ACAD_REACTORS
330
17FF
102
}
330
17FF
100
AcDbXrecord
280
     1
290
     1
  0
XRECORD
  5
1802
102
{ACAD_REACTORS
330
1801
102
}
330
1801
100
AcDbXrecord
280
     1
290
     1
  0
XRECORD
  5
1804
102
{ACAD_REACTORS
330
1803
102
}
330
1803
100
AcDbXrecord
280
     1
290
     1
  0
XRECORD
  5
1806
102
{ACAD_REACTORS
330
1805
102
}
330
1805
100
AcDbXrecord
280
     1
290
     1
  0
XRECORD
  5
1808
102
{ACAD_REACTORS
330
1807
102
}
330
1807
100
AcDbXrecord
280
     1
290
     1
  0
LAYOUT
  5
B01
102
{ACAD_REACTORS
330
AFF
102
}
330
AFF
100
AcDbPlotSettings
  1

  2
EPSON LP-8000SX
  4

  6

 40
0.0
 41
0.0
 42
0.0
 43
0.0
 44
0.0
 45
0.0
 46
0.0
 47
0.0
 48
0.0
 49
0.0
140
0.0
141
0.0
142
1.0
143
1.0
 70
  1712
 72
     0
 73
     0
 74
     0
  7

 75
     0
147
1.0
 76
     0
 77
     2
 78
   300
148
0.0
149
0.0
100
AcDbLayout
  1
Model
 70
     1
 71
     0
 10
0.0
 20
0.0
 11
12.0
 21
9.0
 12
0.0
 22
0.0
 32
0.0
 14
0.0
 24
0.0
 34
0.0
 15
0.0
 25
0.0
 35
0.0
146
0.0
 13
0.0
 23
0.0
 33
0.0
 16
1.0
 26
0.0
 36
0.0
 17
0.0
 27
1.0
 37
0.0
 76
     0
330
18
331
17A6
  0
LAYOUT
  5
B02
102
{ACAD_REACTORS
330
AFF
102
}
330
AFF
100
AcDbPlotSettings
  1

  2
EPSON LP-8000SX
  4

  6

 40
0.0
 41
0.0
 42
0.0
 43
0.0
 44
0.0
 45
0.0
 46
0.0
 47
0.0
 48
0.0
 49
0.0
140
0.0
141
0.0
142
1.0
143
1.0
 70
   688
 72
     0
 73
     0
 74
     5
  7

 75
    16
147
1.0
 76
     0
 77
     2
 78
   300
148
0.0
149
0.0
100
AcDbLayout
  1
ﾚｲｱｳﾄ1
 70
     1
 71
     1
 10
0.0
 20
0.0
 11
12.0
 21
9.0
 12
0.0
 22
0.0
 32
0.0
 14
1.000000000000000E+20
 24
1.000000000000000E+20
 34
1.000000000000000E+20
 15
-1.000000000000000E+20
 25
-1.000000000000000E+20
 35
-1.000000000000000E+20
146
0.0
 13
0.0
 23
0.0
 33
0.0
 16
1.0
 26
0.0
 36
0.0
 17
0.0
 27
1.0
 37
0.0
 76
     0
330
15
  0
MATERIAL
  5
17B1
102
{ACAD_XDICTIONARY
360
17B2
102
}
102
{ACAD_REACTORS
330
17A8
102
}
330
17A8
100
AcDbMaterial
  1
ByBlock
 72
     0
 43
0.0208333333333333
 43
0.0
 43
0.0
 43
0.0
 43
0.0
 43
0.0208333333333333
 43
0.0
 43
0.0
 43
0.0
 43
0.0
 43
1.0
 43
0.0
 43
0.0
 43
0.0
 43
0.0
 43
1.0
 77
     0
 47
0.0208333333333333
 47
0.0
 47
0.0
 47
0.0
 47
0.0
 47
0.0208333333333333
 47
0.0
 47
0.0
 47
0.0
 47
0.0
 47
1.0
 47
0.0
 47
0.0
 47
0.0
 47
0.0
 47
1.0
171
     0
 49
0.0208333333333333
 49
0.0
 49
0.0
 49
0.0
 49
0.0
 49
0.0208333333333333
 49
0.0
 49
0.0
 49
0.0
 49
0.0
 49
1.0
 49
0.0
 49
0.0
 49
0.0
 49
0.0
 49
1.0
175
     0
142
0.0208333333333333
142
0.0
142
0.0
142
0.0
142
0.0
142
0.0208333333333333
142
0.0
142
0.0
142
0.0
142
0.0
142
1.0
142
0.0
142
0.0
142
0.0
142
0.0
142
1.0
179
     0
144
0.0208333333333333
144
0.0
144
0.0
144
0.0
144
0.0
144
0.0208333333333333
144
0.0
144
0.0
144
0.0
144
0.0
144
1.0
144
0.0
144
0.0
144
0.0
144
0.0
144
1.0
147
0.0208333333333333
147
0.0
147
0.0
147
0.0
147
0.0
147
0.0208333333333333
147
0.0
147
0.0
147
0.0
147
0.0
147
1.0
147
0.0
147
0.0
147
0.0
147
0.0
147
1.0
  0
MATERIAL
  5
17A9
102
{ACAD_XDICTIONARY
360
17AA
102
}
102
{ACAD_REACTORS
330
17A8
102
}
330
17A8
100
AcDbMaterial
  1
ByLayer
 72
     0
 43
0.0208333333333333
 43
0.0
 43
0.0
 43
0.0
 43
0.0
 43
0.0208333333333333
 43
0.0
 43
0.0
 43
0.0
 43
0.0
 43
1.0
 43
0.0
 43
0.0
 43
0.0
 43
0.0
 43
1.0
 77
     0
 47
0.0208333333333333
 47
0.0
 47
0.0
 47
0.0
 47
0.0
 47
0.0208333333333333
 47
0.0
 47
0.0
 47
0.0
 47
0.0
 47
1.0
 47
0.0
 47
0.0
 47
0.0
 47
0.0
 47
1.0
171
     0
 49
0.0208333333333333
 49
0.0
 49
0.0
 49
0.0
 49
0.0
 49
0.0208333333333333
 49
0.0
 49
0.0
 49
0.0
 49
0.0
 49
1.0
 49
0.0
 49
0.0
 49
0.0
 49
0.0
 49
1.0
175
     0
142
0.0208333333333333
142
0.0
142
0.0
142
0.0
142
0.0
142
0.0208333333333333
142
0.0
142
0.0
142
0.0
142
0.0
142
1.0
142
0.0
142
0.0
142
0.0
142
0.0
142
1.0
179
     0
144
0.0208333333333333
144
0.0
144
0.0
144
0.0
144
0.0
144
0.0208333333333333
144
0.0
144
0.0
144
0.0
144
0.0
144
1.0
144
0.0
144
0.0
144
0.0
144
0.0
144
1.0
147
0.0208333333333333
147
0.0
147
0.0
147
0.0
147
0.0
147
0.0208333333333333
147
0.0
147
0.0
147
0.0
147
0.0
147
1.0
147
0.0
147
0.0
147
0.0
147
0.0
147
1.0
  0
MATERIAL
  5
17B9
102
{ACAD_XDICTIONARY
360
17BA
102
}
102
{ACAD_REACTORS
330
17A8
102
}
330
17A8
100
AcDbMaterial
  1
Global
 72
     0
 43
0.0208333333333333
 43
0.0
 43
0.0
 43
0.0
 43
0.0
 43
0.0208333333333333
 43
0.0
 43
0.0
 43
0.0
 43
0.0
 43
1.0
 43
0.0
 43
0.0
 43
0.0
 43
0.0
 43
1.0
 77
     0
 47
0.0208333333333333
 47
0.0
 47
0.0
 47
0.0
 47
0.0
 47
0.0208333333333333
 47
0.0
 47
0.0
 47
0.0
 47
0.0
 47
1.0
 47
0.0
 47
0.0
 47
0.0
 47
0.0
 47
1.0
171
     0
 49
0.0208333333333333
 49
0.0
 49
0.0
 49
0.0
 49
0.0
 49
0.0208333333333333
 49
0.0
 49
0.0
 49
0.0
 49
0.0
 49
1.0
 49
0.0
 49
0.0
 49
0.0
 49
0.0
 49
1.0
175
     0
142
0.0208333333333333
142
0.0
142
0.0
142
0.0
142
0.0
142
0.0208333333333333
142
0.0
142
0.0
142
0.0
142
0.0
142
1.0
142
0.0
142
0.0
142
0.0
142
0.0
142
1.0
179
     0
144
0.0208333333333333
144
0.0
144
0.0
144
0.0
144
0.0
144
0.0208333333333333
144
0.0
144
0.0
144
0.0
144
0.0
144
1.0
144
0.0
144
0.0
144
0.0
144
0.0
144
1.0
147
0.0208333333333333
147
0.0
147
0.0
147
0.0
147
0.0
147
0.0208333333333333
147
0.0
147
0.0
147
0.0
147
0.0
147
1.0
147
0.0
147
0.0
147
0.0
147
0.0
147
1.0
  0
MLEADERSTYLE
  5
17F8
102
{ACAD_REACTORS
330
17F7
102
}
330
17F7
100
AcDbMLeaderStyle
170
     2
171
     1
172
     0
 90
        2
 40
0.0
 41
0.0
173
     1
 91
-1056964608
340
12
 92
       -2
290
     1
 42
0.09
291
     1
 43
0.36
  3
Standard
 44
0.18
300

342
10
174
     1
178
     6
175
     1
176
     0
 93
-1056964608
 45
0.18
292
     0
297
     0
 46
0.18
 94
-1056964608
 47
1.0
 49
1.0
140
1.0
293
     1
141
0.0
294
     1
177
     0
142
1.0
295
     0
296
     0
143
0.125
1001
ACAD_MLEADERVER
1070
     2
  0
MLINESTYLE
  5
1B
102
{ACAD_REACTORS
330
E
102
}
330
E
100
AcDbMlineStyle
  2
STANDARD
 70
     0
  3

 62
     0
 51
90.0
 52
90.0
 71
     2
 49
0.5
 62
   256
  6
BYLAYER
 49
-0.5
 62
   256
  6
BYLAYER
  0
ACDBPLACEHOLDER
  5
AFE
102
{ACAD_REACTORS
330
AFD
102
}
330
AFD
  0
SCALE
  5
17D6
102
{ACAD_REACTORS
330
17D5
102
}
330
17D5
100
AcDbScale
 70
     0
300
1:1
140
1.0
141
1.0
290
     1
  0
SCALE
  5
17D7
102
{ACAD_REACTORS
330
17D5
102
}
330
17D5
100
AcDbScale
 70
     0
300
1:2
140
1.0
141
2.0
290
     0
  0
SCALE
  5
17D8
102
{ACAD_REACTORS
330
17D5
102
}
330
17D5
100
AcDbScale
 70
     0
300
1:4
140
1.0
141
4.0
290
     0
  0
SCALE
  5
17D9
102
{ACAD_REACTORS
330
17D5
102
}
330
17D5
100
AcDbScale
 70
     0
300
1:5
140
1.0
141
5.0
290
     0
  0
SCALE
  5
17DA
102
{ACAD_REACTORS
330
17D5
102
}
330
17D5
100
AcDbScale
 70
     0
300
1:8
140
1.0
141
8.0
290
     0
  0
SCALE
  5
17DB
102
{ACAD_REACTORS
330
17D5
102
}
330
17D5
100
AcDbScale
 70
     0
300
1:10
140
1.0
141
10.0
290
     0
  0
SCALE
  5
17DC
102
{ACAD_REACTORS
330
17D5
102
}
330
17D5
100
AcDbScale
 70
     0
300
1:16
140
1.0
141
16.0
290
     0
  0
SCALE
  5
17DD
102
{ACAD_REACTORS
330
17D5
102
}
330
17D5
100
AcDbScale
 70
     0
300
1:20
140
1.0
141
20.0
290
     0
  0
SCALE
  5
17DE
102
{ACAD_REACTORS
330
17D5
102
}
330
17D5
100
AcDbScale
 70
     0
300
1:30
140
1.0
141
30.0
290
     0
  0
SCALE
  5
17DF
102
{ACAD_REACTORS
330
17D5
102
}
330
17D5
100
AcDbScale
 70
     0
300
1:40
140
1.0
141
40.0
290
     0
  0
SCALE
  5
17E0
102
{ACAD_REACTORS
330
17D5
102
}
330
17D5
100
AcDbScale
 70
     0
300
1:50
140
1.0
141
50.0
290
     0
  0
SCALE
  5
17E1
102
{ACAD_REACTORS
330
17D5
102
}
330
17D5
100
AcDbScale
 70
     0
300
1:100
140
1.0
141
100.0
290
     0
  0
SCALE
  5
17E2
102
{ACAD_REACTORS
330
17D5
102
}
330
17D5
100
AcDbScale
 70
     0
300
2:1
140
2.0
141
1.0
290
     0
  0
SCALE
  5
17E3
102
{ACAD_REACTORS
330
17D5
102
}
330
17D5
100
AcDbScale
 70
     0
300
4:1
140
4.0
141
1.0
290
     0
  0
SCALE
  5
17E4
102
{ACAD_REACTORS
330
17D5
102
}
330
17D5
100
AcDbScale
 70
     0
300
8:1
140
8.0
141
1.0
290
     0
  0
SCALE
  5
17E5
102
{ACAD_REACTORS
330
17D5
102
}
330
17D5
100
AcDbScale
 70
     0
300
10:1
140
10.0
141
1.0
290
     0
  0
SCALE
  5
17E6
102
{ACAD_REACTORS
330
17D5
102
}
330
17D5
100
AcDbScale
 70
     0
300
100:1
140
100.0
141
1.0
290
     0
  0
SCALE
  5
17E7
102
{ACAD_REACTORS
330
17D5
102
}
330
17D5
100
AcDbScale
 70
     0
300
1/128" = 1'-0"
140
0.0078125
141
12.0
290
     0
  0
SCALE
  5
17E8
102
{ACAD_REACTORS
330
17D5
102
}
330
17D5
100
AcDbScale
 70
     0
300
1/64" = 1'-0"
140
0.015625
141
12.0
290
     0
  0
SCALE
  5
17E9
102
{ACAD_REACTORS
330
17D5
102
}
330
17D5
100
AcDbScale
 70
     0
300
1/32" = 1'-0"
140
0.03125
141
12.0
290
     0
  0
SCALE
  5
17EA
102
{ACAD_REACTORS
330
17D5
102
}
330
17D5
100
AcDbScale
 70
     0
300
1/16" = 1'-0"
140
0.0625
141
12.0
290
     0
  0
SCALE
  5
17EB
102
{ACAD_REACTORS
330
17D5
102
}
330
17D5
100
AcDbScale
 70
     0
300
3/32" = 1'-0"
140
0.09375
141
12.0
290
     0
  0
SCALE
  5
17EC
102
{ACAD_REACTORS
330
17D5
102
}
330
17D5
100
AcDbScale
 70
     0
300
1/8" = 1'-0"
140
0.125
141
12.0
290
     0
  0
SCALE
  5
17ED
102
{ACAD_REACTORS
330
17D5
102
}
330
17D5
100
AcDbScale
 70
     0
300
3/16" = 1'-0"
140
0.1875
141
12.0
290
     0
  0
SCALE
  5
17EE
102
{ACAD_REACTORS
330
17D5
102
}
330
17D5
100
AcDbScale
 70
     0
300
1/4" = 1'-0"
140
0.25
141
12.0
290
     0
  0
SCALE
  5
17EF
102
{ACAD_REACTORS
330
17D5
102
}
330
17D5
100
AcDbScale
 70
     0
300
3/8" = 1'-0"
140
0.375
141
12.0
290
     0
  0
SCALE
  5
17F0
102
{ACAD_REACTORS
330
17D5
102
}
330
17D5
100
AcDbScale
 70
     0
300
1/2" = 1'-0"
140
0.5
141
12.0
290
     0
  0
SCALE
  5
17F1
102
{ACAD_REACTORS
330
17D5
102
}
330
17D5
100
AcDbScale
 70
     0
300
3/4" = 1'-0"
140
0.75
141
12.0
290
     0
  0
SCALE
  5
17F2
102
{ACAD_REACTORS
330
17D5
102
}
330
17D5
100
AcDbScale
 70
     0
300
1" = 1'-0"
140
1.0
141
12.0
290
     0
  0
SCALE
  5
17F3
102
{ACAD_REACTORS
330
17D5
102
}
330
17D5
100
AcDbScale
 70
     0
300
1-1/2" = 1'-0"
140
1.5
141
12.0
290
     0
  0
SCALE
  5
17F4
102
{ACAD_REACTORS
330
17D5
102
}
330
17D5
100
AcDbScale
 70
     0
300
3" = 1'-0"
140
3.0
141
12.0
290
     0
  0
SCALE
  5
17F5
102
{ACAD_REACTORS
330
17D5
102
}
330
17D5
100
AcDbScale
 70
     0
300
6" = 1'-0"
140
6.0
141
12.0
290
     0
  0
SCALE
  5
17F6
102
{ACAD_REACTORS
330
17D5
102
}
330
17D5
100
AcDbScale
 70
     0
300
1'-0" = 1'-0"
140
12.0
141
12.0
290
     0
  0
TABLESTYLE
  5
17D4
102
{ACAD_XDICTIONARY
360
180C
102
}
102
{ACAD_REACTORS
330
17D3
102
}
330
17D3
100
AcDbTableStyle
  3
Standard
 70
     0
 71
     0
 40
0.06
 41
0.06
280
     0
281
     0
  7
STANDARD
140
0.18
170
     2
 62
     0
 63
     7
283
     0
274
    -2
284
     1
 64
     0
275
    -2
285
     1
 65
     0
276
    -2
286
     1
 66
     0
277
    -2
287
     1
 67
     0
278
    -2
288
     1
 68
     0
279
    -2
289
     1
 69
     0
  7
STANDARD
140
0.25
170
     5
 62
     0
 63
     7
283
     0
274
    -2
284
     1
 64
     0
275
    -2
285
     1
 65
     0
276
    -2
286
     1
 66
     0
277
    -2
287
     1
 67
     0
278
    -2
288
     1
 68
     0
279
    -2
289
     1
 69
     0
  7
STANDARD
140
0.18
170
     5
 62
     0
 63
     7
283
     0
274
    -2
284
     1
 64
     0
275
    -2
285
     1
 65
     0
276
    -2
286
     1
 66
     0
277
    -2
287
     1
 67
     0
278
    -2
288
     1
 68
     0
279
    -2
289
     1
 69
     0
  0
VISUALSTYLE
  5
17C7
102
{ACAD_REACTORS
330
17C1
102
}
330
17C1
100
AcDbVisualStyle
  2
2dWireframe
 70
     4
 71
     0
 72
     2
 73
     0
 90
        0
 40
-0.6
 41
-30.0
 62
     5
 63
     7
421
 16777215
 74
     1
 91
        4
 64
     7
 65
   257
 75
     1
175
     1
 42
1.0
 92
        0
 66
   257
 43
1.0
 76
     1
 77
     6
 78
     2
 67
     7
 79
     5
170
     0
171
     0
290
     0
174
     0
 93
        1
 44
0.0
173
     0
291
     0
 45
0.0
1001
ACAD
1000
AcDbSavedByObjectVersion
1070
     0
  0
VISUALSTYLE
  5
17C9
102
{ACAD_REACTORS
330
17C1
102
}
330
17C1
100
AcDbVisualStyle
  2
3D Hidden
 70
     6
 71
     1
 72
     2
 73
     2
 90
        0
 40
-0.6
 41
-30.0
 62
     5
 63
     7
421
 16777215
 74
     2
 91
        2
 64
     7
 65
   257
 75
     2
175
     1
 42
40.0
 92
        0
 66
   257
 43
1.0
 76
     1
 77
     6
 78
     2
 67
     7
 79
     3
170
     0
171
     0
290
     0
174
     0
 93
        1
 44
0.0
173
     0
291
     0
 45
0.0
1001
ACAD
1000
AcDbSavedByObjectVersion
1070
     0
  0
VISUALSTYLE
  5
17C8
102
{ACAD_REACTORS
330
17C1
102
}
330
17C1
100
AcDbVisualStyle
  2
3dWireframe
 70
     5
 71
     0
 72
     2
 73
     0
 90
        0
 40
-0.6
 41
-30.0
 62
     5
 63
     7
421
 16777215
 74
     1
 91
        4
 64
     7
 65
   257
 75
     1
175
     1
 42
1.0
 92
        0
 66
   257
 43
1.0
 76
     1
 77
     6
 78
     2
 67
     7
 79
     5
170
     0
171
     0
290
     0
174
     0
 93
        1
 44
0.0
173
     0
291
     0
 45
0.0
1001
ACAD
1000
AcDbSavedByObjectVersion
1070
     0
  0
VISUALSTYLE
  5
17C6
102
{ACAD_REACTORS
330
17C1
102
}
330
17C1
100
AcDbVisualStyle
  2
Basic
 70
     7
 71
     1
 72
     0
 73
     1
 90
        0
 40
-0.6
 41
-30.0
 62
     5
 63
     7
421
 16777215
 74
     0
 91
        4
 64
     7
 65
   257
 75
     1
175
     1
 42
1.0
 92
        8
 66
     7
 43
1.0
 76
     1
 77
     6
 78
     2
 67
     7
 79
     5
170
     0
171
     0
290
     0
174
     0
 93
        1
 44
0.0
173
     0
291
     1
 45
0.0
1001
ACAD
1000
AcDbSavedByObjectVersion
1070
     0
  0
VISUALSTYLE
  5
17CD
102
{ACAD_REACTORS
330
17C1
102
}
330
17C1
100
AcDbVisualStyle
  2
Brighten
 70
    12
 71
     2
 72
     2
 73
     0
 90
        0
 40
-0.6
 41
-30.0
 62
     5
 63
     7
421
 16777215
 74
     1
 91
        4
 64
     7
 65
   257
 75
     1
175
     1
 42
1.0
 92
        8
 66
     7
 43
1.0
 76
     1
 77
     6
 78
     2
 67
     7
 79
     5
170
     0
171
     0
290
     0
174
     0
 93
        1
 44
50.0
173
     0
291
     1
 45
0.0
1001
ACAD
1000
AcDbSavedByObjectVersion
1070
     0
  0
VISUALSTYLE
  5
17D1
102
{ACAD_REACTORS
330
17C1
102
}
330
17C1
100
AcDbVisualStyle
  2
ColorChange
 70
    16
 71
     2
 72
     2
 73
     3
 90
        0
 40
-0.6
 41
-30.0
 62
     5
 63
     8
421
  8421504
 74
     1
 91
        4
 64
     7
 65
   257
 75
     1
175
     1
 42
1.0
 92
        8
 66
     8
424
  8421504
 43
1.0
 76
     1
 77
     6
 78
     2
 67
     7
 79
     5
170
     0
171
     0
290
     0
174
     0
 93
        1
 44
0.0
173
     0
291
     1
 45
0.0
1001
ACAD
1000
AcDbSavedByObjectVersion
1070
     0
  0
VISUALSTYLE
  5
17CA
102
{ACAD_REACTORS
330
17C1
102
}
330
17C1
100
AcDbVisualStyle
  2
Conceptual
 70
     9
 71
     3
 72
     2
 73
     0
 90
        0
 40
-0.6
 41
-30.0
 62
     5
 63
     7
421
 16777215
 74
     2
 91
        2
 64
     7
 65
   257
 75
     1
175
     1
 42
40.0
 92
        8
 66
     7
 43
1.0
 76
     1
 77
     6
 78
     2
 67
     7
 79
     3
170
     0
171
     0
290
     0
174
     0
 93
        1
 44
0.0
173
     0
291
     0
 45
0.0
1001
ACAD
1000
AcDbSavedByObjectVersion
1070
     0
  0
VISUALSTYLE
  5
17CC
102
{ACAD_REACTORS
330
17C1
102
}
330
17C1
100
AcDbVisualStyle
  2
Dim
 70
    11
 71
     2
 72
     2
 73
     0
 90
        0
 40
-0.6
 41
-30.0
 62
     5
 63
     7
421
 16777215
 74
     1
 91
        4
 64
     7
 65
   257
 75
     1
175
     1
 42
1.0
 92
        8
 66
     7
 43
1.0
 76
     1
 77
     6
 78
     2
 67
     7
 79
     5
170
     0
171
     0
290
     0
174
     0
 93
        1
 44
-50.0
173
     0
291
     1
 45
0.0
1001
ACAD
1000
AcDbSavedByObjectVersion
1070
     0
  0
VISUALSTYLE
  5
17D0
102
{ACAD_REACTORS
330
17C1
102
}
330
17C1
100
AcDbVisualStyle
  2
Facepattern
 70
    15
 71
     2
 72
     2
 73
     0
 90
        0
 40
-0.6
 41
-30.0
 62
     5
 63
     7
421
 16777215
 74
     1
 91
        4
 64
     7
 65
   257
 75
     1
175
     1
 42
1.0
 92
        8
 66
     7
 43
1.0
 76
     1
 77
     6
 78
     2
 67
     7
 79
     5
170
     0
171
     0
290
     0
174
     0
 93
        1
 44
0.0
173
     0
291
     1
 45
0.0
1001
ACAD
1000
AcDbSavedByObjectVersion
1070
     0
  0
VISUALSTYLE
  5
17C2
102
{ACAD_REACTORS
330
17C1
102
}
330
17C1
100
AcDbVisualStyle
  2
Flat
 70
     0
 71
     2
 72
     1
 73
     1
 90
        2
 40
-0.6
 41
30.0
 62
     5
 63
     7
421
 16777215
 74
     0
 91
        4
 64
     7
 65
   257
 75
     1
175
     1
 42
1.0
 92
        8
 66
     7
 43
1.0
 76
     1
 77
     6
 78
     2
 67
     7
 79
     5
170
     0
171
     0
290
     0
174
     0
 93
       13
 44
0.0
173
     0
291
     1
 45
0.0
1001
ACAD
1000
AcDbSavedByObjectVersion
1070
     0
  0
VISUALSTYLE
  5
17C3
102
{ACAD_REACTORS
330
17C1
102
}
330
17C1
100
AcDbVisualStyle
  2
FlatWithEdges
 70
     1
 71
     2
 72
     1
 73
     1
 90
        2
 40
-0.6
 41
30.0
 62
     5
 63
     7
421
 16777215
 74
     1
 91
        4
 64
     7
 65
   257
 75
     1
175
     1
 42
1.0
 92
        0
 66
   257
 43
1.0
 76
     1
 77
     6
 78
     2
 67
     7
 79
     5
170
     0
171
     0
290
     0
174
     0
 93
       13
 44
0.0
173
     0
291
     1
 45
0.0
1001
ACAD
1000
AcDbSavedByObjectVersion
1070
     0
  0
VISUALSTYLE
  5
17C4
102
{ACAD_REACTORS
330
17C1
102
}
330
17C1
100
AcDbVisualStyle
  2
Gouraud
 70
     2
 71
     2
 72
     2
 73
     1
 90
        2
 40
-0.6
 41
30.0
 62
     5
 63
     7
421
 16777215
 74
     0
 91
        4
 64
     7
 65
   257
 75
     1
175
     1
 42
1.0
 92
        0
 66
     7
 43
1.0
 76
     1
 77
     6
 78
     2
 67
     7
 79
     5
170
     0
171
     0
290
     0
174
     0
 93
       13
 44
0.0
173
     0
291
     1
 45
0.0
1001
ACAD
1000
AcDbSavedByObjectVersion
1070
     0
  0
VISUALSTYLE
  5
17C5
102
{ACAD_REACTORS
330
17C1
102
}
330
17C1
100
AcDbVisualStyle
  2
GouraudWithEdges
 70
     3
 71
     2
 72
     2
 73
     1
 90
        2
 40
-0.6
 41
30.0
 62
     5
 63
     7
421
 16777215
 74
     1
 91
        4
 64
     7
 65
   257
 75
     1
175
     1
 42
1.0
 92
        0
 66
   257
 43
1.0
 76
     1
 77
     6
 78
     2
 67
     7
 79
     5
170
     0
171
     0
290
     0
174
     0
 93
       13
 44
0.0
173
     0
291
     1
 45
0.0
1001
ACAD
1000
AcDbSavedByObjectVersion
1070
     0
  0
VISUALSTYLE
  5
17CF
102
{ACAD_REACTORS
330
17C1
102
}
330
17C1
100
AcDbVisualStyle
  2
Linepattern
 70
    14
 71
     2
 72
     2
 73
     0
 90
        0
 40
-0.6
 41
-30.0
 62
     5
 63
     7
421
 16777215
 74
     1
 91
        4
 64
     7
 65
   257
 75
     7
175
     7
 42
1.0
 92
        8
 66
     7
 43
1.0
 76
     1
 77
     6
 78
     2
 67
     7
 79
     5
170
     0
171
     0
290
     0
174
     0
 93
        1
 44
0.0
173
     0
291
     1
 45
0.0
1001
ACAD
1000
AcDbSavedByObjectVersion
1070
     0
  0
VISUALSTYLE
  5
17CB
102
{ACAD_REACTORS
330
17C1
102
}
330
17C1
100
AcDbVisualStyle
  2
Realistic
 70
     8
 71
     2
 72
     2
 73
     0
 90
        0
 40
-0.6
 41
-30.0
 62
     5
 63
     7
421
 16777215
 74
     1
 91
        0
 64
     7
 65
   257
 75
     1
175
     1
 42
1.0
 92
        8
 66
     8
424
  7895160
 43
1.0
 76
     1
 77
     6
 78
     2
 67
     7
 79
     5
170
     0
171
     0
290
     0
174
     0
 93
       13
 44
0.0
173
     0
291
     0
 45
0.0
1001
ACAD
1000
AcDbSavedByObjectVersion
1070
     0
  0
VISUALSTYLE
  5
17CE
102
{ACAD_REACTORS
330
17C1
102
}
330
17C1
100
AcDbVisualStyle
  2
Thicken
 70
    13
 71
     2
 72
     2
 73
     0
 90
        0
 40
-0.6
 41
-30.0
 62
     5
 63
     7
421
 16777215
 74
     1
 91
        4
 64
     7
 65
   257
 75
     1
175
     1
 42
1.0
 92
       12
 66
     7
 43
1.0
 76
     1
 77
     6
 78
     2
 67
     7
 79
     5
170
     0
171
     0
290
     0
174
     0
 93
        1
 44
0.0
173
     0
291
     1
 45
0.0
1001
ACAD
1000
AcDbSavedByObjectVersion
1070
     0
  0
DICTIONARYVAR
  5
180B
102
{ACAD_REACTORS
330
6FB
102
}
330
6FB
100
DictionaryVariables
280
     0
  1
1:1
  0
DICTIONARYVAR
  5
180A
102
{ACAD_REACTORS
330
6FB
102
}
330
6FB
100
DictionaryVariables
280
     0
  1
STANDARD
  0
DICTIONARYVAR
  5
1809
102
{ACAD_REACTORS
330
6FB
102
}
330
6FB
100
DictionaryVariables
280
     0
  1
STANDARD
  0
DICTIONARYVAR
  5
6FC
102
{ACAD_REACTORS
330
6FB
102
}
330
6FB
100
DictionaryVariables
280
     0
  1
96
  0
DICTIONARY
  5
17B2
330
17B1
100
AcDbDictionary
280
     1
281
     1
  3
ACAD_XREC_ROUNDTRIP
360
1810
  3
BUMPTILE
360
17B4
  3
DIFFUSETILE
360
17B3
  3
OPACITYTILE
360
17B7
  3
REFLECTIONTILE
360
17B6
  3
REFRACTIONTILE
360
17B8
  3
SPECULARTILE
360
17B5
  0
DICTIONARY
  5
17AA
330
17A9
100
AcDbDictionary
280
     1
281
     1
  3
ACAD_XREC_ROUNDTRIP
360
180F
  3
BUMPTILE
360
17AC
  3
DIFFUSETILE
360
17AB
  3
OPACITYTILE
360
17AF
  3
REFLECTIONTILE
360
17AE
  3
REFRACTIONTILE
360
17B0
  3
SPECULARTILE
360
17AD
  0
DICTIONARY
  5
17BA
330
17B9
100
AcDbDictionary
280
     1
281
     1
  3
ACAD_XREC_ROUNDTRIP
360
1811
  3
BUMPTILE
360
17BC
  3
DIFFUSETILE
360
17BB
  3
OPACITYTILE
360
17BF
  3
REFLECTIONTILE
360
17BE
  3
REFRACTIONTILE
360
17C0
  3
SPECULARTILE
360
17BD
  0
DICTIONARY
  5
180C
330
17D4
100
AcDbDictionary
280
     1
281
     1
  3
ACAD_ROUNDTRIP_2008_TABLESTYLE_CELLSTYLEMAP
360
180D
  3
ACAD_XREC_ROUNDTRIP
360
1812
  0
XRECORD
  5
1810
102
{ACAD_REACTORS
330
17B2
102
}
330
17B2
100
AcDbXrecord
280
     1
102
MATERIAL
148
0.0
149
0.0
149
0.0
 93
        0
 94
      127
282
     0
 72
     0
 77
     0
171
     0
175
     0
179
     0
273
     0
  0
XRECORD
  5
17B4
102
{ACAD_REACTORS
330
17B2
102
}
330
17B2
100
AcDbXrecord
280
     1
270
     1
271
     1
  0
XRECORD
  5
17B3
102
{ACAD_REACTORS
330
17B2
102
}
330
17B2
100
AcDbXrecord
280
     1
270
     1
271
     1
  0
XRECORD
  5
17B7
102
{ACAD_REACTORS
330
17B2
102
}
330
17B2
100
AcDbXrecord
280
     1
270
     1
271
     1
  0
XRECORD
  5
17B6
102
{ACAD_REACTORS
330
17B2
102
}
330
17B2
100
AcDbXrecord
280
     1
270
     1
271
     1
  0
XRECORD
  5
17B8
102
{ACAD_REACTORS
330
17B2
102
}
330
17B2
100
AcDbXrecord
280
     1
270
     1
271
     1
  0
XRECORD
  5
17B5
102
{ACAD_REACTORS
330
17B2
102
}
330
17B2
100
AcDbXrecord
280
     1
270
     1
271
     1
  0
XRECORD
  5
180F
102
{ACAD_REACTORS
330
17AA
102
}
330
17AA
100
AcDbXrecord
280
     1
102
MATERIAL
148
0.0
149
0.0
149
0.0
 93
        0
 94
      127
282
     0
 72
     0
 77
     0
171
     0
175
     0
179
     0
273
     0
  0
XRECORD
  5
17AC
102
{ACAD_REACTORS
330
17AA
102
}
330
17AA
100
AcDbXrecord
280
     1
270
     1
271
     1
  0
XRECORD
  5
17AB
102
{ACAD_REACTORS
330
17AA
102
}
330
17AA
100
AcDbXrecord
280
     1
270
     1
271
     1
  0
XRECORD
  5
17AF
102
{ACAD_REACTORS
330
17AA
102
}
330
17AA
100
AcDbXrecord
280
     1
270
     1
271
     1
  0
XRECORD
  5
17AE
102
{ACAD_REACTORS
330
17AA
102
}
330
17AA
100
AcDbXrecord
280
     1
270
     1
271
     1
  0
XRECORD
  5
17B0
102
{ACAD_REACTORS
330
17AA
102
}
330
17AA
100
AcDbXrecord
280
     1
270
     1
271
     1
  0
XRECORD
  5
17AD
102
{ACAD_REACTORS
330
17AA
102
}
330
17AA
100
AcDbXrecord
280
     1
270
     1
271
     1
  0
XRECORD
  5
1811
102
{ACAD_REACTORS
330
17BA
102
}
330
17BA
100
AcDbXrecord
280
     1
102
MATERIAL
148
0.0
149
0.0
149
0.0
 93
        0
 94
      127
282
     0
 72
     0
 77
     0
171
     0
175
     0
179
     0
273
     0
  0
XRECORD
  5
17BC
102
{ACAD_REACTORS
330
17BA
102
}
330
17BA
100
AcDbXrecord
280
     1
270
     1
271
     1
  0
XRECORD
  5
17BB
102
{ACAD_REACTORS
330
17BA
102
}
330
17BA
100
AcDbXrecord
280
     1
270
     1
271
     1
  0
XRECORD
  5
17BF
102
{ACAD_REACTORS
330
17BA
102
}
330
17BA
100
AcDbXrecord
280
     1
270
     1
271
     1
  0
XRECORD
  5
17BE
102
{ACAD_REACTORS
330
17BA
102
}
330
17BA
100
AcDbXrecord
280
     1
270
     1
271
     1
  0
XRECORD
  5
17C0
102
{ACAD_REACTORS
330
17BA
102
}
330
17BA
100
AcDbXrecord
280
     1
270
     1
271
     1
  0
XRECORD
  5
17BD
102
{ACAD_REACTORS
330
17BA
102
}
330
17BA
100
AcDbXrecord
280
     1
270
     1
271
     1
  0
CELLSTYLEMAP
  5
180D
102
{ACAD_REACTORS
330
180C
102
}
330
180C
100
AcDbCellStyleMap
 90
        3
300
CELLSTYLE
  1
TABLEFORMAT_BEGIN
 90
        5
170
     1
 91
        0
 92
    32768
 62
   257
 93
        1
300
CONTENTFORMAT
  1
CONTENTFORMAT_BEGIN
 90
        0
 91
        0
 92
      512
 93
        0
300

 40
0.0
140
1.0
 94
        5
 62
     0
340
10
144
0.25
309
CONTENTFORMAT_END
171
     0
 94
        0
309
TABLEFORMAT_END
  1
CELLSTYLE_BEGIN
 90
        1
 91
        1
300
_TITLE
309
CELLSTYLE_END
300
CELLSTYLE
  1
TABLEFORMAT_BEGIN
 90
        5
170
     1
 91
        0
 92
        0
 62
   257
 93
        1
300
CONTENTFORMAT
  1
CONTENTFORMAT_BEGIN
 90
        0
 91
        0
 92
      512
 93
        0
300

 40
0.0
140
1.0
 94
        5
 62
     0
340
10
144
0.18
309
CONTENTFORMAT_END
171
     0
 94
        0
309
TABLEFORMAT_END
  1
CELLSTYLE_BEGIN
 90
        2
 91
        1
300
_HEADER
309
CELLSTYLE_END
300
CELLSTYLE
  1
TABLEFORMAT_BEGIN
 90
        5
170
     1
 91
        0
 92
        0
 62
   257
 93
        1
300
CONTENTFORMAT
  1
CONTENTFORMAT_BEGIN
 90
        0
 91
        0
 92
      512
 93
        0
300

 40
0.0
140
1.0
 94
        2
 62
     0
340
10
144
0.18
309
CONTENTFORMAT_END
171
     0
 94
        0
309
TABLEFORMAT_END
  1
CELLSTYLE_BEGIN
 90
        3
 91
        2
300
_DATA
309
CELLSTYLE_END
  0
XRECORD
  5
1812
102
{ACAD_REACTORS
330
180C
102
}
330
180C
100
AcDbXrecord
280
     1
102
ACAD_ROUNDTRIP_PRE2007_TABLESTYLE
 90
      512
 91
        0
  1

 92
      512
 93
        0
  2

 94
      512
 95
        0
  3

  0
ENDSEC
  0
EOF
