  0
SECTION
  2
HEADER
  9
$ACADVER
  1
AC1018
  9
$ACADMAINTVER
 70
   104
  9
$DWGCODEPAGE
  3
ANSI_932
  9
$LASTSAVEDBY
  1
poracon
  9
$INSBASE
 10
0.0
 20
0.0
 30
0.0
  9
$EXTMIN
 10
-473.1178714335055
 20
-461.2448528921609
 30
-0.0015258207003583
  9
$EXTMAX
 10
4567.292290777976
 20
3102.892692512614
 30
0.0000000349246037
  9
$LIMMIN
 10
0.0
 20
0.0
  9
$LIMMAX
 10
12.0
 20
9.0
  9
$ORTHOMODE
 70
     0
  9
$REGENMODE
 70
     1
  9
$FILLMODE
 70
     1
  9
$QTEXTMODE
 70
     0
  9
$MIRRTEXT
 70
     1
  9
$LTSCALE
 40
100.0
  9
$ATTMODE
 70
     1
  9
$TEXTSIZE
 40
163.3571023374541
  9
$TRACEWID
 40
0.05
  9
$TEXTSTYLE
  7
BIGFONT
  9
$CLAYER
  8
0
  9
$CELTYPE
  6
BYLAYER
  9
$CECOLOR
 62
   256
  9
$CELTSCALE
 40
1.0
  9
$DISPSILH
 70
     0
  9
$DIMSCALE
 40
10.0
  9
$DIMASZ
 40
2.0
  9
$DIMEXO
 40
1.0
  9
$DIMDLI
 40
2.0
  9
$DIMRND
 40
0.0
  9
$DIMDLE
 40
0.0
  9
$DIMEXE
 40
0.0
  9
$DIMTP
 40
0.0
  9
$DIMTM
 40
0.0
  9
$DIMTXT
 40
2.5
  9
$DIMCEN
 40
0.0
  9
$DIMTSZ
 40
0.0
  9
$DIMTOL
 70
     0
  9
$DIMLIM
 70
     0
  9
$DIMTIH
 70
     0
  9
$DIMTOH
 70
     0
  9
$DIMSE1
 70
     0
  9
$DIMSE2
 70
     0
  9
$DIMTAD
 70
     1
  9
$DIMZIN
 70
     0
  9
$DIMBLK
  1

  9
$DIMASO
 70
     1
  9
$DIMSHO
 70
     1
  9
$DIMPOST
  1

  9
$DIMAPOST
  1

  9
$DIMALT
 70
     0
  9
$DIMALTD
 70
     2
  9
$DIMALTF
 40
25.4
  9
$DIMLFAC
 40
1.0
  9
$DIMTOFL
 70
     1
  9
$DIMTVP
 40
0.0
  9
$DIMTIX
 70
     0
  9
$DIMSOXD
 70
     0
  9
$DIMSAH
 70
     0
  9
$DIMBLK1
  1

  9
$DIMBLK2
  1

  9
$DIMSTYLE
  2
DIM1
  9
$DIMCLRD
 70
     0
  9
$DIMCLRE
 70
     0
  9
$DIMCLRT
 70
     0
  9
$DIMTFAC
 40
1.0
  9
$DIMGAP
 40
1.0
  9
$DIMJUST
 70
     0
  9
$DIMSD1
 70
     0
  9
$DIMSD2
 70
     0
  9
$DIMTOLJ
 70
     1
  9
$DIMTZIN
 70
     0
  9
$DIMALTZ
 70
     0
  9
$DIMALTTZ
 70
     0
  9
$DIMUPT
 70
     1
  9
$DIMDEC
 70
     0
  9
$DIMTDEC
 70
     4
  9
$DIMALTU
 70
     2
  9
$DIMALTTD
 70
     2
  9
$DIMTXSTY
  7
BIGFONT
  9
$DIMAUNIT
 70
     0
  9
$DIMADEC
 70
     0
  9
$DIMALTRND
 40
0.0
  9
$DIMAZIN
 70
     0
  9
$DIMDSEP
 70
    46
  9
$DIMATFIT
 70
     3
  9
$DIMFRAC
 70
     0
  9
$DIMLDRBLK
  1

  9
$DIMLUNIT
 70
     2
  9
$DIMLWD
 70
    -2
  9
$DIMLWE
 70
    -2
  9
$DIMTMOVE
 70
     2
  9
$LUNITS
 70
     2
  9
$LUPREC
 70
     0
  9
$SKETCHINC
 40
0.1
  9
$FILLETRAD
 40
0.0
  9
$AUNITS
 70
     1
  9
$AUPREC
 70
     2
  9
$MENU
  1
BCAD
  9
$ELEVATION
 40
0.0
  9
$PELEVATION
 40
0.0
  9
$THICKNESS
 40
0.0
  9
$LIMCHECK
 70
     0
  9
$CHAMFERA
 40
0.0
  9
$CHAMFERB
 40
0.0
  9
$CHAMFERC
 40
0.0
  9
$CHAMFERD
 40
0.0
  9
$SKPOLY
 70
     0
  9
$TDCREATE
 40
2449540.465300926
  9
$TDUCREATE
 40
2449540.090300926
  9
$TDUPDATE
 40
2456937.489418229
  9
$TDUUPDATE
 40
2456937.114418229
  9
$TDINDWG
 40
0.0933896991
  9
$TDUSRTIMER
 40
0.0933896991
  9
$USRTIMER
 70
     1
  9
$ANGBASE
 50
0.0
  9
$ANGDIR
 70
     0
  9
$PDMODE
 70
    33
  9
$PDSIZE
 40
-0.2
  9
$PLINEWID
 40
0.0
  9
$SPLFRAME
 70
     0
  9
$SPLINETYPE
 70
     6
  9
$SPLINESEGS
 70
     8
  9
$HANDSEED
  5
2057
  9
$SURFTAB1
 70
     6
  9
$SURFTAB2
 70
     6
  9
$SURFTYPE
 70
     6
  9
$SURFU
 70
     6
  9
$SURFV
 70
     6
  9
$UCSBASE
  2

  9
$UCSNAME
  2

  9
$UCSORG
 10
0.0
 20
0.0
 30
0.0
  9
$UCSXDIR
 10
1.0
 20
0.0
 30
0.0
  9
$UCSYDIR
 10
0.0
 20
1.0
 30
0.0
  9
$UCSORTHOREF
  2

  9
$UCSORTHOVIEW
 70
     0
  9
$UCSORGTOP
 10
0.0
 20
0.0
 30
0.0
  9
$UCSORGBOTTOM
 10
0.0
 20
0.0
 30
0.0
  9
$UCSORGLEFT
 10
0.0
 20
0.0
 30
0.0
  9
$UCSORGRIGHT
 10
0.0
 20
0.0
 30
0.0
  9
$UCSORGFRONT
 10
0.0
 20
0.0
 30
0.0
  9
$UCSORGBACK
 10
0.0
 20
0.0
 30
0.0
  9
$PUCSBASE
  2

  9
$PUCSNAME
  2

  9
$PUCSORG
 10
0.0
 20
0.0
 30
0.0
  9
$PUCSXDIR
 10
1.0
 20
0.0
 30
0.0
  9
$PUCSYDIR
 10
0.0
 20
1.0
 30
0.0
  9
$PUCSORTHOREF
  2

  9
$PUCSORTHOVIEW
 70
     0
  9
$PUCSORGTOP
 10
0.0
 20
0.0
 30
0.0
  9
$PUCSORGBOTTOM
 10
0.0
 20
0.0
 30
0.0
  9
$PUCSORGLEFT
 10
0.0
 20
0.0
 30
0.0
  9
$PUCSORGRIGHT
 10
0.0
 20
0.0
 30
0.0
  9
$PUCSORGFRONT
 10
0.0
 20
0.0
 30
0.0
  9
$PUCSORGBACK
 10
0.0
 20
0.0
 30
0.0
  9
$USERI1
 70
     0
  9
$USERI2
 70
     0
  9
$USERI3
 70
     0
  9
$USERI4
 70
     0
  9
$USERI5
 70
     0
  9
$USERR1
 40
0.0
  9
$USERR2
 40
0.0
  9
$USERR3
 40
0.0
  9
$USERR4
 40
0.0
  9
$USERR5
 40
0.0
  9
$WORLDVIEW
 70
     1
  9
$SHADEDGE
 70
     3
  9
$SHADEDIF
 70
    70
  9
$TILEMODE
 70
     1
  9
$MAXACTVP
 70
    16
  9
$PINSBASE
 10
0.0
 20
0.0
 30
0.0
  9
$PLIMCHECK
 70
     0
  9
$PEXTMIN
 10
1.000000000000000E+20
 20
1.000000000000000E+20
 30
1.000000000000000E+20
  9
$PEXTMAX
 10
-1.000000000000000E+20
 20
-1.000000000000000E+20
 30
-1.000000000000000E+20
  9
$PLIMMIN
 10
0.0
 20
0.0
  9
$PLIMMAX
 10
12.0
 20
9.0
  9
$UNITMODE
 70
     0
  9
$VISRETAIN
 70
     0
  9
$PLINEGEN
 70
     0
  9
$PSLTSCALE
 70
     1
  9
$TREEDEPTH
 70
  3020
  9
$CMLSTYLE
  2
STANDARD
  9
$CMLJUST
 70
     0
  9
$CMLSCALE
 40
1.0
  9
$PROXYGRAPHICS
 70
     1
  9
$MEASUREMENT
 70
     0
  9
$CELWEIGHT
370
    -1
  9
$ENDCAPS
280
     0
  9
$JOINSTYLE
280
     0
  9
$LWDISPLAY
290
     0
  9
$INSUNITS
 70
     0
  9
$HYPERLINKBASE
  1

  9
$STYLESHEET
  1

  9
$XEDIT
290
     1
  9
$CEPSNTYPE
380
     0
  9
$PSTYLEMODE
290
     1
  9
$FINGERPRINTGUID
  2
{F12E2480-383A-11D6-BA8D-E1826005C94B}
  9
$VERSIONGUID
  2
{C1043C7D-9FBB-45D4-87E2-2BD9F1BDEC04}
  9
$EXTNAMES
290
     1
  9
$PSVPSCALE
 40
0.0
  9
$OLESTARTUP
290
     0
  9
$SORTENTS
280
    96
  9
$INDEXCTL
280
     0
  9
$HIDETEXT
280
     0
  9
$XCLIPFRAME
290
     0
  9
$HALOGAP
280
     0
  9
$OBSCOLOR
 70
   257
  9
$OBSLTYPE
280
     0
  9
$INTERSECTIONDISPLAY
280
     0
  9
$INTERSECTIONCOLOR
 70
   257
  9
$DIMASSOC
280
     1
  9
$PROJECTNAME
  1

  0
ENDSEC
  0
SECTION
  2
CLASSES
  0
CLASS
  1
DICTIONARYVAR
  2
AcDbDictionaryVar
  3
ObjectDBX Classes
 90
        0
 91
        9
280
     0
281
     0
  0
CLASS
  1
ACDBDICTIONARYWDFLT
  2
AcDbDictionaryWithDefault
  3
ObjectDBX Classes
 90
        0
 91
        1
280
     0
281
     0
  0
CLASS
  1
MATERIAL
  2
AcDbMaterial
  3
ObjectDBX Classes
 90
     1153
 91
        3
280
     0
281
     0
  0
CLASS
  1
VISUALSTYLE
  2
AcDbVisualStyle
  3
ObjectDBX Classes
 90
     4095
 91
       16
280
     0
281
     0
  0
CLASS
  1
TABLESTYLE
  2
AcDbTableStyle
  3
ObjectDBX Classes
 90
     4095
 91
        1
280
     0
281
     0
  0
CLASS
  1
SCALE
  2
AcDbScale
  3
ObjectDBX Classes
 90
     1153
 91
       33
280
     0
281
     0
  0
CLASS
  1
MLEADERSTYLE
  2
AcDbMLeaderStyle
  3
ACDB_MLEADERSTYLE_CLASS
 90
     4095
 91
        1
280
     0
281
     0
  0
CLASS
  1
SORTENTSTABLE
  2
AcDbSortentsTable
  3
ObjectDBX Classes
 90
        0
 91
        1
280
     0
281
     0
  0
CLASS
  1
CELLSTYLEMAP
  2
AcDbCellStyleMap
  3
ObjectDBX Classes
 90
     1152
 91
        2
280
     0
281
     0
  0
ENDSEC
  0
SECTION
  2
TABLES
  0
TABLE
  2
VPORT
  5
8
330
0
100
AcDbSymbolTable
 70
     1
  0
VPORT
  5
1EAB
330
8
100
AcDbSymbolTableRecord
100
AcDbViewportTableRecord
  2
*Active
 70
     0
 10
0.0
 20
0.0
 11
1.0
 21
1.0
 12
2047.087209672236
 22
1320.823919810226
 13
0.0
 23
0.0
 14
1.0
 24
1.0
 15
0.0
 25
0.0
 16
0.0
 26
0.0
 36
1.0
 17
0.0
 27
0.0
 37
0.0
 40
3592.461817288786
 41
1.669761273209549
 42
50.0
 43
0.0
 44
0.0
 50
0.0
 51
0.0
 71
     0
 72
   100
 73
     1
 74
     1
 75
     0
 76
     0
 77
     0
 78
     0
281
     0
 65
     1
110
0.0
120
0.0
130
0.0
111
1.0
121
0.0
131
0.0
112
0.0
122
1.0
132
0.0
 79
     0
146
0.0
  0
ENDTAB
  0
TABLE
  2
LTYPE
  5
5
330
0
100
AcDbSymbolTable
 70
    26
  0
LTYPE
  5
12
330
5
100
AcDbSymbolTableRecord
100
AcDbLinetypeTableRecord
  2
BYBLOCK
 70
     0
  3

 72
    65
 73
     0
 40
0.0
  0
LTYPE
  5
13
330
5
100
AcDbSymbolTableRecord
100
AcDbLinetypeTableRecord
  2
BYLAYER
 70
     0
  3

 72
    65
 73
     0
 40
0.0
  0
LTYPE
  5
14
330
5
100
AcDbSymbolTableRecord
100
AcDbLinetypeTableRecord
  2
CONTINUOUS
 70
     0
  3
Solid line
 72
    65
 73
     0
 40
0.0
  0
LTYPE
  5
4B
330
5
100
AcDbSymbolTableRecord
100
AcDbLinetypeTableRecord
  2
BORDER
 70
     0
  3
__ __ . __ __ . __ __ . __ __ . __ __ . __ __ .
 72
    65
 73
     6
 40
1.75
 49
0.5
 74
     0
 49
-0.25
 74
     0
 49
0.5
 74
     0
 49
-0.25
 74
     0
 49
0.0
 74
     0
 49
-0.25
 74
     0
  0
LTYPE
  5
4C
330
5
100
AcDbSymbolTableRecord
100
AcDbLinetypeTableRecord
  2
BORDER2
 70
     0
  3
__.__.__.__.__.__.__.__.__.__.__.__.__.__.__.__
 72
    65
 73
     6
 40
0.875
 49
0.25
 74
     0
 49
-0.125
 74
     0
 49
0.25
 74
     0
 49
-0.125
 74
     0
 49
0.0
 74
     0
 49
-0.125
 74
     0
  0
LTYPE
  5
4D
330
5
100
AcDbSymbolTableRecord
100
AcDbLinetypeTableRecord
  2
BORDERX2
 70
     0
  3
____  ____  .  ____  ____  .  ____  ____  .  __
 72
    65
 73
     6
 40
3.5
 49
1.0
 74
     0
 49
-0.5
 74
     0
 49
1.0
 74
     0
 49
-0.5
 74
     0
 49
0.0
 74
     0
 49
-0.5
 74
     0
  0
LTYPE
  5
4E
330
5
100
AcDbSymbolTableRecord
100
AcDbLinetypeTableRecord
  2
CENTER
 70
     0
  3
____ _ ____ _ ____ _ ____ _ ____ _ ____ _ ____ 
 72
    65
 73
     4
 40
2.0
 49
1.25
 74
     0
 49
-0.25
 74
     0
 49
0.25
 74
     0
 49
-0.25
 74
     0
  0
LTYPE
  5
4F
330
5
100
AcDbSymbolTableRecord
100
AcDbLinetypeTableRecord
  2
CENTER2
 70
     0
  3
___ _ ___ _ ___ _ ___ _ ___ _ ___ _ ___ _ ___ _
 72
    65
 73
     4
 40
1.125
 49
0.75
 74
     0
 49
-0.125
 74
     0
 49
0.125
 74
     0
 49
-0.125
 74
     0
  0
LTYPE
  5
50
330
5
100
AcDbSymbolTableRecord
100
AcDbLinetypeTableRecord
  2
CENTERX2
 70
     0
  3
________  __  ________  __  ________  __  _____
 72
    65
 73
     4
 40
4.0
 49
2.5
 74
     0
 49
-0.5
 74
     0
 49
0.5
 74
     0
 49
-0.5
 74
     0
  0
LTYPE
  5
51
330
5
100
AcDbSymbolTableRecord
100
AcDbLinetypeTableRecord
  2
DASHDOT
 70
     0
  3
__ . __ . __ . __ . __ . __ . __ . __ . __ . __
 72
    65
 73
     4
 40
1.0
 49
0.5
 74
     0
 49
-0.25
 74
     0
 49
0.0
 74
     0
 49
-0.25
 74
     0
  0
LTYPE
  5
52
330
5
100
AcDbSymbolTableRecord
100
AcDbLinetypeTableRecord
  2
DASHDOT2
 70
     0
  3
_._._._._._._._._._._._._._._._._._._._._._._._
 72
    65
 73
     4
 40
0.5
 49
0.25
 74
     0
 49
-0.125
 74
     0
 49
0.0
 74
     0
 49
-0.125
 74
     0
  0
LTYPE
  5
53
330
5
100
AcDbSymbolTableRecord
100
AcDbLinetypeTableRecord
  2
DASHDOTX2
 70
     0
  3
____  .  ____  .  ____  .  ____  .  ____  .  __
 72
    65
 73
     4
 40
2.0
 49
1.0
 74
     0
 49
-0.5
 74
     0
 49
0.0
 74
     0
 49
-0.5
 74
     0
  0
LTYPE
  5
54
330
5
100
AcDbSymbolTableRecord
100
AcDbLinetypeTableRecord
  2
DASHED
 70
     0
  3
__ __ __ __ __ __ __ __ __ __ __ __ __ __ __ __
 72
    65
 73
     2
 40
0.75
 49
0.5
 74
     0
 49
-0.25
 74
     0
  0
LTYPE
  5
55
330
5
100
AcDbSymbolTableRecord
100
AcDbLinetypeTableRecord
  2
DASHED2
 70
     0
  3
_ _ _ _ _ _ _ _ _ _ _ _ _ _ _ _ _ _ _ _ _ _ _ _
 72
    65
 73
     2
 40
0.375
 49
0.25
 74
     0
 49
-0.125
 74
     0
  0
LTYPE
  5
56
330
5
100
AcDbSymbolTableRecord
100
AcDbLinetypeTableRecord
  2
DASHEDX2
 70
     0
  3
____  ____  ____  ____  ____  ____  ____  ____ 
 72
    65
 73
     2
 40
1.5
 49
1.0
 74
     0
 49
-0.5
 74
     0
  0
LTYPE
  5
57
330
5
100
AcDbSymbolTableRecord
100
AcDbLinetypeTableRecord
  2
DIVIDE
 70
     0
  3
____ . . ____ . . ____ . . ____ . . ____ . . __
 72
    65
 73
     6
 40
1.25
 49
0.5
 74
     0
 49
-0.25
 74
     0
 49
0.0
 74
     0
 49
-0.25
 74
     0
 49
0.0
 74
     0
 49
-0.25
 74
     0
  0
LTYPE
  5
58
330
5
100
AcDbSymbolTableRecord
100
AcDbLinetypeTableRecord
  2
DIVIDE2
 70
     0
  3
__..__..__..__..__..__..__..__..__..__..__..__.
 72
    65
 73
     6
 40
0.625
 49
0.25
 74
     0
 49
-0.125
 74
     0
 49
0.0
 74
     0
 49
-0.125
 74
     0
 49
0.0
 74
     0
 49
-0.125
 74
     0
  0
LTYPE
  5
59
330
5
100
AcDbSymbolTableRecord
100
AcDbLinetypeTableRecord
  2
DIVIDEX2
 70
     0
  3
________  .  .  ________  .  .  ________  .  . 
 72
    65
 73
     6
 40
2.5
 49
1.0
 74
     0
 49
-0.5
 74
     0
 49
0.0
 74
     0
 49
-0.5
 74
     0
 49
0.0
 74
     0
 49
-0.5
 74
     0
  0
LTYPE
  5
5A
330
5
100
AcDbSymbolTableRecord
100
AcDbLinetypeTableRecord
  2
DOT
 70
     0
  3
. . . . . . . . . . . . . . . . . . . . . . . .
 72
    65
 73
     2
 40
0.25
 49
0.0
 74
     0
 49
-0.25
 74
     0
  0
LTYPE
  5
5B
330
5
100
AcDbSymbolTableRecord
100
AcDbLinetypeTableRecord
  2
DOT2
 70
     0
  3
...............................................
 72
    65
 73
     2
 40
0.125
 49
0.0
 74
     0
 49
-0.125
 74
     0
  0
LTYPE
  5
5C
330
5
100
AcDbSymbolTableRecord
100
AcDbLinetypeTableRecord
  2
DOTX2
 70
     0
  3
.  .  .  .  .  .  .  .  .  .  .  .  .  .  .  . 
 72
    65
 73
     2
 40
0.5
 49
0.0
 74
     0
 49
-0.5
 74
     0
  0
LTYPE
  5
5D
330
5
100
AcDbSymbolTableRecord
100
AcDbLinetypeTableRecord
  2
HIDDEN
 70
     0
  3
__ __ __ __ __ __ __ __ __ __ __ __ __ __ __ __
 72
    65
 73
     2
 40
0.375
 49
0.25
 74
     0
 49
-0.125
 74
     0
  0
LTYPE
  5
5E
330
5
100
AcDbSymbolTableRecord
100
AcDbLinetypeTableRecord
  2
HIDDEN2
 70
     0
  3
_ _ _ _ _ _ _ _ _ _ _ _ _ _ _ _ _ _ _ _ _ _ _ _
 72
    65
 73
     2
 40
0.1875
 49
0.125
 74
     0
 49
-0.0625
 74
     0
  0
LTYPE
  5
5F
330
5
100
AcDbSymbolTableRecord
100
AcDbLinetypeTableRecord
  2
HIDDENX2
 70
     0
  3
____ ____ ____ ____ ____ ____ ____ ____ ____ __
 72
    65
 73
     2
 40
0.75
 49
0.5
 74
     0
 49
-0.25
 74
     0
  0
LTYPE
  5
60
330
5
100
AcDbSymbolTableRecord
100
AcDbLinetypeTableRecord
  2
PHANTOM
 70
     0
  3
______  __  __  ______  __  __  ______  __  __ 
 72
    65
 73
     6
 40
2.5
 49
1.25
 74
     0
 49
-0.25
 74
     0
 49
0.25
 74
     0
 49
-0.25
 74
     0
 49
0.25
 74
     0
 49
-0.25
 74
     0
  0
LTYPE
  5
61
330
5
100
AcDbSymbolTableRecord
100
AcDbLinetypeTableRecord
  2
PHANTOM2
 70
     0
  3
___ _ _ ___ _ _ ___ _ _ ___ _ _ ___ _ _ ___ _ _
 72
    65
 73
     6
 40
1.25
 49
0.625
 74
     0
 49
-0.125
 74
     0
 49
0.125
 74
     0
 49
-0.125
 74
     0
 49
0.125
 74
     0
 49
-0.125
 74
     0
  0
LTYPE
  5
62
330
5
100
AcDbSymbolTableRecord
100
AcDbLinetypeTableRecord
  2
PHANTOMX2
 70
     0
  3
____________    ____    ____    ____________   
 72
    65
 73
     6
 40
5.0
 49
2.5
 74
     0
 49
-0.5
 74
     0
 49
0.5
 74
     0
 49
-0.5
 74
     0
 49
0.5
 74
     0
 49
-0.5
 74
     0
  0
ENDTAB
  0
TABLE
  2
LAYER
  5
2
330
0
100
AcDbSymbolTable
 70
     7
  0
LAYER
  5
F
102
{ACAD_XDICTIONARY
360
2039
102
}
330
2
100
AcDbSymbolTableRecord
100
AcDbLayerTableRecord
  2
0
 70
     0
 62
   250
  6
CONTINUOUS
370
    -3
390
AFE
  0
LAYER
  5
66
102
{ACAD_XDICTIONARY
360
203B
102
}
330
2
100
AcDbSymbolTableRecord
100
AcDbLayerTableRecord
  2
HL
 70
     0
 62
     6
  6
CONTINUOUS
370
    -3
390
AFE
  0
LAYER
  5
67
102
{ACAD_XDICTIONARY
360
203D
102
}
330
2
100
AcDbSymbolTableRecord
100
AcDbLayerTableRecord
  2
SUNPOU
 70
     0
 62
     3
  6
CONTINUOUS
370
    -3
390
AFE
  0
LAYER
  5
6A
102
{ACAD_XDICTIONARY
360
203F
102
}
330
2
100
AcDbSymbolTableRecord
100
AcDbLayerTableRecord
  2
saiseki
 70
     0
 62
     4
  6
CONTINUOUS
370
    -3
390
AFE
  0
LAYER
  5
6B
102
{ACAD_XDICTIONARY
360
2041
102
}
330
2
100
AcDbSymbolTableRecord
100
AcDbLayerTableRecord
  2
CT2
 70
     0
 62
     1
  6
CENTER2
370
    -3
390
AFE
  0
LAYER
  5
6C
102
{ACAD_XDICTIONARY
360
2043
102
}
330
2
100
AcDbSymbolTableRecord
100
AcDbLayerTableRecord
  2
KL
 70
     0
 62
     5
  6
HIDDEN
370
    -3
390
AFE
  0
LAYER
  5
6E
330
2
100
AcDbSymbolTableRecord
100
AcDbLayerTableRecord
  2
DEFPOINTS
 70
     0
 62
     7
  6
CONTINUOUS
290
     0
370
    -3
390
AFE
  0
ENDTAB
  0
TABLE
  2
STYLE
  5
3
330
0
100
AcDbSymbolTable
 70
     2
  0
STYLE
  5
10
330
3
100
AcDbSymbolTableRecord
100
AcDbTextStyleTableRecord
  2
STANDARD
 70
     0
 40
0.0
 41
1.0
 50
0.0
 71
     0
 42
0.2
  3
txt
  4

  0
STYLE
  5
4A
330
3
100
AcDbSymbolTableRecord
100
AcDbTextStyleTableRecord
  2
BIGFONT
 70
     0
 40
0.0
 41
1.0
 50
0.0
 71
     0
 42
163.3571023374541
  3
simplex
  4
bigfont
  0
ENDTAB
  0
TABLE
  2
VIEW
  5
6
330
0
100
AcDbSymbolTable
 70
     0
  0
ENDTAB
  0
TABLE
  2
UCS
  5
7
330
0
100
AcDbSymbolTable
 70
     0
  0
ENDTAB
  0
TABLE
  2
APPID
  5
9
330
0
100
AcDbSymbolTable
 70
     3
  0
APPID
  5
11
330
9
100
AcDbSymbolTableRecord
100
AcDbRegAppTableRecord
  2
ACAD
 70
     0
  0
APPID
  5
1EFE
330
9
100
AcDbSymbolTableRecord
100
AcDbRegAppTableRecord
  2
ACAD_MLEADERVER
 70
     0
  0
APPID
  5
1F9E
330
9
100
AcDbSymbolTableRecord
100
AcDbRegAppTableRecord
  2
ACAD_EXEMPT_FROM_CAD_STANDARDS
 70
     0
  0
ENDTAB
  0
TABLE
  2
DIMSTYLE
  5
A
330
0
100
AcDbSymbolTable
 70
     5
100
AcDbDimStyleTable
 71
     1
340
65
  0
DIMSTYLE
105
65
102
{ACAD_REACTORS
330
1643
330
1631
330
162C
330
1637
330
1633
330
1639
330
1638
330
1635
330
165E
330
1656
330
163D
330
1648
330
1647
330
1641
330
164D
330
1651
330
1649
330
19E1
330
1A89
330
1A9F
330
1C20
330
1C33
330
1C2F
330
1C2D
330
1C2C
330
1C48
330
1C28
330
1C49
330
1C5C
330
1C3F
330
1C54
330
1C4C
330
1C44
330
1C1F
330
1C57
330
1C50
102
}
330
A
100
AcDbSymbolTableRecord
100
AcDbDimStyleTableRecord
  2
DIM1
 70
     0
 40
10.0
 41
2.0
 42
1.0
 43
2.0
 44
0.0
 73
     0
 74
     0
 77
     1
140
2.5
141
0.0
147
1.0
172
     1
271
     0
279
     2
288
     1
340
4A
  0
DIMSTYLE
105
1E95
330
A
100
AcDbSymbolTableRecord
100
AcDbDimStyleTableRecord
  2
STANDARD
 70
     0
271
     0
272
     0
275
     1
279
     2
340
4A
  0
DIMSTYLE
105
1E96
330
A
100
AcDbSymbolTableRecord
100
AcDbDimStyleTableRecord
  2
P1
 70
     0
 40
10.0
 41
2.0
 42
1.0
 43
10.0
 44
1.0
 73
     0
 74
     0
 77
     2
140
3.0
141
0.0
147
1.0
172
     1
173
     1
271
     0
272
     0
279
     2
288
     1
340
4A
341
21
343
21
344
21
  0
DIMSTYLE
105
1F02
330
A
100
AcDbSymbolTableRecord
100
AcDbDimStyleTableRecord
  2
DIA1
 70
     0
 40
10.0
 41
2.0
 42
1.0
 43
10.0
 44
1.0
 73
     0
 74
     0
 77
     1
140
3.0
141
0.0
147
1.0
271
     0
340
4A
341
21
342
21
  0
ENDTAB
  0
TABLE
  2
BLOCK_RECORD
  5
1
330
0
100
AcDbSymbolTable
 70
    51
  0
BLOCK_RECORD
  5
18
330
1
100
AcDbSymbolTableRecord
100
AcDbBlockTableRecord
  2
*MODEL_SPACE
340
B01
  0
BLOCK_RECORD
  5
15
330
1
100
AcDbSymbolTableRecord
100
AcDbBlockTableRecord
  2
*PAPER_SPACE
340
B02
  0
BLOCK_RECORD
  5
1C
330
1
100
AcDbSymbolTableRecord
100
AcDbBlockTableRecord
  2
MASTERS
340
0
102
{BLKREFS
331
4DB
102
}
  0
BLOCK_RECORD
  5
1D
330
1
100
AcDbSymbolTableRecord
100
AcDbBlockTableRecord
  2
SYASEN
340
0
  0
BLOCK_RECORD
  5
1E
330
1
100
AcDbSymbolTableRecord
100
AcDbBlockTableRecord
  2
YA2
340
0
  0
BLOCK_RECORD
  5
1F
330
1
100
AcDbSymbolTableRecord
100
AcDbBlockTableRecord
  2
YA_N
340
0
102
{BLKREFS
331
74
102
}
  0
BLOCK_RECORD
  5
20
330
1
100
AcDbSymbolTableRecord
100
AcDbBlockTableRecord
  2
DOT
340
0
  0
BLOCK_RECORD
  5
21
330
1
100
AcDbSymbolTableRecord
100
AcDbBlockTableRecord
  2
ARROW
340
0
  0
BLOCK_RECORD
  5
22
330
1
100
AcDbSymbolTableRecord
100
AcDbBlockTableRecord
  2
YA3
340
0
  0
BLOCK_RECORD
  5
23
330
1
100
AcDbSymbolTableRecord
100
AcDbBlockTableRecord
  2
BORDER
340
0
  0
BLOCK_RECORD
  5
948
330
1
100
AcDbSymbolTableRecord
100
AcDbBlockTableRecord
  2
A$C72BA1FAD
340
0
102
{BLKREFS
331
95B
102
}
  0
BLOCK_RECORD
  5
95A
330
1
100
AcDbSymbolTableRecord
100
AcDbBlockTableRecord
  2
A$C25B74F18
340
0
102
{BLKREFS
331
961
102
}
  0
BLOCK_RECORD
  5
960
330
1
100
AcDbSymbolTableRecord
100
AcDbBlockTableRecord
  2
A$C105B5721
340
0
102
{BLKREFS
331
965
102
}
  0
BLOCK_RECORD
  5
964
330
1
100
AcDbSymbolTableRecord
100
AcDbBlockTableRecord
  2
A$C0E9223DF
340
0
102
{BLKREFS
331
969
102
}
  0
BLOCK_RECORD
  5
968
330
1
100
AcDbSymbolTableRecord
100
AcDbBlockTableRecord
  2
A$C38392A7F
340
0
102
{BLKREFS
331
96D
102
}
  0
BLOCK_RECORD
  5
96C
330
1
100
AcDbSymbolTableRecord
100
AcDbBlockTableRecord
  2
A$C67384017
340
0
  0
BLOCK_RECORD
  5
B07
330
1
100
AcDbSymbolTableRecord
100
AcDbBlockTableRecord
  2
A$C0FE41E00
340
0
102
{BLKREFS
331
B15
102
}
  0
BLOCK_RECORD
  5
B14
330
1
100
AcDbSymbolTableRecord
100
AcDbBlockTableRecord
  2
A$C371162DB
340
0
102
{BLKREFS
331
B19
102
}
  0
BLOCK_RECORD
  5
B18
330
1
100
AcDbSymbolTableRecord
100
AcDbBlockTableRecord
  2
A$C57A3340D
340
0
  0
BLOCK_RECORD
  5
1668
330
1
100
AcDbSymbolTableRecord
100
AcDbBlockTableRecord
  2
*D17
340
0
  0
BLOCK_RECORD
  5
1674
330
1
100
AcDbSymbolTableRecord
100
AcDbBlockTableRecord
  2
*D18
340
0
  0
BLOCK_RECORD
  5
167F
330
1
100
AcDbSymbolTableRecord
100
AcDbBlockTableRecord
  2
*D19
340
0
  0
BLOCK_RECORD
  5
168A
330
1
100
AcDbSymbolTableRecord
100
AcDbBlockTableRecord
  2
*D20
340
0
  0
BLOCK_RECORD
  5
1696
330
1
100
AcDbSymbolTableRecord
100
AcDbBlockTableRecord
  2
*D21
340
0
  0
BLOCK_RECORD
  5
16A2
330
1
100
AcDbSymbolTableRecord
100
AcDbBlockTableRecord
  2
*D22
340
0
  0
BLOCK_RECORD
  5
16AF
330
1
100
AcDbSymbolTableRecord
100
AcDbBlockTableRecord
  2
*D23
340
0
  0
BLOCK_RECORD
  5
16BB
330
1
100
AcDbSymbolTableRecord
100
AcDbBlockTableRecord
  2
*D24
340
0
  0
BLOCK_RECORD
  5
16C6
330
1
100
AcDbSymbolTableRecord
100
AcDbBlockTableRecord
  2
*D25
340
0
  0
BLOCK_RECORD
  5
16D2
330
1
100
AcDbSymbolTableRecord
100
AcDbBlockTableRecord
  2
*D26
340
0
  0
BLOCK_RECORD
  5
16DE
330
1
100
AcDbSymbolTableRecord
100
AcDbBlockTableRecord
  2
*D27
340
0
  0
BLOCK_RECORD
  5
16EA
330
1
100
AcDbSymbolTableRecord
100
AcDbBlockTableRecord
  2
*D28
340
0
  0
BLOCK_RECORD
  5
16F6
330
1
100
AcDbSymbolTableRecord
100
AcDbBlockTableRecord
  2
*D29
340
0
  0
BLOCK_RECORD
  5
19E2
330
1
100
AcDbSymbolTableRecord
100
AcDbBlockTableRecord
  2
*D30
340
0
  0
BLOCK_RECORD
  5
1A8A
330
1
100
AcDbSymbolTableRecord
100
AcDbBlockTableRecord
  2
*D31
340
0
  0
BLOCK_RECORD
  5
1AA0
330
1
100
AcDbSymbolTableRecord
100
AcDbBlockTableRecord
  2
*D32
340
0
  0
BLOCK_RECORD
  5
1C5E
330
1
100
AcDbSymbolTableRecord
100
AcDbBlockTableRecord
  2
*D33
340
0
  0
BLOCK_RECORD
  5
1C6A
330
1
100
AcDbSymbolTableRecord
100
AcDbBlockTableRecord
  2
*D34
340
0
  0
BLOCK_RECORD
  5
1C76
330
1
100
AcDbSymbolTableRecord
100
AcDbBlockTableRecord
  2
*D35
340
0
  0
BLOCK_RECORD
  5
1C82
330
1
100
AcDbSymbolTableRecord
100
AcDbBlockTableRecord
  2
*D36
340
0
  0
BLOCK_RECORD
  5
1C8E
330
1
100
AcDbSymbolTableRecord
100
AcDbBlockTableRecord
  2
*D37
340
0
  0
BLOCK_RECORD
  5
1C9A
330
1
100
AcDbSymbolTableRecord
100
AcDbBlockTableRecord
  2
*D38
340
0
  0
BLOCK_RECORD
  5
1CA8
330
1
100
AcDbSymbolTableRecord
100
AcDbBlockTableRecord
  2
*D39
340
0
  0
BLOCK_RECORD
  5
1CB4
330
1
100
AcDbSymbolTableRecord
100
AcDbBlockTableRecord
  2
*D40
340
0
  0
BLOCK_RECORD
  5
1CC0
330
1
100
AcDbSymbolTableRecord
100
AcDbBlockTableRecord
  2
*D41
340
0
  0
BLOCK_RECORD
  5
1CCC
330
1
100
AcDbSymbolTableRecord
100
AcDbBlockTableRecord
  2
*D42
340
0
  0
BLOCK_RECORD
  5
1CD8
330
1
100
AcDbSymbolTableRecord
100
AcDbBlockTableRecord
  2
*D43
340
0
  0
BLOCK_RECORD
  5
1CE4
330
1
100
AcDbSymbolTableRecord
100
AcDbBlockTableRecord
  2
*D44
340
0
  0
BLOCK_RECORD
  5
1CF0
330
1
100
AcDbSymbolTableRecord
100
AcDbBlockTableRecord
  2
*D45
340
0
  0
BLOCK_RECORD
  5
1CFC
330
1
100
AcDbSymbolTableRecord
100
AcDbBlockTableRecord
  2
*D46
340
0
  0
BLOCK_RECORD
  5
1D08
330
1
100
AcDbSymbolTableRecord
100
AcDbBlockTableRecord
  2
*D47
340
0
  0
BLOCK_RECORD
  5
1D14
330
1
100
AcDbSymbolTableRecord
100
AcDbBlockTableRecord
  2
*D48
340
0
  0
ENDTAB
  0
ENDSEC
  0
SECTION
  2
BLOCKS
  0
BLOCK
  5
71
330
18
100
AcDbEntity
  8
0
100
AcDbBlockBegin
  2
*MODEL_SPACE
 70
     0
 10
0.0
 20
0.0
 30
0.0
  3
*MODEL_SPACE
  1

  0
ENDBLK
  5
72
330
18
100
AcDbEntity
  8
0
100
AcDbBlockEnd
  0
BLOCK
  5
6F
330
15
100
AcDbEntity
 67
     1
  8
0
100
AcDbBlockBegin
  2
*PAPER_SPACE
 70
     0
 10
0.0
 20
0.0
 30
0.0
  3
*PAPER_SPACE
  1

  0
ENDBLK
  5
70
330
15
100
AcDbEntity
 67
     1
  8
0
100
AcDbBlockEnd
  0
BLOCK
  5
73
330
1C
100
AcDbEntity
  8
0
100
AcDbBlockBegin
  2
MASTERS
 70
     0
 10
0.0
 20
0.0
 30
0.0
  3
MASTERS
  1

  0
INSERT
  5
74
330
1C
100
AcDbEntity
  8
0
100
AcDbBlockReference
  2
YA_N
 10
6.0
 20
5.0
 30
0.0
  0
ENDBLK
  5
75
330
1C
100
AcDbEntity
  8
0
100
AcDbBlockEnd
  0
BLOCK
  5
76
330
1D
100
AcDbEntity
  8
0
100
AcDbBlockBegin
  2
SYASEN
 70
     0
 10
0.0
 20
0.0
 30
0.0
  3
SYASEN
  1

  0
LINE
  5
77
330
1D
100
AcDbEntity
  8
0
100
AcDbLine
 10
0.0
 20
0.0
 30
0.0
 11
-1.0
 21
0.0
 31
0.0
  0
LINE
  5
78
330
1D
100
AcDbEntity
  8
0
100
AcDbLine
 10
0.5
 20
0.5
 30
0.0
 11
-0.5
 21
-0.5
 31
0.0
  0
ENDBLK
  5
79
330
1D
100
AcDbEntity
  8
0
100
AcDbBlockEnd
  0
BLOCK
  5
7A
330
1E
100
AcDbEntity
  8
0
100
AcDbBlockBegin
  2
YA2
 70
     0
 10
0.0
 20
0.0
 30
0.0
  3
YA2
  1

  0
LINE
  5
7B
330
1E
100
AcDbEntity
  8
0
100
AcDbLine
 10
-1.0
 20
0.0
 30
0.0
 11
0.0
 21
0.0
 31
0.0
  0
ENDBLK
  5
7C
330
1E
100
AcDbEntity
  8
0
100
AcDbBlockEnd
  0
BLOCK
  5
7D
330
1F
100
AcDbEntity
  8
0
100
AcDbBlockBegin
  2
YA_N
 70
     0
 10
0.0
 20
0.0
 30
0.0
  3
YA_N
  1

  0
ENDBLK
  5
7E
330
1F
100
AcDbEntity
  8
0
100
AcDbBlockEnd
  0
BLOCK
  5
7F
330
20
100
AcDbEntity
  8
0
100
AcDbBlockBegin
  2
DOT
 70
     0
 10
0.0
 20
0.0
 30
0.0
  3
DOT
  1

  0
LWPOLYLINE
  5
80
330
20
100
AcDbEntity
  8
0
100
AcDbPolyline
 90
        2
 70
     1
 43
0.25
 10
-0.125
 20
0.0
 42
1.0
 10
0.125
 20
0.0
 42
1.0
  0
LINE
  5
84
330
20
100
AcDbEntity
  8
0
100
AcDbLine
 10
-1.0
 20
0.0
 30
0.0
 11
-0.25
 21
0.0
 31
0.0
  0
ENDBLK
  5
85
330
20
100
AcDbEntity
  8
0
100
AcDbBlockEnd
  0
BLOCK
  5
86
330
21
100
AcDbEntity
  8
0
100
AcDbBlockBegin
  2
ARROW
 70
     0
 10
0.0
 20
0.0
 30
0.0
  3
ARROW
  1

  0
LINE
  5
87
330
21
100
AcDbEntity
  8
0
100
AcDbLine
 10
-0.9999999999999991
 20
0.1666666667000003
 30
0.0
 11
0.0
 21
0.0
 31
0.0
  0
LINE
  5
88
330
21
100
AcDbEntity
  8
0
100
AcDbLine
 10
-0.9999999999999991
 20
0.0
 30
0.0
 11
0.0
 21
0.0
 31
0.0
  0
LINE
  5
89
330
21
100
AcDbEntity
  8
0
100
AcDbLine
 10
-0.9999999999999991
 20
-0.1666666667000003
 30
0.0
 11
0.0
 21
0.0
 31
0.0
  0
ENDBLK
  5
8A
330
21
100
AcDbEntity
  8
0
100
AcDbBlockEnd
  0
BLOCK
  5
8B
330
22
100
AcDbEntity
  8
0
100
AcDbBlockBegin
  2
YA3
 70
     0
 10
0.0
 20
0.0
 30
0.0
  3
YA3
  1

  0
SOLID
  5
8C
330
22
100
AcDbEntity
  8
0
100
AcDbTrace
 10
1.0
 20
-0.1666666666666665
 30
0.0
 11
1.0
 21
0.166666666666667
 31
0.0
 12
0.0
 22
0.0
 32
0.0
 13
0.0
 23
0.0
 33
0.0
  0
ENDBLK
  5
8D
330
22
100
AcDbEntity
  8
0
100
AcDbBlockEnd
  0
BLOCK
  5
8E
330
23
100
AcDbEntity
  8
0
100
AcDbBlockBegin
  2
BORDER
 70
     0
 10
0.0
 20
0.0
 30
0.0
  3
BORDER
  1

  0
LINE
  5
8F
330
23
100
AcDbEntity
  8
0
100
AcDbLine
 10
0.0
 20
0.0
 30
0.0
 11
1.00000000000004
 21
0.0
 31
0.0
  0
LINE
  5
90
330
23
100
AcDbEntity
  8
0
100
AcDbLine
 10
1.00000000000004
 20
0.0
 30
0.0
 11
1.00000000000004
 21
1.00000000000004
 31
0.0
  0
LINE
  5
91
330
23
100
AcDbEntity
  8
0
100
AcDbLine
 10
1.00000000000004
 20
1.00000000000004
 30
0.0
 11
0.0
 21
1.00000000000004
 31
0.0
  0
LINE
  5
92
330
23
100
AcDbEntity
  8
0
100
AcDbLine
 10
0.0
 20
1.00000000000004
 30
0.0
 11
0.0
 21
0.0
 31
0.0
  0
ENDBLK
  5
93
330
23
100
AcDbEntity
  8
0
100
AcDbBlockEnd
  0
BLOCK
  5
958
330
948
100
AcDbEntity
  8
0
 62
     5
100
AcDbBlockBegin
  2
A$C72BA1FAD
 70
     0
 10
0.0
 20
0.0
 30
0.0
  3
A$C72BA1FAD
  1

  0
LINE
  5
949
330
948
100
AcDbEntity
  8
HL
100
AcDbLine
 10
200.0000000000057
 20
69.99999677296727
 30
0.0
 11
345.0000000000057
 21
89.99999677296727
 31
0.0
  0
LINE
  5
94A
330
948
100
AcDbEntity
  8
HL
100
AcDbLine
 10
75.00000000000182
 20
-0.0000032270331758
 30
0.0
 11
325.0000000000018
 21
-0.000003227032721
 31
0.0
  0
LINE
  5
94B
330
948
100
AcDbEntity
  8
KL
100
AcDbLine
 10
117.5000000000018
 20
81.37930711779473
 30
0.0
 11
115.0000000000023
 21
-0.0000032270331758
 31
0.0
  0
LINE
  5
94C
330
948
100
AcDbEntity
  8
KL
100
AcDbLine
 10
132.5000000000018
 20
79.31034160055332
 30
0.0
 11
135.0000000000022
 21
-0.0000032270331758
 31
0.0
  0
LINE
  5
94D
330
948
100
AcDbEntity
  8
HL
100
AcDbLine
 10
55.00000000000182
 20
39.99999677296728
 30
0.0
 11
75.00000000000182
 21
-0.000003227032721
 31
0.0
  0
LINE
  5
94E
330
948
100
AcDbEntity
  8
HL
100
AcDbLine
 10
55.0
 20
89.99999677296727
 30
0.0
 11
200.0
 21
69.99999677296727
 31
0.0
  0
LINE
  5
94F
330
948
100
AcDbEntity
  8
HL
100
AcDbLine
 10
0.000000000001819
 20
89.99999677296727
 30
0.0
 11
55.0000000000033
 21
89.99999677296683
 31
0.0
  0
LINE
  5
950
330
948
100
AcDbEntity
  8
HL
100
AcDbLine
 10
0.0000000000017053
 20
39.99999677296728
 30
0.0
 11
55.00000000000182
 21
39.99999677296683
 31
0.0
  0
LINE
  5
951
330
948
100
AcDbEntity
  8
HL
100
AcDbLine
 10
0.0000000000019327
 20
89.99999677296727
 30
0.0
 11
0.0000000000020464
 21
39.99999677296728
 31
0.0
  0
LINE
  5
952
330
948
100
AcDbEntity
  8
KL
100
AcDbLine
 10
282.5000000000018
 20
81.37930711779427
 30
0.0
 11
285.0000000000018
 21
-0.000003227032721
 31
0.0
  0
LINE
  5
953
330
948
100
AcDbEntity
  8
KL
100
AcDbLine
 10
267.5000000000018
 20
79.31034160055287
 30
0.0
 11
265.0000000000018
 21
-0.000003227032721
 31
0.0
  0
LINE
  5
954
330
948
100
AcDbEntity
  8
HL
100
AcDbLine
 10
345.0000000000018
 20
39.99999677296728
 30
0.0
 11
325.0000000000018
 21
-0.000003227032721
 31
0.0
  0
LINE
  5
955
330
948
100
AcDbEntity
  8
HL
100
AcDbLine
 10
400.0000000000018
 20
89.99999677296727
 30
0.0
 11
400.0000000000018
 21
39.99999677296728
 31
0.0
  0
LINE
  5
956
330
948
100
AcDbEntity
  8
HL
100
AcDbLine
 10
345.0000000000018
 20
39.99999677296683
 30
0.0
 11
400.000000000002
 21
39.99999677296728
 31
0.0
  0
LINE
  5
957
330
948
100
AcDbEntity
  8
HL
100
AcDbLine
 10
345.0000000000011
 20
89.99999677296683
 30
0.0
 11
400.000000000002
 21
89.99999677296727
 31
0.0
  0
ENDBLK
  5
959
330
948
100
AcDbEntity
  8
0
 62
     5
100
AcDbBlockEnd
  0
BLOCK
  5
95E
330
95A
100
AcDbEntity
  8
0
 62
     5
100
AcDbBlockBegin
  2
A$C25B74F18
 70
     0
 10
0.0
 20
0.0
 30
0.0
  3
A$C25B74F18
  1

  0
INSERT
  5
95B
330
95A
100
AcDbEntity
  8
0
 62
     5
100
AcDbBlockReference
  2
A$C72BA1FAD
 10
271.3604739058892
 20
0.0000021283044589
 30
0.0
  0
MTEXT
  5
95C
102
{ACAD_REACTORS
330
95D
102
}
330
95A
100
AcDbEntity
  8
SUNPOU
100
AcDbMText
 10
169.0476140476039
 20
163.911205151966
 30
0.0
 40
25.0
 41
0.0
 71
     6
 72
     1
  1
\A1;GSB-300
  7
BIGFONT
 73
     1
 44
1.0
  0
LEADER
  5
95D
330
95A
100
AcDbEntity
  8
SUNPOU
100
AcDbLeader
  3
DIM1
 73
     0
 75
     1
 40
25.0
 41
169.047619047619
 76
     3
 10
347.2161405900824
 20
67.24519142158715
 30
0.0
 10
199.0476140476039
 20
141.411205151966
 30
0.0
 10
179.0476140476039
 20
141.411205151966
 30
0.0
340
95C
  0
ENDBLK
  5
95F
330
95A
100
AcDbEntity
  8
0
 62
     5
100
AcDbBlockEnd
  0
BLOCK
  5
962
330
960
100
AcDbEntity
  8
0
 62
     5
100
AcDbBlockBegin
  2
A$C105B5721
 70
     0
 10
0.0
 20
0.0
 30
0.0
  3
A$C105B5721
  1

  0
INSERT
  5
961
330
960
100
AcDbEntity
  8
0
 62
     5
100
AcDbBlockReference
  2
A$C25B74F18
 10
0.0000075804819062
 20
-0.0000000000004547
 30
0.0
  0
ENDBLK
  5
963
330
960
100
AcDbEntity
  8
0
 62
     5
100
AcDbBlockEnd
  0
BLOCK
  5
966
330
964
100
AcDbEntity
  8
0
 62
     5
100
AcDbBlockBegin
  2
A$C0E9223DF
 70
     0
 10
0.0
 20
0.0
 30
0.0
  3
A$C0E9223DF
  1

  0
INSERT
  5
965
330
964
100
AcDbEntity
  8
0
 62
     5
100
AcDbBlockReference
  2
A$C105B5721
 10
-0.0000076851840731
 20
0.0000000000004547
 30
0.0
  0
ENDBLK
  5
967
330
964
100
AcDbEntity
  8
0
 62
     5
100
AcDbBlockEnd
  0
BLOCK
  5
96A
330
968
100
AcDbEntity
  8
0
 62
     5
100
AcDbBlockBegin
  2
A$C38392A7F
 70
     0
 10
0.0
 20
0.0
 30
0.0
  3
A$C38392A7F
  1

  0
INSERT
  5
969
330
968
100
AcDbEntity
  8
0
 62
     5
100
AcDbBlockReference
  2
A$C0E9223DF
 10
0.000004156733894
 20
0.0000013989094896
 30
0.0
  0
ENDBLK
  5
96B
330
968
100
AcDbEntity
  8
0
 62
     5
100
AcDbBlockEnd
  0
BLOCK
  5
96E
330
96C
100
AcDbEntity
  8
0
100
AcDbBlockBegin
  2
A$C67384017
 70
     0
 10
0.0
 20
0.0
 30
0.0
  3
A$C67384017
  1

  0
INSERT
  5
96D
330
96C
100
AcDbEntity
  8
0
 62
     5
100
AcDbBlockReference
  2
A$C38392A7F
 10
0.0000000000002274
 20
-0.000001398909717
 30
0.0
  0
ENDBLK
  5
96F
330
96C
100
AcDbEntity
  8
0
100
AcDbBlockEnd
  0
BLOCK
  5
B12
330
B07
100
AcDbEntity
  8
0
100
AcDbBlockBegin
  2
A$C0FE41E00
 70
     0
 10
0.0
 20
0.0
 30
0.0
  3
A$C0FE41E00
  1

  0
LINE
  5
B08
330
B07
100
AcDbEntity
  8
HL
100
AcDbLine
 10
345.0
 20
10.000003
 30
0.0
 11
400.0
 21
10.000003
 31
0.0
  0
LINE
  5
B09
330
B07
100
AcDbEntity
  8
HL
100
AcDbLine
 10
0.0
 20
60.00000299999999
 30
0.0
 11
400.0
 21
60.00000299999999
 31
0.0
  0
LINE
  5
B0A
330
B07
100
AcDbEntity
  8
HL
100
AcDbLine
 10
55.0
 20
10.000003
 30
0.0
 11
65.0
 21
0.000003
 31
0.0
  0
LINE
  5
B0B
330
B07
100
AcDbEntity
  8
KL
100
AcDbLine
 10
25.0
 20
60.00000299999999
 30
0.0
 11
25.0
 21
10.000003
 31
0.0
  0
LINE
  5
B0C
330
B07
100
AcDbEntity
  8
HL
100
AcDbLine
 10
0.0
 20
60.00000299999999
 30
0.0
 11
0.0
 21
10.000003
 31
0.0
  0
LINE
  5
B0D
330
B07
100
AcDbEntity
  8
HL
100
AcDbLine
 10
0.0
 20
10.000003
 30
0.0
 11
55.0
 21
10.000003
 31
0.0
  0
LINE
  5
B0E
330
B07
100
AcDbEntity
  8
HL
100
AcDbLine
 10
65.0
 20
0.000003
 30
0.0
 11
335.0
 21
0.000003
 31
0.0
  0
LINE
  5
B0F
330
B07
100
AcDbEntity
  8
KL
100
AcDbLine
 10
375.0
 20
60.00000299999999
 30
0.0
 11
375.0
 21
10.000003
 31
0.0
  0
LINE
  5
B10
330
B07
100
AcDbEntity
  8
HL
100
AcDbLine
 10
345.0
 20
10.000003
 30
0.0
 11
335.0
 21
0.000003
 31
0.0
  0
LINE
  5
B11
330
B07
100
AcDbEntity
  8
HL
100
AcDbLine
 10
400.0
 20
60.00000299999999
 30
0.0
 11
400.0
 21
10.000003
 31
0.0
  0
ENDBLK
  5
B13
330
B07
100
AcDbEntity
  8
0
100
AcDbBlockEnd
  0
BLOCK
  5
B16
330
B14
100
AcDbEntity
  8
0
100
AcDbBlockBegin
  2
A$C371162DB
 70
     0
 10
0.0
 20
0.0
 30
0.0
  3
A$C371162DB
  1

  0
INSERT
  5
B15
330
B14
100
AcDbEntity
  8
HL
100
AcDbBlockReference
  2
A$C0FE41E00
 10
0.0
 20
-0.000005
 30
0.0
  0
ENDBLK
  5
B17
330
B14
100
AcDbEntity
  8
0
100
AcDbBlockEnd
  0
BLOCK
  5
B1A
330
B18
100
AcDbEntity
  8
0
100
AcDbBlockBegin
  2
A$C57A3340D
 70
     0
 10
0.0
 20
0.0
 30
0.0
  3
A$C57A3340D
  1

  0
INSERT
  5
B19
330
B18
100
AcDbEntity
  8
HL
100
AcDbBlockReference
  2
A$C371162DB
 10
-0.000004
 20
0.000003
 30
0.0
  0
ENDBLK
  5
B1B
330
B18
100
AcDbEntity
  8
0
100
AcDbBlockEnd
  0
BLOCK
  5
1672
330
1668
100
AcDbEntity
  8
0
100
AcDbBlockBegin
  2
*D17
 70
     1
 10
0.0
 20
0.0
 30
0.0
  3
*D17
  1

  0
LINE
  5
1B8D
330
1668
100
AcDbEntity
  8
SUNPOU
 62
     0
370
    -2
100
AcDbLine
 10
527.0069926673859
 20
1607.464766665608
 30
0.0
 11
527.0069926673859
 21
1779.070300173816
 31
0.0
  0
LINE
  5
1B8E
330
1668
100
AcDbEntity
  8
SUNPOU
 62
     0
370
    -2
100
AcDbLine
 10
1047.006992667386
 20
1607.464766665608
 30
0.0
 11
1047.006992667386
 21
1779.070300173816
 31
0.0
  0
LINE
  5
1B8F
330
1668
100
AcDbEntity
  8
SUNPOU
 62
     0
370
    -2
100
AcDbLine
 10
547.0069926673859
 20
1779.070300173816
 30
0.0
 11
1027.006992667386
 21
1779.070300173816
 31
0.0
  0
SOLID
  5
1B90
330
1668
100
AcDbEntity
  8
SUNPOU
 62
     0
100
AcDbTrace
 10
547.0069926673859
 20
1782.403633507149
 30
0.0
 11
547.0069926673859
 21
1775.736966840482
 31
0.0
 12
527.0069926673859
 22
1779.070300173816
 32
0.0
 13
527.0069926673859
 23
1779.070300173816
 33
0.0
  0
SOLID
  5
1B91
330
1668
100
AcDbEntity
  8
SUNPOU
 62
     0
100
AcDbTrace
 10
1027.006992667386
 20
1782.403633507149
 30
0.0
 11
1027.006992667386
 21
1775.736966840482
 31
0.0
 12
1047.006992667386
 22
1779.070300173816
 32
0.0
 13
1047.006992667386
 23
1779.070300173816
 33
0.0
  0
MTEXT
  5
1B92
330
1668
100
AcDbEntity
  8
SUNPOU
 62
     0
100
AcDbMText
 10
787.0069926673859
 20
1801.570300173816
 30
0.0
 40
25.0
 41
0.0
 71
     5
 72
     1
  1
\A1;520
  7
BIGFONT
 73
     1
 44
1.0
  0
POINT
  5
1B93
330
1668
100
AcDbEntity
  8
DEFPOINTS
 62
     0
100
AcDbPoint
 10
527.0069926673859
 20
1597.464766665608
 30
0.0
  0
POINT
  5
1B94
330
1668
100
AcDbEntity
  8
DEFPOINTS
 62
     0
100
AcDbPoint
 10
1047.006992667386
 20
1597.464766665608
 30
0.0
  0
POINT
  5
1B95
330
1668
100
AcDbEntity
  8
DEFPOINTS
 62
     0
100
AcDbPoint
 10
1047.006992667386
 20
1779.070300173816
 30
0.0
  0
ENDBLK
  5
1673
330
1668
100
AcDbEntity
  8
0
100
AcDbBlockEnd
  0
BLOCK
  5
167D
330
1674
100
AcDbEntity
  8
0
100
AcDbBlockBegin
  2
*D18
 70
     1
 10
0.0
 20
0.0
 30
0.0
  3
*D18
  1

  0
LINE
  5
1B9F
330
1674
100
AcDbEntity
  8
SUNPOU
 62
     0
370
    -2
100
AcDbLine
 10
387.1454721974719
 20
1457.464766665608
 30
0.0
 11
298.1837954342064
 21
1457.464766665608
 31
0.0
  0
LINE
  5
1BA0
330
1674
100
AcDbEntity
  8
SUNPOU
 62
     0
370
    -2
100
AcDbLine
 10
387.1454721974719
 20
1257.464766665608
 30
0.0
 11
298.1837954342063
 21
1257.464766665608
 31
0.0
  0
LINE
  5
1BA1
330
1674
100
AcDbEntity
  8
SUNPOU
 62
     0
370
    -2
100
AcDbLine
 10
298.1837954342064
 20
1437.464766665608
 30
0.0
 11
298.1837954342063
 21
1277.464766665608
 31
0.0
  0
SOLID
  5
1BA2
330
1674
100
AcDbEntity
  8
SUNPOU
 62
     0
100
AcDbTrace
 10
294.8504621008731
 20
1437.464766665608
 30
0.0
 11
301.5171287675397
 21
1437.464766665608
 31
0.0
 12
298.1837954342064
 22
1457.464766665608
 32
0.0
 13
298.1837954342064
 23
1457.464766665608
 33
0.0
  0
SOLID
  5
1BA3
330
1674
100
AcDbEntity
  8
SUNPOU
 62
     0
100
AcDbTrace
 10
294.850462100873
 20
1277.464766665608
 30
0.0
 11
301.5171287675396
 21
1277.464766665608
 31
0.0
 12
298.1837954342063
 22
1257.464766665608
 32
0.0
 13
298.1837954342063
 23
1257.464766665608
 33
0.0
  0
MTEXT
  5
1BA4
330
1674
100
AcDbEntity
  8
SUNPOU
 62
     0
100
AcDbMText
 10
275.6837954342061
 20
1357.464766665608
 30
0.0
 40
25.0
 41
0.0
 71
     5
 72
     1
  1
\A1;200
  7
BIGFONT
 11
0.0000000000000001
 21
1.0
 31
0.0
 73
     1
 44
1.0
  0
POINT
  5
1BA5
330
1674
100
AcDbEntity
  8
DEFPOINTS
 62
     0
100
AcDbPoint
 10
397.1454721974719
 20
1457.464766665608
 30
0.0
  0
POINT
  5
1BA6
330
1674
100
AcDbEntity
  8
DEFPOINTS
 62
     0
100
AcDbPoint
 10
397.1454721974719
 20
1257.464766665608
 30
0.0
  0
POINT
  5
1BA7
330
1674
100
AcDbEntity
  8
DEFPOINTS
 62
     0
100
AcDbPoint
 10
298.1837954342063
 20
1257.464766665608
 30
0.0
  0
ENDBLK
  5
167E
330
1674
100
AcDbEntity
  8
0
100
AcDbBlockEnd
  0
BLOCK
  5
1688
330
167F
100
AcDbEntity
  8
0
100
AcDbBlockBegin
  2
*D19
 70
     1
 10
0.0
 20
0.0
 30
0.0
  3
*D19
  1

  0
LINE
  5
1BA8
330
167F
100
AcDbEntity
  8
SUNPOU
 62
     0
370
    -2
100
AcDbLine
 10
387.1454721974719
 20
1257.464766665608
 30
0.0
 11
298.1837954342064
 21
1257.464766665608
 31
0.0
  0
LINE
  5
1BA9
330
167F
100
AcDbEntity
  8
SUNPOU
 62
     0
370
    -2
100
AcDbLine
 10
517.1454721974714
 20
1142.464766665608
 30
0.0
 11
298.1837954342063
 21
1142.464766665608
 31
0.0
  0
LINE
  5
1BAA
330
167F
100
AcDbEntity
  8
SUNPOU
 62
     0
370
    -2
100
AcDbLine
 10
298.1837954342064
 20
1237.464766665608
 30
0.0
 11
298.1837954342064
 21
1162.464766665608
 31
0.0
  0
SOLID
  5
1BAB
330
167F
100
AcDbEntity
  8
SUNPOU
 62
     0
100
AcDbTrace
 10
294.8504621008731
 20
1237.464766665608
 30
0.0
 11
301.5171287675397
 21
1237.464766665608
 31
0.0
 12
298.1837954342064
 22
1257.464766665608
 32
0.0
 13
298.1837954342064
 23
1257.464766665608
 33
0.0
  0
SOLID
  5
1BAC
330
167F
100
AcDbEntity
  8
SUNPOU
 62
     0
100
AcDbTrace
 10
294.8504621008731
 20
1162.464766665608
 30
0.0
 11
301.5171287675397
 21
1162.464766665608
 31
0.0
 12
298.1837954342063
 22
1142.464766665608
 32
0.0
 13
298.1837954342063
 23
1142.464766665608
 33
0.0
  0
MTEXT
  5
1BAD
330
167F
100
AcDbEntity
  8
SUNPOU
 62
     0
100
AcDbMText
 10
275.6837954342062
 20
1199.964766665608
 30
0.0
 40
25.0
 41
0.0
 71
     5
 72
     1
  1
\A1;115
  7
BIGFONT
 11
0.0000000000000001
 21
1.0
 31
0.0
 73
     1
 44
1.0
  0
POINT
  5
1BAE
330
167F
100
AcDbEntity
  8
DEFPOINTS
 62
     0
100
AcDbPoint
 10
397.1454721974719
 20
1257.464766665608
 30
0.0
  0
POINT
  5
1BAF
330
167F
100
AcDbEntity
  8
DEFPOINTS
 62
     0
100
AcDbPoint
 10
527.1454721974714
 20
1142.464766665608
 30
0.0
  0
POINT
  5
1BB0
330
167F
100
AcDbEntity
  8
DEFPOINTS
 62
     0
100
AcDbPoint
 10
298.1837954342063
 20
1142.464766665608
 30
0.0
  0
ENDBLK
  5
1689
330
167F
100
AcDbEntity
  8
0
100
AcDbBlockEnd
  0
BLOCK
  5
1694
330
168A
100
AcDbEntity
  8
0
100
AcDbBlockBegin
  2
*D20
 70
     1
 10
0.0
 20
0.0
 30
0.0
  3
*D20
  1

  0
LINE
  5
1BB1
330
168A
100
AcDbEntity
  8
SUNPOU
 62
     0
370
    -2
100
AcDbLine
 10
487.1454721974714
 20
1597.464766665608
 30
0.0
 11
298.1837954342063
 21
1597.464766665608
 31
0.0
  0
LINE
  5
1BB2
330
168A
100
AcDbEntity
  8
SUNPOU
 62
     0
370
    -2
100
AcDbLine
 10
387.1454721974719
 20
1457.464766665608
 30
0.0
 11
298.1837954342063
 21
1457.464766665608
 31
0.0
  0
LINE
  5
1BB3
330
168A
100
AcDbEntity
  8
SUNPOU
 62
     0
370
    -2
100
AcDbLine
 10
298.1837954342063
 20
1577.464766665608
 30
0.0
 11
298.1837954342063
 21
1477.464766665608
 31
0.0
  0
SOLID
  5
1BB4
330
168A
100
AcDbEntity
  8
SUNPOU
 62
     0
100
AcDbTrace
 10
294.850462100873
 20
1577.464766665608
 30
0.0
 11
301.5171287675396
 21
1577.464766665608
 31
0.0
 12
298.1837954342063
 22
1597.464766665608
 32
0.0
 13
298.1837954342063
 23
1597.464766665608
 33
0.0
  0
SOLID
  5
1BB5
330
168A
100
AcDbEntity
  8
SUNPOU
 62
     0
100
AcDbTrace
 10
294.850462100873
 20
1477.464766665608
 30
0.0
 11
301.5171287675396
 21
1477.464766665608
 31
0.0
 12
298.1837954342063
 22
1457.464766665608
 32
0.0
 13
298.1837954342063
 23
1457.464766665608
 33
0.0
  0
MTEXT
  5
1BB6
330
168A
100
AcDbEntity
  8
SUNPOU
 62
     0
100
AcDbMText
 10
275.6837954342061
 20
1527.464766665608
 30
0.0
 40
25.0
 41
0.0
 71
     5
 72
     1
  1
\A1;140
  7
BIGFONT
 11
0.0000000000000001
 21
1.0
 31
0.0
 73
     1
 44
1.0
  0
POINT
  5
1BB7
330
168A
100
AcDbEntity
  8
DEFPOINTS
 62
     0
100
AcDbPoint
 10
497.1454721974715
 20
1597.464766665608
 30
0.0
  0
POINT
  5
1BB8
330
168A
100
AcDbEntity
  8
DEFPOINTS
 62
     0
100
AcDbPoint
 10
397.1454721974719
 20
1457.464766665608
 30
0.0
  0
POINT
  5
1BB9
330
168A
100
AcDbEntity
  8
DEFPOINTS
 62
     0
100
AcDbPoint
 10
298.1837954342063
 20
1457.464766665608
 30
0.0
  0
ENDBLK
  5
1695
330
168A
100
AcDbEntity
  8
0
100
AcDbBlockEnd
  0
BLOCK
  5
16A0
330
1696
100
AcDbEntity
  8
0
100
AcDbBlockBegin
  2
*D21
 70
     1
 10
0.0
 20
0.0
 30
0.0
  3
*D21
  1

  0
LINE
  5
1BBA
330
1696
100
AcDbEntity
  8
SUNPOU
 62
     0
370
    -2
100
AcDbLine
 10
427.0069926673864
 20
1493.974080198176
 30
0.0
 11
427.0069926673864
 21
1559.504973323677
 31
0.0
  0
LINE
  5
1BBB
330
1696
100
AcDbEntity
  8
SUNPOU
 62
     0
370
    -2
100
AcDbLine
 10
527.0069926673864
 20
1493.974080198176
 30
0.0
 11
527.0069926673864
 21
1559.504973323677
 31
0.0
  0
LINE
  5
1BBC
330
1696
100
AcDbEntity
  8
SUNPOU
 62
     0
370
    -2
100
AcDbLine
 10
447.0069926673864
 20
1559.504973323677
 30
0.0
 11
507.0069926673864
 21
1559.504973323677
 31
0.0
  0
SOLID
  5
1BBD
330
1696
100
AcDbEntity
  8
SUNPOU
 62
     0
100
AcDbTrace
 10
447.0069926673864
 20
1562.838306657011
 30
0.0
 11
447.0069926673864
 21
1556.171639990344
 31
0.0
 12
427.0069926673864
 22
1559.504973323677
 32
0.0
 13
427.0069926673864
 23
1559.504973323677
 33
0.0
  0
SOLID
  5
1BBE
330
1696
100
AcDbEntity
  8
SUNPOU
 62
     0
100
AcDbTrace
 10
507.0069926673864
 20
1562.838306657011
 30
0.0
 11
507.0069926673864
 21
1556.171639990344
 31
0.0
 12
527.0069926673864
 22
1559.504973323677
 32
0.0
 13
527.0069926673864
 23
1559.504973323677
 33
0.0
  0
MTEXT
  5
1BBF
330
1696
100
AcDbEntity
  8
SUNPOU
 62
     0
100
AcDbMText
 10
477.0069926673864
 20
1582.004973323677
 30
0.0
 40
25.0
 41
0.0
 71
     5
 72
     1
  1
\A1;100
  7
BIGFONT
 73
     1
 44
1.0
  0
POINT
  5
1BC0
330
1696
100
AcDbEntity
  8
DEFPOINTS
 62
     0
100
AcDbPoint
 10
427.0069926673864
 20
1483.974080198176
 30
0.0
  0
POINT
  5
1BC1
330
1696
100
AcDbEntity
  8
DEFPOINTS
 62
     0
100
AcDbPoint
 10
527.0069926673864
 20
1483.974080198176
 30
0.0
  0
POINT
  5
1BC2
330
1696
100
AcDbEntity
  8
DEFPOINTS
 62
     0
100
AcDbPoint
 10
527.0069926673864
 20
1559.504973323677
 30
0.0
  0
ENDBLK
  5
16A1
330
1696
100
AcDbEntity
  8
0
100
AcDbBlockEnd
  0
BLOCK
  5
16AD
330
16A2
100
AcDbEntity
  8
0
100
AcDbBlockBegin
  2
*D22
 70
     1
 10
0.0
 20
0.0
 30
0.0
  3
*D22
  1

  0
LINE
  5
1E0E
330
16A2
100
AcDbEntity
  8
SUNPOU
 62
     0
370
    -2
100
AcDbLine
 10
1073.458244367349
 20
1142.464766665608
 30
0.0
 11
1165.448931046699
 21
1142.464766665608
 31
0.0
  0
LINE
  5
1E0F
330
16A2
100
AcDbEntity
  8
SUNPOU
 62
     0
370
    -2
100
AcDbLine
 10
1073.458244367349
 20
1112.464766665608
 30
0.0
 11
1165.448931046699
 21
1112.464766665608
 31
0.0
  0
LINE
  5
1E10
330
16A2
100
AcDbEntity
  8
SUNPOU
 62
     0
370
    -2
100
AcDbLine
 10
1165.448931046699
 20
1162.464766665608
 30
0.0
 11
1165.448931046699
 21
1182.464766665608
 31
0.0
  0
LINE
  5
1E11
330
16A2
100
AcDbEntity
  8
SUNPOU
 62
     0
370
    -2
100
AcDbLine
 10
1165.448931046699
 20
1092.464766665607
 30
0.0
 11
1165.448931046699
 21
1072.464766665608
 31
0.0
  0
MTEXT
  5
1E12
330
16A2
100
AcDbEntity
  8
SUNPOU
 62
     0
100
AcDbMText
 10
1209.725277011266
 20
1127.464766665608
 30
0.0
 40
25.0
 41
0.0
 71
     5
 72
     1
  1
\A1;30
  7
BIGFONT
 11
0.0000000000000001
 21
1.0
 31
0.0
 73
     1
 44
1.0
  0
LINE
  5
1E13
330
16A2
100
AcDbEntity
  8
SUNPOU
 62
     0
370
    -2
100
AcDbLine
 10
1165.448931046699
 20
1142.464766665608
 30
0.0
 11
1165.448931046699
 21
1112.464766665608
 31
0.0
  0
SOLID
  5
1E14
330
16A2
100
AcDbEntity
  8
SUNPOU
 62
     0
100
AcDbTrace
 10
1162.115597713366
 20
1162.464766665608
 30
0.0
 11
1168.782264380033
 21
1162.464766665608
 31
0.0
 12
1165.448931046699
 22
1142.464766665608
 32
0.0
 13
1165.448931046699
 23
1142.464766665608
 33
0.0
  0
SOLID
  5
1E15
330
16A2
100
AcDbEntity
  8
SUNPOU
 62
     0
100
AcDbTrace
 10
1162.115597713366
 20
1092.464766665607
 30
0.0
 11
1168.782264380033
 21
1092.464766665607
 31
0.0
 12
1165.448931046699
 22
1112.464766665608
 32
0.0
 13
1165.448931046699
 23
1112.464766665608
 33
0.0
  0
POINT
  5
1E16
330
16A2
100
AcDbEntity
  8
DEFPOINTS
 62
     0
100
AcDbPoint
 10
1063.458244367349
 20
1142.464766665608
 30
0.0
  0
POINT
  5
1E17
330
16A2
100
AcDbEntity
  8
DEFPOINTS
 62
     0
100
AcDbPoint
 10
1063.458244367349
 20
1112.464766665608
 30
0.0
  0
POINT
  5
1E18
330
16A2
100
AcDbEntity
  8
DEFPOINTS
 62
     0
100
AcDbPoint
 10
1165.448931046699
 20
1112.464766665608
 30
0.0
  0
ENDBLK
  5
16AE
330
16A2
100
AcDbEntity
  8
0
100
AcDbBlockEnd
  0
BLOCK
  5
16B9
330
16AF
100
AcDbEntity
  8
0
100
AcDbBlockBegin
  2
*D23
 70
     1
 10
0.0
 20
0.0
 30
0.0
  3
*D23
  1

  0
LINE
  5
1B84
330
16AF
100
AcDbEntity
  8
SUNPOU
 62
     0
370
    -2
100
AcDbLine
 10
557.0069926673859
 20
962.7007945551531
 30
0.0
 11
557.0069926673859
 21
853.6944855733205
 31
0.0
  0
LINE
  5
1B85
330
16AF
100
AcDbEntity
  8
SUNPOU
 62
     0
370
    -2
100
AcDbLine
 10
1017.006992667386
 20
962.7007945551527
 30
0.0
 11
1017.006992667386
 21
853.6944855733205
 31
0.0
  0
LINE
  5
1B86
330
16AF
100
AcDbEntity
  8
SUNPOU
 62
     0
370
    -2
100
AcDbLine
 10
577.0069926673859
 20
853.6944855733205
 30
0.0
 11
997.0069926673859
 21
853.6944855733205
 31
0.0
  0
SOLID
  5
1B87
330
16AF
100
AcDbEntity
  8
SUNPOU
 62
     0
100
AcDbTrace
 10
577.0069926673859
 20
857.0278189066538
 30
0.0
 11
577.0069926673859
 21
850.361152239987
 31
0.0
 12
557.0069926673859
 22
853.6944855733205
 32
0.0
 13
557.0069926673859
 23
853.6944855733205
 33
0.0
  0
SOLID
  5
1B88
330
16AF
100
AcDbEntity
  8
SUNPOU
 62
     0
100
AcDbTrace
 10
997.0069926673859
 20
857.0278189066538
 30
0.0
 11
997.0069926673859
 21
850.361152239987
 31
0.0
 12
1017.006992667386
 22
853.6944855733205
 32
0.0
 13
1017.006992667386
 23
853.6944855733205
 33
0.0
  0
MTEXT
  5
1B89
330
16AF
100
AcDbEntity
  8
SUNPOU
 62
     0
100
AcDbMText
 10
787.0069926673859
 20
876.1944855733204
 30
0.0
 40
25.0
 41
0.0
 71
     5
 72
     1
  1
\A1;460
  7
BIGFONT
 73
     1
 44
1.0
  0
POINT
  5
1B8A
330
16AF
100
AcDbEntity
  8
DEFPOINTS
 62
     0
100
AcDbPoint
 10
557.0069926673859
 20
972.7007945551532
 30
0.0
  0
POINT
  5
1B8B
330
16AF
100
AcDbEntity
  8
DEFPOINTS
 62
     0
100
AcDbPoint
 10
1017.006992667386
 20
972.7007945551527
 30
0.0
  0
POINT
  5
1B8C
330
16AF
100
AcDbEntity
  8
DEFPOINTS
 62
     0
100
AcDbPoint
 10
1017.006992667386
 20
853.6944855733205
 30
0.0
  0
ENDBLK
  5
16BA
330
16AF
100
AcDbEntity
  8
0
100
AcDbBlockEnd
  0
BLOCK
  5
16C4
330
16BB
100
AcDbEntity
  8
0
100
AcDbBlockBegin
  2
*D24
 70
     1
 10
0.0
 20
0.0
 30
0.0
  3
*D24
  1

  0
LINE
  5
1E05
330
16BB
100
AcDbEntity
  8
SUNPOU
 62
     0
370
    -2
100
AcDbLine
 10
1073.458244367349
 20
1112.464766665608
 30
0.0
 11
1165.448931046699
 21
1112.464766665608
 31
0.0
  0
LINE
  5
1E06
330
16BB
100
AcDbEntity
  8
SUNPOU
 62
     0
370
    -2
100
AcDbLine
 10
1073.458244367349
 20
1012.464766665608
 30
0.0
 11
1165.448931046699
 21
1012.464766665608
 31
0.0
  0
LINE
  5
1E07
330
16BB
100
AcDbEntity
  8
SUNPOU
 62
     0
370
    -2
100
AcDbLine
 10
1165.448931046699
 20
1092.464766665607
 30
0.0
 11
1165.448931046699
 21
1032.464766665608
 31
0.0
  0
SOLID
  5
1E08
330
16BB
100
AcDbEntity
  8
SUNPOU
 62
     0
100
AcDbTrace
 10
1162.115597713366
 20
1092.464766665607
 30
0.0
 11
1168.782264380033
 21
1092.464766665607
 31
0.0
 12
1165.448931046699
 22
1112.464766665608
 32
0.0
 13
1165.448931046699
 23
1112.464766665608
 33
0.0
  0
SOLID
  5
1E09
330
16BB
100
AcDbEntity
  8
SUNPOU
 62
     0
100
AcDbTrace
 10
1162.115597713366
 20
1032.464766665608
 30
0.0
 11
1168.782264380033
 21
1032.464766665608
 31
0.0
 12
1165.448931046699
 22
1012.464766665608
 32
0.0
 13
1165.448931046699
 23
1012.464766665608
 33
0.0
  0
MTEXT
  5
1E0A
330
16BB
100
AcDbEntity
  8
SUNPOU
 62
     0
100
AcDbMText
 10
1142.948931046699
 20
1062.464766665608
 30
0.0
 40
25.0
 41
0.0
 71
     5
 72
     1
  1
\A1;100
  7
BIGFONT
 11
0.0000000000000001
 21
1.0
 31
0.0
 73
     1
 44
1.0
  0
POINT
  5
1E0B
330
16BB
100
AcDbEntity
  8
DEFPOINTS
 62
     0
100
AcDbPoint
 10
1063.458244367349
 20
1112.464766665608
 30
0.0
  0
POINT
  5
1E0C
330
16BB
100
AcDbEntity
  8
DEFPOINTS
 62
     0
100
AcDbPoint
 10
1063.458244367349
 20
1012.464766665608
 30
0.0
  0
POINT
  5
1E0D
330
16BB
100
AcDbEntity
  8
DEFPOINTS
 62
     0
100
AcDbPoint
 10
1165.448931046699
 20
1012.464766665608
 30
0.0
  0
ENDBLK
  5
16C5
330
16BB
100
AcDbEntity
  8
0
100
AcDbBlockEnd
  0
BLOCK
  5
16D0
330
16C6
100
AcDbEntity
  8
0
100
AcDbBlockBegin
  2
*D25
 70
     1
 10
0.0
 20
0.0
 30
0.0
  3
*D25
  1

  0
LINE
  5
1BC3
330
16C6
100
AcDbEntity
  8
SUNPOU
 62
     0
370
    -2
100
AcDbLine
 10
637.0069926673859
 20
1562.464766665608
 30
0.0
 11
637.0069926673859
 21
1695.288107613172
 31
0.0
  0
LINE
  5
1BC4
330
16C6
100
AcDbEntity
  8
SUNPOU
 62
     0
370
    -2
100
AcDbLine
 10
937.006992667386
 20
1562.464766665608
 30
0.0
 11
937.006992667386
 21
1695.288107613172
 31
0.0
  0
LINE
  5
1BC5
330
16C6
100
AcDbEntity
  8
SUNPOU
 62
     0
370
    -2
100
AcDbLine
 10
657.0069926673859
 20
1695.288107613172
 30
0.0
 11
917.0069926673859
 21
1695.288107613172
 31
0.0
  0
SOLID
  5
1BC6
330
16C6
100
AcDbEntity
  8
SUNPOU
 62
     0
100
AcDbTrace
 10
657.0069926673859
 20
1698.621440946506
 30
0.0
 11
657.0069926673859
 21
1691.954774279839
 31
0.0
 12
637.0069926673859
 22
1695.288107613172
 32
0.0
 13
637.0069926673859
 23
1695.288107613172
 33
0.0
  0
SOLID
  5
1BC7
330
16C6
100
AcDbEntity
  8
SUNPOU
 62
     0
100
AcDbTrace
 10
917.0069926673859
 20
1698.621440946506
 30
0.0
 11
917.0069926673859
 21
1691.954774279839
 31
0.0
 12
937.006992667386
 22
1695.288107613172
 32
0.0
 13
937.006992667386
 23
1695.288107613172
 33
0.0
  0
MTEXT
  5
1BC8
330
16C6
100
AcDbEntity
  8
SUNPOU
 62
     0
100
AcDbMText
 10
787.0069926673859
 20
1717.788107613172
 30
0.0
 40
25.0
 41
0.0
 71
     5
 72
     1
  1
\A1;300
  7
BIGFONT
 73
     1
 44
1.0
  0
POINT
  5
1BC9
330
16C6
100
AcDbEntity
  8
DEFPOINTS
 62
     0
100
AcDbPoint
 10
637.0069926673859
 20
1552.464766665608
 30
0.0
  0
POINT
  5
1BCA
330
16C6
100
AcDbEntity
  8
DEFPOINTS
 62
     0
100
AcDbPoint
 10
937.006992667386
 20
1552.464766665608
 30
0.0
  0
POINT
  5
1BCB
330
16C6
100
AcDbEntity
  8
DEFPOINTS
 62
     0
100
AcDbPoint
 10
937.006992667386
 20
1695.288107613172
 30
0.0
  0
ENDBLK
  5
16D1
330
16C6
100
AcDbEntity
  8
0
100
AcDbBlockEnd
  0
BLOCK
  5
16DC
330
16D2
100
AcDbEntity
  8
0
100
AcDbBlockBegin
  2
*D26
 70
     1
 10
0.0
 20
0.0
 30
0.0
  3
*D26
  1

  0
LINE
  5
1E6B
330
16D2
100
AcDbEntity
  8
SUNPOU
 62
     0
370
    -2
100
AcDbLine
 10
779.5462668213913
 20
1597.464766665607
 30
0.0
 11
754.3243874411037
 21
1597.464766665607
 31
0.0
  0
LINE
  5
1E6C
330
16D2
100
AcDbEntity
  8
SUNPOU
 62
     0
370
    -2
100
AcDbLine
 10
744.3243874411036
 20
1502.464766665608
 30
0.0
 11
754.3243874411037
 21
1502.464766665608
 31
0.0
  0
LINE
  5
1E6D
330
16D2
100
AcDbEntity
  8
SUNPOU
 62
     0
370
    -2
100
AcDbLine
 10
754.3243874411037
 20
1577.464766665606
 30
0.0
 11
754.3243874411037
 21
1522.464766665608
 31
0.0
  0
SOLID
  5
1E6E
330
16D2
100
AcDbEntity
  8
SUNPOU
 62
     0
100
AcDbTrace
 10
750.9910541077703
 20
1577.464766665606
 30
0.0
 11
757.657720774437
 21
1577.464766665606
 31
0.0
 12
754.3243874411037
 22
1597.464766665607
 32
0.0
 13
754.3243874411037
 23
1597.464766665607
 33
0.0
  0
SOLID
  5
1E6F
330
16D2
100
AcDbEntity
  8
SUNPOU
 62
     0
100
AcDbTrace
 10
750.9910541077703
 20
1522.464766665608
 30
0.0
 11
757.657720774437
 21
1522.464766665608
 31
0.0
 12
754.3243874411037
 22
1502.464766665608
 32
0.0
 13
754.3243874411037
 23
1502.464766665608
 33
0.0
  0
MTEXT
  5
1E70
330
16D2
100
AcDbEntity
  8
SUNPOU
 62
     0
100
AcDbMText
 10
731.8243874411034
 20
1549.964766665608
 30
0.0
 40
25.0
 41
0.0
 71
     5
 72
     1
  1
\A1;95
  7
BIGFONT
 11
0.0000000000000001
 21
1.0
 31
0.0
 73
     1
 44
1.0
  0
POINT
  5
1E71
330
16D2
100
AcDbEntity
  8
DEFPOINTS
 62
     0
100
AcDbPoint
 10
789.5462668213913
 20
1597.464766665607
 30
0.0
  0
POINT
  5
1E72
330
16D2
100
AcDbEntity
  8
DEFPOINTS
 62
     0
100
AcDbPoint
 10
754.3243874411037
 20
1502.464766665608
 30
0.0
  0
POINT
  5
1E73
330
16D2
100
AcDbEntity
  8
DEFPOINTS
 62
     0
100
AcDbPoint
 10
754.3243874411037
 20
1502.464766665608
 30
0.0
  0
ENDBLK
  5
16DD
330
16D2
100
AcDbEntity
  8
0
100
AcDbBlockEnd
  0
BLOCK
  5
16E8
330
16DE
100
AcDbEntity
  8
0
100
AcDbBlockBegin
  2
*D27
 70
     1
 10
0.0
 20
0.0
 30
0.0
  3
*D27
  1

  0
LINE
  5
1E62
330
16DE
100
AcDbEntity
  8
SUNPOU
 62
     0
370
    -2
100
AcDbLine
 10
744.3243874411036
 20
1202.464766665608
 30
0.0
 11
754.3243874411035
 21
1202.464766665608
 31
0.0
  0
LINE
  5
1E63
330
16DE
100
AcDbEntity
  8
SUNPOU
 62
     0
370
    -2
100
AcDbLine
 10
744.3243874411036
 20
1502.464766665608
 30
0.0
 11
754.3243874411037
 21
1502.464766665608
 31
0.0
  0
LINE
  5
1E64
330
16DE
100
AcDbEntity
  8
SUNPOU
 62
     0
370
    -2
100
AcDbLine
 10
754.3243874411035
 20
1222.464766665608
 30
0.0
 11
754.3243874411037
 21
1482.464766665608
 31
0.0
  0
MTEXT
  5
1E65
330
16DE
100
AcDbEntity
  8
SUNPOU
 62
     0
100
AcDbMText
 10
731.8243874411036
 20
1416.414986618624
 30
0.0
 40
25.0
 41
0.0
 71
     5
 72
     1
  1
\A1;300
  7
BIGFONT
 11
0.0000000000000001
 21
1.0
 31
0.0
 73
     1
 44
1.0
  0
SOLID
  5
1E66
330
16DE
100
AcDbEntity
  8
SUNPOU
 62
     0
100
AcDbTrace
 10
750.9910541077702
 20
1222.464766665608
 30
0.0
 11
757.6577207744369
 21
1222.464766665608
 31
0.0
 12
754.3243874411035
 22
1202.464766665608
 32
0.0
 13
754.3243874411035
 23
1202.464766665608
 33
0.0
  0
SOLID
  5
1E67
330
16DE
100
AcDbEntity
  8
SUNPOU
 62
     0
100
AcDbTrace
 10
750.9910541077703
 20
1482.464766665608
 30
0.0
 11
757.657720774437
 21
1482.464766665608
 31
0.0
 12
754.3243874411037
 22
1502.464766665608
 32
0.0
 13
754.3243874411037
 23
1502.464766665608
 33
0.0
  0
POINT
  5
1E68
330
16DE
100
AcDbEntity
  8
DEFPOINTS
 62
     0
100
AcDbPoint
 10
754.3243874411037
 20
1202.464766665608
 30
0.0
  0
POINT
  5
1E69
330
16DE
100
AcDbEntity
  8
DEFPOINTS
 62
     0
100
AcDbPoint
 10
754.3243874411037
 20
1502.464766665608
 30
0.0
  0
POINT
  5
1E6A
330
16DE
100
AcDbEntity
  8
DEFPOINTS
 62
     0
100
AcDbPoint
 10
754.3243874411037
 20
1502.464766665608
 30
0.0
  0
ENDBLK
  5
16E9
330
16DE
100
AcDbEntity
  8
0
100
AcDbBlockEnd
  0
BLOCK
  5
16F4
330
16EA
100
AcDbEntity
  8
0
100
AcDbBlockBegin
  2
*D28
 70
     1
 10
0.0
 20
0.0
 30
0.0
  3
*D28
  1

  0
LINE
  5
1E59
330
16EA
100
AcDbEntity
  8
SUNPOU
 62
     0
370
    -2
100
AcDbLine
 10
744.3243874411036
 20
1202.464766665608
 30
0.0
 11
754.3243874411037
 21
1202.464766665608
 31
0.0
  0
LINE
  5
1E5A
330
16EA
100
AcDbEntity
  8
SUNPOU
 62
     0
370
    -2
100
AcDbLine
 10
744.3243874411036
 20
1142.464766665608
 30
0.0
 11
754.3243874411037
 21
1142.464766665608
 31
0.0
  0
LINE
  5
1E5B
330
16EA
100
AcDbEntity
  8
SUNPOU
 62
     0
370
    -2
100
AcDbLine
 10
754.3243874411037
 20
1182.464766665608
 30
0.0
 11
754.3243874411037
 21
1162.464766665608
 31
0.0
  0
MTEXT
  5
1E5C
330
16EA
100
AcDbEntity
  8
SUNPOU
 62
     0
100
AcDbMText
 10
701.8243874411036
 20
1172.464766665608
 30
0.0
 40
25.0
 41
0.0
 71
     5
 72
     1
  1
\A1;60
  7
BIGFONT
 11
0.0000000000000001
 21
1.0
 31
0.0
 73
     1
 44
1.0
  0
SOLID
  5
1E5D
330
16EA
100
AcDbEntity
  8
SUNPOU
 62
     0
100
AcDbTrace
 10
750.9910541077703
 20
1182.464766665608
 30
0.0
 11
757.657720774437
 21
1182.464766665608
 31
0.0
 12
754.3243874411037
 22
1202.464766665608
 32
0.0
 13
754.3243874411037
 23
1202.464766665608
 33
0.0
  0
SOLID
  5
1E5E
330
16EA
100
AcDbEntity
  8
SUNPOU
 62
     0
100
AcDbTrace
 10
750.9910541077703
 20
1162.464766665608
 30
0.0
 11
757.657720774437
 21
1162.464766665608
 31
0.0
 12
754.3243874411037
 22
1142.464766665608
 32
0.0
 13
754.3243874411037
 23
1142.464766665608
 33
0.0
  0
POINT
  5
1E5F
330
16EA
100
AcDbEntity
  8
DEFPOINTS
 62
     0
100
AcDbPoint
 10
754.3243874411037
 20
1202.464766665608
 30
0.0
  0
POINT
  5
1E60
330
16EA
100
AcDbEntity
  8
DEFPOINTS
 62
     0
100
AcDbPoint
 10
754.3243874411037
 20
1142.464766665608
 30
0.0
  0
POINT
  5
1E61
330
16EA
100
AcDbEntity
  8
DEFPOINTS
 62
     0
100
AcDbPoint
 10
754.3243874411037
 20
1142.464766665608
 30
0.0
  0
ENDBLK
  5
16F5
330
16EA
100
AcDbEntity
  8
0
100
AcDbBlockEnd
  0
BLOCK
  5
1700
330
16F6
100
AcDbEntity
  8
0
100
AcDbBlockBegin
  2
*D29
 70
     1
 10
0.0
 20
0.0
 30
0.0
  3
*D29
  1

  0
LINE
  5
1DF1
330
16F6
100
AcDbEntity
  8
SUNPOU
 62
     0
370
    -2
100
AcDbLine
 10
1103.458244367349
 20
1597.464766665608
 30
0.0
 11
1165.4489310467
 21
1597.464766665608
 31
0.0
  0
LINE
  5
1DF2
330
16F6
100
AcDbEntity
  8
SUNPOU
 62
     0
370
    -2
100
AcDbLine
 10
1073.458244367349
 20
1142.464766665608
 30
0.0
 11
1165.448931046699
 21
1142.464766665608
 31
0.0
  0
LINE
  5
1DF3
330
16F6
100
AcDbEntity
  8
SUNPOU
 62
     0
370
    -2
100
AcDbLine
 10
1165.4489310467
 20
1577.464766665608
 30
0.0
 11
1165.448931046699
 21
1162.464766665608
 31
0.0
  0
SOLID
  5
1DF4
330
16F6
100
AcDbEntity
  8
SUNPOU
 62
     0
100
AcDbTrace
 10
1162.115597713366
 20
1577.464766665608
 30
0.0
 11
1168.782264380033
 21
1577.464766665608
 31
0.0
 12
1165.4489310467
 22
1597.464766665608
 32
0.0
 13
1165.4489310467
 23
1597.464766665608
 33
0.0
  0
SOLID
  5
1DF5
330
16F6
100
AcDbEntity
  8
SUNPOU
 62
     0
100
AcDbTrace
 10
1162.115597713366
 20
1162.464766665608
 30
0.0
 11
1168.782264380033
 21
1162.464766665608
 31
0.0
 12
1165.448931046699
 22
1142.464766665608
 32
0.0
 13
1165.448931046699
 23
1142.464766665608
 33
0.0
  0
MTEXT
  5
1DF6
330
16F6
100
AcDbEntity
  8
SUNPOU
 62
     0
100
AcDbMText
 10
1142.948931046699
 20
1369.964766665608
 30
0.0
 40
25.0
 41
0.0
 71
     5
 72
     1
  1
\A1;455
  7
BIGFONT
 11
0.0000000000000001
 21
1.0
 31
0.0
 73
     1
 44
1.0
  0
POINT
  5
1DF7
330
16F6
100
AcDbEntity
  8
DEFPOINTS
 62
     0
100
AcDbPoint
 10
1093.458244367349
 20
1597.464766665608
 30
0.0
  0
POINT
  5
1DF8
330
16F6
100
AcDbEntity
  8
DEFPOINTS
 62
     0
100
AcDbPoint
 10
1063.458244367349
 20
1142.464766665608
 30
0.0
  0
POINT
  5
1DF9
330
16F6
100
AcDbEntity
  8
DEFPOINTS
 62
     0
100
AcDbPoint
 10
1165.448931046699
 20
1142.464766665608
 30
0.0
  0
ENDBLK
  5
1701
330
16F6
100
AcDbEntity
  8
0
100
AcDbBlockEnd
  0
BLOCK
  5
19EE
330
19E2
100
AcDbEntity
  8
0
100
AcDbBlockBegin
  2
*D30
 70
     1
 10
0.0
 20
0.0
 30
0.0
  3
*D30
  1

  0
LINE
  5
1B96
330
19E2
100
AcDbEntity
  8
SUNPOU
 62
     0
370
    -2
100
AcDbLine
 10
577.0069926673859
 20
1311.824989427232
 30
0.0
 11
577.0069926673859
 21
1337.573103503085
 31
0.0
  0
LINE
  5
1B97
330
19E2
100
AcDbEntity
  8
SUNPOU
 62
     0
370
    -2
100
AcDbLine
 10
647.0069926673864
 20
1311.824989427232
 30
0.0
 11
647.0069926673864
 21
1337.573103503085
 31
0.0
  0
LINE
  5
1B98
330
19E2
100
AcDbEntity
  8
SUNPOU
 62
     0
370
    -2
100
AcDbLine
 10
597.0069926673859
 20
1337.573103503085
 30
0.0
 11
627.0069926673864
 21
1337.573103503085
 31
0.0
  0
MTEXT
  5
1B99
330
19E2
100
AcDbEntity
  8
SUNPOU
 62
     0
100
AcDbMText
 10
610.0968083168718
 20
1364.540002430554
 30
0.0
 40
25.0
 41
0.0
 71
     5
 72
     1
  1
\A1;70
  7
BIGFONT
 73
     1
 44
1.0
  0
SOLID
  5
1B9A
330
19E2
100
AcDbEntity
  8
SUNPOU
 62
     0
100
AcDbTrace
 10
597.0069926673859
 20
1340.906436836418
 30
0.0
 11
597.0069926673859
 21
1334.239770169751
 31
0.0
 12
577.0069926673859
 22
1337.573103503085
 32
0.0
 13
577.0069926673859
 23
1337.573103503085
 33
0.0
  0
SOLID
  5
1B9B
330
19E2
100
AcDbEntity
  8
SUNPOU
 62
     0
100
AcDbTrace
 10
627.0069926673864
 20
1340.906436836418
 30
0.0
 11
627.0069926673864
 21
1334.239770169751
 31
0.0
 12
647.0069926673864
 22
1337.573103503085
 32
0.0
 13
647.0069926673864
 23
1337.573103503085
 33
0.0
  0
POINT
  5
1B9C
330
19E2
100
AcDbEntity
  8
DEFPOINTS
 62
     0
100
AcDbPoint
 10
577.0069926673859
 20
1301.824989427232
 30
0.0
  0
POINT
  5
1B9D
330
19E2
100
AcDbEntity
  8
DEFPOINTS
 62
     0
100
AcDbPoint
 10
647.0069926673864
 20
1301.824989427232
 30
0.0
  0
POINT
  5
1B9E
330
19E2
100
AcDbEntity
  8
DEFPOINTS
 62
     0
100
AcDbPoint
 10
647.0069926673864
 20
1337.573103503085
 30
0.0
  0
ENDBLK
  5
19EF
330
19E2
100
AcDbEntity
  8
0
100
AcDbBlockEnd
  0
BLOCK
  5
1A94
330
1A8A
100
AcDbEntity
  8
0
100
AcDbBlockBegin
  2
*D31
 70
     1
 10
0.0
 20
0.0
 30
0.0
  3
*D31
  1

  0
LINE
  5
1C0D
330
1A8A
100
AcDbEntity
  8
SUNPOU
 62
     0
370
    -2
100
AcDbLine
 10
927.0069926673855
 20
1311.824989427232
 30
0.0
 11
927.0069926673855
 21
1337.573103503085
 31
0.0
  0
LINE
  5
1C0E
330
1A8A
100
AcDbEntity
  8
SUNPOU
 62
     0
370
    -2
100
AcDbLine
 10
997.0069926673859
 20
1311.824989427232
 30
0.0
 11
997.0069926673859
 21
1337.573103503085
 31
0.0
  0
LINE
  5
1C0F
330
1A8A
100
AcDbEntity
  8
SUNPOU
 62
     0
370
    -2
100
AcDbLine
 10
947.0069926673854
 20
1337.573103503085
 30
0.0
 11
977.0069926673858
 21
1337.573103503085
 31
0.0
  0
MTEXT
  5
1C10
330
1A8A
100
AcDbEntity
  8
SUNPOU
 62
     0
100
AcDbMText
 10
960.0968083168714
 20
1364.540002430554
 30
0.0
 40
25.0
 41
0.0
 71
     5
 72
     1
  1
\A1;70
  7
BIGFONT
 73
     1
 44
1.0
  0
SOLID
  5
1C11
330
1A8A
100
AcDbEntity
  8
SUNPOU
 62
     0
100
AcDbTrace
 10
947.0069926673854
 20
1340.906436836418
 30
0.0
 11
947.0069926673854
 21
1334.239770169751
 31
0.0
 12
927.0069926673855
 22
1337.573103503085
 32
0.0
 13
927.0069926673855
 23
1337.573103503085
 33
0.0
  0
SOLID
  5
1C12
330
1A8A
100
AcDbEntity
  8
SUNPOU
 62
     0
100
AcDbTrace
 10
977.0069926673858
 20
1340.906436836418
 30
0.0
 11
977.0069926673858
 21
1334.239770169751
 31
0.0
 12
997.0069926673859
 22
1337.573103503085
 32
0.0
 13
997.0069926673859
 23
1337.573103503085
 33
0.0
  0
POINT
  5
1C13
330
1A8A
100
AcDbEntity
  8
DEFPOINTS
 62
     0
100
AcDbPoint
 10
927.0069926673855
 20
1301.824989427232
 30
0.0
  0
POINT
  5
1C14
330
1A8A
100
AcDbEntity
  8
DEFPOINTS
 62
     0
100
AcDbPoint
 10
997.0069926673859
 20
1301.824989427232
 30
0.0
  0
POINT
  5
1C15
330
1A8A
100
AcDbEntity
  8
DEFPOINTS
 62
     0
100
AcDbPoint
 10
997.0069926673859
 20
1337.573103503085
 30
0.0
  0
ENDBLK
  5
1A95
330
1A8A
100
AcDbEntity
  8
0
100
AcDbBlockEnd
  0
BLOCK
  5
1AAB
330
1AA0
100
AcDbEntity
  8
0
100
AcDbBlockBegin
  2
*D32
 70
     1
 10
0.0
 20
0.0
 30
0.0
  3
*D32
  1

  0
LINE
  5
1BFB
330
1AA0
100
AcDbEntity
  8
SUNPOU
 62
     0
370
    -2
100
AcDbLine
 10
647.0069926673864
 20
1334.699046465158
 30
0.0
 11
647.0069926673864
 21
1338.295128180305
 31
0.0
  0
LINE
  5
1BFC
330
1AA0
100
AcDbEntity
  8
SUNPOU
 62
     0
370
    -2
100
AcDbLine
 10
927.0069926673855
 20
1334.699046465158
 30
0.0
 11
927.0069926673855
 21
1338.295128180305
 31
0.0
  0
LINE
  5
1BFD
330
1AA0
100
AcDbEntity
  8
SUNPOU
 62
     0
370
    -2
100
AcDbLine
 10
667.0069926673863
 20
1338.295128180305
 30
0.0
 11
907.0069926673854
 21
1338.295128180305
 31
0.0
  0
MTEXT
  5
1BFE
330
1AA0
100
AcDbEntity
  8
SUNPOU
 62
     0
100
AcDbMText
 10
787.2430079237183
 20
1361.229398329666
 30
0.0
 40
25.0
 41
0.0
 71
     5
 72
     1
  1
\A1;280
  7
BIGFONT
 73
     1
 44
1.0
  0
SOLID
  5
1BFF
330
1AA0
100
AcDbEntity
  8
SUNPOU
 62
     0
100
AcDbTrace
 10
667.0069926673863
 20
1341.628461513638
 30
0.0
 11
667.0069926673863
 21
1334.961794846972
 31
0.0
 12
647.0069926673864
 22
1338.295128180305
 32
0.0
 13
647.0069926673864
 23
1338.295128180305
 33
0.0
  0
SOLID
  5
1C00
330
1AA0
100
AcDbEntity
  8
SUNPOU
 62
     0
100
AcDbTrace
 10
907.0069926673854
 20
1341.628461513638
 30
0.0
 11
907.0069926673854
 21
1334.961794846972
 31
0.0
 12
927.0069926673855
 22
1338.295128180305
 32
0.0
 13
927.0069926673855
 23
1338.295128180305
 33
0.0
  0
POINT
  5
1C01
330
1AA0
100
AcDbEntity
  8
DEFPOINTS
 62
     0
100
AcDbPoint
 10
647.0069926673864
 20
1324.699046465158
 30
0.0
  0
POINT
  5
1C02
330
1AA0
100
AcDbEntity
  8
DEFPOINTS
 62
     0
100
AcDbPoint
 10
927.0069926673855
 20
1324.699046465158
 30
0.0
  0
POINT
  5
1C03
330
1AA0
100
AcDbEntity
  8
DEFPOINTS
 62
     0
100
AcDbPoint
 10
927.0069926673855
 20
1338.295128180305
 30
0.0
  0
ENDBLK
  5
1AAC
330
1AA0
100
AcDbEntity
  8
0
100
AcDbBlockEnd
  0
BLOCK
  5
1C68
330
1C5E
100
AcDbEntity
  8
0
100
AcDbBlockBegin
  2
*D33
 70
     1
 10
0.0
 20
0.0
 30
0.0
  3
*D33
  1

  0
LINE
  5
1FB0
330
1C5E
100
AcDbEntity
  8
SUNPOU
 62
     0
370
    -2
100
AcDbLine
 10
3047.006992667386
 20
1607.464766665609
 30
0.0
 11
3047.006992667386
 21
1779.070300173816
 31
0.0
  0
LINE
  5
1FB1
330
1C5E
100
AcDbEntity
  8
SUNPOU
 62
     0
370
    -2
100
AcDbLine
 10
3567.006992667386
 20
1607.464766665609
 30
0.0
 11
3567.006992667386
 21
1779.070300173816
 31
0.0
  0
LINE
  5
1FB2
330
1C5E
100
AcDbEntity
  8
SUNPOU
 62
     0
370
    -2
100
AcDbLine
 10
3067.006992667386
 20
1779.070300173816
 30
0.0
 11
3547.006992667386
 21
1779.070300173816
 31
0.0
  0
SOLID
  5
1FB3
330
1C5E
100
AcDbEntity
  8
SUNPOU
 62
     0
100
AcDbTrace
 10
3067.006992667386
 20
1782.403633507149
 30
0.0
 11
3067.006992667386
 21
1775.736966840483
 31
0.0
 12
3047.006992667386
 22
1779.070300173816
 32
0.0
 13
3047.006992667386
 23
1779.070300173816
 33
0.0
  0
SOLID
  5
1FB4
330
1C5E
100
AcDbEntity
  8
SUNPOU
 62
     0
100
AcDbTrace
 10
3547.006992667386
 20
1782.403633507149
 30
0.0
 11
3547.006992667386
 21
1775.736966840483
 31
0.0
 12
3567.006992667386
 22
1779.070300173816
 32
0.0
 13
3567.006992667386
 23
1779.070300173816
 33
0.0
  0
MTEXT
  5
1FB5
330
1C5E
100
AcDbEntity
  8
SUNPOU
 62
     0
100
AcDbMText
 10
3307.006992667385
 20
1801.570300173816
 30
0.0
 40
25.0
 41
0.0
 71
     5
 72
     1
  1
\A1;520
  7
BIGFONT
 73
     1
 44
1.0
  0
POINT
  5
1FB6
330
1C5E
100
AcDbEntity
  8
DEFPOINTS
 62
     0
100
AcDbPoint
 10
3047.006992667386
 20
1597.464766665608
 30
0.0
  0
POINT
  5
1FB7
330
1C5E
100
AcDbEntity
  8
DEFPOINTS
 62
     0
100
AcDbPoint
 10
3567.006992667386
 20
1597.464766665608
 30
0.0
  0
POINT
  5
1FB8
330
1C5E
100
AcDbEntity
  8
DEFPOINTS
 62
     0
100
AcDbPoint
 10
3567.006992667386
 20
1779.070300173816
 30
0.0
  0
ENDBLK
  5
1C69
330
1C5E
100
AcDbEntity
  8
0
100
AcDbBlockEnd
  0
BLOCK
  5
1C74
330
1C6A
100
AcDbEntity
  8
0
100
AcDbBlockBegin
  2
*D34
 70
     1
 10
0.0
 20
0.0
 30
0.0
  3
*D34
  1

  0
LINE
  5
1FDD
330
1C6A
100
AcDbEntity
  8
SUNPOU
 62
     0
370
    -2
100
AcDbLine
 10
2907.145472197472
 20
1457.464766665609
 30
0.0
 11
2818.183795434206
 21
1457.464766665609
 31
0.0
  0
LINE
  5
1FDE
330
1C6A
100
AcDbEntity
  8
SUNPOU
 62
     0
370
    -2
100
AcDbLine
 10
2907.145472197472
 20
1257.464766665609
 30
0.0
 11
2818.183795434206
 21
1257.464766665609
 31
0.0
  0
LINE
  5
1FDF
330
1C6A
100
AcDbEntity
  8
SUNPOU
 62
     0
370
    -2
100
AcDbLine
 10
2818.183795434206
 20
1437.464766665609
 30
0.0
 11
2818.183795434206
 21
1277.464766665609
 31
0.0
  0
SOLID
  5
1FE0
330
1C6A
100
AcDbEntity
  8
SUNPOU
 62
     0
100
AcDbTrace
 10
2814.850462100873
 20
1437.464766665609
 30
0.0
 11
2821.517128767539
 21
1437.464766665609
 31
0.0
 12
2818.183795434206
 22
1457.464766665609
 32
0.0
 13
2818.183795434206
 23
1457.464766665609
 33
0.0
  0
SOLID
  5
1FE1
330
1C6A
100
AcDbEntity
  8
SUNPOU
 62
     0
100
AcDbTrace
 10
2814.850462100873
 20
1277.464766665609
 30
0.0
 11
2821.517128767539
 21
1277.464766665609
 31
0.0
 12
2818.183795434206
 22
1257.464766665609
 32
0.0
 13
2818.183795434206
 23
1257.464766665609
 33
0.0
  0
MTEXT
  5
1FE2
330
1C6A
100
AcDbEntity
  8
SUNPOU
 62
     0
100
AcDbMText
 10
2795.683795434206
 20
1357.464766665609
 30
0.0
 40
25.0
 41
0.0
 71
     5
 72
     1
  1
\A1;200
  7
BIGFONT
 11
0.0000000000000001
 21
1.0
 31
0.0
 73
     1
 44
1.0
  0
POINT
  5
1FE3
330
1C6A
100
AcDbEntity
  8
DEFPOINTS
 62
     0
100
AcDbPoint
 10
2917.145472197472
 20
1457.464766665609
 30
0.0
  0
POINT
  5
1FE4
330
1C6A
100
AcDbEntity
  8
DEFPOINTS
 62
     0
100
AcDbPoint
 10
2917.145472197472
 20
1257.464766665609
 30
0.0
  0
POINT
  5
1FE5
330
1C6A
100
AcDbEntity
  8
DEFPOINTS
 62
     0
100
AcDbPoint
 10
2818.183795434206
 20
1257.464766665609
 30
0.0
  0
ENDBLK
  5
1C75
330
1C6A
100
AcDbEntity
  8
0
100
AcDbBlockEnd
  0
BLOCK
  5
1C80
330
1C76
100
AcDbEntity
  8
0
100
AcDbBlockBegin
  2
*D35
 70
     1
 10
0.0
 20
0.0
 30
0.0
  3
*D35
  1

  0
LINE
  5
1FD4
330
1C76
100
AcDbEntity
  8
SUNPOU
 62
     0
370
    -2
100
AcDbLine
 10
2907.145472197472
 20
1257.464766665609
 30
0.0
 11
2818.183795434206
 21
1257.464766665609
 31
0.0
  0
LINE
  5
1FD5
330
1C76
100
AcDbEntity
  8
SUNPOU
 62
     0
370
    -2
100
AcDbLine
 10
3037.145472197471
 20
1142.464766665608
 30
0.0
 11
2818.183795434206
 21
1142.464766665608
 31
0.0
  0
LINE
  5
1FD6
330
1C76
100
AcDbEntity
  8
SUNPOU
 62
     0
370
    -2
100
AcDbLine
 10
2818.183795434206
 20
1237.464766665609
 30
0.0
 11
2818.183795434206
 21
1162.464766665609
 31
0.0
  0
SOLID
  5
1FD7
330
1C76
100
AcDbEntity
  8
SUNPOU
 62
     0
100
AcDbTrace
 10
2814.850462100873
 20
1237.464766665609
 30
0.0
 11
2821.517128767539
 21
1237.464766665609
 31
0.0
 12
2818.183795434206
 22
1257.464766665609
 32
0.0
 13
2818.183795434206
 23
1257.464766665609
 33
0.0
  0
SOLID
  5
1FD8
330
1C76
100
AcDbEntity
  8
SUNPOU
 62
     0
100
AcDbTrace
 10
2814.850462100873
 20
1162.464766665609
 30
0.0
 11
2821.517128767539
 21
1162.464766665609
 31
0.0
 12
2818.183795434206
 22
1142.464766665608
 32
0.0
 13
2818.183795434206
 23
1142.464766665608
 33
0.0
  0
MTEXT
  5
1FD9
330
1C76
100
AcDbEntity
  8
SUNPOU
 62
     0
100
AcDbMText
 10
2795.683795434206
 20
1199.964766665609
 30
0.0
 40
25.0
 41
0.0
 71
     5
 72
     1
  1
\A1;115
  7
BIGFONT
 11
0.0000000000000001
 21
1.0
 31
0.0
 73
     1
 44
1.0
  0
POINT
  5
1FDA
330
1C76
100
AcDbEntity
  8
DEFPOINTS
 62
     0
100
AcDbPoint
 10
2917.145472197472
 20
1257.464766665609
 30
0.0
  0
POINT
  5
1FDB
330
1C76
100
AcDbEntity
  8
DEFPOINTS
 62
     0
100
AcDbPoint
 10
3047.145472197471
 20
1142.464766665608
 30
0.0
  0
POINT
  5
1FDC
330
1C76
100
AcDbEntity
  8
DEFPOINTS
 62
     0
100
AcDbPoint
 10
2818.183795434206
 20
1142.464766665608
 30
0.0
  0
ENDBLK
  5
1C81
330
1C76
100
AcDbEntity
  8
0
100
AcDbBlockEnd
  0
BLOCK
  5
1C8C
330
1C82
100
AcDbEntity
  8
0
100
AcDbBlockBegin
  2
*D36
 70
     1
 10
0.0
 20
0.0
 30
0.0
  3
*D36
  1

  0
LINE
  5
1FCB
330
1C82
100
AcDbEntity
  8
SUNPOU
 62
     0
370
    -2
100
AcDbLine
 10
3007.145472197471
 20
1597.464766665608
 30
0.0
 11
2818.183795434206
 21
1597.464766665608
 31
0.0
  0
LINE
  5
1FCC
330
1C82
100
AcDbEntity
  8
SUNPOU
 62
     0
370
    -2
100
AcDbLine
 10
2907.145472197472
 20
1457.464766665609
 30
0.0
 11
2818.183795434206
 21
1457.464766665609
 31
0.0
  0
LINE
  5
1FCD
330
1C82
100
AcDbEntity
  8
SUNPOU
 62
     0
370
    -2
100
AcDbLine
 10
2818.183795434206
 20
1577.464766665609
 30
0.0
 11
2818.183795434206
 21
1477.464766665609
 31
0.0
  0
SOLID
  5
1FCE
330
1C82
100
AcDbEntity
  8
SUNPOU
 62
     0
100
AcDbTrace
 10
2814.850462100873
 20
1577.464766665609
 30
0.0
 11
2821.517128767539
 21
1577.464766665609
 31
0.0
 12
2818.183795434206
 22
1597.464766665608
 32
0.0
 13
2818.183795434206
 23
1597.464766665608
 33
0.0
  0
SOLID
  5
1FCF
330
1C82
100
AcDbEntity
  8
SUNPOU
 62
     0
100
AcDbTrace
 10
2814.850462100873
 20
1477.464766665609
 30
0.0
 11
2821.517128767539
 21
1477.464766665609
 31
0.0
 12
2818.183795434206
 22
1457.464766665609
 32
0.0
 13
2818.183795434206
 23
1457.464766665609
 33
0.0
  0
MTEXT
  5
1FD0
330
1C82
100
AcDbEntity
  8
SUNPOU
 62
     0
100
AcDbMText
 10
2795.683795434206
 20
1527.464766665609
 30
0.0
 40
25.0
 41
0.0
 71
     5
 72
     1
  1
\A1;140
  7
BIGFONT
 11
0.0000000000000001
 21
1.0
 31
0.0
 73
     1
 44
1.0
  0
POINT
  5
1FD1
330
1C82
100
AcDbEntity
  8
DEFPOINTS
 62
     0
100
AcDbPoint
 10
3017.145472197471
 20
1597.464766665608
 30
0.0
  0
POINT
  5
1FD2
330
1C82
100
AcDbEntity
  8
DEFPOINTS
 62
     0
100
AcDbPoint
 10
2917.145472197472
 20
1457.464766665609
 30
0.0
  0
POINT
  5
1FD3
330
1C82
100
AcDbEntity
  8
DEFPOINTS
 62
     0
100
AcDbPoint
 10
2818.183795434206
 20
1457.464766665609
 30
0.0
  0
ENDBLK
  5
1C8D
330
1C82
100
AcDbEntity
  8
0
100
AcDbBlockEnd
  0
BLOCK
  5
1C98
330
1C8E
100
AcDbEntity
  8
0
100
AcDbBlockBegin
  2
*D37
 70
     1
 10
0.0
 20
0.0
 30
0.0
  3
*D37
  1

  0
LINE
  5
1FC2
330
1C8E
100
AcDbEntity
  8
SUNPOU
 62
     0
370
    -2
100
AcDbLine
 10
2947.006992667386
 20
1493.974080198177
 30
0.0
 11
2947.006992667386
 21
1559.504973323678
 31
0.0
  0
LINE
  5
1FC3
330
1C8E
100
AcDbEntity
  8
SUNPOU
 62
     0
370
    -2
100
AcDbLine
 10
3047.006992667387
 20
1493.974080198177
 30
0.0
 11
3047.006992667387
 21
1559.504973323678
 31
0.0
  0
LINE
  5
1FC4
330
1C8E
100
AcDbEntity
  8
SUNPOU
 62
     0
370
    -2
100
AcDbLine
 10
2967.006992667386
 20
1559.504973323678
 30
0.0
 11
3027.006992667387
 21
1559.504973323678
 31
0.0
  0
SOLID
  5
1FC5
330
1C8E
100
AcDbEntity
  8
SUNPOU
 62
     0
100
AcDbTrace
 10
2967.006992667386
 20
1562.838306657011
 30
0.0
 11
2967.006992667386
 21
1556.171639990344
 31
0.0
 12
2947.006992667386
 22
1559.504973323678
 32
0.0
 13
2947.006992667386
 23
1559.504973323678
 33
0.0
  0
SOLID
  5
1FC6
330
1C8E
100
AcDbEntity
  8
SUNPOU
 62
     0
100
AcDbTrace
 10
3027.006992667387
 20
1562.838306657011
 30
0.0
 11
3027.006992667387
 21
1556.171639990344
 31
0.0
 12
3047.006992667387
 22
1559.504973323678
 32
0.0
 13
3047.006992667387
 23
1559.504973323678
 33
0.0
  0
MTEXT
  5
1FC7
330
1C8E
100
AcDbEntity
  8
SUNPOU
 62
     0
100
AcDbMText
 10
2997.006992667387
 20
1582.004973323678
 30
0.0
 40
25.0
 41
0.0
 71
     5
 72
     1
  1
\A1;100
  7
BIGFONT
 73
     1
 44
1.0
  0
POINT
  5
1FC8
330
1C8E
100
AcDbEntity
  8
DEFPOINTS
 62
     0
100
AcDbPoint
 10
2947.006992667386
 20
1483.974080198177
 30
0.0
  0
POINT
  5
1FC9
330
1C8E
100
AcDbEntity
  8
DEFPOINTS
 62
     0
100
AcDbPoint
 10
3047.006992667387
 20
1483.974080198177
 30
0.0
  0
POINT
  5
1FCA
330
1C8E
100
AcDbEntity
  8
DEFPOINTS
 62
     0
100
AcDbPoint
 10
3047.006992667387
 20
1559.504973323678
 30
0.0
  0
ENDBLK
  5
1C99
330
1C8E
100
AcDbEntity
  8
0
100
AcDbBlockEnd
  0
BLOCK
  5
1CA6
330
1C9A
100
AcDbEntity
  8
0
100
AcDbBlockBegin
  2
*D38
 70
     1
 10
0.0
 20
0.0
 30
0.0
  3
*D38
  1

  0
LINE
  5
1FF8
330
1C9A
100
AcDbEntity
  8
SUNPOU
 62
     0
370
    -2
100
AcDbLine
 10
3593.458244367349
 20
1142.464766665608
 30
0.0
 11
3747.43961772605
 21
1142.464766665608
 31
0.0
  0
LINE
  5
1FF9
330
1C9A
100
AcDbEntity
  8
SUNPOU
 62
     0
370
    -2
100
AcDbLine
 10
3593.458244367349
 20
1112.464766665608
 30
0.0
 11
3747.43961772605
 21
1112.464766665608
 31
0.0
  0
LINE
  5
1FFA
330
1C9A
100
AcDbEntity
  8
SUNPOU
 62
     0
370
    -2
100
AcDbLine
 10
3747.43961772605
 20
1162.464766665608
 30
0.0
 11
3747.43961772605
 21
1182.464766665608
 31
0.0
  0
LINE
  5
1FFB
330
1C9A
100
AcDbEntity
  8
SUNPOU
 62
     0
370
    -2
100
AcDbLine
 10
3747.43961772605
 20
1092.464766665608
 30
0.0
 11
3747.43961772605
 21
1072.464766665608
 31
0.0
  0
MTEXT
  5
1FFC
330
1C9A
100
AcDbEntity
  8
SUNPOU
 62
     0
100
AcDbMText
 10
3768.050338624227
 20
1127.464766665608
 30
0.0
 40
25.0
 41
0.0
 71
     5
 72
     1
  1
\A1;30
  7
BIGFONT
 11
0.0000000000000001
 21
1.0
 31
0.0
 73
     1
 44
1.0
  0
LINE
  5
1FFD
330
1C9A
100
AcDbEntity
  8
SUNPOU
 62
     0
370
    -2
100
AcDbLine
 10
3747.43961772605
 20
1142.464766665608
 30
0.0
 11
3747.43961772605
 21
1112.464766665608
 31
0.0
  0
SOLID
  5
1FFE
330
1C9A
100
AcDbEntity
  8
SUNPOU
 62
     0
100
AcDbTrace
 10
3744.106284392716
 20
1162.464766665608
 30
0.0
 11
3750.772951059384
 21
1162.464766665608
 31
0.0
 12
3747.43961772605
 22
1142.464766665608
 32
0.0
 13
3747.43961772605
 23
1142.464766665608
 33
0.0
  0
SOLID
  5
1FFF
330
1C9A
100
AcDbEntity
  8
SUNPOU
 62
     0
100
AcDbTrace
 10
3744.106284392716
 20
1092.464766665608
 30
0.0
 11
3750.772951059384
 21
1092.464766665608
 31
0.0
 12
3747.43961772605
 22
1112.464766665608
 32
0.0
 13
3747.43961772605
 23
1112.464766665608
 33
0.0
  0
POINT
  5
2000
330
1C9A
100
AcDbEntity
  8
DEFPOINTS
 62
     0
100
AcDbPoint
 10
3583.458244367348
 20
1142.464766665608
 30
0.0
  0
POINT
  5
2001
330
1C9A
100
AcDbEntity
  8
DEFPOINTS
 62
     0
100
AcDbPoint
 10
3583.458244367348
 20
1112.464766665608
 30
0.0
  0
POINT
  5
2002
330
1C9A
100
AcDbEntity
  8
DEFPOINTS
 62
     0
100
AcDbPoint
 10
3747.43961772605
 20
1112.464766665608
 30
0.0
  0
ENDBLK
  5
1CA7
330
1C9A
100
AcDbEntity
  8
0
100
AcDbBlockEnd
  0
BLOCK
  5
1CB2
330
1CA8
100
AcDbEntity
  8
0
100
AcDbBlockBegin
  2
*D39
 70
     1
 10
0.0
 20
0.0
 30
0.0
  3
*D39
  1

  0
LINE
  5
1FB9
330
1CA8
100
AcDbEntity
  8
SUNPOU
 62
     0
370
    -2
100
AcDbLine
 10
3077.006992667385
 20
962.7007945551536
 30
0.0
 11
3077.006992667385
 21
853.6944855733208
 31
0.0
  0
LINE
  5
1FBA
330
1CA8
100
AcDbEntity
  8
SUNPOU
 62
     0
370
    -2
100
AcDbLine
 10
3537.006992667386
 20
962.7007945551531
 30
0.0
 11
3537.006992667386
 21
853.6944855733208
 31
0.0
  0
LINE
  5
1FBB
330
1CA8
100
AcDbEntity
  8
SUNPOU
 62
     0
370
    -2
100
AcDbLine
 10
3097.006992667385
 20
853.6944855733208
 30
0.0
 11
3517.006992667385
 21
853.6944855733208
 31
0.0
  0
SOLID
  5
1FBC
330
1CA8
100
AcDbEntity
  8
SUNPOU
 62
     0
100
AcDbTrace
 10
3097.006992667385
 20
857.0278189066542
 30
0.0
 11
3097.006992667385
 21
850.3611522399875
 31
0.0
 12
3077.006992667385
 22
853.6944855733208
 32
0.0
 13
3077.006992667385
 23
853.6944855733208
 33
0.0
  0
SOLID
  5
1FBD
330
1CA8
100
AcDbEntity
  8
SUNPOU
 62
     0
100
AcDbTrace
 10
3517.006992667385
 20
857.0278189066542
 30
0.0
 11
3517.006992667385
 21
850.3611522399875
 31
0.0
 12
3537.006992667386
 22
853.6944855733208
 32
0.0
 13
3537.006992667386
 23
853.6944855733208
 33
0.0
  0
MTEXT
  5
1FBE
330
1CA8
100
AcDbEntity
  8
SUNPOU
 62
     0
100
AcDbMText
 10
3307.006992667385
 20
876.1944855733208
 30
0.0
 40
25.0
 41
0.0
 71
     5
 72
     1
  1
\A1;460
  7
BIGFONT
 73
     1
 44
1.0
  0
POINT
  5
1FBF
330
1CA8
100
AcDbEntity
  8
DEFPOINTS
 62
     0
100
AcDbPoint
 10
3077.006992667385
 20
972.7007945551536
 30
0.0
  0
POINT
  5
1FC0
330
1CA8
100
AcDbEntity
  8
DEFPOINTS
 62
     0
100
AcDbPoint
 10
3537.006992667386
 20
972.7007945551532
 30
0.0
  0
POINT
  5
1FC1
330
1CA8
100
AcDbEntity
  8
DEFPOINTS
 62
     0
100
AcDbPoint
 10
3537.006992667386
 20
853.6944855733208
 30
0.0
  0
ENDBLK
  5
1CB3
330
1CA8
100
AcDbEntity
  8
0
100
AcDbBlockEnd
  0
BLOCK
  5
1CBE
330
1CB4
100
AcDbEntity
  8
0
100
AcDbBlockBegin
  2
*D40
 70
     1
 10
0.0
 20
0.0
 30
0.0
  3
*D40
  1

  0
LINE
  5
2003
330
1CB4
100
AcDbEntity
  8
SUNPOU
 62
     0
370
    -2
100
AcDbLine
 10
3593.458244367349
 20
1112.464766665608
 30
0.0
 11
3747.439617726051
 21
1112.464766665608
 31
0.0
  0
LINE
  5
2004
330
1CB4
100
AcDbEntity
  8
SUNPOU
 62
     0
370
    -2
100
AcDbLine
 10
3593.458244367349
 20
1012.464766665608
 30
0.0
 11
3747.43961772605
 21
1012.464766665608
 31
0.0
  0
LINE
  5
2005
330
1CB4
100
AcDbEntity
  8
SUNPOU
 62
     0
370
    -2
100
AcDbLine
 10
3747.439617726051
 20
1092.464766665608
 30
0.0
 11
3747.439617726051
 21
1032.464766665608
 31
0.0
  0
SOLID
  5
2006
330
1CB4
100
AcDbEntity
  8
SUNPOU
 62
     0
100
AcDbTrace
 10
3744.106284392717
 20
1092.464766665608
 30
0.0
 11
3750.772951059384
 21
1092.464766665608
 31
0.0
 12
3747.439617726051
 22
1112.464766665608
 32
0.0
 13
3747.439617726051
 23
1112.464766665608
 33
0.0
  0
SOLID
  5
2007
330
1CB4
100
AcDbEntity
  8
SUNPOU
 62
     0
100
AcDbTrace
 10
3744.106284392717
 20
1032.464766665608
 30
0.0
 11
3750.772951059384
 21
1032.464766665608
 31
0.0
 12
3747.43961772605
 22
1012.464766665608
 32
0.0
 13
3747.43961772605
 23
1012.464766665608
 33
0.0
  0
MTEXT
  5
2008
330
1CB4
100
AcDbEntity
  8
SUNPOU
 62
     0
100
AcDbMText
 10
3724.93961772605
 20
1062.464766665609
 30
0.0
 40
25.0
 41
0.0
 71
     5
 72
     1
  1
\A1;100
  7
BIGFONT
 11
0.0000000000000001
 21
1.0
 31
0.0
 73
     1
 44
1.0
  0
POINT
  5
2009
330
1CB4
100
AcDbEntity
  8
DEFPOINTS
 62
     0
100
AcDbPoint
 10
3583.458244367348
 20
1112.464766665608
 30
0.0
  0
POINT
  5
200A
330
1CB4
100
AcDbEntity
  8
DEFPOINTS
 62
     0
100
AcDbPoint
 10
3583.458244367348
 20
1012.464766665608
 30
0.0
  0
POINT
  5
200B
330
1CB4
100
AcDbEntity
  8
DEFPOINTS
 62
     0
100
AcDbPoint
 10
3747.43961772605
 20
1012.464766665608
 30
0.0
  0
ENDBLK
  5
1CBF
330
1CB4
100
AcDbEntity
  8
0
100
AcDbBlockEnd
  0
BLOCK
  5
1CCA
330
1CC0
100
AcDbEntity
  8
0
100
AcDbBlockBegin
  2
*D41
 70
     1
 10
0.0
 20
0.0
 30
0.0
  3
*D41
  1

  0
LINE
  5
2030
330
1CC0
100
AcDbEntity
  8
SUNPOU
 62
     0
370
    -2
100
AcDbLine
 10
3157.006992667386
 20
1562.464766665608
 30
0.0
 11
3157.006992667386
 21
1695.288107613173
 31
0.0
  0
LINE
  5
2031
330
1CC0
100
AcDbEntity
  8
SUNPOU
 62
     0
370
    -2
100
AcDbLine
 10
3457.006992667385
 20
1562.464766665609
 30
0.0
 11
3457.006992667385
 21
1695.288107613173
 31
0.0
  0
LINE
  5
2032
330
1CC0
100
AcDbEntity
  8
SUNPOU
 62
     0
370
    -2
100
AcDbLine
 10
3177.006992667386
 20
1695.288107613173
 30
0.0
 11
3437.006992667386
 21
1695.288107613173
 31
0.0
  0
SOLID
  5
2033
330
1CC0
100
AcDbEntity
  8
SUNPOU
 62
     0
100
AcDbTrace
 10
3177.006992667386
 20
1698.621440946506
 30
0.0
 11
3177.006992667386
 21
1691.95477427984
 31
0.0
 12
3157.006992667386
 22
1695.288107613173
 32
0.0
 13
3157.006992667386
 23
1695.288107613173
 33
0.0
  0
SOLID
  5
2034
330
1CC0
100
AcDbEntity
  8
SUNPOU
 62
     0
100
AcDbTrace
 10
3437.006992667386
 20
1698.621440946506
 30
0.0
 11
3437.006992667386
 21
1691.95477427984
 31
0.0
 12
3457.006992667385
 22
1695.288107613173
 32
0.0
 13
3457.006992667385
 23
1695.288107613173
 33
0.0
  0
MTEXT
  5
2035
330
1CC0
100
AcDbEntity
  8
SUNPOU
 62
     0
100
AcDbMText
 10
3307.006992667385
 20
1717.788107613173
 30
0.0
 40
25.0
 41
0.0
 71
     5
 72
     1
  1
\A1;300
  7
BIGFONT
 73
     1
 44
1.0
  0
POINT
  5
2036
330
1CC0
100
AcDbEntity
  8
DEFPOINTS
 62
     0
100
AcDbPoint
 10
3157.006992667386
 20
1552.464766665608
 30
0.0
  0
POINT
  5
2037
330
1CC0
100
AcDbEntity
  8
DEFPOINTS
 62
     0
100
AcDbPoint
 10
3457.006992667385
 20
1552.464766665609
 30
0.0
  0
POINT
  5
2038
330
1CC0
100
AcDbEntity
  8
DEFPOINTS
 62
     0
100
AcDbPoint
 10
3457.006992667385
 20
1695.288107613173
 30
0.0
  0
ENDBLK
  5
1CCB
330
1CC0
100
AcDbEntity
  8
0
100
AcDbBlockEnd
  0
BLOCK
  5
1CD6
330
1CCC
100
AcDbEntity
  8
0
100
AcDbBlockBegin
  2
*D42
 70
     1
 10
0.0
 20
0.0
 30
0.0
  3
*D42
  1

  0
LINE
  5
1FE6
330
1CCC
100
AcDbEntity
  8
SUNPOU
 62
     0
370
    -2
100
AcDbLine
 10
3299.546266821391
 20
1597.464766665607
 30
0.0
 11
3274.324387441104
 21
1597.464766665607
 31
0.0
  0
LINE
  5
1FE7
330
1CCC
100
AcDbEntity
  8
SUNPOU
 62
     0
370
    -2
100
AcDbLine
 10
3264.324387441103
 20
1502.464766665609
 30
0.0
 11
3274.324387441104
 21
1502.464766665609
 31
0.0
  0
LINE
  5
1FE8
330
1CCC
100
AcDbEntity
  8
SUNPOU
 62
     0
370
    -2
100
AcDbLine
 10
3274.324387441104
 20
1577.464766665607
 30
0.0
 11
3274.324387441104
 21
1522.464766665609
 31
0.0
  0
SOLID
  5
1FE9
330
1CCC
100
AcDbEntity
  8
SUNPOU
 62
     0
100
AcDbTrace
 10
3270.99105410777
 20
1577.464766665607
 30
0.0
 11
3277.657720774437
 21
1577.464766665607
 31
0.0
 12
3274.324387441104
 22
1597.464766665607
 32
0.0
 13
3274.324387441104
 23
1597.464766665607
 33
0.0
  0
SOLID
  5
1FEA
330
1CCC
100
AcDbEntity
  8
SUNPOU
 62
     0
100
AcDbTrace
 10
3270.99105410777
 20
1522.464766665609
 30
0.0
 11
3277.657720774437
 21
1522.464766665609
 31
0.0
 12
3274.324387441104
 22
1502.464766665609
 32
0.0
 13
3274.324387441104
 23
1502.464766665609
 33
0.0
  0
MTEXT
  5
1FEB
330
1CCC
100
AcDbEntity
  8
SUNPOU
 62
     0
100
AcDbMText
 10
3251.824387441103
 20
1549.964766665608
 30
0.0
 40
25.0
 41
0.0
 71
     5
 72
     1
  1
\A1;95
  7
BIGFONT
 11
0.0000000000000001
 21
1.0
 31
0.0
 73
     1
 44
1.0
  0
POINT
  5
1FEC
330
1CCC
100
AcDbEntity
  8
DEFPOINTS
 62
     0
100
AcDbPoint
 10
3309.546266821391
 20
1597.464766665607
 30
0.0
  0
POINT
  5
1FED
330
1CCC
100
AcDbEntity
  8
DEFPOINTS
 62
     0
100
AcDbPoint
 10
3274.324387441104
 20
1502.464766665609
 30
0.0
  0
POINT
  5
1FEE
330
1CCC
100
AcDbEntity
  8
DEFPOINTS
 62
     0
100
AcDbPoint
 10
3274.324387441104
 20
1502.464766665609
 30
0.0
  0
ENDBLK
  5
1CD7
330
1CCC
100
AcDbEntity
  8
0
100
AcDbBlockEnd
  0
BLOCK
  5
1CE2
330
1CD8
100
AcDbEntity
  8
0
100
AcDbBlockBegin
  2
*D43
 70
     1
 10
0.0
 20
0.0
 30
0.0
  3
*D43
  1

  0
LINE
  5
201E
330
1CD8
100
AcDbEntity
  8
SUNPOU
 62
     0
370
    -2
100
AcDbLine
 10
3264.324387441103
 20
1202.464766665609
 30
0.0
 11
3274.324387441104
 21
1202.464766665609
 31
0.0
  0
LINE
  5
201F
330
1CD8
100
AcDbEntity
  8
SUNPOU
 62
     0
370
    -2
100
AcDbLine
 10
3264.324387441103
 20
1502.464766665608
 30
0.0
 11
3274.324387441104
 21
1502.464766665608
 31
0.0
  0
LINE
  5
2020
330
1CD8
100
AcDbEntity
  8
SUNPOU
 62
     0
370
    -2
100
AcDbLine
 10
3274.324387441104
 20
1222.464766665608
 30
0.0
 11
3274.324387441104
 21
1482.464766665608
 31
0.0
  0
MTEXT
  5
2021
330
1CD8
100
AcDbEntity
  8
SUNPOU
 62
     0
100
AcDbMText
 10
3251.824387441104
 20
1416.414986618625
 30
0.0
 40
25.0
 41
0.0
 71
     5
 72
     1
  1
\A1;300
  7
BIGFONT
 11
0.0000000000000001
 21
1.0
 31
0.0
 73
     1
 44
1.0
  0
SOLID
  5
2022
330
1CD8
100
AcDbEntity
  8
SUNPOU
 62
     0
100
AcDbTrace
 10
3270.99105410777
 20
1222.464766665608
 30
0.0
 11
3277.657720774437
 21
1222.464766665608
 31
0.0
 12
3274.324387441104
 22
1202.464766665609
 32
0.0
 13
3274.324387441104
 23
1202.464766665609
 33
0.0
  0
SOLID
  5
2023
330
1CD8
100
AcDbEntity
  8
SUNPOU
 62
     0
100
AcDbTrace
 10
3270.99105410777
 20
1482.464766665608
 30
0.0
 11
3277.657720774437
 21
1482.464766665608
 31
0.0
 12
3274.324387441104
 22
1502.464766665608
 32
0.0
 13
3274.324387441104
 23
1502.464766665608
 33
0.0
  0
POINT
  5
2024
330
1CD8
100
AcDbEntity
  8
DEFPOINTS
 62
     0
100
AcDbPoint
 10
3274.324387441104
 20
1202.464766665609
 30
0.0
  0
POINT
  5
2025
330
1CD8
100
AcDbEntity
  8
DEFPOINTS
 62
     0
100
AcDbPoint
 10
3274.324387441104
 20
1502.464766665608
 30
0.0
  0
POINT
  5
2026
330
1CD8
100
AcDbEntity
  8
DEFPOINTS
 62
     0
100
AcDbPoint
 10
3274.324387441104
 20
1502.464766665608
 30
0.0
  0
ENDBLK
  5
1CE3
330
1CD8
100
AcDbEntity
  8
0
100
AcDbBlockEnd
  0
BLOCK
  5
1CEE
330
1CE4
100
AcDbEntity
  8
0
100
AcDbBlockBegin
  2
*D44
 70
     1
 10
0.0
 20
0.0
 30
0.0
  3
*D44
  1

  0
LINE
  5
200C
330
1CE4
100
AcDbEntity
  8
SUNPOU
 62
     0
370
    -2
100
AcDbLine
 10
3264.324387441103
 20
1202.464766665609
 30
0.0
 11
3274.324387441104
 21
1202.464766665609
 31
0.0
  0
LINE
  5
200D
330
1CE4
100
AcDbEntity
  8
SUNPOU
 62
     0
370
    -2
100
AcDbLine
 10
3264.324387441103
 20
1142.464766665608
 30
0.0
 11
3274.324387441104
 21
1142.464766665608
 31
0.0
  0
LINE
  5
200E
330
1CE4
100
AcDbEntity
  8
SUNPOU
 62
     0
370
    -2
100
AcDbLine
 10
3274.324387441104
 20
1182.464766665608
 30
0.0
 11
3274.324387441104
 21
1162.464766665608
 31
0.0
  0
MTEXT
  5
200F
330
1CE4
100
AcDbEntity
  8
SUNPOU
 62
     0
100
AcDbMText
 10
3221.824387441103
 20
1172.464766665609
 30
0.0
 40
25.0
 41
0.0
 71
     5
 72
     1
  1
\A1;60
  7
BIGFONT
 11
0.0000000000000001
 21
1.0
 31
0.0
 73
     1
 44
1.0
  0
SOLID
  5
2010
330
1CE4
100
AcDbEntity
  8
SUNPOU
 62
     0
100
AcDbTrace
 10
3270.99105410777
 20
1182.464766665608
 30
0.0
 11
3277.657720774437
 21
1182.464766665608
 31
0.0
 12
3274.324387441104
 22
1202.464766665609
 32
0.0
 13
3274.324387441104
 23
1202.464766665609
 33
0.0
  0
SOLID
  5
2011
330
1CE4
100
AcDbEntity
  8
SUNPOU
 62
     0
100
AcDbTrace
 10
3270.99105410777
 20
1162.464766665608
 30
0.0
 11
3277.657720774437
 21
1162.464766665608
 31
0.0
 12
3274.324387441104
 22
1142.464766665608
 32
0.0
 13
3274.324387441104
 23
1142.464766665608
 33
0.0
  0
POINT
  5
2012
330
1CE4
100
AcDbEntity
  8
DEFPOINTS
 62
     0
100
AcDbPoint
 10
3274.324387441104
 20
1202.464766665609
 30
0.0
  0
POINT
  5
2013
330
1CE4
100
AcDbEntity
  8
DEFPOINTS
 62
     0
100
AcDbPoint
 10
3274.324387441104
 20
1142.464766665608
 30
0.0
  0
POINT
  5
2014
330
1CE4
100
AcDbEntity
  8
DEFPOINTS
 62
     0
100
AcDbPoint
 10
3274.324387441104
 20
1142.464766665608
 30
0.0
  0
ENDBLK
  5
1CEF
330
1CE4
100
AcDbEntity
  8
0
100
AcDbBlockEnd
  0
BLOCK
  5
1CFA
330
1CF0
100
AcDbEntity
  8
0
100
AcDbBlockBegin
  2
*D45
 70
     1
 10
0.0
 20
0.0
 30
0.0
  3
*D45
  1

  0
LINE
  5
1FEF
330
1CF0
100
AcDbEntity
  8
SUNPOU
 62
     0
370
    -2
100
AcDbLine
 10
3623.458244367349
 20
1597.464766665608
 30
0.0
 11
3747.43961772605
 21
1597.464766665608
 31
0.0
  0
LINE
  5
1FF0
330
1CF0
100
AcDbEntity
  8
SUNPOU
 62
     0
370
    -2
100
AcDbLine
 10
3593.458244367349
 20
1142.464766665608
 30
0.0
 11
3747.43961772605
 21
1142.464766665608
 31
0.0
  0
LINE
  5
1FF1
330
1CF0
100
AcDbEntity
  8
SUNPOU
 62
     0
370
    -2
100
AcDbLine
 10
3747.43961772605
 20
1577.464766665609
 30
0.0
 11
3747.43961772605
 21
1162.464766665608
 31
0.0
  0
SOLID
  5
1FF2
330
1CF0
100
AcDbEntity
  8
SUNPOU
 62
     0
100
AcDbTrace
 10
3744.106284392716
 20
1577.464766665609
 30
0.0
 11
3750.772951059384
 21
1577.464766665609
 31
0.0
 12
3747.43961772605
 22
1597.464766665608
 32
0.0
 13
3747.43961772605
 23
1597.464766665608
 33
0.0
  0
SOLID
  5
1FF3
330
1CF0
100
AcDbEntity
  8
SUNPOU
 62
     0
100
AcDbTrace
 10
3744.106284392716
 20
1162.464766665608
 30
0.0
 11
3750.772951059384
 21
1162.464766665608
 31
0.0
 12
3747.43961772605
 22
1142.464766665608
 32
0.0
 13
3747.43961772605
 23
1142.464766665608
 33
0.0
  0
MTEXT
  5
1FF4
330
1CF0
100
AcDbEntity
  8
SUNPOU
 62
     0
100
AcDbMText
 10
3724.93961772605
 20
1369.964766665609
 30
0.0
 40
25.0
 41
0.0
 71
     5
 72
     1
  1
\A1;455
  7
BIGFONT
 11
0.0000000000000001
 21
1.0
 31
0.0
 73
     1
 44
1.0
  0
POINT
  5
1FF5
330
1CF0
100
AcDbEntity
  8
DEFPOINTS
 62
     0
100
AcDbPoint
 10
3613.458244367349
 20
1597.464766665608
 30
0.0
  0
POINT
  5
1FF6
330
1CF0
100
AcDbEntity
  8
DEFPOINTS
 62
     0
100
AcDbPoint
 10
3583.458244367348
 20
1142.464766665608
 30
0.0
  0
POINT
  5
1FF7
330
1CF0
100
AcDbEntity
  8
DEFPOINTS
 62
     0
100
AcDbPoint
 10
3747.43961772605
 20
1142.464766665608
 30
0.0
  0
ENDBLK
  5
1CFB
330
1CF0
100
AcDbEntity
  8
0
100
AcDbBlockEnd
  0
BLOCK
  5
1D06
330
1CFC
100
AcDbEntity
  8
0
100
AcDbBlockBegin
  2
*D46
 70
     1
 10
0.0
 20
0.0
 30
0.0
  3
*D46
  1

  0
LINE
  5
1FA7
330
1CFC
100
AcDbEntity
  8
SUNPOU
 62
     0
370
    -2
100
AcDbLine
 10
3097.006992667385
 20
1311.824989427232
 30
0.0
 11
3097.006992667385
 21
1337.573103503085
 31
0.0
  0
LINE
  5
1FA8
330
1CFC
100
AcDbEntity
  8
SUNPOU
 62
     0
370
    -2
100
AcDbLine
 10
3167.006992667387
 20
1311.824989427232
 30
0.0
 11
3167.006992667387
 21
1337.573103503085
 31
0.0
  0
LINE
  5
1FA9
330
1CFC
100
AcDbEntity
  8
SUNPOU
 62
     0
370
    -2
100
AcDbLine
 10
3117.006992667386
 20
1337.573103503085
 30
0.0
 11
3147.006992667387
 21
1337.573103503085
 31
0.0
  0
MTEXT
  5
1FAA
330
1CFC
100
AcDbEntity
  8
SUNPOU
 62
     0
100
AcDbMText
 10
3130.096808316872
 20
1364.540002430555
 30
0.0
 40
25.0
 41
0.0
 71
     5
 72
     1
  1
\A1;70
  7
BIGFONT
 73
     1
 44
1.0
  0
SOLID
  5
1FAB
330
1CFC
100
AcDbEntity
  8
SUNPOU
 62
     0
100
AcDbTrace
 10
3117.006992667386
 20
1340.906436836418
 30
0.0
 11
3117.006992667386
 21
1334.239770169752
 31
0.0
 12
3097.006992667385
 22
1337.573103503085
 32
0.0
 13
3097.006992667385
 23
1337.573103503085
 33
0.0
  0
SOLID
  5
1FAC
330
1CFC
100
AcDbEntity
  8
SUNPOU
 62
     0
100
AcDbTrace
 10
3147.006992667387
 20
1340.906436836418
 30
0.0
 11
3147.006992667387
 21
1334.239770169752
 31
0.0
 12
3167.006992667387
 22
1337.573103503085
 32
0.0
 13
3167.006992667387
 23
1337.573103503085
 33
0.0
  0
POINT
  5
1FAD
330
1CFC
100
AcDbEntity
  8
DEFPOINTS
 62
     0
100
AcDbPoint
 10
3097.006992667385
 20
1301.824989427232
 30
0.0
  0
POINT
  5
1FAE
330
1CFC
100
AcDbEntity
  8
DEFPOINTS
 62
     0
100
AcDbPoint
 10
3167.006992667387
 20
1301.824989427232
 30
0.0
  0
POINT
  5
1FAF
330
1CFC
100
AcDbEntity
  8
DEFPOINTS
 62
     0
100
AcDbPoint
 10
3167.006992667387
 20
1337.573103503085
 30
0.0
  0
ENDBLK
  5
1D07
330
1CFC
100
AcDbEntity
  8
0
100
AcDbBlockEnd
  0
BLOCK
  5
1D12
330
1D08
100
AcDbEntity
  8
0
100
AcDbBlockBegin
  2
*D47
 70
     1
 10
0.0
 20
0.0
 30
0.0
  3
*D47
  1

  0
LINE
  5
2027
330
1D08
100
AcDbEntity
  8
SUNPOU
 62
     0
370
    -2
100
AcDbLine
 10
3447.006992667386
 20
1311.824989427232
 30
0.0
 11
3447.006992667386
 21
1337.573103503085
 31
0.0
  0
LINE
  5
2028
330
1D08
100
AcDbEntity
  8
SUNPOU
 62
     0
370
    -2
100
AcDbLine
 10
3517.006992667385
 20
1311.824989427232
 30
0.0
 11
3517.006992667385
 21
1337.573103503085
 31
0.0
  0
LINE
  5
2029
330
1D08
100
AcDbEntity
  8
SUNPOU
 62
     0
370
    -2
100
AcDbLine
 10
3467.006992667386
 20
1337.573103503085
 30
0.0
 11
3497.006992667386
 21
1337.573103503085
 31
0.0
  0
MTEXT
  5
202A
330
1D08
100
AcDbEntity
  8
SUNPOU
 62
     0
100
AcDbMText
 10
3480.096808316871
 20
1364.540002430555
 30
0.0
 40
25.0
 41
0.0
 71
     5
 72
     1
  1
\A1;70
  7
BIGFONT
 73
     1
 44
1.0
  0
SOLID
  5
202B
330
1D08
100
AcDbEntity
  8
SUNPOU
 62
     0
100
AcDbTrace
 10
3467.006992667386
 20
1340.906436836418
 30
0.0
 11
3467.006992667386
 21
1334.239770169752
 31
0.0
 12
3447.006992667386
 22
1337.573103503085
 32
0.0
 13
3447.006992667386
 23
1337.573103503085
 33
0.0
  0
SOLID
  5
202C
330
1D08
100
AcDbEntity
  8
SUNPOU
 62
     0
100
AcDbTrace
 10
3497.006992667386
 20
1340.906436836418
 30
0.0
 11
3497.006992667386
 21
1334.239770169752
 31
0.0
 12
3517.006992667385
 22
1337.573103503085
 32
0.0
 13
3517.006992667385
 23
1337.573103503085
 33
0.0
  0
POINT
  5
202D
330
1D08
100
AcDbEntity
  8
DEFPOINTS
 62
     0
100
AcDbPoint
 10
3447.006992667386
 20
1301.824989427232
 30
0.0
  0
POINT
  5
202E
330
1D08
100
AcDbEntity
  8
DEFPOINTS
 62
     0
100
AcDbPoint
 10
3517.006992667385
 20
1301.824989427232
 30
0.0
  0
POINT
  5
202F
330
1D08
100
AcDbEntity
  8
DEFPOINTS
 62
     0
100
AcDbPoint
 10
3517.006992667385
 20
1337.573103503085
 30
0.0
  0
ENDBLK
  5
1D13
330
1D08
100
AcDbEntity
  8
0
100
AcDbBlockEnd
  0
BLOCK
  5
1D1E
330
1D14
100
AcDbEntity
  8
0
100
AcDbBlockBegin
  2
*D48
 70
     1
 10
0.0
 20
0.0
 30
0.0
  3
*D48
  1

  0
LINE
  5
2015
330
1D14
100
AcDbEntity
  8
SUNPOU
 62
     0
370
    -2
100
AcDbLine
 10
3167.006992667387
 20
1334.699046465159
 30
0.0
 11
3167.006992667387
 21
1338.295128180306
 31
0.0
  0
LINE
  5
2016
330
1D14
100
AcDbEntity
  8
SUNPOU
 62
     0
370
    -2
100
AcDbLine
 10
3447.006992667386
 20
1334.699046465159
 30
0.0
 11
3447.006992667386
 21
1338.295128180306
 31
0.0
  0
LINE
  5
2017
330
1D14
100
AcDbEntity
  8
SUNPOU
 62
     0
370
    -2
100
AcDbLine
 10
3187.006992667387
 20
1338.295128180306
 30
0.0
 11
3427.006992667386
 21
1338.295128180306
 31
0.0
  0
MTEXT
  5
2018
330
1D14
100
AcDbEntity
  8
SUNPOU
 62
     0
100
AcDbMText
 10
3307.243007923718
 20
1361.229398329666
 30
0.0
 40
25.0
 41
0.0
 71
     5
 72
     1
  1
\A1;280
  7
BIGFONT
 73
     1
 44
1.0
  0
SOLID
  5
2019
330
1D14
100
AcDbEntity
  8
SUNPOU
 62
     0
100
AcDbTrace
 10
3187.006992667387
 20
1341.628461513639
 30
0.0
 11
3187.006992667387
 21
1334.961794846972
 31
0.0
 12
3167.006992667387
 22
1338.295128180306
 32
0.0
 13
3167.006992667387
 23
1338.295128180306
 33
0.0
  0
SOLID
  5
201A
330
1D14
100
AcDbEntity
  8
SUNPOU
 62
     0
100
AcDbTrace
 10
3427.006992667386
 20
1341.628461513639
 30
0.0
 11
3427.006992667386
 21
1334.961794846972
 31
0.0
 12
3447.006992667386
 22
1338.295128180306
 32
0.0
 13
3447.006992667386
 23
1338.295128180306
 33
0.0
  0
POINT
  5
201B
330
1D14
100
AcDbEntity
  8
DEFPOINTS
 62
     0
100
AcDbPoint
 10
3167.006992667387
 20
1324.699046465159
 30
0.0
  0
POINT
  5
201C
330
1D14
100
AcDbEntity
  8
DEFPOINTS
 62
     0
100
AcDbPoint
 10
3447.006992667386
 20
1324.699046465159
 30
0.0
  0
POINT
  5
201D
330
1D14
100
AcDbEntity
  8
DEFPOINTS
 62
     0
100
AcDbPoint
 10
3447.006992667386
 20
1338.295128180306
 30
0.0
  0
ENDBLK
  5
1D1F
330
1D14
100
AcDbEntity
  8
0
100
AcDbBlockEnd
  0
ENDSEC
  0
SECTION
  2
ENTITIES
  0
INSERT
  5
4DB
330
18
100
AcDbEntity
  8
0
100
AcDbBlockReference
  2
MASTERS
 10
0.0
 20
0.0
 30
0.0
  0
TEXT
  5
4DC
330
18
100
AcDbEntity
  8
0
100
AcDbText
 10
277.0359649276014
 20
2123.691000318824
 30
0.0
 40
70.0
  1
透水側溝CPUs-300構造図
  7
BIGFONT
 72
     4
 11
837.7026315942678
 21
2158.691000318824
 31
0.0
100
AcDbText
  0
TEXT
  5
4DD
330
18
100
AcDbEntity
  8
0
100
AcDbText
 10
1451.871778475403
 20
2122.475843626142
 30
0.0
 40
50.0
  1
Ｓ＝１／１０
  7
BIGFONT
 72
     4
 11
1623.538445142069
 21
2145.809176959475
 31
0.0
100
AcDbText
  0
TEXT
  5
1369
330
18
100
AcDbEntity
  8
0
100
AcDbText
 10
2768.829890497633
 20
2123.691000318824
 30
0.0
 40
70.0
  1
透水側溝CPU-300構造図
  7
BIGFONT
 72
     4
 11
3301.163223830967
 21
2158.691000318824
 31
0.0
100
AcDbText
  0
TEXT
  5
136A
330
18
100
AcDbEntity
  8
0
100
AcDbText
 10
3915.332370712102
 20
2122.475843626142
 30
0.0
 40
50.0
  1
Ｓ＝１／１０
  7
BIGFONT
 72
     4
 11
4086.999037378768
 21
2145.809176959476
 31
0.0
100
AcDbText
  0
MTEXT
  5
162B
102
{ACAD_REACTORS
330
162C
102
}
330
18
100
AcDbEntity
  8
SUNPOU
100
AcDbMText
 10
577.6374460002243
 20
1672.914900912579
 30
0.0
 40
25.0
 41
0.0
 71
     6
 72
     1
  1
\A1;RUB-300
  7
BIGFONT
 73
     1
 44
1.0
  0
LEADER
  5
162C
330
18
100
AcDbEntity
  8
SUNPOU
100
AcDbLeader
  3
DIM1
 73
     0
 75
     1
 40
25.0
 41
171.4285714285714
 76
     3
 10
709.5069926673859
 20
1549.964766665606
 30
0.0
 10
607.6374460002243
 20
1650.414900912579
 30
0.0
 10
587.6374460002243
 20
1650.414900912579
 30
0.0
340
162B
  0
LINE
  5
162D
330
18
100
AcDbEntity
  8
0
100
AcDbLine
 10
527.0069926673859
 20
1597.464766665608
 30
0.0
 11
577.0069926673859
 21
1597.464766665608
 31
0.0
  0
HATCH
  5
162E
330
18
100
AcDbEntity
  8
saiseki
100
AcDbHatch
 10
0.0
 20
0.0
 30
0.0
210
0.0
220
0.0
230
1.0
  2
AR-SAND
 70
     0
 71
     1
 91
        1
 92
        7
 72
     0
 73
     1
 93
        5
 10
427.0069926673868
 20
1257.464766665609
 10
577.0069926673859
 20
1257.464766665608
 10
577.006992667386
 20
1404.273277303906
 10
527.0069926673859
 20
1457.464766665608
 10
427.0069926673864
 20
1457.464766665608
 97
        5
330
1632
330
163B
330
1636
330
1630
330
1653
 75
     0
 76
     1
 52
10.0
 41
20.0
 77
     0
 78
     4
 53
47.5
 43
-609.8821281929968
 44
245.2881076131725
 45
-7.932515672581557
 46
37.73224609143017
 79
     6
 49
0.0
 49
-30.4
 49
0.0
 49
-34.0
 49
0.0
 49
-32.5
 53
17.5
 43
-609.8821281929968
 44
245.2881076131725
 45
25.05658598222034
 46
61.73179649836539
 79
     6
 49
0.0
 49
-16.4
 49
0.0
 49
-27.4
 49
0.0
 49
-10.5
 53
337.5
 43
-634.108398917097
 44
241.0163624425661
 45
61.31696730197461
 46
10.92676278174725
 79
     6
 49
0.0
 49
-10.0
 49
0.0
 49
-36.0
 49
0.0
 49
-47.0
 53
327.5
 43
-634.108398917097
 44
241.0163624425661
 45
56.16100048570864
 46
27.72700215393347
 79
     6
 49
0.0
 49
-5.0
 49
0.0
 49
-23.6
 49
0.0
 49
-27.0
 47
3.313664236543952
 98
        1
 10
467.3990780970561
 20
1380.567104261436
  0
LINE
  5
1630
102
{ACAD_REACTORS
330
162E
102
}
330
18
100
AcDbEntity
  8
0
100
AcDbLine
 10
577.0069926673859
 20
1257.464766665608
 30
0.0
 11
427.0069926673864
 21
1257.464766665608
 31
0.0
  0
DIMENSION
  5
1631
330
18
100
AcDbEntity
  8
SUNPOU
100
AcDbDimension
  2
*D17
 10
1047.006992667386
 20
1779.070300173816
 30
0.0
 11
787.0069926673859
 21
1801.570300173816
 31
0.0
 70
    32
 71
     5
 42
520.0
  3
DIM1
100
AcDbAlignedDimension
 13
527.0069926673859
 23
1597.464766665608
 33
0.0
 14
1047.006992667386
 24
1597.464766665608
 34
0.0
100
AcDbRotatedDimension
  0
LINE
  5
1632
102
{ACAD_REACTORS
330
162E
102
}
330
18
100
AcDbEntity
  8
0
100
AcDbLine
 10
527.0069926673859
 20
1457.464766665608
 30
0.0
 11
577.0069926673859
 21
1404.273277303907
 31
0.0
  0
LEADER
  5
1633
330
18
100
AcDbEntity
  8
SUNPOU
100
AcDbLeader
  3
DIM1
 73
     0
 75
     1
 40
35.0
 41
133.0
 76
     3
 10
504.8584860825157
 20
1322.64681281987
 30
0.0
 10
450.901666553731
 20
1038.328005335261
 30
0.0
 10
430.901666553731
 20
1038.328005335261
 30
0.0
340
1634
  0
MTEXT
  5
1634
102
{ACAD_REACTORS
330
1633
102
}
330
18
100
AcDbEntity
  8
SUNPOU
100
AcDbMText
 10
420.901666553731
 20
1065.828005335261
 30
0.0
 40
35.0
 41
0.0
 71
     6
 72
     1
  1
\A1;ﾌｨﾙﾀｰ砂
  7
BIGFONT
 73
     1
 44
1.0
  0
DIMENSION
  5
1635
330
18
100
AcDbEntity
  8
SUNPOU
100
AcDbDimension
  2
*D18
 10
298.1837954342063
 20
1257.464766665608
 30
0.0
 11
275.6837954342061
 21
1357.464766665608
 31
0.0
 70
    32
 71
     5
 42
199.9999999999998
  3
DIM1
100
AcDbAlignedDimension
 13
397.1454721974719
 23
1457.464766665608
 33
0.0
 14
397.1454721974719
 24
1257.464766665608
 34
0.0
 50
90.0
100
AcDbRotatedDimension
  0
LINE
  5
1636
102
{ACAD_REACTORS
330
162E
102
}
330
18
100
AcDbEntity
  8
0
100
AcDbLine
 10
427.0069926673864
 20
1457.464766665608
 30
0.0
 11
427.0069926673868
 21
1257.464766665608
 31
0.0
  0
DIMENSION
  5
1637
330
18
100
AcDbEntity
  8
SUNPOU
100
AcDbDimension
  2
*D19
 10
298.1837954342063
 20
1142.464766665608
 30
0.0
 11
275.6837954342062
 21
1199.964766665608
 31
0.0
 70
    32
 71
     5
 42
115.0
  3
DIM1
100
AcDbAlignedDimension
 13
397.1454721974719
 23
1257.464766665608
 33
0.0
 14
527.1454721974714
 24
1142.464766665608
 34
0.0
 50
90.0
100
AcDbRotatedDimension
  0
DIMENSION
  5
1638
330
18
100
AcDbEntity
  8
SUNPOU
100
AcDbDimension
  2
*D20
 10
298.1837954342063
 20
1457.464766665608
 30
0.0
 11
275.6837954342061
 21
1527.464766665608
 31
0.0
 70
    32
 71
     5
 42
140.0
  3
DIM1
100
AcDbAlignedDimension
 13
497.1454721974715
 23
1597.464766665608
 33
0.0
 14
397.1454721974719
 24
1457.464766665608
 34
0.0
 50
90.0
100
AcDbRotatedDimension
  0
DIMENSION
  5
1639
330
18
100
AcDbEntity
  8
SUNPOU
100
AcDbDimension
  2
*D21
 10
527.0069926673864
 20
1559.504973323677
 30
0.0
 11
477.0069926673864
 21
1582.004973323677
 31
0.0
 70
    32
 71
     5
 42
100.0
  3
DIM1
100
AcDbAlignedDimension
 13
427.0069926673864
 23
1483.974080198176
 33
0.0
 14
527.0069926673864
 24
1483.974080198176
 34
0.0
100
AcDbRotatedDimension
  0
LINE
  5
163A
330
18
100
AcDbEntity
  8
0
100
AcDbLine
 10
527.0069926673859
 20
1457.464766665608
 30
0.0
 11
527.0069926673859
 21
1597.464766665608
 31
0.0
  0
LINE
  5
163B
102
{ACAD_REACTORS
330
162E
102
}
330
18
100
AcDbEntity
  8
0
100
AcDbLine
 10
427.0069926673864
 20
1457.464766665608
 30
0.0
 11
527.0069926673864
 21
1457.464766665608
 31
0.0
  0
HATCH
  5
163C
330
18
100
AcDbEntity
  8
saiseki
100
AcDbHatch
 10
0.0
 20
0.0
 30
0.0
210
0.0
220
0.0
230
1.0
  2
AR-CONC
 70
     0
 71
     1
 91
        1
 92
        7
 72
     0
 73
     1
 93
        4
 10
557.0069926673859
 20
1142.464766665608
 10
557.0069926673859
 20
1112.464766665609
 10
1017.006992667386
 20
1112.464766665608
 10
1017.006992667386
 20
1142.464766665608
 97
        4
330
164F
330
163E
330
1645
330
163F
 75
     0
 76
     1
 52
10.0
 41
10.0
 77
     0
 78
    13
 53
60.0
 43
-609.8821281929968
 44
245.2881076131725
 45
71.72601826366109
 46
6.275213457274228
 79
     2
 49
7.5
 49
-82.5
 53
4.999999999999982
 43
-609.8821281929968
 44
245.2881076131725
 45
-26.72601823552728
 46
71.66707287918132
 79
     2
 49
6.0
 49
-66.0
 53
110.4514
 43
-603.9049602694003
 44
245.8110424864679
 45
45.00006042118598
 46
77.94225061526758
 79
     2
 49
6.374019
 49
-70.1142112
 53
56.1842
 43
-613.3550917463353
 44
264.9842626734166
 45
107.9769334226874
 46
2.232005464303117
 79
     2
 49
11.25
 49
-123.75
 53
106.6356
 43
-604.3570138835134
 44
265.1702574757768
 45
75.13092857610778
 46
112.1621307162275
 79
     2
 49
9.561028799999991
 49
-105.1712999999999
 53
1.184200000000004
 43
-613.3550917463353
 44
264.9842626734166
 45
75.13084101309246
 46
112.1621894051747
 79
     2
 49
9.0
 49
-99.0
 53
31.0
 43
-602.6387733278788
 44
261.796705685025
 45
65.77527294122403
 46
-29.285038319949
 79
     2
 49
7.5
 49
-82.5
 53
336.0
 43
-602.6387733278788
 44
261.796705685025
 45
11.3697841445634
 46
75.63846504458997
 79
     2
 49
6.0
 49
-66.0
 53
81.45140000000001
 43
-597.1575021328549
 44
259.3562823248973
 45
77.1450925887655
 46
46.35336620305333
 79
     2
 49
6.374018999999996
 49
-70.11421119999993
 53
47.5
 43
-609.8821281929968
 44
245.2881076131725
 45
-4.583129128235412
 46
32.99479848997293
 79
     6
 49
0.0
 49
-65.19999999999999
 49
0.0
 49
-67.0
 49
0.0
 49
-66.25
 53
17.5
 43
-609.8821281929968
 44
245.2881076131725
 45
19.0584045035497
 46
43.4101257517077
 79
     6
 49
0.0
 49
-38.2
 49
0.0
 49
-63.7
 49
0.0
 49
-25.25
 53
337.5
 43
-631.8433410851689
 44
241.4157532512001
 45
52.96290862486394
 46
7.048508068684694
 79
     6
 49
0.0
 49
-25.0
 49
0.0
 49
-78.0
 49
0.0
 49
-103.5
 53
327.5
 43
-641.6914186152912
 44
239.6792714745306
 45
55.69432132604852
 46
19.98533782628797
 79
     6
 49
0.0
 49
-32.5
 49
0.0
 49
-51.79999999999999
 49
0.0
 49
-73.5
 47
3.313664236543952
 98
        1
 10
878.82448778854
 20
1132.042283100097
  0
DIMENSION
  5
163D
330
18
100
AcDbEntity
  8
SUNPOU
100
AcDbDimension
  2
*D22
 10
1165.448931046699
 20
1112.464766665608
 30
0.0
 11
1209.725277011266
 21
1127.464766665608
 31
0.0
 70
   160
 71
     5
 42
30.0
  3
DIM1
100
AcDbAlignedDimension
 13
1063.458244367349
 23
1142.464766665608
 33
0.0
 14
1063.458244367349
 24
1112.464766665608
 34
0.0
 50
90.0
100
AcDbRotatedDimension
  0
LINE
  5
163E
102
{ACAD_REACTORS
330
163C
330
1642
102
}
330
18
100
AcDbEntity
  8
0
100
AcDbLine
 10
557.0069926673859
 20
1142.464766665608
 30
0.0
 11
557.0069926673859
 21
1012.464766665608
 31
0.0
  0
LINE
  5
163F
102
{ACAD_REACTORS
330
163C
330
1642
102
}
330
18
100
AcDbEntity
  8
0
100
AcDbLine
 10
1017.006992667386
 20
1142.464766665608
 30
0.0
 11
1017.006992667386
 21
1012.464766665608
 31
0.0
  0
MTEXT
  5
1640
102
{ACAD_REACTORS
330
1641
102
}
330
18
100
AcDbEntity
  8
SUNPOU
100
AcDbMText
 10
1145.130618269161
 20
936.5360926271
 30
0.0
 40
35.0
 41
0.0
 71
     4
 72
     1
  1
\A1;ｲﾝﾊﾞｰﾄｺﾝｸﾘｰﾄ
  7
BIGFONT
 73
     1
 44
1.0
  0
LEADER
  5
1641
330
18
100
AcDbEntity
  8
SUNPOU
100
AcDbLeader
  3
DIM1
 73
     0
 74
     0
 75
     1
 40
35.0
 41
238.0
 76
     3
 10
934.8825436362176
 20
1128.739188841622
 30
0.0
 10
1115.130618269161
 20
909.0360926271001
 30
0.0
 10
1135.130618269161
 20
909.0360926271001
 30
0.0
340
1640
  0
HATCH
  5
1642
330
18
100
AcDbEntity
  8
saiseki
100
AcDbHatch
 10
0.0
 20
0.0
 30
0.0
210
0.0
220
0.0
230
1.0
  2
GRAVEL
 70
     0
 71
     1
 91
        1
 92
        7
 72
     0
 73
     1
 93
        4
 10
557.006992667386
 20
1112.464766665609
 10
557.0069926673858
 20
1012.464766665608
 10
1017.006992667386
 20
1012.464766665608
 10
1017.006992667386
 20
1112.464766665608
 97
        4
330
1645
330
163E
330
1644
330
163F
 75
     0
 76
     1
 52
10.0
 41
60.0
 77
     0
 78
    41
 53
238.0128
 43
32.12480427011156
 44
66.59006645594387
 45
-378.9375870685973
 46
-615.1473727612811
 79
     2
 49
8.072159999999998
 49
-799.1452799999999
 53
194.9697
 43
27.84873146984722
 44
59.74351977846919
 45
698.6428442126801
 46
184.1146504009584
 79
     2
 49
13.85208
 49
-1371.3555
 53
142.5104
 43
14.46676229147907
 44
56.16540562305091
 45
705.4919910009731
 46
-545.784819618165
 79
     2
 49
9.767280000000001
 49
-966.9619200000001
 53
277.2737
 43
-5.973016464002641
 44
37.32992197046162
 45
-149.2895863992685
 46
1192.18817021333
 79
     2
 49
12.61428
 49
-1248.81348
 53
302.8337
 43
-4.375934077206644
 44
24.81715537590764
 45
-420.4695617356348
 46
656.9668136425002
 79
     2
 49
12.3693
 49
-1224.56238
 53
7.273700000000051
 43
2.330732362654959
 44
14.42385824436974
 45
-1192.18817021333
 46
-149.2895863992684
 79
     2
 49
12.61428
 49
-1248.81348
 53
47.6942
 43
14.84349895720894
 44
16.02094063116573
 45
-663.9616747582394
 46
-726.329739976383
 79
     2
 49
16.68174
 49
-1651.49094
 53
82.25530000000002
 43
26.0717498847674
 44
28.35813565709374
 45
184.4043369628299
 46
1372.878358041384
 79
     2
 49
15.74928
 49
-1559.17926
 53
131.4296
 43
28.19410443422203
 44
43.96376320507811
 45
-608.1537348566676
 46
684.7985429923762
 79
     2
 49
12.657
 49
-1253.04438
 53
185.2364
 43
19.81897294553862
 44
53.45360896500822
 45
660.3919753443684
 46
55.51984226109211
 79
     2
 49
14.44992
 49
-708.04578
 53
232.3974
 43
5.429363488962504
 44
52.13484451021908
 45
-594.4543017688797
 46
-774.9994136366423
 79
     2
 49
18.68688
 49
-1850.0025
 53
148.8141
 43
52.62875297152267
 44
47.05373907206996
 45
-476.132746355461
 46
281.5983670113846
 79
     2
 49
6.378059999999999
 49
-631.43064
 53
181.4692
 43
47.17235341086297
 44
50.35642038191996
 45
788.987809735752
 46
17.26816295630633
 79
     2
 49
12.13422
 49
-1201.29066
 53
235.0
 43
35.04209365491599
 44
50.04529620533877
 45
10.41889388413061
 46
-59.08848346559611
 79
     2
 49
8.48526
 49
-76.36752
 53
213.1986
 43
29.65563421306283
 44
56.40658968082557
 45
274.604514861372
 46
170.2714591632599
 79
     2
 49
4.56948
 49
-452.3768999999999
 53
301.8014
 43
25.83200837021202
 44
53.90461337920249
 45
-90.34513471687001
 46
166.8465219464529
 79
     2
 49
6.46218
 49
-316.64772
 53
40.9638
 43
29.23743604344291
 44
48.41252248752986
 45
156.4274714864597
 46
149.4337284845574
 79
     2
 49
10.49574
 49
-339.36138
 53
171.5651
 43
37.16300566115136
 44
55.29331795279816
 45
128.5958300642638
 46
-38.25058498160485
 79
     2
 49
7.58946
 49
-182.14722
 53
26.3895
 43
-8.439301434612813
 44
47.86165679639331
 45
559.6281856836753
 46
281.4538942817025
 79
     2
 49
10.632
 49
-1052.5707
 53
80.3462
 43
1.084793113110917
 44
52.58729146763262
 45
-121.745760386599
 46
-691.6487563007003
 79
     2
 49
8.919659999999998
 49
-883.0444799999998
 53
303.1986
 43
35.07922752914819
 44
67.11101098894467
 45
-170.2714591632599
 46
274.604514861372
 79
     2
 49
9.138899999999999
 49
-447.8074799999999
 53
353.6105
 43
40.08318013239434
 44
59.46375930324307
 45
-622.1413777325513
 46
73.07603527135859
 79
     2
 49
10.632
 49
-1052.570699999999
 53
349.444
 43
-1.979589225403005
 44
11.22680838433917
 45
-316.280174502029
 46
66.08222127799622
 79
     2
 49
10.2528
 49
-502.38744
 53
304.7751
 43
8.099698643115139
 44
9.348522979097754
 45
-410.0496972900891
 46
597.8789472586003
 79
     2
 49
8.59068
 49
-850.47858
 53
76.8014
 43
46.08900284097134
 44
8.126734714812339
 45
66.08255817540238
 46
316.2801051170145
 79
     2
 49
9.138899999999999
 49
-447.8074799999999
 53
27.354
 43
48.17566605941307
 44
17.02425327971583
 45
-726.4746612951531
 46
-371.7991354868141
 79
     2
 49
10.05786
 49
-995.7254399999998
 53
79.44400000000001
 43
17.13565490241242
 44
3.021478291404587
 45
-66.08222127799639
 46
-316.2801745020289
 79
     2
 49
5.1264
 49
-507.5138399999999
 53
111.3099
 43
42.54369493012737
 44
7.501601275211389
 45
-100.7638957462712
 46
225.9350391813359
 79
     2
 49
3.0594
 49
-302.88174
 53
175.9638
 43
41.43186574531926
 44
10.35183562764785
 45
187.6842982237682
 46
-27.83167272453523
 79
     2
 49
12.3693
 49
-235.017
 53
196.009
 43
29.09322817617199
 44
11.22248075468132
 45
580.4657535398113
 46
163.2773288566575
 79
     2
 49
11.463
 49
-1134.83538
 53
313.6901
 43
30.17513620284433
 44
43.09456062126395
 45
-79.92632074721186
 46
107.7579996667412
 79
     2
 49
8.653319999999999
 49
-207.67974
 53
3.15719999999998
 43
36.15248029650483
 44
36.83745605237732
 45
1025.341735229089
 46
58.94373166269558
 79
     2
 49
15.10764
 49
-1495.65378
 53
70.94540000000001
 43
51.23716331148841
 44
37.6695247619593
 45
-163.4216237031933
 46
-455.2948419122095
 79
     2
 49
6.177359999999999
 49
-611.5604399999999
 53
100.0
 43
53.25388641112362
 44
43.508431161226
 45
-69.50735584074829
 46
48.66957452071666
 79
     2
 49
3.599999999999999
 49
-56.39999999999999
 53
130.2564
 43
27.59889215275686
 44
12.78675689690297
 45
309.2858187993416
 46
-371.9438920115946
 79
     2
 49
8.33544
 49
-825.2112
 53
58.01279999999999
 43
22.21243271090369
 44
19.14805037238976
 45
378.9375870685972
 46
615.1473727612811
 79
     2
 49
16.14432
 49
-791.0731199999998
 53
10.0
 43
30.76457831143237
 44
32.84114372733911
 45
48.66957452071666
 46
69.50735584074831
 79
     2
 49
15.6
 49
-44.39999999999999
 53
335.3048
 43
46.12757925842281
 44
35.55005529894322
 45
-663.8166369022431
 46
309.4309182076727
 79
     2
 49
9.48684
 49
-939.1964399999999
 53
264.0546
 43
54.74677989131946
 44
31.58654921847935
 45
-17.41289467978736
 46
-246.7727577132181
 79
     2
 49
8.736119999999997
 49
-428.0704799999999
 53
217.646
 43
53.84188597649237
 44
22.89740846677617
 45
-1018.49160372377
 46
-788.8439864224165
 79
     2
 49
14.2239
 49
-1408.16844
 53
185.4260999999999
 43
42.5793862611403
 44
14.20971025829228
 45
-778.568916833211
 46
-76.3574264078785
 79
     2
 49
15.04794
 49
-1489.74444
 47
3.313664236543952
 98
        1
 10
875.5065387053118
 20
1065.769001080278
1001
ACAD
1010
0.0
1020
0.0
1030
0.0
  0
DIMENSION
  5
1643
330
18
100
AcDbEntity
  8
SUNPOU
100
AcDbDimension
  2
*D23
 10
1017.006992667386
 20
853.6944855733205
 30
0.0
 11
787.0069926673859
 21
876.1944855733204
 31
0.0
 70
    32
 71
     5
 42
460.0
  3
DIM1
100
AcDbAlignedDimension
 13
557.0069926673859
 23
972.7007945551532
 33
0.0
 14
1017.006992667386
 24
972.7007945551527
 34
0.0
100
AcDbRotatedDimension
  0
LINE
  5
1644
102
{ACAD_REACTORS
330
1642
102
}
330
18
100
AcDbEntity
  8
0
100
AcDbLine
 10
1017.006992667386
 20
1012.464766665608
 30
0.0
 11
557.0069926673859
 21
1012.464766665608
 31
0.0
1001
ACAD
1000
ASC_BOUNDS
1002
{
1070
    19
1005
0
1002
}
  0
LINE
  5
1645
102
{ACAD_REACTORS
330
163C
330
1642
102
}
330
18
100
AcDbEntity
  8
0
100
AcDbLine
 10
1017.006992667386
 20
1112.464766665608
 30
0.0
 11
557.0069926673859
 21
1112.464766665609
 31
0.0
1001
ACAD
1000
ASC_BOUNDS
1002
{
1070
    19
1005
0
1002
}
  0
MTEXT
  5
1646
102
{ACAD_REACTORS
330
1647
102
}
330
18
100
AcDbEntity
  8
SUNPOU
100
AcDbMText
 10
1145.130618269161
 20
863.635481318337
 30
0.0
 40
35.0
 41
0.0
 71
     4
 72
     1
  1
ｸﾗｯｼｬﾗﾝ
  7
BIGFONT
 73
     1
 44
1.0
  0
LEADER
  5
1647
330
18
100
AcDbEntity
  8
SUNPOU
100
AcDbLeader
  3
DIM1
 73
     0
 74
     0
 75
     1
 40
35.0
 41
126.0
 76
     3
 10
934.8825436362176
 20
1065.779569654672
 30
0.0
 10
1115.130618269161
 20
836.1354813183369
 30
0.0
 10
1135.130618269161
 20
836.1354813183369
 30
0.0
340
1646
  0
DIMENSION
  5
1648
330
18
100
AcDbEntity
  8
SUNPOU
100
AcDbDimension
  2
*D24
 10
1165.448931046699
 20
1012.464766665608
 30
0.0
 11
1142.948931046699
 21
1062.464766665608
 31
0.0
 70
    32
 71
     5
 42
100.0
  3
DIM1
100
AcDbAlignedDimension
 13
1063.458244367349
 23
1112.464766665608
 33
0.0
 14
1063.458244367349
 24
1012.464766665608
 34
0.0
 50
90.0
100
AcDbRotatedDimension
  0
DIMENSION
  5
1649
330
18
100
AcDbEntity
  8
SUNPOU
100
AcDbDimension
  2
*D25
 10
937.006992667386
 20
1695.288107613172
 30
0.0
 11
787.0069926673859
 21
1717.788107613172
 31
0.0
 70
    32
 71
     5
 42
300.0
  3
DIM1
100
AcDbAlignedDimension
 13
637.0069926673859
 23
1552.464766665608
 33
0.0
 14
937.006992667386
 24
1552.464766665608
 34
0.0
100
AcDbRotatedDimension
  0
LINE
  5
164A
330
18
100
AcDbEntity
  8
HL
100
AcDbLine
 10
586.0069926673864
 20
1502.464766665607
 30
0.0
 11
988.0069926673854
 21
1502.464766665606
 31
0.0
  0
LINE
  5
164B
330
18
100
AcDbEntity
  8
HL
100
AcDbLine
 10
581.0069926673859
 20
1597.464766665607
 30
0.0
 11
993.0069926673859
 21
1597.464766665607
 31
0.0
  0
LINE
  5
164C
330
18
100
AcDbEntity
  8
0
100
AcDbLine
 10
637.0069926673859
 20
1502.464766665608
 30
0.0
 11
937.006992667386
 21
1502.464766665605
 31
0.0
  0
DIMENSION
  5
164D
330
18
100
AcDbEntity
  8
SUNPOU
100
AcDbDimension
  2
*D26
 10
754.3243874411037
 20
1502.464766665608
 30
0.0
 11
731.8243874411034
 21
1549.964766665608
 31
0.0
 70
    32
 71
     5
 42
94.99999999999841
  3
DIM1
100
AcDbAlignedDimension
 13
789.5462668213913
 23
1597.464766665607
 33
0.0
 14
754.3243874411037
 24
1502.464766665608
 34
0.0
 50
90.0
100
AcDbRotatedDimension
  0
ARC
  5
164E
330
18
100
AcDbEntity
  8
0
100
AcDbCircle
 10
878.6458892680402
 20
1252.464766665608
 30
0.0
 40
50.0
100
AcDbArc
 50
270.0
 51
358.0908475670058
  0
LINE
  5
164F
102
{ACAD_REACTORS
330
163C
102
}
330
18
100
AcDbEntity
  8
0
100
AcDbLine
 10
1017.006992667386
 20
1142.464766665608
 30
0.0
 11
557.0069926673859
 21
1142.464766665608
 31
0.0
1001
ACAD
1000
ASC_BOUNDS
1002
{
1070
    19
1005
0
1002
}
  0
LINE
  5
1650
330
18
100
AcDbEntity
  8
0
100
AcDbLine
 10
637.0069926673859
 20
1502.464766665605
 30
0.0
 11
645.3958507177739
 21
1250.799025153976
 31
0.0
  0
DIMENSION
  5
1651
330
18
100
AcDbEntity
  8
SUNPOU
100
AcDbDimension
  2
*D27
 10
754.3243874411037
 20
1502.464766665608
 30
0.0
 11
731.8243874411036
 21
1416.414986618624
 31
0.0
 70
   160
 71
     5
 42
299.9999999999998
  3
DIM1
100
AcDbAlignedDimension
 13
754.3243874411037
 23
1202.464766665608
 33
0.0
 14
754.3243874411037
 24
1502.464766665608
 34
0.0
 50
90.0
100
AcDbRotatedDimension
  0
LINE
  5
1652
330
18
100
AcDbEntity
  8
0
100
AcDbLine
 10
878.6458892680402
 20
1202.464766665608
 30
0.0
 11
695.3680960667315
 21
1202.464766665608
 31
0.0
  0
LINE
  5
1653
102
{ACAD_REACTORS
330
162E
102
}
330
18
100
AcDbEntity
  8
0
100
AcDbLine
 10
577.0069926673859
 20
1404.273277303906
 30
0.0
 11
577.0069926673859
 21
1172.464766665608
 31
0.0
  0
ARC
  5
1654
330
18
100
AcDbEntity
  8
0
100
AcDbCircle
 10
695.3680960667315
 20
1252.464766665608
 30
0.0
 40
50.0
100
AcDbArc
 50
181.9091524329942
 51
270.0
  0
LINE
  5
1655
330
18
100
AcDbEntity
  8
0
100
AcDbLine
 10
577.0069926673859
 20
1172.464766665608
 30
0.0
 11
607.0069926673859
 21
1142.464766665608
 31
0.0
1001
ACAD
1000
ASC_BOUNDS
1002
{
1070
    19
1005
0
1002
}
  0
DIMENSION
  5
1656
330
18
100
AcDbEntity
  8
SUNPOU
100
AcDbDimension
  2
*D28
 10
754.3243874411037
 20
1142.464766665608
 30
0.0
 11
701.8243874411036
 21
1172.464766665608
 31
0.0
 70
    32
 71
     5
 42
60.00000000000023
  3
DIM1
100
AcDbAlignedDimension
 13
754.3243874411037
 23
1202.464766665608
 33
0.0
 14
754.3243874411037
 24
1142.464766665608
 34
0.0
 50
90.0
100
AcDbRotatedDimension
  0
LINE
  5
1657
330
18
100
AcDbEntity
  8
KL
100
AcDbLine
 10
719.5069926673859
 20
1597.464766665607
 30
0.0
 11
719.5069926673859
 21
1502.464766665606
 31
0.0
  0
LINE
  5
1658
330
18
100
AcDbEntity
  8
KL
100
AcDbLine
 10
709.5069926673859
 20
1597.464766665607
 30
0.0
 11
709.5069926673859
 21
1502.464766665606
 31
0.0
  0
LINE
  5
1659
330
18
100
AcDbEntity
  8
HL
100
AcDbLine
 10
586.0069926673859
 20
1502.464766665607
 30
0.0
 11
581.0069926673859
 21
1597.464766665607
 31
0.0
  0
LINE
  5
165A
330
18
100
AcDbEntity
  8
0
100
AcDbLine
 10
577.0069926673859
 20
1597.464766665608
 30
0.0
 11
582.0069926673864
 21
1502.464766665608
 31
0.0
  0
LINE
  5
165B
330
18
100
AcDbEntity
  8
0
100
AcDbLine
 10
637.0069926673859
 20
1502.464766665608
 30
0.0
 11
582.0069926673864
 21
1502.464766665608
 31
0.0
  0
LINE
  5
165C
330
18
100
AcDbEntity
  8
KL
100
AcDbLine
 10
854.5069926673859
 20
1597.464766665607
 30
0.0
 11
854.5069926673859
 21
1502.464766665606
 31
0.0
  0
LINE
  5
165D
330
18
100
AcDbEntity
  8
KL
100
AcDbLine
 10
864.5069926673864
 20
1597.464766665607
 30
0.0
 11
864.5069926673864
 21
1502.464766665606
 31
0.0
  0
DIMENSION
  5
165E
330
18
100
AcDbEntity
  8
SUNPOU
100
AcDbDimension
  2
*D29
 10
1165.448931046699
 20
1142.464766665608
 30
0.0
 11
1142.948931046699
 21
1369.964766665608
 31
0.0
 70
    32
 71
     5
 42
455.0000000000004
  3
DIM1
100
AcDbAlignedDimension
 13
1093.458244367349
 23
1597.464766665608
 33
0.0
 14
1063.458244367349
 24
1142.464766665608
 34
0.0
 50
90.0
100
AcDbRotatedDimension
  0
LINE
  5
165F
330
18
100
AcDbEntity
  8
0
100
AcDbLine
 10
1047.006992667386
 20
1457.464766665608
 30
0.0
 11
997.0069926673859
 21
1404.273277303907
 31
0.0
  0
LINE
  5
1660
330
18
100
AcDbEntity
  8
0
100
AcDbLine
 10
937.006992667386
 20
1502.464766665605
 30
0.0
 11
928.6181346169978
 21
1250.799025153976
 31
0.0
  0
LINE
  5
1661
330
18
100
AcDbEntity
  8
0
100
AcDbLine
 10
997.0069926673859
 20
1404.273277303907
 30
0.0
 11
997.0069926673859
 21
1172.464766665608
 31
0.0
  0
LINE
  5
1662
330
18
100
AcDbEntity
  8
0
100
AcDbLine
 10
997.0069926673859
 20
1172.464766665608
 30
0.0
 11
967.0069926673859
 21
1142.464766665608
 31
0.0
1001
ACAD
1000
ASC_BOUNDS
1002
{
1070
    19
1005
0
1002
}
  0
LINE
  5
1663
330
18
100
AcDbEntity
  8
HL
100
AcDbLine
 10
988.006992667386
 20
1502.464766665607
 30
0.0
 11
993.0069926673859
 21
1597.464766665607
 31
0.0
  0
LINE
  5
1664
330
18
100
AcDbEntity
  8
0
100
AcDbLine
 10
997.0069926673859
 20
1597.464766665608
 30
0.0
 11
992.0069926673855
 21
1502.464766665608
 31
0.0
  0
LINE
  5
1665
330
18
100
AcDbEntity
  8
0
100
AcDbLine
 10
1047.006992667385
 20
1457.464766665608
 30
0.0
 11
1047.006992667386
 21
1597.464766665608
 31
0.0
  0
LINE
  5
1666
330
18
100
AcDbEntity
  8
0
100
AcDbLine
 10
937.006992667386
 20
1502.464766665608
 30
0.0
 11
992.0069926673855
 21
1502.464766665608
 31
0.0
  0
LINE
  5
1667
330
18
100
AcDbEntity
  8
0
100
AcDbLine
 10
1047.006992667386
 20
1597.464766665608
 30
0.0
 11
997.0069926673859
 21
1597.464766665608
 31
0.0
  0
DIMENSION
  5
19E1
330
18
100
AcDbEntity
  8
SUNPOU
100
AcDbDimension
  2
*D30
 10
647.0069926673864
 20
1337.573103503085
 30
0.0
 11
610.0968083168718
 21
1364.540002430554
 31
0.0
 70
   160
 71
     5
 42
70.00000000000046
  3
DIM1
100
AcDbAlignedDimension
 13
577.0069926673859
 23
1301.824989427232
 33
0.0
 14
647.0069926673864
 24
1301.824989427232
 34
0.0
100
AcDbRotatedDimension
  0
HATCH
  5
1A5D
330
18
100
AcDbEntity
  8
saiseki
100
AcDbHatch
 10
0.0
 20
0.0
 30
0.0
210
0.0
220
0.0
230
1.0
  2
HONEY
 70
     0
 71
     0
 91
        2
 92
        7
 72
     0
 73
     1
 93
        5
 10
638.5069926673858
 20
1457.464766665608
 10
527.0069926673859
 20
1457.464766665608
 10
577.0069926673859
 20
1404.273277303907
 10
577.0069926673859
 20
1257.464766665608
 10
645.1736593340528
 20
1257.464766665608
 97
        0
 92
       24
 93
        4
 72
     1
 10
583.6087130787766
 20
1383.290002430554
 11
636.5849035549671
 21
1383.290002430554
 72
     1
 10
636.5849035549671
 20
1383.290002430554
 11
636.5849035549671
 21
1345.790002430554
 72
     1
 10
636.5849035549671
 20
1345.790002430554
 11
583.6087130787766
 21
1345.790002430554
 72
     1
 10
583.6087130787766
 20
1345.790002430554
 11
583.6087130787766
 21
1383.290002430554
 97
        0
 75
     0
 76
     1
 52
10.0
 41
80.0
 77
     0
 78
     3
 53
10.0
 43
0.0
 44
1072.678483930413
 45
13.26827896995038
 46
11.13340794725894
 79
     2
 49
9.999999999999996
 49
-19.99999999999999
 53
130.0
 43
0.0
 44
1072.678483930413
 45
-16.27595359799699
 46
5.923962678846383
 79
     2
 49
10.0
 49
-20.0
 53
70.0
 43
0.0
 44
1072.678483930413
 45
-3.007674628046611
 46
17.05737062610532
 79
     2
 49
-19.99999999999999
 49
9.999999999999996
 47
2.996321717840464
 98
        1
 10
607.0966215972585
 20
1301.617242224112
  0
DIMENSION
  5
1A89
330
18
100
AcDbEntity
  8
SUNPOU
100
AcDbDimension
  2
*D31
 10
997.0069926673859
 20
1337.573103503085
 30
0.0
 11
960.0968083168714
 21
1364.540002430554
 31
0.0
 70
   160
 71
     5
 42
70.00000000000046
  3
DIM1
100
AcDbAlignedDimension
 13
927.0069926673855
 23
1301.824989427232
 33
0.0
 14
997.0069926673859
 24
1301.824989427232
 34
0.0
100
AcDbRotatedDimension
  0
DIMENSION
  5
1A9F
330
18
100
AcDbEntity
  8
SUNPOU
100
AcDbDimension
  2
*D32
 10
927.0069926673855
 20
1338.295128180305
 30
0.0
 11
787.2430079237183
 21
1361.229398329666
 31
0.0
 70
   160
 71
     5
 42
279.9999999999991
  3
DIM1
100
AcDbAlignedDimension
 13
647.0069926673864
 23
1324.699046465158
 33
0.0
 14
927.0069926673855
 24
1324.699046465158
 34
0.0
100
AcDbRotatedDimension
  0
LINE
  5
1AEF
330
18
100
AcDbEntity
  8
CT2
100
AcDbLine
 10
787.0069926673857
 20
1657.679853870229
 30
0.0
 11
787.0069926673857
 21
956.5952945577254
 31
0.0
  0
LINE
  5
1C16
330
18
100
AcDbEntity
  8
0
100
AcDbLine
 10
1047.006992667386
 20
1597.464766665608
 30
0.0
 11
1407.872242784715
 21
1597.464766665608
 31
0.0
  0
LINE
  5
1C17
330
18
100
AcDbEntity
  8
0
100
AcDbLine
 10
527.0069926673859
 20
1597.464766665608
 30
0.0
 11
253.5597957262435
 21
1597.464766665608
 31
0.0
  0
LEADER
  5
1C1B
330
18
100
AcDbEntity
  8
SUNPOU
100
AcDbLeader
  3
DIM1
 73
     0
 75
     1
 40
25.00000000000002
 41
171.4285714285714
 76
     3
 10
3229.506992667385
 20
1549.964766665607
 30
0.0
 10
3127.637446000224
 20
1650.414900912579
 30
0.0
 10
3107.637446000224
 20
1650.414900912579
 30
0.0
340
1C3A
  0
HATCH
  5
1C1C
330
18
100
AcDbEntity
  8
saiseki
100
AcDbHatch
 10
0.0
 20
0.0
 30
0.0
210
0.0
220
0.0
230
1.0
  2
GRAVEL
 70
     0
 71
     1
 91
        1
 92
        7
 72
     0
 73
     1
 93
        4
 10
3077.006992667386
 20
1112.464766665609
 10
3077.006992667385
 20
1012.464766665609
 10
3537.006992667385
 20
1012.464766665608
 10
3537.006992667386
 20
1112.464766665608
 97
        4
330
1C25
330
1C32
330
1C27
330
1C4E
 75
     0
 76
     1
 52
10.0
 41
60.0
 77
     0
 78
    41
 53
238.0128
 43
32.12480427011156
 44
66.59006645594387
 45
-378.9375870685973
 46
-615.1473727612811
 79
     2
 49
8.072159999999998
 49
-799.1452799999999
 53
194.9697
 43
27.84873146984722
 44
59.74351977846919
 45
698.6428442126801
 46
184.1146504009584
 79
     2
 49
13.85208
 49
-1371.3555
 53
142.5104
 43
14.46676229147907
 44
56.16540562305091
 45
705.4919910009731
 46
-545.784819618165
 79
     2
 49
9.767280000000001
 49
-966.9619200000001
 53
277.2737
 43
-5.973016464002641
 44
37.32992197046162
 45
-149.2895863992685
 46
1192.18817021333
 79
     2
 49
12.61428
 49
-1248.81348
 53
302.8337
 43
-4.375934077206644
 44
24.81715537590764
 45
-420.4695617356348
 46
656.9668136425002
 79
     2
 49
12.3693
 49
-1224.56238
 53
7.273700000000051
 43
2.330732362654959
 44
14.42385824436974
 45
-1192.18817021333
 46
-149.2895863992684
 79
     2
 49
12.61428
 49
-1248.81348
 53
47.6942
 43
14.84349895720894
 44
16.02094063116573
 45
-663.9616747582394
 46
-726.329739976383
 79
     2
 49
16.68174
 49
-1651.49094
 53
82.25530000000002
 43
26.0717498847674
 44
28.35813565709374
 45
184.4043369628299
 46
1372.878358041384
 79
     2
 49
15.74928
 49
-1559.17926
 53
131.4296
 43
28.19410443422203
 44
43.96376320507811
 45
-608.1537348566676
 46
684.7985429923762
 79
     2
 49
12.657
 49
-1253.04438
 53
185.2364
 43
19.81897294553862
 44
53.45360896500822
 45
660.3919753443684
 46
55.51984226109211
 79
     2
 49
14.44992
 49
-708.04578
 53
232.3974
 43
5.429363488962504
 44
52.13484451021908
 45
-594.4543017688797
 46
-774.9994136366423
 79
     2
 49
18.68688
 49
-1850.0025
 53
148.8141
 43
52.62875297152267
 44
47.05373907206996
 45
-476.132746355461
 46
281.5983670113846
 79
     2
 49
6.378059999999999
 49
-631.43064
 53
181.4692
 43
47.17235341086297
 44
50.35642038191996
 45
788.987809735752
 46
17.26816295630633
 79
     2
 49
12.13422
 49
-1201.29066
 53
235.0
 43
35.04209365491599
 44
50.04529620533877
 45
10.41889388413061
 46
-59.08848346559611
 79
     2
 49
8.48526
 49
-76.36752
 53
213.1986
 43
29.65563421306283
 44
56.40658968082557
 45
274.604514861372
 46
170.2714591632599
 79
     2
 49
4.56948
 49
-452.3768999999999
 53
301.8014
 43
25.83200837021202
 44
53.90461337920249
 45
-90.34513471687001
 46
166.8465219464529
 79
     2
 49
6.46218
 49
-316.64772
 53
40.9638
 43
29.23743604344291
 44
48.41252248752986
 45
156.4274714864597
 46
149.4337284845574
 79
     2
 49
10.49574
 49
-339.36138
 53
171.5651
 43
37.16300566115136
 44
55.29331795279816
 45
128.5958300642638
 46
-38.25058498160485
 79
     2
 49
7.58946
 49
-182.14722
 53
26.3895
 43
-8.439301434612813
 44
47.86165679639331
 45
559.6281856836753
 46
281.4538942817025
 79
     2
 49
10.632
 49
-1052.5707
 53
80.3462
 43
1.084793113110917
 44
52.58729146763262
 45
-121.745760386599
 46
-691.6487563007003
 79
     2
 49
8.919659999999998
 49
-883.0444799999998
 53
303.1986
 43
35.07922752914819
 44
67.11101098894467
 45
-170.2714591632599
 46
274.604514861372
 79
     2
 49
9.138899999999999
 49
-447.8074799999999
 53
353.6105
 43
40.08318013239434
 44
59.46375930324307
 45
-622.1413777325513
 46
73.07603527135859
 79
     2
 49
10.632
 49
-1052.570699999999
 53
349.444
 43
-1.979589225403005
 44
11.22680838433917
 45
-316.280174502029
 46
66.08222127799622
 79
     2
 49
10.2528
 49
-502.38744
 53
304.7751
 43
8.099698643115139
 44
9.348522979097754
 45
-410.0496972900891
 46
597.8789472586003
 79
     2
 49
8.59068
 49
-850.47858
 53
76.8014
 43
46.08900284097134
 44
8.126734714812339
 45
66.08255817540238
 46
316.2801051170145
 79
     2
 49
9.138899999999999
 49
-447.8074799999999
 53
27.354
 43
48.17566605941307
 44
17.02425327971583
 45
-726.4746612951531
 46
-371.7991354868141
 79
     2
 49
10.05786
 49
-995.7254399999998
 53
79.44400000000001
 43
17.13565490241242
 44
3.021478291404587
 45
-66.08222127799639
 46
-316.2801745020289
 79
     2
 49
5.1264
 49
-507.5138399999999
 53
111.3099
 43
42.54369493012737
 44
7.501601275211389
 45
-100.7638957462712
 46
225.9350391813359
 79
     2
 49
3.0594
 49
-302.88174
 53
175.9638
 43
41.43186574531926
 44
10.35183562764785
 45
187.6842982237682
 46
-27.83167272453523
 79
     2
 49
12.3693
 49
-235.017
 53
196.009
 43
29.09322817617199
 44
11.22248075468132
 45
580.4657535398113
 46
163.2773288566575
 79
     2
 49
11.463
 49
-1134.83538
 53
313.6901
 43
30.17513620284433
 44
43.09456062126395
 45
-79.92632074721186
 46
107.7579996667412
 79
     2
 49
8.653319999999999
 49
-207.67974
 53
3.15719999999998
 43
36.15248029650483
 44
36.83745605237732
 45
1025.341735229089
 46
58.94373166269558
 79
     2
 49
15.10764
 49
-1495.65378
 53
70.94540000000001
 43
51.23716331148841
 44
37.6695247619593
 45
-163.4216237031933
 46
-455.2948419122095
 79
     2
 49
6.177359999999999
 49
-611.5604399999999
 53
100.0
 43
53.25388641112362
 44
43.508431161226
 45
-69.50735584074829
 46
48.66957452071666
 79
     2
 49
3.599999999999999
 49
-56.39999999999999
 53
130.2564
 43
27.59889215275686
 44
12.78675689690297
 45
309.2858187993416
 46
-371.9438920115946
 79
     2
 49
8.33544
 49
-825.2112
 53
58.01279999999999
 43
22.21243271090369
 44
19.14805037238976
 45
378.9375870685972
 46
615.1473727612811
 79
     2
 49
16.14432
 49
-791.0731199999998
 53
10.0
 43
30.76457831143237
 44
32.84114372733911
 45
48.66957452071666
 46
69.50735584074831
 79
     2
 49
15.6
 49
-44.39999999999999
 53
335.3048
 43
46.12757925842281
 44
35.55005529894322
 45
-663.8166369022431
 46
309.4309182076727
 79
     2
 49
9.48684
 49
-939.1964399999999
 53
264.0546
 43
54.74677989131946
 44
31.58654921847935
 45
-17.41289467978736
 46
-246.7727577132181
 79
     2
 49
8.736119999999997
 49
-428.0704799999999
 53
217.646
 43
53.84188597649237
 44
22.89740846677617
 45
-1018.49160372377
 46
-788.8439864224165
 79
     2
 49
14.2239
 49
-1408.16844
 53
185.4260999999999
 43
42.5793862611403
 44
14.20971025829228
 45
-778.568916833211
 46
-76.3574264078785
 79
     2
 49
15.04794
 49
-1489.74444
 47
3.313664236543952
 98
        1
 10
3395.506538705312
 20
1065.769001080278
1001
ACAD
1010
0.0
1020
0.0
1030
0.0
  0
HATCH
  5
1C1D
330
18
100
AcDbEntity
  8
saiseki
100
AcDbHatch
 10
0.0
 20
0.0
 30
0.0
210
0.0
220
0.0
230
1.0
  2
AR-CONC
 70
     0
 71
     1
 91
        1
 92
        7
 72
     0
 73
     1
 93
        4
 10
3077.006992667385
 20
1142.464766665608
 10
3077.006992667385
 20
1112.464766665609
 10
3537.006992667386
 20
1112.464766665608
 10
3537.006992667386
 20
1142.464766665608
 97
        4
330
1C26
330
1C32
330
1C25
330
1C4E
 75
     0
 76
     1
 52
10.0
 41
10.0
 77
     0
 78
    13
 53
60.0
 43
1910.117871807003
 44
245.288107613173
 45
71.72601826366109
 46
6.275213457274228
 79
     2
 49
7.5
 49
-82.5
 53
4.999999999999982
 43
1910.117871807003
 44
245.288107613173
 45
-26.72601823552728
 46
71.66707287918132
 79
     2
 49
6.0
 49
-66.0
 53
110.4514
 43
1916.095039730599
 44
245.8110424864684
 45
45.00006042118598
 46
77.94225061526758
 79
     2
 49
6.374019
 49
-70.1142112
 53
56.1842
 43
1906.644908253664
 44
264.9842626734171
 45
107.9769334226874
 46
2.232005464303117
 79
     2
 49
11.25
 49
-123.75
 53
106.6356
 43
1915.642986116487
 44
265.1702574757773
 45
75.13092857610778
 46
112.1621307162275
 79
     2
 49
9.561028799999986
 49
-105.1712999999999
 53
1.184200000000004
 43
1906.644908253664
 44
264.9842626734171
 45
75.13084101309246
 46
112.1621894051747
 79
     2
 49
9.0
 49
-99.0
 53
31.0
 43
1917.36122667212
 44
261.7967056850255
 45
65.77527294122403
 46
-29.285038319949
 79
     2
 49
7.5
 49
-82.5
 53
336.0
 43
1917.36122667212
 44
261.7967056850255
 45
11.3697841445634
 46
75.63846504458997
 79
     2
 49
6.0
 49
-66.0
 53
81.45140000000001
 43
1922.842497867145
 44
259.3562823248977
 45
77.1450925887655
 46
46.35336620305333
 79
     2
 49
6.374018999999993
 49
-70.11421119999988
 53
47.5
 43
1910.117871807003
 44
245.288107613173
 45
-4.583129128235412
 46
32.99479848997293
 79
     6
 49
0.0
 49
-65.19999999999999
 49
0.0
 49
-67.0
 49
0.0
 49
-66.25
 53
17.5
 43
1910.117871807003
 44
245.288107613173
 45
19.0584045035497
 46
43.4101257517077
 79
     6
 49
0.0
 49
-38.2
 49
0.0
 49
-63.7
 49
0.0
 49
-25.25
 53
337.5
 43
1888.156658914831
 44
241.4157532512005
 45
52.96290862486394
 46
7.048508068684694
 79
     6
 49
0.0
 49
-25.0
 49
0.0
 49
-78.0
 49
0.0
 49
-103.5
 53
327.5
 43
1878.308581384709
 44
239.6792714745311
 45
55.69432132604852
 46
19.98533782628797
 79
     6
 49
0.0
 49
-32.5
 49
0.0
 49
-51.79999999999999
 49
0.0
 49
-73.5
 47
3.313664236543952
 98
        1
 10
3398.82448778854
 20
1132.042283100098
  0
HATCH
  5
1C1E
330
18
100
AcDbEntity
  8
saiseki
100
AcDbHatch
 10
0.0
 20
0.0
 30
0.0
210
0.0
220
0.0
230
1.0
  2
HONEY
 70
     0
 71
     0
 91
        2
 92
        7
 72
     0
 73
     1
 93
        5
 10
3158.506992667386
 20
1457.464766665609
 10
3047.006992667386
 20
1457.464766665609
 10
3097.006992667385
 20
1404.273277303907
 10
3097.006992667385
 20
1257.464766665609
 10
3165.173659334053
 20
1257.464766665609
 97
        0
 92
       24
 93
        4
 72
     1
 10
3103.608713078777
 20
1383.290002430555
 11
3156.584903554967
 21
1383.290002430555
 72
     1
 10
3156.584903554967
 20
1383.290002430555
 11
3156.584903554967
 21
1345.790002430555
 72
     1
 10
3156.584903554967
 20
1345.790002430555
 11
3103.608713078777
 21
1345.790002430555
 72
     1
 10
3103.608713078777
 20
1345.790002430555
 11
3103.608713078777
 21
1383.290002430555
 97
        0
 75
     0
 76
     1
 52
10.0
 41
80.0
 77
     0
 78
     3
 53
10.0
 43
2520.0
 44
1072.678483930414
 45
13.26827896995038
 46
11.13340794725894
 79
     2
 49
9.999999999999991
 49
-19.99999999999998
 53
130.0
 43
2520.0
 44
1072.678483930414
 45
-16.27595359799699
 46
5.923962678846383
 79
     2
 49
10.0
 49
-20.0
 53
70.0
 43
2520.0
 44
1072.678483930414
 45
-3.007674628046611
 46
17.05737062610532
 79
     2
 49
-19.99999999999998
 49
9.999999999999991
 47
2.996321717840464
 98
        1
 10
3127.096621597258
 20
1301.617242224113
  0
DIMENSION
  5
1C1F
330
18
100
AcDbEntity
  8
SUNPOU
100
AcDbDimension
  2
*D46
 10
3167.006992667387
 20
1337.573103503085
 30
0.0
 11
3130.096808316872
 21
1364.540002430555
 31
0.0
 70
   160
 71
     5
 42
70.00000000000091
  3
DIM1
100
AcDbAlignedDimension
 13
3097.006992667385
 23
1301.824989427232
 33
0.0
 14
3167.006992667387
 24
1301.824989427232
 34
0.0
100
AcDbRotatedDimension
  0
DIMENSION
  5
1C20
330
18
100
AcDbEntity
  8
SUNPOU
100
AcDbDimension
  2
*D33
 10
3567.006992667386
 20
1779.070300173816
 30
0.0
 11
3307.006992667385
 21
1801.570300173816
 31
0.0
 70
    32
 71
     5
 42
520.0
  3
DIM1
100
AcDbAlignedDimension
 13
3047.006992667386
 23
1597.464766665608
 33
0.0
 14
3567.006992667386
 24
1597.464766665608
 34
0.0
100
AcDbRotatedDimension
  0
LINE
  5
1C21
330
18
100
AcDbEntity
  8
0
100
AcDbLine
 10
3157.006992667386
 20
1502.464766665609
 30
0.0
 11
3102.006992667387
 21
1502.464766665609
 31
0.0
  0
LINE
  5
1C22
330
18
100
AcDbEntity
  8
HL
100
AcDbLine
 10
3106.006992667387
 20
1502.464766665607
 30
0.0
 11
3508.006992667386
 21
1502.464766665607
 31
0.0
  0
LINE
  5
1C23
330
18
100
AcDbEntity
  8
HL
100
AcDbLine
 10
3101.006992667385
 20
1597.464766665607
 30
0.0
 11
3513.006992667385
 21
1597.464766665607
 31
0.0
  0
LINE
  5
1C24
330
18
100
AcDbEntity
  8
0
100
AcDbLine
 10
3097.006992667385
 20
1172.464766665608
 30
0.0
 11
3127.006992667386
 21
1142.464766665608
 31
0.0
1001
ACAD
1000
ASC_BOUNDS
1002
{
1070
    19
1005
0
1002
}
  0
LINE
  5
1C25
102
{ACAD_REACTORS
330
1C1D
330
1C1C
102
}
330
18
100
AcDbEntity
  8
0
100
AcDbLine
 10
3537.006992667386
 20
1112.464766665608
 30
0.0
 11
3077.006992667385
 21
1112.464766665609
 31
0.0
1001
ACAD
1000
ASC_BOUNDS
1002
{
1070
    19
1005
0
1002
}
  0
LINE
  5
1C26
102
{ACAD_REACTORS
330
1C1D
102
}
330
18
100
AcDbEntity
  8
0
100
AcDbLine
 10
3537.006992667386
 20
1142.464766665608
 30
0.0
 11
3077.006992667385
 21
1142.464766665608
 31
0.0
1001
ACAD
1000
ASC_BOUNDS
1002
{
1070
    19
1005
0
1002
}
  0
LINE
  5
1C27
102
{ACAD_REACTORS
330
1C1C
102
}
330
18
100
AcDbEntity
  8
0
100
AcDbLine
 10
3537.006992667386
 20
1012.464766665608
 30
0.0
 11
3077.006992667385
 21
1012.464766665609
 31
0.0
1001
ACAD
1000
ASC_BOUNDS
1002
{
1070
    19
1005
0
1002
}
  0
DIMENSION
  5
1C28
330
18
100
AcDbEntity
  8
SUNPOU
100
AcDbDimension
  2
*D39
 10
3537.006992667386
 20
853.6944855733208
 30
0.0
 11
3307.006992667385
 21
876.1944855733208
 31
0.0
 70
    32
 71
     5
 42
460.0
  3
DIM1
100
AcDbAlignedDimension
 13
3077.006992667385
 23
972.7007945551536
 33
0.0
 14
3537.006992667386
 24
972.7007945551532
 34
0.0
100
AcDbRotatedDimension
  0
LINE
  5
1C29
330
18
100
AcDbEntity
  8
0
100
AcDbLine
 10
3047.006992667386
 20
1457.464766665609
 30
0.0
 11
3047.006992667386
 21
1597.464766665608
 31
0.0
  0
LINE
  5
1C2A
330
18
100
AcDbEntity
  8
HL
100
AcDbLine
 10
3106.006992667385
 20
1502.464766665607
 30
0.0
 11
3101.006992667385
 21
1597.464766665607
 31
0.0
  0
LINE
  5
1C2B
330
18
100
AcDbEntity
  8
0
100
AcDbLine
 10
3097.006992667385
 20
1597.464766665608
 30
0.0
 11
3102.006992667387
 21
1502.464766665609
 31
0.0
  0
DIMENSION
  5
1C2C
330
18
100
AcDbEntity
  8
SUNPOU
100
AcDbDimension
  2
*D37
 10
3047.006992667387
 20
1559.504973323678
 30
0.0
 11
2997.006992667387
 21
1582.004973323678
 31
0.0
 70
    32
 71
     5
 42
100.0
  3
DIM1
100
AcDbAlignedDimension
 13
2947.006992667386
 23
1483.974080198177
 33
0.0
 14
3047.006992667387
 24
1483.974080198177
 34
0.0
100
AcDbRotatedDimension
  0
DIMENSION
  5
1C2D
330
18
100
AcDbEntity
  8
SUNPOU
100
AcDbDimension
  2
*D36
 10
2818.183795434206
 20
1457.464766665609
 30
0.0
 11
2795.683795434206
 21
1527.464766665609
 31
0.0
 70
    32
 71
     5
 42
140.0
  3
DIM1
100
AcDbAlignedDimension
 13
3017.145472197471
 23
1597.464766665608
 33
0.0
 14
2917.145472197472
 24
1457.464766665609
 34
0.0
 50
90.0
100
AcDbRotatedDimension
  0
LEADER
  5
1C2E
330
18
100
AcDbEntity
  8
SUNPOU
100
AcDbLeader
  3
DIM1
 73
     0
 75
     1
 40
35.0
 41
130.6666666666666
 76
     3
 10
3024.858486082516
 20
1322.646812819871
 30
0.0
 10
2970.901666553731
 20
1038.328005335261
 30
0.0
 10
2950.901666553731
 20
1038.328005335261
 30
0.0
340
1C31
  0
DIMENSION
  5
1C2F
330
18
100
AcDbEntity
  8
SUNPOU
100
AcDbDimension
  2
*D35
 10
2818.183795434206
 20
1142.464766665608
 30
0.0
 11
2795.683795434206
 21
1199.964766665609
 31
0.0
 70
    32
 71
     5
 42
115.0000000000002
  3
DIM1
100
AcDbAlignedDimension
 13
2917.145472197472
 23
1257.464766665609
 33
0.0
 14
3047.145472197471
 24
1142.464766665608
 34
0.0
 50
90.0
100
AcDbRotatedDimension
  0
LINE
  5
1C30
102
{ACAD_REACTORS
330
1C34
102
}
330
18
100
AcDbEntity
  8
0
100
AcDbLine
 10
3097.006992667385
 20
1404.273277303907
 30
0.0
 11
3097.006992667385
 21
1172.464766665608
 31
0.0
  0
MTEXT
  5
1C31
102
{ACAD_REACTORS
330
1C2E
102
}
330
18
100
AcDbEntity
  8
SUNPOU
100
AcDbMText
 10
2940.901666553731
 20
1065.828005335261
 30
0.0
 40
35.0
 41
0.0
 71
     6
 72
     1
  1
\A1;ﾌｨﾙﾀｰ砂
  7
BIGFONT
 73
     1
 44
1.0
  0
LINE
  5
1C32
102
{ACAD_REACTORS
330
1C1D
330
1C1C
102
}
330
18
100
AcDbEntity
  8
0
100
AcDbLine
 10
3077.006992667385
 20
1142.464766665608
 30
0.0
 11
3077.006992667385
 21
1012.464766665609
 31
0.0
  0
DIMENSION
  5
1C33
330
18
100
AcDbEntity
  8
SUNPOU
100
AcDbDimension
  2
*D34
 10
2818.183795434206
 20
1257.464766665609
 30
0.0
 11
2795.683795434206
 21
1357.464766665609
 31
0.0
 70
    32
 71
     5
 42
199.9999999999998
  3
DIM1
100
AcDbAlignedDimension
 13
2917.145472197472
 23
1457.464766665609
 33
0.0
 14
2917.145472197472
 24
1257.464766665609
 34
0.0
 50
90.0
100
AcDbRotatedDimension
  0
HATCH
  5
1C34
330
18
100
AcDbEntity
  8
saiseki
100
AcDbHatch
 10
0.0
 20
0.0
 30
0.0
210
0.0
220
0.0
230
1.0
  2
AR-SAND
 70
     0
 71
     1
 91
        1
 92
        7
 72
     0
 73
     1
 93
        5
 10
2947.006992667386
 20
1257.464766665609
 10
3097.006992667385
 20
1257.464766665609
 10
3097.006992667385
 20
1404.273277303907
 10
3047.006992667386
 20
1457.464766665608
 10
2947.006992667386
 20
1457.464766665609
 97
        5
330
1C38
330
1C37
330
1C35
330
1C36
330
1C30
 75
     0
 76
     1
 52
10.0
 41
20.0
 77
     0
 78
     4
 53
47.5
 43
1910.117871807003
 44
245.288107613173
 45
-7.932515672581557
 46
37.73224609143017
 79
     6
 49
0.0
 49
-30.4
 49
0.0
 49
-34.0
 49
0.0
 49
-32.5
 53
17.5
 43
1910.117871807003
 44
245.288107613173
 45
25.05658598222034
 46
61.73179649836539
 79
     6
 49
0.0
 49
-16.4
 49
0.0
 49
-27.4
 49
0.0
 49
-10.5
 53
337.5
 43
1885.891601082903
 44
241.0163624425666
 45
61.31696730197461
 46
10.92676278174725
 79
     6
 49
0.0
 49
-10.0
 49
0.0
 49
-36.0
 49
0.0
 49
-47.0
 53
327.5
 43
1885.891601082903
 44
241.0163624425666
 45
56.16100048570864
 46
27.72700215393347
 79
     6
 49
0.0
 49
-5.0
 49
0.0
 49
-23.6
 49
0.0
 49
-27.0
 47
3.313664236543952
 98
        1
 10
2987.399078097056
 20
1380.567104261437
  0
LINE
  5
1C35
102
{ACAD_REACTORS
330
1C34
102
}
330
18
100
AcDbEntity
  8
0
100
AcDbLine
 10
2947.006992667386
 20
1457.464766665609
 30
0.0
 11
2947.006992667386
 21
1257.464766665609
 31
0.0
  0
LINE
  5
1C36
102
{ACAD_REACTORS
330
1C34
102
}
330
18
100
AcDbEntity
  8
0
100
AcDbLine
 10
3097.006992667385
 20
1257.464766665609
 30
0.0
 11
2947.006992667386
 21
1257.464766665609
 31
0.0
  0
LINE
  5
1C37
102
{ACAD_REACTORS
330
1C34
102
}
330
18
100
AcDbEntity
  8
0
100
AcDbLine
 10
2947.006992667386
 20
1457.464766665609
 30
0.0
 11
3047.006992667387
 21
1457.464766665609
 31
0.0
  0
LINE
  5
1C38
102
{ACAD_REACTORS
330
1C34
102
}
330
18
100
AcDbEntity
  8
0
100
AcDbLine
 10
3047.006992667386
 20
1457.464766665609
 30
0.0
 11
3097.006992667385
 21
1404.273277303907
 31
0.0
  0
LINE
  5
1C39
330
18
100
AcDbEntity
  8
0
100
AcDbLine
 10
3047.006992667386
 20
1597.464766665608
 30
0.0
 11
2773.559795726243
 21
1597.464766665608
 31
0.0
  0
MTEXT
  5
1C3A
102
{ACAD_REACTORS
330
1C1B
102
}
330
18
100
AcDbEntity
  8
SUNPOU
100
AcDbMText
 10
3097.637446000224
 20
1672.914900912579
 30
0.0
 40
25.0
 41
0.0
 71
     6
 72
     1
  1
\A1;RUB-300
  7
BIGFONT
 73
     1
 44
1.0
  0
LINE
  5
1C3B
330
18
100
AcDbEntity
  8
0
100
AcDbLine
 10
3047.006992667386
 20
1597.464766665608
 30
0.0
 11
3097.006992667385
 21
1597.464766665608
 31
0.0
  0
LINE
  5
1C3C
330
18
100
AcDbEntity
  8
HL
100
AcDbLine
 10
3508.006992667386
 20
1502.464766665607
 30
0.0
 11
3513.006992667385
 21
1597.464766665607
 31
0.0
  0
LINE
  5
1C3D
330
18
100
AcDbEntity
  8
0
100
AcDbLine
 10
3517.006992667385
 20
1597.464766665608
 30
0.0
 11
3512.006992667386
 21
1502.464766665609
 31
0.0
  0
LINE
  5
1C3E
330
18
100
AcDbEntity
  8
0
100
AcDbLine
 10
3567.006992667386
 20
1457.464766665609
 30
0.0
 11
3567.006992667386
 21
1597.464766665608
 31
0.0
  0
DIMENSION
  5
1C3F
330
18
100
AcDbEntity
  8
SUNPOU
100
AcDbDimension
  2
*D42
 10
3274.324387441104
 20
1502.464766665609
 30
0.0
 11
3251.824387441103
 21
1549.964766665608
 31
0.0
 70
    32
 71
     5
 42
94.99999999999841
  3
DIM1
100
AcDbAlignedDimension
 13
3309.546266821391
 23
1597.464766665607
 33
0.0
 14
3274.324387441104
 24
1502.464766665609
 34
0.0
 50
90.0
100
AcDbRotatedDimension
  0
LINE
  5
1C40
330
18
100
AcDbEntity
  8
KL
100
AcDbLine
 10
3374.506992667386
 20
1597.464766665607
 30
0.0
 11
3374.506992667386
 21
1502.464766665607
 31
0.0
  0
LINE
  5
1C41
330
18
100
AcDbEntity
  8
KL
100
AcDbLine
 10
3384.506992667386
 20
1597.464766665607
 30
0.0
 11
3384.506992667386
 21
1502.464766665607
 31
0.0
  0
LINE
  5
1C42
330
18
100
AcDbEntity
  8
KL
100
AcDbLine
 10
3239.506992667386
 20
1597.464766665607
 30
0.0
 11
3239.506992667386
 21
1502.464766665607
 31
0.0
  0
LINE
  5
1C43
330
18
100
AcDbEntity
  8
KL
100
AcDbLine
 10
3229.506992667385
 20
1597.464766665607
 30
0.0
 11
3229.506992667385
 21
1502.464766665607
 31
0.0
  0
DIMENSION
  5
1C44
330
18
100
AcDbEntity
  8
SUNPOU
100
AcDbDimension
  2
*D45
 10
3747.43961772605
 20
1142.464766665608
 30
0.0
 11
3724.93961772605
 21
1369.964766665609
 31
0.0
 70
    32
 71
     5
 42
455.0000000000006
  3
DIM1
100
AcDbAlignedDimension
 13
3613.458244367349
 23
1597.464766665608
 33
0.0
 14
3583.458244367348
 24
1142.464766665608
 34
0.0
 50
90.0
100
AcDbRotatedDimension
  0
LINE
  5
1C45
330
18
100
AcDbEntity
  8
CT2
100
AcDbLine
 10
3307.006992667385
 20
1657.679853870229
 30
0.0
 11
3307.006992667385
 21
956.595294557726
 31
0.0
  0
LEADER
  5
1C46
330
18
100
AcDbEntity
  8
SUNPOU
100
AcDbLeader
  3
DIM1
 73
     0
 74
     0
 75
     1
 40
35.0
 41
125.9999999999999
 76
     3
 10
3454.882543636217
 20
1065.779569654673
 30
0.0
 10
3635.130618269161
 20
836.1354813183375
 30
0.0
 10
3655.130618269161
 20
836.1354813183375
 30
0.0
340
1C4B
  0
LEADER
  5
1C47
330
18
100
AcDbEntity
  8
SUNPOU
100
AcDbLeader
  3
DIM1
 73
     0
 74
     0
 75
     1
 40
35.0
 41
238.0000000000001
 76
     3
 10
3454.882543636217
 20
1128.739188841623
 30
0.0
 10
3635.130618269161
 20
909.0360926271005
 30
0.0
 10
3655.130618269161
 20
909.0360926271005
 30
0.0
340
1C4A
  0
DIMENSION
  5
1C48
330
18
100
AcDbEntity
  8
SUNPOU
100
AcDbDimension
  2
*D38
 10
3747.43961772605
 20
1112.464766665608
 30
0.0
 11
3768.050338624227
 21
1127.464766665608
 31
0.0
 70
   160
 71
     5
 42
30.0
  3
DIM1
100
AcDbAlignedDimension
 13
3583.458244367348
 23
1142.464766665608
 33
0.0
 14
3583.458244367348
 24
1112.464766665608
 34
0.0
 50
90.0
100
AcDbRotatedDimension
  0
DIMENSION
  5
1C49
330
18
100
AcDbEntity
  8
SUNPOU
100
AcDbDimension
  2
*D40
 10
3747.43961772605
 20
1012.464766665608
 30
0.0
 11
3724.93961772605
 21
1062.464766665609
 31
0.0
 70
    32
 71
     5
 42
99.99999999999989
  3
DIM1
100
AcDbAlignedDimension
 13
3583.458244367348
 23
1112.464766665608
 33
0.0
 14
3583.458244367348
 24
1012.464766665608
 34
0.0
 50
90.0
100
AcDbRotatedDimension
  0
MTEXT
  5
1C4A
102
{ACAD_REACTORS
330
1C47
102
}
330
18
100
AcDbEntity
  8
SUNPOU
100
AcDbMText
 10
3665.130618269162
 20
936.5360926271005
 30
0.0
 40
35.0
 41
0.0
 71
     4
 72
     1
  1
\A1;ｲﾝﾊﾞｰﾄｺﾝｸﾘｰﾄ
  7
BIGFONT
 73
     1
 44
1.0
  0
MTEXT
  5
1C4B
102
{ACAD_REACTORS
330
1C46
102
}
330
18
100
AcDbEntity
  8
SUNPOU
100
AcDbMText
 10
3665.130618269162
 20
863.6354813183375
 30
0.0
 40
35.0
 41
0.0
 71
     4
 72
     1
  1
ｸﾗｯｼｬﾗﾝ
  7
BIGFONT
 73
     1
 44
1.0
  0
DIMENSION
  5
1C4C
330
18
100
AcDbEntity
  8
SUNPOU
100
AcDbDimension
  2
*D44
 10
3274.324387441104
 20
1142.464766665608
 30
0.0
 11
3221.824387441103
 21
1172.464766665609
 31
0.0
 70
    32
 71
     5
 42
60.00000000000023
  3
DIM1
100
AcDbAlignedDimension
 13
3274.324387441104
 23
1202.464766665609
 33
0.0
 14
3274.324387441104
 24
1142.464766665608
 34
0.0
 50
90.0
100
AcDbRotatedDimension
  0
LINE
  5
1C4D
330
18
100
AcDbEntity
  8
0
100
AcDbLine
 10
3517.006992667385
 20
1404.273277303907
 30
0.0
 11
3517.006992667385
 21
1172.464766665608
 31
0.0
  0
LINE
  5
1C4E
102
{ACAD_REACTORS
330
1C1D
330
1C1C
102
}
330
18
100
AcDbEntity
  8
0
100
AcDbLine
 10
3537.006992667386
 20
1142.464766665608
 30
0.0
 11
3537.006992667386
 21
1012.464766665608
 31
0.0
  0
LINE
  5
1C4F
330
18
100
AcDbEntity
  8
0
100
AcDbLine
 10
3517.006992667385
 20
1172.464766665608
 30
0.0
 11
3487.006992667386
 21
1142.464766665608
 31
0.0
1001
ACAD
1000
ASC_BOUNDS
1002
{
1070
    19
1005
0
1002
}
  0
DIMENSION
  5
1C50
330
18
100
AcDbEntity
  8
SUNPOU
100
AcDbDimension
  2
*D48
 10
3447.006992667386
 20
1338.295128180306
 30
0.0
 11
3307.243007923718
 21
1361.229398329666
 31
0.0
 70
   160
 71
     5
 42
279.9999999999991
  3
DIM1
100
AcDbAlignedDimension
 13
3167.006992667387
 23
1324.699046465159
 33
0.0
 14
3447.006992667386
 24
1324.699046465159
 34
0.0
100
AcDbRotatedDimension
  0
LINE
  5
1C51
330
18
100
AcDbEntity
  8
0
100
AcDbLine
 10
3157.006992667386
 20
1502.464766665609
 30
0.0
 11
3457.006992667385
 21
1502.464766665605
 31
0.0
  0
ARC
  5
1C52
330
18
100
AcDbEntity
  8
0
100
AcDbCircle
 10
3398.64588926804
 20
1252.464766665608
 30
0.0
 40
50.0
100
AcDbArc
 50
270.0
 51
358.0908475670056
  0
LINE
  5
1C53
330
18
100
AcDbEntity
  8
0
100
AcDbLine
 10
3157.006992667386
 20
1502.464766665605
 30
0.0
 11
3165.395850717774
 21
1250.799025153976
 31
0.0
  0
DIMENSION
  5
1C54
330
18
100
AcDbEntity
  8
SUNPOU
100
AcDbDimension
  2
*D43
 10
3274.324387441104
 20
1502.464766665608
 30
0.0
 11
3251.824387441104
 21
1416.414986618625
 31
0.0
 70
   160
 71
     5
 42
299.9999999999998
  3
DIM1
100
AcDbAlignedDimension
 13
3274.324387441104
 23
1202.464766665609
 33
0.0
 14
3274.324387441104
 24
1502.464766665608
 34
0.0
 50
90.0
100
AcDbRotatedDimension
  0
LINE
  5
1C55
330
18
100
AcDbEntity
  8
0
100
AcDbLine
 10
3398.64588926804
 20
1202.464766665609
 30
0.0
 11
3215.368096066731
 21
1202.464766665608
 31
0.0
  0
ARC
  5
1C56
330
18
100
AcDbEntity
  8
0
100
AcDbCircle
 10
3215.368096066731
 20
1252.464766665608
 30
0.0
 40
50.0
100
AcDbArc
 50
181.9091524329943
 51
270.0
  0
DIMENSION
  5
1C57
330
18
100
AcDbEntity
  8
SUNPOU
100
AcDbDimension
  2
*D47
 10
3517.006992667385
 20
1337.573103503085
 30
0.0
 11
3480.096808316871
 21
1364.540002430555
 31
0.0
 70
   160
 71
     5
 42
70.0
  3
DIM1
100
AcDbAlignedDimension
 13
3447.006992667386
 23
1301.824989427232
 33
0.0
 14
3517.006992667385
 24
1301.824989427232
 34
0.0
100
AcDbRotatedDimension
  0
LINE
  5
1C58
330
18
100
AcDbEntity
  8
0
100
AcDbLine
 10
3457.006992667385
 20
1502.464766665605
 30
0.0
 11
3448.618134616998
 21
1250.799025153976
 31
0.0
  0
LINE
  5
1C59
330
18
100
AcDbEntity
  8
0
100
AcDbLine
 10
3567.006992667386
 20
1457.464766665609
 30
0.0
 11
3517.006992667385
 21
1404.273277303907
 31
0.0
  0
LINE
  5
1C5A
330
18
100
AcDbEntity
  8
0
100
AcDbLine
 10
3457.006992667385
 20
1502.464766665609
 30
0.0
 11
3512.006992667386
 21
1502.464766665609
 31
0.0
  0
LINE
  5
1C5B
330
18
100
AcDbEntity
  8
0
100
AcDbLine
 10
3567.006992667386
 20
1597.464766665608
 30
0.0
 11
3927.872242784715
 21
1597.464766665608
 31
0.0
  0
DIMENSION
  5
1C5C
330
18
100
AcDbEntity
  8
SUNPOU
100
AcDbDimension
  2
*D41
 10
3457.006992667385
 20
1695.288107613173
 30
0.0
 11
3307.006992667385
 21
1717.788107613173
 31
0.0
 70
    32
 71
     5
 42
300.0
  3
DIM1
100
AcDbAlignedDimension
 13
3157.006992667386
 23
1552.464766665608
 33
0.0
 14
3457.006992667385
 24
1552.464766665609
 34
0.0
100
AcDbRotatedDimension
  0
LINE
  5
1C5D
330
18
100
AcDbEntity
  8
0
100
AcDbLine
 10
3567.006992667386
 20
1597.464766665608
 30
0.0
 11
3517.006992667385
 21
1597.464766665608
 31
0.0
  0
HATCH
  5
1DB2
330
18
100
AcDbEntity
  8
saiseki
100
AcDbHatch
 10
0.0
 20
0.0
 30
0.0
210
0.0
220
0.0
230
1.0
  2
HONEY
 70
     0
 71
     0
 91
        2
 92
        7
 72
     0
 73
     1
 93
        5
 10
3455.506992667386
 20
1457.464766665609
 10
3567.006992667386
 20
1457.464766665609
 10
3517.006992667385
 20
1404.273277303907
 10
3517.006992667385
 20
1257.464766665609
 10
3448.840326000719
 20
1257.464766665609
 97
        0
 92
       24
 93
        4
 72
     1
 10
3510.405272255995
 20
1383.290002430555
 11
3457.429081779805
 21
1383.290002430555
 72
     1
 10
3457.429081779805
 20
1383.290002430555
 11
3457.429081779805
 21
1345.790002430555
 72
     1
 10
3457.429081779805
 20
1345.790002430555
 11
3510.405272255995
 21
1345.790002430555
 72
     1
 10
3510.405272255995
 20
1345.790002430555
 11
3510.405272255995
 21
1383.290002430555
 97
        0
 75
     0
 76
     1
 52
10.0
 41
80.0
 77
     0
 78
     3
 53
170.0
 43
4094.013985334771
 44
1072.678483930414
 45
-13.26827896995038
 46
11.13340794725894
 79
     2
 49
9.999999999999989
 49
-19.99999999999998
 53
50.00000000000003
 43
4094.013985334771
 44
1072.678483930414
 45
16.27595359799699
 46
5.923962678846383
 79
     2
 49
10.0
 49
-20.0
 53
109.9999999999999
 43
4094.013985334771
 44
1072.678483930414
 45
3.007674628046611
 46
17.05737062610532
 79
     2
 49
-19.99999999999998
 49
9.999999999999991
 47
2.996321717840464
 98
        1
 10
3486.917363737513
 20
1301.617242224113
  0
LINE
  5
1DB3
330
18
100
AcDbEntity
  8
0
100
AcDbLine
 10
3667.006992667385
 20
1457.464766665609
 30
0.0
 11
3567.006992667385
 21
1457.464766665609
 31
0.0
  0
LINE
  5
1DB4
330
18
100
AcDbEntity
  8
0
100
AcDbLine
 10
3667.006992667385
 20
1457.464766665609
 30
0.0
 11
3667.006992667385
 21
1257.464766665609
 31
0.0
  0
LINE
  5
1DB5
330
18
100
AcDbEntity
  8
0
100
AcDbLine
 10
3517.006992667385
 20
1257.464766665609
 30
0.0
 11
3667.006992667385
 21
1257.464766665609
 31
0.0
  0
HATCH
  5
1DB6
330
18
100
AcDbEntity
  8
saiseki
100
AcDbHatch
 10
0.0
 20
0.0
 30
0.0
210
0.0
220
0.0
230
1.0
  2
AR-SAND
 70
     0
 71
     0
 91
        1
 92
        7
 72
     0
 73
     1
 93
        5
 10
3667.006992667385
 20
1257.464766665609
 10
3517.006992667385
 20
1257.464766665609
 10
3517.006992667385
 20
1404.273277303907
 10
3567.006992667386
 20
1457.464766665609
 10
3667.006992667385
 20
1457.464766665609
 97
        0
 75
     0
 76
     1
 52
10.0
 41
20.0
 77
     0
 78
     4
 53
132.5
 43
4703.896113527767
 44
245.288107613173
 45
7.932515672581557
 46
37.73224609143017
 79
     6
 49
0.0
 49
-30.4
 49
0.0
 49
-34.0
 49
0.0
 49
-32.5
 53
162.5
 43
4703.896113527767
 44
245.288107613173
 45
-25.05658598222034
 46
61.73179649836539
 79
     6
 49
0.0
 49
-16.4
 49
0.0
 49
-27.4
 49
0.0
 49
-10.5
 53
202.5000000000001
 43
4728.122384251868
 44
241.0163624425666
 45
-61.31696730197461
 46
10.92676278174725
 79
     6
 49
0.0
 49
-10.0
 49
0.0
 49
-36.0
 49
0.0
 49
-47.0
 53
212.5
 43
4728.122384251868
 44
241.0163624425666
 45
-56.16100048570864
 46
27.72700215393347
 79
     6
 49
0.0
 49
-4.999999999999998
 49
0.0
 49
-23.59999999999999
 49
0.0
 49
-26.99999999999999
 47
3.313664236543952
 98
        1
 10
3626.614907237716
 20
1380.567104261437
  0
LEADER
  5
1E1F
330
18
100
AcDbEntity
  8
SUNPOU
100
AcDbLeader
  3
DIM1
 73
     0
 75
     1
 40
35.00000000000001
 41
268.3333333333333
 76
     3
 10
602.3915311479019
 20
1257.464766665609
 30
0.0
 10
512.041176307488
 20
973.4511418840401
 30
0.0
 10
492.041176307488
 20
973.4511418840401
 30
0.0
340
1E20
  0
MTEXT
  5
1E20
102
{ACAD_REACTORS
330
1E1F
102
}
330
18
100
AcDbEntity
  8
SUNPOU
100
AcDbMText
 10
482.041176307488
 20
1000.95114188404
 30
0.0
 40
35.0
 41
0.0
 71
     6
 72
     1
  1
CPUs-300
  7
BIGFONT
 73
     1
 44
1.0
  0
LEADER
  5
1E21
330
18
100
AcDbEntity
  8
SUNPOU
100
AcDbLeader
  3
DIM1
 73
     0
 75
     1
 40
35.0
 41
240.0000000000001
 76
     3
 10
3122.391531147902
 20
1257.464766665609
 30
0.0
 10
3032.041176307488
 20
973.4511418840407
 30
0.0
 10
3012.041176307488
 20
973.4511418840407
 30
0.0
340
1E22
  0
MTEXT
  5
1E22
102
{ACAD_REACTORS
330
1E21
102
}
330
18
100
AcDbEntity
  8
SUNPOU
100
AcDbMText
 10
3002.041176307488
 20
1000.951141884041
 30
0.0
 40
35.0
 41
0.0
 71
     6
 72
     1
  1
CPU-300
  7
BIGFONT
 73
     1
 44
1.0
  0
MTEXT
  5
1E9C
330
18
100
AcDbEntity
  8
0
100
AcDbMText
 10
1037.770402740625
 20
829.6454659748542
 30
0.0
 40
30.0
 41
371.0
 71
     1
 72
     5
  1
{\C1;製品長 Ｌ＝1.000ｍ}
  7
BIGFONT
 73
     1
 44
1.0
  0
MTEXT
  5
1EA3
330
18
100
AcDbEntity
  8
0
100
AcDbMText
 10
3538.441260710298
 20
829.6454659748546
 30
0.0
 40
30.0
 41
371.0
 71
     1
 72
     5
  1
{\C1;製品長 Ｌ＝1.000ｍ}
  7
BIGFONT
 73
     1
 44
1.0
  0
LWPOLYLINE
  5
1F0A
330
18
100
AcDbEntity
  8
KL
  6
ByBlock
 62
     0
 48
2.0
100
AcDbPolyline
 90
        4
 70
     1
 43
0.0
 10
2047.006992667386
 20
3102.872236185766
 10
2047.006992667382
 20
-461.1277638142339
 10
-472.9930073326185
 20
-461.1277638142312
 10
-472.9930073326146
 20
3102.872236185768
  0
LWPOLYLINE
  5
1FA5
330
18
100
AcDbEntity
  8
KL
  6
ByBlock
 62
     0
 48
2.0
100
AcDbPolyline
 90
        4
 70
     1
 43
0.0
 10
4567.006992667386
 20
3102.872236185763
 10
4567.006992667383
 20
-461.1277638142366
 10
2047.006992667382
 20
-461.1277638142339
 10
2047.006992667386
 20
3102.872236185766
  0
ENDSEC
  0
SECTION
  2
OBJECTS
  0
DICTIONARY
  5
C
330
0
100
AcDbDictionary
281
     1
  3
ACAD_COLOR
350
1ED7
  3
ACAD_GROUP
350
D
  3
ACAD_LAYOUT
350
AFF
  3
ACAD_MATERIAL
350
1EAD
  3
ACAD_MLEADERSTYLE
350
1EFC
  3
ACAD_MLINESTYLE
350
E
  3
ACAD_PLOTSETTINGS
350
B00
  3
ACAD_PLOTSTYLENAME
350
AFD
  3
ACAD_SCALELIST
350
1EDA
  3
ACAD_TABLESTYLE
350
1ED8
  3
ACAD_VISUALSTYLE
350
1EC6
  3
ACDB_RECOMPOSE_DATA
350
2052
  3
ACDBVARIABLEDICTIONARY
350
6FB
  0
DICTIONARY
  5
2039
330
F
100
AcDbDictionary
280
     1
281
     1
  3
ADSK_XREC_LAYER_RECONCILED
360
203A
  0
DICTIONARY
  5
203B
330
66
100
AcDbDictionary
280
     1
281
     1
  3
ADSK_XREC_LAYER_RECONCILED
360
203C
  0
DICTIONARY
  5
203D
330
67
100
AcDbDictionary
280
     1
281
     1
  3
ADSK_XREC_LAYER_RECONCILED
360
203E
  0
DICTIONARY
  5
203F
330
6A
100
AcDbDictionary
280
     1
281
     1
  3
ADSK_XREC_LAYER_RECONCILED
360
2040
  0
DICTIONARY
  5
2041
330
6B
100
AcDbDictionary
280
     1
281
     1
  3
ADSK_XREC_LAYER_RECONCILED
360
2042
  0
DICTIONARY
  5
2043
330
6C
100
AcDbDictionary
280
     1
281
     1
  3
ADSK_XREC_LAYER_RECONCILED
360
2044
  0
DICTIONARY
  5
1ED7
102
{ACAD_REACTORS
330
C
102
}
330
C
100
AcDbDictionary
281
     1
  0
DICTIONARY
  5
D
102
{ACAD_REACTORS
330
C
102
}
330
C
100
AcDbDictionary
281
     1
  0
DICTIONARY
  5
AFF
102
{ACAD_REACTORS
330
C
102
}
330
C
100
AcDbDictionary
281
     1
  3
Model
350
B01
  3
ﾚｲｱｳﾄ1
350
B02
  0
DICTIONARY
  5
1EAD
102
{ACAD_REACTORS
330
C
102
}
330
C
100
AcDbDictionary
281
     1
  3
ByBlock
350
1EB6
  3
ByLayer
350
1EAE
  3
Global
350
1EBE
  0
DICTIONARY
  5
1EFC
102
{ACAD_REACTORS
330
C
102
}
330
C
100
AcDbDictionary
281
     1
  3
Standard
350
1EFD
  0
DICTIONARY
  5
E
102
{ACAD_REACTORS
330
C
102
}
330
C
100
AcDbDictionary
281
     1
  3
STANDARD
350
1B
  0
DICTIONARY
  5
B00
102
{ACAD_REACTORS
330
C
102
}
330
C
100
AcDbDictionary
281
     1
  0
ACDBDICTIONARYWDFLT
  5
AFD
102
{ACAD_REACTORS
330
C
102
}
330
C
100
AcDbDictionary
281
     1
  3
Normal
350
AFE
100
AcDbDictionaryWithDefault
340
AFE
  0
DICTIONARY
  5
1EDA
102
{ACAD_REACTORS
330
C
102
}
330
C
100
AcDbDictionary
281
     1
  3
A0
350
1EDB
  3
A1
350
1EDC
  3
A2
350
1EDD
  3
A3
350
1EDE
  3
A4
350
1EDF
  3
A5
350
1EE0
  3
A6
350
1EE1
  3
A7
350
1EE2
  3
A8
350
1EE3
  3
A9
350
1EE4
  3
B0
350
1EE5
  3
B1
350
1EE6
  3
B2
350
1EE7
  3
B3
350
1EE8
  3
B4
350
1EE9
  3
B5
350
1EEA
  3
B6
350
1EEB
  3
B7
350
1EEC
  3
B8
350
1EED
  3
B9
350
1EEE
  3
C0
350
1EEF
  3
C1
350
1EF0
  3
C2
350
1EF1
  3
C3
350
1EF2
  3
C4
350
1EF3
  3
C5
350
1EF4
  3
C6
350
1EF5
  3
C7
350
1EF6
  3
C8
350
1EF7
  3
C9
350
1EF8
  3
D0
350
1EF9
  3
D1
350
1EFA
  3
D2
350
1EFB
  0
DICTIONARY
  5
1ED8
102
{ACAD_REACTORS
330
C
102
}
330
C
100
AcDbDictionary
281
     1
  3
Standard
350
1ED9
  0
DICTIONARY
  5
1EC6
102
{ACAD_REACTORS
330
C
102
}
330
C
100
AcDbDictionary
281
     1
  3
2dWireframe
350
1ECC
  3
3D Hidden
350
1ECE
  3
3dWireframe
350
1ECD
  3
Basic
350
1ECB
  3
Brighten
350
1ED2
  3
ColorChange
350
1ED6
  3
Conceptual
350
1ECF
  3
Dim
350
1ED1
  3
Facepattern
350
1ED5
  3
Flat
350
1EC7
  3
FlatWithEdges
350
1EC8
  3
Gouraud
350
1EC9
  3
GouraudWithEdges
350
1ECA
  3
Linepattern
350
1ED4
  3
Realistic
350
1ED0
  3
Thicken
350
1ED3
  0
XRECORD
  5
2052
102
{ACAD_REACTORS
330
C
102
}
330
C
100
AcDbXrecord
280
     1
 90
        1
330
1ED9
  0
DICTIONARY
  5
6FB
102
{ACAD_REACTORS
330
C
102
}
330
C
100
AcDbDictionary
281
     1
  3
CANNOSCALE
350
204F
  3
CMLEADERSTYLE
350
204E
  3
CTABLESTYLE
350
204D
  3
SORTENTS
350
6FC
  0
XRECORD
  5
203A
102
{ACAD_REACTORS
330
2039
102
}
330
2039
100
AcDbXrecord
280
     1
290
     1
  0
XRECORD
  5
203C
102
{ACAD_REACTORS
330
203B
102
}
330
203B
100
AcDbXrecord
280
     1
290
     1
  0
XRECORD
  5
203E
102
{ACAD_REACTORS
330
203D
102
}
330
203D
100
AcDbXrecord
280
     1
290
     1
  0
XRECORD
  5
2040
102
{ACAD_REACTORS
330
203F
102
}
330
203F
100
AcDbXrecord
280
     1
290
     1
  0
XRECORD
  5
2042
102
{ACAD_REACTORS
330
2041
102
}
330
2041
100
AcDbXrecord
280
     1
290
     1
  0
XRECORD
  5
2044
102
{ACAD_REACTORS
330
2043
102
}
330
2043
100
AcDbXrecord
280
     1
290
     1
  0
LAYOUT
  5
B01
102
{ACAD_REACTORS
330
AFF
102
}
330
AFF
100
AcDbPlotSettings
  1

  2
EPSON LP-8000SX
  4

  6

 40
0.0
 41
0.0
 42
0.0
 43
0.0
 44
0.0
 45
0.0
 46
0.0
 47
0.0
 48
0.0
 49
0.0
140
0.0
141
0.0
142
1.0
143
1.0
 70
  1712
 72
     0
 73
     0
 74
     0
  7

 75
     0
147
1.0
 76
     0
 77
     2
 78
   300
148
0.0
149
0.0
100
AcDbLayout
  1
Model
 70
     1
 71
     0
 10
0.0
 20
0.0
 11
12.0
 21
9.0
 12
0.0
 22
0.0
 32
0.0
 14
0.0
 24
0.0
 34
0.0
 15
0.0
 25
0.0
 35
0.0
146
0.0
 13
0.0
 23
0.0
 33
0.0
 16
1.0
 26
0.0
 36
0.0
 17
0.0
 27
1.0
 37
0.0
 76
     0
330
18
331
1EAB
  0
LAYOUT
  5
B02
102
{ACAD_REACTORS
330
AFF
102
}
330
AFF
100
AcDbPlotSettings
  1

  2
EPSON LP-8000SX
  4

  6

 40
0.0
 41
0.0
 42
0.0
 43
0.0
 44
0.0
 45
0.0
 46
0.0
 47
0.0
 48
0.0
 49
0.0
140
0.0
141
0.0
142
1.0
143
1.0
 70
   688
 72
     0
 73
     0
 74
     5
  7

 75
    16
147
1.0
 76
     0
 77
     2
 78
   300
148
0.0
149
0.0
100
AcDbLayout
  1
ﾚｲｱｳﾄ1
 70
     1
 71
     1
 10
0.0
 20
0.0
 11
12.0
 21
9.0
 12
0.0
 22
0.0
 32
0.0
 14
1.000000000000000E+20
 24
1.000000000000000E+20
 34
1.000000000000000E+20
 15
-1.000000000000000E+20
 25
-1.000000000000000E+20
 35
-1.000000000000000E+20
146
0.0
 13
0.0
 23
0.0
 33
0.0
 16
1.0
 26
0.0
 36
0.0
 17
0.0
 27
1.0
 37
0.0
 76
     0
330
15
  0
MATERIAL
  5
1EB6
102
{ACAD_XDICTIONARY
360
1EB7
102
}
102
{ACAD_REACTORS
330
1EAD
102
}
330
1EAD
100
AcDbMaterial
  1
ByBlock
 72
     0
 43
0.0208333333333333
 43
0.0
 43
0.0
 43
0.0
 43
0.0
 43
0.0208333333333333
 43
0.0
 43
0.0
 43
0.0
 43
0.0
 43
1.0
 43
0.0
 43
0.0
 43
0.0
 43
0.0
 43
1.0
 77
     0
 47
0.0208333333333333
 47
0.0
 47
0.0
 47
0.0
 47
0.0
 47
0.0208333333333333
 47
0.0
 47
0.0
 47
0.0
 47
0.0
 47
1.0
 47
0.0
 47
0.0
 47
0.0
 47
0.0
 47
1.0
171
     0
 49
0.0208333333333333
 49
0.0
 49
0.0
 49
0.0
 49
0.0
 49
0.0208333333333333
 49
0.0
 49
0.0
 49
0.0
 49
0.0
 49
1.0
 49
0.0
 49
0.0
 49
0.0
 49
0.0
 49
1.0
175
     0
142
0.0208333333333333
142
0.0
142
0.0
142
0.0
142
0.0
142
0.0208333333333333
142
0.0
142
0.0
142
0.0
142
0.0
142
1.0
142
0.0
142
0.0
142
0.0
142
0.0
142
1.0
179
     0
144
0.0208333333333333
144
0.0
144
0.0
144
0.0
144
0.0
144
0.0208333333333333
144
0.0
144
0.0
144
0.0
144
0.0
144
1.0
144
0.0
144
0.0
144
0.0
144
0.0
144
1.0
147
0.0208333333333333
147
0.0
147
0.0
147
0.0
147
0.0
147
0.0208333333333333
147
0.0
147
0.0
147
0.0
147
0.0
147
1.0
147
0.0
147
0.0
147
0.0
147
0.0
147
1.0
  0
MATERIAL
  5
1EAE
102
{ACAD_XDICTIONARY
360
1EAF
102
}
102
{ACAD_REACTORS
330
1EAD
102
}
330
1EAD
100
AcDbMaterial
  1
ByLayer
 72
     0
 43
0.0208333333333333
 43
0.0
 43
0.0
 43
0.0
 43
0.0
 43
0.0208333333333333
 43
0.0
 43
0.0
 43
0.0
 43
0.0
 43
1.0
 43
0.0
 43
0.0
 43
0.0
 43
0.0
 43
1.0
 77
     0
 47
0.0208333333333333
 47
0.0
 47
0.0
 47
0.0
 47
0.0
 47
0.0208333333333333
 47
0.0
 47
0.0
 47
0.0
 47
0.0
 47
1.0
 47
0.0
 47
0.0
 47
0.0
 47
0.0
 47
1.0
171
     0
 49
0.0208333333333333
 49
0.0
 49
0.0
 49
0.0
 49
0.0
 49
0.0208333333333333
 49
0.0
 49
0.0
 49
0.0
 49
0.0
 49
1.0
 49
0.0
 49
0.0
 49
0.0
 49
0.0
 49
1.0
175
     0
142
0.0208333333333333
142
0.0
142
0.0
142
0.0
142
0.0
142
0.0208333333333333
142
0.0
142
0.0
142
0.0
142
0.0
142
1.0
142
0.0
142
0.0
142
0.0
142
0.0
142
1.0
179
     0
144
0.0208333333333333
144
0.0
144
0.0
144
0.0
144
0.0
144
0.0208333333333333
144
0.0
144
0.0
144
0.0
144
0.0
144
1.0
144
0.0
144
0.0
144
0.0
144
0.0
144
1.0
147
0.0208333333333333
147
0.0
147
0.0
147
0.0
147
0.0
147
0.0208333333333333
147
0.0
147
0.0
147
0.0
147
0.0
147
1.0
147
0.0
147
0.0
147
0.0
147
0.0
147
1.0
  0
MATERIAL
  5
1EBE
102
{ACAD_XDICTIONARY
360
1EBF
102
}
102
{ACAD_REACTORS
330
1EAD
102
}
330
1EAD
100
AcDbMaterial
  1
Global
 72
     0
 43
0.0208333333333333
 43
0.0
 43
0.0
 43
0.0
 43
0.0
 43
0.0208333333333333
 43
0.0
 43
0.0
 43
0.0
 43
0.0
 43
1.0
 43
0.0
 43
0.0
 43
0.0
 43
0.0
 43
1.0
 77
     0
 47
0.0208333333333333
 47
0.0
 47
0.0
 47
0.0
 47
0.0
 47
0.0208333333333333
 47
0.0
 47
0.0
 47
0.0
 47
0.0
 47
1.0
 47
0.0
 47
0.0
 47
0.0
 47
0.0
 47
1.0
171
     0
 49
0.0208333333333333
 49
0.0
 49
0.0
 49
0.0
 49
0.0
 49
0.0208333333333333
 49
0.0
 49
0.0
 49
0.0
 49
0.0
 49
1.0
 49
0.0
 49
0.0
 49
0.0
 49
0.0
 49
1.0
175
     0
142
0.0208333333333333
142
0.0
142
0.0
142
0.0
142
0.0
142
0.0208333333333333
142
0.0
142
0.0
142
0.0
142
0.0
142
1.0
142
0.0
142
0.0
142
0.0
142
0.0
142
1.0
179
     0
144
0.0208333333333333
144
0.0
144
0.0
144
0.0
144
0.0
144
0.0208333333333333
144
0.0
144
0.0
144
0.0
144
0.0
144
1.0
144
0.0
144
0.0
144
0.0
144
0.0
144
1.0
147
0.0208333333333333
147
0.0
147
0.0
147
0.0
147
0.0
147
0.0208333333333333
147
0.0
147
0.0
147
0.0
147
0.0
147
1.0
147
0.0
147
0.0
147
0.0
147
0.0
147
1.0
  0
MLEADERSTYLE
  5
1EFD
102
{ACAD_REACTORS
330
1EFC
102
}
330
1EFC
100
AcDbMLeaderStyle
170
     2
171
     1
172
     0
 90
        2
 40
0.0
 41
0.0
173
     1
 91
-1056964608
340
12
 92
       -2
290
     1
 42
0.09
291
     1
 43
0.36
  3
Standard
 44
0.18
300

342
10
174
     1
178
     6
175
     1
176
     0
 93
-1056964608
 45
0.18
292
     0
297
     0
 46
0.18
 94
-1056964608
 47
1.0
 49
1.0
140
1.0
293
     1
141
0.0
294
     1
177
     0
142
1.0
295
     0
296
     0
143
0.125
1001
ACAD_MLEADERVER
1070
     2
  0
MLINESTYLE
  5
1B
102
{ACAD_REACTORS
330
E
102
}
330
E
100
AcDbMlineStyle
  2
STANDARD
 70
     0
  3

 62
     0
 51
90.0
 52
90.0
 71
     2
 49
0.5
 62
   256
  6
BYLAYER
 49
-0.5
 62
   256
  6
BYLAYER
  0
ACDBPLACEHOLDER
  5
AFE
102
{ACAD_REACTORS
330
AFD
102
}
330
AFD
  0
SCALE
  5
1EDB
102
{ACAD_REACTORS
330
1EDA
102
}
330
1EDA
100
AcDbScale
 70
     0
300
1:1
140
1.0
141
1.0
290
     1
  0
SCALE
  5
1EDC
102
{ACAD_REACTORS
330
1EDA
102
}
330
1EDA
100
AcDbScale
 70
     0
300
1:2
140
1.0
141
2.0
290
     0
  0
SCALE
  5
1EDD
102
{ACAD_REACTORS
330
1EDA
102
}
330
1EDA
100
AcDbScale
 70
     0
300
1:4
140
1.0
141
4.0
290
     0
  0
SCALE
  5
1EDE
102
{ACAD_REACTORS
330
1EDA
102
}
330
1EDA
100
AcDbScale
 70
     0
300
1:5
140
1.0
141
5.0
290
     0
  0
SCALE
  5
1EDF
102
{ACAD_REACTORS
330
1EDA
102
}
330
1EDA
100
AcDbScale
 70
     0
300
1:8
140
1.0
141
8.0
290
     0
  0
SCALE
  5
1EE0
102
{ACAD_REACTORS
330
1EDA
102
}
330
1EDA
100
AcDbScale
 70
     0
300
1:10
140
1.0
141
10.0
290
     0
  0
SCALE
  5
1EE1
102
{ACAD_REACTORS
330
1EDA
102
}
330
1EDA
100
AcDbScale
 70
     0
300
1:16
140
1.0
141
16.0
290
     0
  0
SCALE
  5
1EE2
102
{ACAD_REACTORS
330
1EDA
102
}
330
1EDA
100
AcDbScale
 70
     0
300
1:20
140
1.0
141
20.0
290
     0
  0
SCALE
  5
1EE3
102
{ACAD_REACTORS
330
1EDA
102
}
330
1EDA
100
AcDbScale
 70
     0
300
1:30
140
1.0
141
30.0
290
     0
  0
SCALE
  5
1EE4
102
{ACAD_REACTORS
330
1EDA
102
}
330
1EDA
100
AcDbScale
 70
     0
300
1:40
140
1.0
141
40.0
290
     0
  0
SCALE
  5
1EE5
102
{ACAD_REACTORS
330
1EDA
102
}
330
1EDA
100
AcDbScale
 70
     0
300
1:50
140
1.0
141
50.0
290
     0
  0
SCALE
  5
1EE6
102
{ACAD_REACTORS
330
1EDA
102
}
330
1EDA
100
AcDbScale
 70
     0
300
1:100
140
1.0
141
100.0
290
     0
  0
SCALE
  5
1EE7
102
{ACAD_REACTORS
330
1EDA
102
}
330
1EDA
100
AcDbScale
 70
     0
300
2:1
140
2.0
141
1.0
290
     0
  0
SCALE
  5
1EE8
102
{ACAD_REACTORS
330
1EDA
102
}
330
1EDA
100
AcDbScale
 70
     0
300
4:1
140
4.0
141
1.0
290
     0
  0
SCALE
  5
1EE9
102
{ACAD_REACTORS
330
1EDA
102
}
330
1EDA
100
AcDbScale
 70
     0
300
8:1
140
8.0
141
1.0
290
     0
  0
SCALE
  5
1EEA
102
{ACAD_REACTORS
330
1EDA
102
}
330
1EDA
100
AcDbScale
 70
     0
300
10:1
140
10.0
141
1.0
290
     0
  0
SCALE
  5
1EEB
102
{ACAD_REACTORS
330
1EDA
102
}
330
1EDA
100
AcDbScale
 70
     0
300
100:1
140
100.0
141
1.0
290
     0
  0
SCALE
  5
1EEC
102
{ACAD_REACTORS
330
1EDA
102
}
330
1EDA
100
AcDbScale
 70
     0
300
1/128" = 1'-0"
140
0.0078125
141
12.0
290
     0
  0
SCALE
  5
1EED
102
{ACAD_REACTORS
330
1EDA
102
}
330
1EDA
100
AcDbScale
 70
     0
300
1/64" = 1'-0"
140
0.015625
141
12.0
290
     0
  0
SCALE
  5
1EEE
102
{ACAD_REACTORS
330
1EDA
102
}
330
1EDA
100
AcDbScale
 70
     0
300
1/32" = 1'-0"
140
0.03125
141
12.0
290
     0
  0
SCALE
  5
1EEF
102
{ACAD_REACTORS
330
1EDA
102
}
330
1EDA
100
AcDbScale
 70
     0
300
1/16" = 1'-0"
140
0.0625
141
12.0
290
     0
  0
SCALE
  5
1EF0
102
{ACAD_REACTORS
330
1EDA
102
}
330
1EDA
100
AcDbScale
 70
     0
300
3/32" = 1'-0"
140
0.09375
141
12.0
290
     0
  0
SCALE
  5
1EF1
102
{ACAD_REACTORS
330
1EDA
102
}
330
1EDA
100
AcDbScale
 70
     0
300
1/8" = 1'-0"
140
0.125
141
12.0
290
     0
  0
SCALE
  5
1EF2
102
{ACAD_REACTORS
330
1EDA
102
}
330
1EDA
100
AcDbScale
 70
     0
300
3/16" = 1'-0"
140
0.1875
141
12.0
290
     0
  0
SCALE
  5
1EF3
102
{ACAD_REACTORS
330
1EDA
102
}
330
1EDA
100
AcDbScale
 70
     0
300
1/4" = 1'-0"
140
0.25
141
12.0
290
     0
  0
SCALE
  5
1EF4
102
{ACAD_REACTORS
330
1EDA
102
}
330
1EDA
100
AcDbScale
 70
     0
300
3/8" = 1'-0"
140
0.375
141
12.0
290
     0
  0
SCALE
  5
1EF5
102
{ACAD_REACTORS
330
1EDA
102
}
330
1EDA
100
AcDbScale
 70
     0
300
1/2" = 1'-0"
140
0.5
141
12.0
290
     0
  0
SCALE
  5
1EF6
102
{ACAD_REACTORS
330
1EDA
102
}
330
1EDA
100
AcDbScale
 70
     0
300
3/4" = 1'-0"
140
0.75
141
12.0
290
     0
  0
SCALE
  5
1EF7
102
{ACAD_REACTORS
330
1EDA
102
}
330
1EDA
100
AcDbScale
 70
     0
300
1" = 1'-0"
140
1.0
141
12.0
290
     0
  0
SCALE
  5
1EF8
102
{ACAD_REACTORS
330
1EDA
102
}
330
1EDA
100
AcDbScale
 70
     0
300
1-1/2" = 1'-0"
140
1.5
141
12.0
290
     0
  0
SCALE
  5
1EF9
102
{ACAD_REACTORS
330
1EDA
102
}
330
1EDA
100
AcDbScale
 70
     0
300
3" = 1'-0"
140
3.0
141
12.0
290
     0
  0
SCALE
  5
1EFA
102
{ACAD_REACTORS
330
1EDA
102
}
330
1EDA
100
AcDbScale
 70
     0
300
6" = 1'-0"
140
6.0
141
12.0
290
     0
  0
SCALE
  5
1EFB
102
{ACAD_REACTORS
330
1EDA
102
}
330
1EDA
100
AcDbScale
 70
     0
300
1'-0" = 1'-0"
140
12.0
141
12.0
290
     0
  0
TABLESTYLE
  5
1ED9
102
{ACAD_XDICTIONARY
360
2050
102
}
102
{ACAD_REACTORS
330
1ED8
102
}
330
1ED8
100
AcDbTableStyle
  3
Standard
 70
     0
 71
     0
 40
0.06
 41
0.06
280
     0
281
     0
  7
STANDARD
140
0.18
170
     2
 62
     0
 63
     7
283
     0
274
    -2
284
     1
 64
     0
275
    -2
285
     1
 65
     0
276
    -2
286
     1
 66
     0
277
    -2
287
     1
 67
     0
278
    -2
288
     1
 68
     0
279
    -2
289
     1
 69
     0
  7
STANDARD
140
0.25
170
     5
 62
     0
 63
     7
283
     0
274
    -2
284
     1
 64
     0
275
    -2
285
     1
 65
     0
276
    -2
286
     1
 66
     0
277
    -2
287
     1
 67
     0
278
    -2
288
     1
 68
     0
279
    -2
289
     1
 69
     0
  7
STANDARD
140
0.18
170
     5
 62
     0
 63
     7
283
     0
274
    -2
284
     1
 64
     0
275
    -2
285
     1
 65
     0
276
    -2
286
     1
 66
     0
277
    -2
287
     1
 67
     0
278
    -2
288
     1
 68
     0
279
    -2
289
     1
 69
     0
  0
VISUALSTYLE
  5
1ECC
102
{ACAD_REACTORS
330
1EC6
102
}
330
1EC6
100
AcDbVisualStyle
  2
2dWireframe
 70
     4
 71
     0
 72
     2
 73
     0
 90
        0
 40
-0.6
 41
-30.0
 62
     5
 63
     7
421
 16777215
 74
     1
 91
        4
 64
     7
 65
   257
 75
     1
175
     1
 42
1.0
 92
        0
 66
   257
 43
1.0
 76
     1
 77
     6
 78
     2
 67
     7
 79
     5
170
     0
171
     0
290
     0
174
     0
 93
        1
 44
0.0
173
     0
291
     0
 45
0.0
1001
ACAD
1000
AcDbSavedByObjectVersion
1070
     0
  0
VISUALSTYLE
  5
1ECE
102
{ACAD_REACTORS
330
1EC6
102
}
330
1EC6
100
AcDbVisualStyle
  2
3D Hidden
 70
     6
 71
     1
 72
     2
 73
     2
 90
        0
 40
-0.6
 41
-30.0
 62
     5
 63
     7
421
 16777215
 74
     2
 91
        2
 64
     7
 65
   257
 75
     2
175
     1
 42
40.0
 92
        0
 66
   257
 43
1.0
 76
     1
 77
     6
 78
     2
 67
     7
 79
     3
170
     0
171
     0
290
     0
174
     0
 93
        1
 44
0.0
173
     0
291
     0
 45
0.0
1001
ACAD
1000
AcDbSavedByObjectVersion
1070
     0
  0
VISUALSTYLE
  5
1ECD
102
{ACAD_REACTORS
330
1EC6
102
}
330
1EC6
100
AcDbVisualStyle
  2
3dWireframe
 70
     5
 71
     0
 72
     2
 73
     0
 90
        0
 40
-0.6
 41
-30.0
 62
     5
 63
     7
421
 16777215
 74
     1
 91
        4
 64
     7
 65
   257
 75
     1
175
     1
 42
1.0
 92
        0
 66
   257
 43
1.0
 76
     1
 77
     6
 78
     2
 67
     7
 79
     5
170
     0
171
     0
290
     0
174
     0
 93
        1
 44
0.0
173
     0
291
     0
 45
0.0
1001
ACAD
1000
AcDbSavedByObjectVersion
1070
     0
  0
VISUALSTYLE
  5
1ECB
102
{ACAD_REACTORS
330
1EC6
102
}
330
1EC6
100
AcDbVisualStyle
  2
Basic
 70
     7
 71
     1
 72
     0
 73
     1
 90
        0
 40
-0.6
 41
-30.0
 62
     5
 63
     7
421
 16777215
 74
     0
 91
        4
 64
     7
 65
   257
 75
     1
175
     1
 42
1.0
 92
        8
 66
     7
 43
1.0
 76
     1
 77
     6
 78
     2
 67
     7
 79
     5
170
     0
171
     0
290
     0
174
     0
 93
        1
 44
0.0
173
     0
291
     1
 45
0.0
1001
ACAD
1000
AcDbSavedByObjectVersion
1070
     0
  0
VISUALSTYLE
  5
1ED2
102
{ACAD_REACTORS
330
1EC6
102
}
330
1EC6
100
AcDbVisualStyle
  2
Brighten
 70
    12
 71
     2
 72
     2
 73
     0
 90
        0
 40
-0.6
 41
-30.0
 62
     5
 63
     7
421
 16777215
 74
     1
 91
        4
 64
     7
 65
   257
 75
     1
175
     1
 42
1.0
 92
        8
 66
     7
 43
1.0
 76
     1
 77
     6
 78
     2
 67
     7
 79
     5
170
     0
171
     0
290
     0
174
     0
 93
        1
 44
50.0
173
     0
291
     1
 45
0.0
1001
ACAD
1000
AcDbSavedByObjectVersion
1070
     0
  0
VISUALSTYLE
  5
1ED6
102
{ACAD_REACTORS
330
1EC6
102
}
330
1EC6
100
AcDbVisualStyle
  2
ColorChange
 70
    16
 71
     2
 72
     2
 73
     3
 90
        0
 40
-0.6
 41
-30.0
 62
     5
 63
     8
421
  8421504
 74
     1
 91
        4
 64
     7
 65
   257
 75
     1
175
     1
 42
1.0
 92
        8
 66
     8
424
  8421504
 43
1.0
 76
     1
 77
     6
 78
     2
 67
     7
 79
     5
170
     0
171
     0
290
     0
174
     0
 93
        1
 44
0.0
173
     0
291
     1
 45
0.0
1001
ACAD
1000
AcDbSavedByObjectVersion
1070
     0
  0
VISUALSTYLE
  5
1ECF
102
{ACAD_REACTORS
330
1EC6
102
}
330
1EC6
100
AcDbVisualStyle
  2
Conceptual
 70
     9
 71
     3
 72
     2
 73
     0
 90
        0
 40
-0.6
 41
-30.0
 62
     5
 63
     7
421
 16777215
 74
     2
 91
        2
 64
     7
 65
   257
 75
     1
175
     1
 42
40.0
 92
        8
 66
     7
 43
1.0
 76
     1
 77
     6
 78
     2
 67
     7
 79
     3
170
     0
171
     0
290
     0
174
     0
 93
        1
 44
0.0
173
     0
291
     0
 45
0.0
1001
ACAD
1000
AcDbSavedByObjectVersion
1070
     0
  0
VISUALSTYLE
  5
1ED1
102
{ACAD_REACTORS
330
1EC6
102
}
330
1EC6
100
AcDbVisualStyle
  2
Dim
 70
    11
 71
     2
 72
     2
 73
     0
 90
        0
 40
-0.6
 41
-30.0
 62
     5
 63
     7
421
 16777215
 74
     1
 91
        4
 64
     7
 65
   257
 75
     1
175
     1
 42
1.0
 92
        8
 66
     7
 43
1.0
 76
     1
 77
     6
 78
     2
 67
     7
 79
     5
170
     0
171
     0
290
     0
174
     0
 93
        1
 44
-50.0
173
     0
291
     1
 45
0.0
1001
ACAD
1000
AcDbSavedByObjectVersion
1070
     0
  0
VISUALSTYLE
  5
1ED5
102
{ACAD_REACTORS
330
1EC6
102
}
330
1EC6
100
AcDbVisualStyle
  2
Facepattern
 70
    15
 71
     2
 72
     2
 73
     0
 90
        0
 40
-0.6
 41
-30.0
 62
     5
 63
     7
421
 16777215
 74
     1
 91
        4
 64
     7
 65
   257
 75
     1
175
     1
 42
1.0
 92
        8
 66
     7
 43
1.0
 76
     1
 77
     6
 78
     2
 67
     7
 79
     5
170
     0
171
     0
290
     0
174
     0
 93
        1
 44
0.0
173
     0
291
     1
 45
0.0
1001
ACAD
1000
AcDbSavedByObjectVersion
1070
     0
  0
VISUALSTYLE
  5
1EC7
102
{ACAD_REACTORS
330
1EC6
102
}
330
1EC6
100
AcDbVisualStyle
  2
Flat
 70
     0
 71
     2
 72
     1
 73
     1
 90
        2
 40
-0.6
 41
30.0
 62
     5
 63
     7
421
 16777215
 74
     0
 91
        4
 64
     7
 65
   257
 75
     1
175
     1
 42
1.0
 92
        8
 66
     7
 43
1.0
 76
     1
 77
     6
 78
     2
 67
     7
 79
     5
170
     0
171
     0
290
     0
174
     0
 93
       13
 44
0.0
173
     0
291
     1
 45
0.0
1001
ACAD
1000
AcDbSavedByObjectVersion
1070
     0
  0
VISUALSTYLE
  5
1EC8
102
{ACAD_REACTORS
330
1EC6
102
}
330
1EC6
100
AcDbVisualStyle
  2
FlatWithEdges
 70
     1
 71
     2
 72
     1
 73
     1
 90
        2
 40
-0.6
 41
30.0
 62
     5
 63
     7
421
 16777215
 74
     1
 91
        4
 64
     7
 65
   257
 75
     1
175
     1
 42
1.0
 92
        0
 66
   257
 43
1.0
 76
     1
 77
     6
 78
     2
 67
     7
 79
     5
170
     0
171
     0
290
     0
174
     0
 93
       13
 44
0.0
173
     0
291
     1
 45
0.0
1001
ACAD
1000
AcDbSavedByObjectVersion
1070
     0
  0
VISUALSTYLE
  5
1EC9
102
{ACAD_REACTORS
330
1EC6
102
}
330
1EC6
100
AcDbVisualStyle
  2
Gouraud
 70
     2
 71
     2
 72
     2
 73
     1
 90
        2
 40
-0.6
 41
30.0
 62
     5
 63
     7
421
 16777215
 74
     0
 91
        4
 64
     7
 65
   257
 75
     1
175
     1
 42
1.0
 92
        0
 66
     7
 43
1.0
 76
     1
 77
     6
 78
     2
 67
     7
 79
     5
170
     0
171
     0
290
     0
174
     0
 93
       13
 44
0.0
173
     0
291
     1
 45
0.0
1001
ACAD
1000
AcDbSavedByObjectVersion
1070
     0
  0
VISUALSTYLE
  5
1ECA
102
{ACAD_REACTORS
330
1EC6
102
}
330
1EC6
100
AcDbVisualStyle
  2
GouraudWithEdges
 70
     3
 71
     2
 72
     2
 73
     1
 90
        2
 40
-0.6
 41
30.0
 62
     5
 63
     7
421
 16777215
 74
     1
 91
        4
 64
     7
 65
   257
 75
     1
175
     1
 42
1.0
 92
        0
 66
   257
 43
1.0
 76
     1
 77
     6
 78
     2
 67
     7
 79
     5
170
     0
171
     0
290
     0
174
     0
 93
       13
 44
0.0
173
     0
291
     1
 45
0.0
1001
ACAD
1000
AcDbSavedByObjectVersion
1070
     0
  0
VISUALSTYLE
  5
1ED4
102
{ACAD_REACTORS
330
1EC6
102
}
330
1EC6
100
AcDbVisualStyle
  2
Linepattern
 70
    14
 71
     2
 72
     2
 73
     0
 90
        0
 40
-0.6
 41
-30.0
 62
     5
 63
     7
421
 16777215
 74
     1
 91
        4
 64
     7
 65
   257
 75
     7
175
     7
 42
1.0
 92
        8
 66
     7
 43
1.0
 76
     1
 77
     6
 78
     2
 67
     7
 79
     5
170
     0
171
     0
290
     0
174
     0
 93
        1
 44
0.0
173
     0
291
     1
 45
0.0
1001
ACAD
1000
AcDbSavedByObjectVersion
1070
     0
  0
VISUALSTYLE
  5
1ED0
102
{ACAD_REACTORS
330
1EC6
102
}
330
1EC6
100
AcDbVisualStyle
  2
Realistic
 70
     8
 71
     2
 72
     2
 73
     0
 90
        0
 40
-0.6
 41
-30.0
 62
     5
 63
     7
421
 16777215
 74
     1
 91
        0
 64
     7
 65
   257
 75
     1
175
     1
 42
1.0
 92
        8
 66
     8
424
  7895160
 43
1.0
 76
     1
 77
     6
 78
     2
 67
     7
 79
     5
170
     0
171
     0
290
     0
174
     0
 93
       13
 44
0.0
173
     0
291
     0
 45
0.0
1001
ACAD
1000
AcDbSavedByObjectVersion
1070
     0
  0
VISUALSTYLE
  5
1ED3
102
{ACAD_REACTORS
330
1EC6
102
}
330
1EC6
100
AcDbVisualStyle
  2
Thicken
 70
    13
 71
     2
 72
     2
 73
     0
 90
        0
 40
-0.6
 41
-30.0
 62
     5
 63
     7
421
 16777215
 74
     1
 91
        4
 64
     7
 65
   257
 75
     1
175
     1
 42
1.0
 92
       12
 66
     7
 43
1.0
 76
     1
 77
     6
 78
     2
 67
     7
 79
     5
170
     0
171
     0
290
     0
174
     0
 93
        1
 44
0.0
173
     0
291
     1
 45
0.0
1001
ACAD
1000
AcDbSavedByObjectVersion
1070
     0
  0
DICTIONARYVAR
  5
204F
102
{ACAD_REACTORS
330
6FB
102
}
330
6FB
100
DictionaryVariables
280
     0
  1
1:1
  0
DICTIONARYVAR
  5
204E
102
{ACAD_REACTORS
330
6FB
102
}
330
6FB
100
DictionaryVariables
280
     0
  1
STANDARD
  0
DICTIONARYVAR
  5
204D
102
{ACAD_REACTORS
330
6FB
102
}
330
6FB
100
DictionaryVariables
280
     0
  1
STANDARD
  0
DICTIONARYVAR
  5
6FC
102
{ACAD_REACTORS
330
6FB
102
}
330
6FB
100
DictionaryVariables
280
     0
  1
96
  0
DICTIONARY
  5
1EB7
330
1EB6
100
AcDbDictionary
280
     1
281
     1
  3
ACAD_XREC_ROUNDTRIP
360
2054
  3
BUMPTILE
360
1EB9
  3
DIFFUSETILE
360
1EB8
  3
OPACITYTILE
360
1EBC
  3
REFLECTIONTILE
360
1EBB
  3
REFRACTIONTILE
360
1EBD
  3
SPECULARTILE
360
1EBA
  0
DICTIONARY
  5
1EAF
330
1EAE
100
AcDbDictionary
280
     1
281
     1
  3
ACAD_XREC_ROUNDTRIP
360
2053
  3
BUMPTILE
360
1EB1
  3
DIFFUSETILE
360
1EB0
  3
OPACITYTILE
360
1EB4
  3
REFLECTIONTILE
360
1EB3
  3
REFRACTIONTILE
360
1EB5
  3
SPECULARTILE
360
1EB2
  0
DICTIONARY
  5
1EBF
330
1EBE
100
AcDbDictionary
280
     1
281
     1
  3
ACAD_XREC_ROUNDTRIP
360
2055
  3
BUMPTILE
360
1EC1
  3
DIFFUSETILE
360
1EC0
  3
OPACITYTILE
360
1EC4
  3
REFLECTIONTILE
360
1EC3
  3
REFRACTIONTILE
360
1EC5
  3
SPECULARTILE
360
1EC2
  0
DICTIONARY
  5
2050
330
1ED9
100
AcDbDictionary
280
     1
281
     1
  3
ACAD_ROUNDTRIP_2008_TABLESTYLE_CELLSTYLEMAP
360
2051
  3
ACAD_XREC_ROUNDTRIP
360
2056
  0
XRECORD
  5
2054
102
{ACAD_REACTORS
330
1EB7
102
}
330
1EB7
100
AcDbXrecord
280
     1
102
MATERIAL
148
0.0
149
0.0
149
0.0
 93
        0
 94
      127
282
     0
 72
     0
 77
     0
171
     0
175
     0
179
     0
273
     0
  0
XRECORD
  5
1EB9
102
{ACAD_REACTORS
330
1EB7
102
}
330
1EB7
100
AcDbXrecord
280
     1
270
     1
271
     1
  0
XRECORD
  5
1EB8
102
{ACAD_REACTORS
330
1EB7
102
}
330
1EB7
100
AcDbXrecord
280
     1
270
     1
271
     1
  0
XRECORD
  5
1EBC
102
{ACAD_REACTORS
330
1EB7
102
}
330
1EB7
100
AcDbXrecord
280
     1
270
     1
271
     1
  0
XRECORD
  5
1EBB
102
{ACAD_REACTORS
330
1EB7
102
}
330
1EB7
100
AcDbXrecord
280
     1
270
     1
271
     1
  0
XRECORD
  5
1EBD
102
{ACAD_REACTORS
330
1EB7
102
}
330
1EB7
100
AcDbXrecord
280
     1
270
     1
271
     1
  0
XRECORD
  5
1EBA
102
{ACAD_REACTORS
330
1EB7
102
}
330
1EB7
100
AcDbXrecord
280
     1
270
     1
271
     1
  0
XRECORD
  5
2053
102
{ACAD_REACTORS
330
1EAF
102
}
330
1EAF
100
AcDbXrecord
280
     1
102
MATERIAL
148
0.0
149
0.0
149
0.0
 93
        0
 94
      127
282
     0
 72
     0
 77
     0
171
     0
175
     0
179
     0
273
     0
  0
XRECORD
  5
1EB1
102
{ACAD_REACTORS
330
1EAF
102
}
330
1EAF
100
AcDbXrecord
280
     1
270
     1
271
     1
  0
XRECORD
  5
1EB0
102
{ACAD_REACTORS
330
1EAF
102
}
330
1EAF
100
AcDbXrecord
280
     1
270
     1
271
     1
  0
XRECORD
  5
1EB4
102
{ACAD_REACTORS
330
1EAF
102
}
330
1EAF
100
AcDbXrecord
280
     1
270
     1
271
     1
  0
XRECORD
  5
1EB3
102
{ACAD_REACTORS
330
1EAF
102
}
330
1EAF
100
AcDbXrecord
280
     1
270
     1
271
     1
  0
XRECORD
  5
1EB5
102
{ACAD_REACTORS
330
1EAF
102
}
330
1EAF
100
AcDbXrecord
280
     1
270
     1
271
     1
  0
XRECORD
  5
1EB2
102
{ACAD_REACTORS
330
1EAF
102
}
330
1EAF
100
AcDbXrecord
280
     1
270
     1
271
     1
  0
XRECORD
  5
2055
102
{ACAD_REACTORS
330
1EBF
102
}
330
1EBF
100
AcDbXrecord
280
     1
102
MATERIAL
148
0.0
149
0.0
149
0.0
 93
        0
 94
      127
282
     0
 72
     0
 77
     0
171
     0
175
     0
179
     0
273
     0
  0
XRECORD
  5
1EC1
102
{ACAD_REACTORS
330
1EBF
102
}
330
1EBF
100
AcDbXrecord
280
     1
270
     1
271
     1
  0
XRECORD
  5
1EC0
102
{ACAD_REACTORS
330
1EBF
102
}
330
1EBF
100
AcDbXrecord
280
     1
270
     1
271
     1
  0
XRECORD
  5
1EC4
102
{ACAD_REACTORS
330
1EBF
102
}
330
1EBF
100
AcDbXrecord
280
     1
270
     1
271
     1
  0
XRECORD
  5
1EC3
102
{ACAD_REACTORS
330
1EBF
102
}
330
1EBF
100
AcDbXrecord
280
     1
270
     1
271
     1
  0
XRECORD
  5
1EC5
102
{ACAD_REACTORS
330
1EBF
102
}
330
1EBF
100
AcDbXrecord
280
     1
270
     1
271
     1
  0
XRECORD
  5
1EC2
102
{ACAD_REACTORS
330
1EBF
102
}
330
1EBF
100
AcDbXrecord
280
     1
270
     1
271
     1
  0
CELLSTYLEMAP
  5
2051
102
{ACAD_REACTORS
330
2050
102
}
330
2050
100
AcDbCellStyleMap
 90
        3
300
CELLSTYLE
  1
TABLEFORMAT_BEGIN
 90
        5
170
     1
 91
        0
 92
    32768
 62
   257
 93
        1
300
CONTENTFORMAT
  1
CONTENTFORMAT_BEGIN
 90
        0
 91
        0
 92
      512
 93
        0
300

 40
0.0
140
1.0
 94
        5
 62
     0
340
10
144
0.25
309
CONTENTFORMAT_END
171
     0
 94
        0
309
TABLEFORMAT_END
  1
CELLSTYLE_BEGIN
 90
        1
 91
        1
300
_TITLE
309
CELLSTYLE_END
300
CELLSTYLE
  1
TABLEFORMAT_BEGIN
 90
        5
170
     1
 91
        0
 92
        0
 62
   257
 93
        1
300
CONTENTFORMAT
  1
CONTENTFORMAT_BEGIN
 90
        0
 91
        0
 92
      512
 93
        0
300

 40
0.0
140
1.0
 94
        5
 62
     0
340
10
144
0.18
309
CONTENTFORMAT_END
171
     0
 94
        0
309
TABLEFORMAT_END
  1
CELLSTYLE_BEGIN
 90
        2
 91
        1
300
_HEADER
309
CELLSTYLE_END
300
CELLSTYLE
  1
TABLEFORMAT_BEGIN
 90
        5
170
     1
 91
        0
 92
        0
 62
   257
 93
        1
300
CONTENTFORMAT
  1
CONTENTFORMAT_BEGIN
 90
        0
 91
        0
 92
      512
 93
        0
300

 40
0.0
140
1.0
 94
        2
 62
     0
340
10
144
0.18
309
CONTENTFORMAT_END
171
     0
 94
        0
309
TABLEFORMAT_END
  1
CELLSTYLE_BEGIN
 90
        3
 91
        2
300
_DATA
309
CELLSTYLE_END
  0
XRECORD
  5
2056
102
{ACAD_REACTORS
330
2050
102
}
330
2050
100
AcDbXrecord
280
     1
102
ACAD_ROUNDTRIP_PRE2007_TABLESTYLE
 90
      512
 91
        0
  1

 92
      512
 93
        0
  2

 94
      512
 95
        0
  3

  0
ENDSEC
  0
EOF
